<?xml version="1.0" standalone="no"?>
<!DOCTYPE svg PUBLIC "-//W3C//DTD SVG 1.1//EN" "http://www.w3.org/Graphics/SVG/1.1/DTD/svg11.dtd" >
<svg xmlns="http://www.w3.org/2000/svg" xmlns:xlink="http://www.w3.org/1999/xlink" version="1.1">
<metadata>
Created by FontForge 20170731 at Fri Sep 17 22:21:28 2021
 By Aleksey,,,
Copyright (c) 2004-9 by Kris Sowersby. All rights reserved.
</metadata>
<defs>
<font id="National-BlackItalic" horiz-adv-x="1167" >
  <font-face 
    font-family="National Black Italic"
    font-weight="930"
    font-style="italic"
    font-stretch="normal"
    units-per-em="2048"
    panose-1="2 0 5 3 0 0 0 2 0 4"
    ascent="1638"
    descent="-410"
    x-height="946"
    cap-height="1206"
    bbox="-352 -549 2771 2050"
    underline-thickness="116"
    underline-position="-173"
    unicode-range="U+0020-F778"
  />
<missing-glyph horiz-adv-x="1546" 
d="M170 0v1206h1206v-1206h-1206zM772 541l-453 -453h908zM319 1118l453 -454l455 454h-908zM834 602l454 -452v907zM711 602l-453 455v-907z" />
    <glyph glyph-name="f_b" unicode="fb" horiz-adv-x="1822" 
d="M1149 524l-16 -88q-9 -46 -9 -78q0 -42 20.5 -67t57.5 -25q70 0 115 91t45 208q0 53 -23 84t-63 31q-98 0 -127 -156zM647 0l189 1051q-33 26 -93 26q-94 0 -110 -88l-8 -43h125l-56 -303h-116l-127 -733q-32 -186 -134 -264t-260 -78q-151 0 -245 65l98 285
q29 -37 70 -37q57 0 71 82l119 680h-121l55 303h121l6 37q17 108 60 187t107 125t140 67.5t169 21.5q149 0 249 -47l342 31l-102 -569q34 83 104 127.5t168 44.5q152 0 237 -102.5t85 -297.5q0 -164 -56 -299.5t-161 -216t-240 -80.5q-107 0 -179 48t-95 141l-86 -164h-326z
" />
    <glyph glyph-name="f_f_b" unicode="ffb" horiz-adv-x="2414" 
d="M1741 524l-17 -88q-8 -41 -8 -78q0 -42 20.5 -67t57.5 -25q70 0 115 91t45 208q0 53 -23 84t-63 31q-98 0 -127 -156zM1239 0l188 1051q-33 26 -92 26q-94 0 -110 -88l-8 -43h124l-55 -303h-117l-122 -704q-58 -342 -377 -342q-68 0 -133.5 17t-100.5 44l82 274
q28 -22 57 -22q58 0 72 82l115 651h-184l-127 -733q-32 -186 -134 -264t-260 -78q-151 0 -245 65l98 285q29 -37 70 -37q57 0 71 82l119 680h-121l55 303h121l6 37q17 109 54.5 184.5t94.5 118t123 60.5t152 18q106 0 213 -51l-112 -303q-30 24 -62 24q-23 0 -40 -17.5
t-21 -53.5l-2 -17h186l6 37q17 108 60 187t106.5 125t139.5 67.5t169 21.5q150 0 250 -47l342 31l-102 -569q34 83 104 127.5t168 44.5q152 0 237 -102.5t85 -297.5q0 -164 -56 -299.5t-161 -216t-240 -80.5q-107 0 -179 48t-95 141l-86 -164h-326z" />
    <glyph glyph-name="f_f_h" unicode="ffh" horiz-adv-x="2402" 
d="M1239 0l188 1051q-33 26 -92 26q-94 0 -110 -88l-8 -43h124l-55 -303h-117l-122 -704q-58 -342 -377 -342q-68 0 -133.5 17t-100.5 44l82 274q28 -22 57 -22q58 0 72 82l115 651h-184l-127 -733q-32 -186 -134 -264t-260 -78q-151 0 -245 65l98 285q29 -37 70 -37
q57 0 71 82l119 680h-121l55 303h121l6 37q17 109 54.5 184.5t94.5 118t123 60.5t152 18q106 0 213 -51l-112 -303q-30 24 -62 24q-23 0 -40 -17.5t-21 -53.5l-2 -17h186l6 37q17 108 60 187t106.5 125t139.5 67.5t169 21.5q150 0 250 -47l342 31l-104 -586q31 93 100.5 141
t159.5 48q122 0 195 -66.5t73 -175.5q0 -43 -6 -80l-39 -237q-10 -56 -10 -80q0 -39 35 -39q26 0 67 18l-57 -280q-34 -20 -95.5 -32.5t-127.5 -12.5q-125 0 -185.5 63t-60.5 176q0 36 8 90l39 234q4 32 4 45q0 57 -51 57q-41 0 -64 -41t-42 -147l-80 -463h-410z" />
    <glyph glyph-name="f_f_j" unicode="ffj" horiz-adv-x="1804" 
d="M1815 946l-177 -1007q-61 -342 -376 -342q-68 0 -133.5 17t-100.5 44l82 274q28 -22 57 -22q58 0 72 82l115 651h-185l-122 -704q-58 -342 -377 -342q-68 0 -133.5 17t-100.5 44l82 274q28 -22 57 -22q58 0 72 82l115 651h-184l-127 -733q-32 -186 -134 -264t-260 -78
q-151 0 -245 65l98 285q29 -37 70 -37q57 0 71 82l119 680h-121l55 303h121l6 37q17 109 54.5 184.5t94.5 118t123 60.5t152 18q106 0 213 -51l-112 -303q-30 24 -62 24q-23 0 -40 -17.5t-21 -53.5l-2 -17h186l4 25q18 113 62.5 194.5t110.5 128.5t143.5 68.5t171.5 21.5
q104 0 201.5 -32t158.5 -92l-153 -263q-59 72 -156 72q-122 0 -139 -102l-4 -21h598z" />
    <glyph glyph-name="f_f_k" unicode="ffk" horiz-adv-x="2367" 
d="M1239 0l188 1051q-33 26 -92 26q-94 0 -110 -88l-8 -43h124l-55 -303h-117l-122 -704q-58 -342 -377 -342q-68 0 -133.5 17t-100.5 44l82 274q28 -22 57 -22q58 0 72 82l115 651h-184l-127 -733q-32 -186 -134 -264t-260 -78q-151 0 -245 65l98 285q29 -37 70 -37
q57 0 71 82l119 680h-121l55 303h121l6 37q17 109 54.5 184.5t94.5 118t123 60.5t152 18q106 0 213 -51l-112 -303q-30 24 -62 24q-23 0 -40 -17.5t-21 -53.5l-2 -17h186l6 37q17 108 60 187t106.5 125t139.5 67.5t169 21.5q150 0 250 -47l342 31l-125 -715h43l174 293h457
l-307 -446l51 -135q25 -72 80 -72q30 0 59 10l-57 -287q-73 -30 -186 -30q-106 0 -167.5 44.5t-92.5 131.5l-68 188h-43l-59 -350h-410z" />
    <glyph glyph-name="f_h" unicode="fh" horiz-adv-x="1810" 
d="M1298 1368l-104 -586q31 93 100.5 141t159.5 48q122 0 195 -66.5t73 -175.5q0 -43 -6 -80l-39 -237q-10 -56 -10 -80q0 -39 35 -39q26 0 67 18l-57 -280q-34 -20 -95.5 -32.5t-127.5 -12.5q-125 0 -185.5 63t-60.5 176q0 36 8 90l39 234q4 32 4 45q0 57 -51 57
q-41 0 -64 -41t-42 -147l-80 -463h-410l189 1051q-33 26 -93 26q-94 0 -110 -88l-8 -43h125l-56 -303h-116l-127 -733q-32 -186 -134 -264t-260 -78q-151 0 -245 65l98 285q29 -37 70 -37q57 0 71 82l119 680h-121l55 303h121l6 37q17 108 60 187t107 125t140 67.5t169 21.5
q149 0 249 -47z" />
    <glyph glyph-name="f_j" unicode="fj" horiz-adv-x="1212" 
d="M1223 946l-176 -1007q-61 -342 -377 -342q-68 0 -133.5 17t-100.5 44l82 274q28 -22 57 -22q58 0 72 82l115 651h-184l-127 -733q-32 -186 -134 -264t-260 -78q-151 0 -245 65l98 285q29 -37 70 -37q57 0 71 82l119 680h-121l55 303h121l4 25q18 113 62.5 194.5
t110.5 128.5t143.5 68.5t171.5 21.5q104 0 201.5 -32t158.5 -92l-153 -263q-59 72 -156 72q-122 0 -139 -102l-4 -21h598z" />
    <glyph glyph-name="f_k" unicode="fk" horiz-adv-x="1775" 
d="M647 0l189 1051q-33 26 -93 26q-94 0 -110 -88l-8 -43h125l-56 -303h-116l-127 -733q-32 -186 -134 -264t-260 -78q-151 0 -245 65l98 285q29 -37 70 -37q57 0 71 82l119 680h-121l55 303h121l6 37q17 108 60 187t107 125t140 67.5t169 21.5q149 0 249 -47l342 31
l-124 -715h43l174 293h456l-307 -446l51 -135q25 -72 80 -72q31 0 60 10l-58 -287q-73 -30 -186 -30q-106 0 -167.5 44.5t-92.5 131.5l-68 188h-43l-59 -350h-410z" />
    <glyph glyph-name="ff" unicode="ff" horiz-adv-x="1378" 
d="M436 -342l82 274q28 -22 57 -22q58 0 72 82l115 651h-184l-127 -733q-32 -186 -134 -264t-260 -78q-151 0 -245 65l98 285q29 -37 70 -37q57 0 71 82l119 680h-121l55 303h121l6 37q17 109 54.5 184.5t94.5 118t123 60.5t152 18q106 0 213 -51l-112 -303q-30 24 -62 24
q-23 0 -40 -17.5t-21 -53.5l-2 -17h186l6 37q63 401 426 401q188 0 324 -110l-135 -262q-48 57 -113 57q-40 0 -63.5 -20t-32.5 -68l-6 -35h211l-56 -303h-209l-122 -704q-58 -342 -377 -342q-68 0 -133.5 17t-100.5 44z" />
    <glyph glyph-name="ffi" unicode="ffi" horiz-adv-x="1859" 
d="M1169 643l-122 -704q-58 -342 -377 -342q-68 0 -133.5 17t-100.5 44l82 274q28 -22 57 -22q58 0 72 82l115 651h-184l-127 -733q-32 -186 -134 -264t-260 -78q-151 0 -245 65l98 285q29 -37 70 -37q57 0 71 82l119 680h-121l55 303h121l6 37q17 109 54.5 184.5t94.5 118
t123 60.5t152 18q106 0 213 -51l-112 -303q-30 24 -62 24q-23 0 -40 -17.5t-21 -53.5l-2 -17h186l4 25q18 113 62.5 194.5t110.5 128.5t143.5 68.5t171.5 21.5q104 0 201.5 -32t158.5 -92l-153 -263q-59 72 -156 72q-122 0 -139 -102l-4 -21h598l-93 -534q-10 -56 -10 -80
q0 -39 35 -39q27 0 68 18l-58 -280q-34 -20 -95.5 -32.5t-127.5 -12.5q-125 0 -185.5 63t-60.5 176q0 36 8 90l58 328h-185z" />
    <glyph glyph-name="ffl" unicode="ffl" horiz-adv-x="1859" 
d="M1169 643l-122 -704q-58 -342 -377 -342q-68 0 -133.5 17t-100.5 44l82 274q28 -22 57 -22q58 0 72 82l115 651h-184l-127 -733q-32 -186 -134 -264t-260 -78q-151 0 -245 65l98 285q29 -37 70 -37q57 0 71 82l119 680h-121l55 303h121l6 37q17 109 54.5 184.5t94.5 118
t123 60.5t152 18q106 0 213 -51l-112 -303q-30 24 -62 24q-23 0 -40 -17.5t-21 -53.5l-2 -17h186l6 37q17 108 60 187t106.5 125t139.5 67.5t169 21.5q150 0 250 -47l342 31l-168 -956q-10 -56 -10 -80q0 -39 35 -39q27 0 68 18l-58 -280q-34 -20 -95.5 -32.5t-127.5 -12.5
q-125 0 -185.5 63t-60.5 176q0 36 8 90l131 736q-33 26 -92 26q-94 0 -110 -88l-8 -43h124l-55 -303h-117z" />
    <glyph glyph-name="fi" unicode="fi" horiz-adv-x="1267" 
d="M1223 946l-93 -534q-10 -56 -10 -80q0 -39 35 -39q27 0 68 18l-58 -280q-34 -20 -95.5 -32.5t-127.5 -12.5q-125 0 -185.5 63t-60.5 176q0 29 9 90l57 328h-184l-127 -733q-32 -186 -134 -264t-260 -78q-151 0 -245 65l98 285q29 -37 70 -37q57 0 71 82l119 680h-121
l55 303h121l4 25q18 113 62.5 194.5t110.5 128.5t143.5 68.5t171.5 21.5q104 0 201.5 -32t158.5 -92l-153 -263q-59 72 -156 72q-122 0 -139 -102l-4 -21h598z" />
    <glyph glyph-name="fl" unicode="fl" horiz-adv-x="1267" 
d="M1298 1368l-168 -956q-10 -56 -10 -80q0 -39 35 -39q27 0 68 18l-58 -280q-34 -20 -95.5 -32.5t-127.5 -12.5q-125 0 -185.5 63t-60.5 176q0 29 9 90l131 736q-33 26 -93 26q-94 0 -110 -88l-8 -43h125l-56 -303h-116l-127 -733q-32 -186 -134 -264t-260 -78
q-151 0 -245 65l98 285q29 -37 70 -37q57 0 71 82l119 680h-121l55 303h121l6 37q17 108 60 187t107 125t140 67.5t169 21.5q149 0 249 -47z" />
    <glyph glyph-name=".notdef" horiz-adv-x="1546" 
d="M170 0v1206h1206v-1206h-1206zM772 541l-453 -453h908zM319 1118l453 -454l455 454h-908zM834 602l454 -452v907zM711 602l-453 455v-907z" />
    <glyph glyph-name=".null" horiz-adv-x="0" 
 />
    <glyph glyph-name="nonmarkingreturn" horiz-adv-x="682" 
 />
    <glyph glyph-name="space" unicode=" " horiz-adv-x="348" 
 />
    <glyph glyph-name="exclam" unicode="!" horiz-adv-x="657" 
d="M190 1206h539l-264 -778h-320zM51 166q0 92 61.5 145.5t155.5 53.5q98 0 159.5 -53t61.5 -146q0 -88 -62 -139.5t-159 -51.5q-93 0 -155 52t-62 139z" />
    <glyph glyph-name="quotedbl" unicode="&#x22;" horiz-adv-x="913" 
d="M147 844l93 524h374l-225 -524h-242zM590 844l92 524h375l-226 -524h-241z" />
    <glyph glyph-name="numbersign" unicode="#" horiz-adv-x="1409" 
d="M162 582l43 245h280l78 158h291l-78 -158h172l78 158h291l-78 -158h135l-43 -245h-213l-69 -144h215l-43 -245h-291l-94 -193h-291l94 193h-172l-94 -193h-291l94 193h-125l43 245h201l70 144h-203zM655 582l-69 -144h172l69 144h-172z" />
    <glyph glyph-name="dollar" unicode="$" horiz-adv-x="1009" 
d="M307 -193l31 175q-155 14 -244.5 78.5t-109.5 189.5l344 84q1 -49 31.5 -76t72.5 -27q64 0 64 48q0 23 -23.5 38t-75.5 29q-155 42 -230 114.5t-75 205.5q0 163 112.5 250.5t313.5 93.5l31 168h172l-33 -179q288 -46 295 -282l-328 -49q-2 41 -24 64.5t-62 23.5
q-28 0 -43.5 -11.5t-15.5 -29.5q0 -27 26 -43.5t103 -40.5q151 -45 220 -118t69 -198q0 -153 -108.5 -239.5t-309.5 -98.5l-31 -170h-172z" />
    <glyph glyph-name="percent" unicode="%" horiz-adv-x="1845" 
d="M479 1223q145 0 226 -86.5t81 -229.5q0 -192 -103.5 -315t-272.5 -123q-145 0 -226.5 86.5t-81.5 228.5q0 192 104 315.5t273 123.5zM426 676q43 0 69.5 68.5t26.5 152.5q0 60 -13 89.5t-46 29.5q-43 0 -69.5 -69.5t-26.5 -151.5q0 -60 13 -89.5t46 -29.5zM414 0
l829 1206h225l-841 -1206h-213zM1477 739q145 0 226 -86.5t81 -228.5q0 -192 -104 -315t-273 -123q-145 0 -226 86.5t-81 228.5q0 192 104 315t273 123zM1423 193q43 0 70 69t27 152q0 59 -13 88.5t-47 29.5q-43 0 -69.5 -69.5t-26.5 -151.5q0 -60 13 -89t46 -29z" />
    <glyph glyph-name="ampersand" unicode="&#x26;" horiz-adv-x="1314" 
d="M1270 236l-312 -261l-112 119q-158 -119 -426 -119q-58 0 -112.5 9t-109 31.5t-94.5 56t-65 88t-25 123.5q0 133 90 217t238 84l-43 45q-48 51 -71 101.5t-23 127.5q0 120 70 206t183.5 126.5t258.5 40.5q185 0 290 -67.5t105 -196.5q0 -122 -85 -191t-204 -76l121 -127
q35 40 60 125l290 -100q-23 -63 -67 -126t-90 -101zM406 387q0 -55 35 -88t89 -33q62 0 111 29l-190 197q-45 -42 -45 -105zM711 977q-26 0 -44 -15t-18 -40q0 -38 31 -72l49 -51q47 38 47 108t-65 70z" />
    <glyph glyph-name="quotesingle" unicode="'" horiz-adv-x="471" 
d="M147 844l93 524h374l-225 -524h-242z" />
    <glyph glyph-name="parenleft" unicode="(" horiz-adv-x="874" 
d="M508 260q0 -364 192 -674h-385q-182 282 -182 674q0 354 129 632.5t348 475.5h418q-94 -95 -163.5 -176t-140.5 -188.5t-115.5 -215t-72.5 -243.5t-28 -285z" />
    <glyph glyph-name="parenright" unicode=")" horiz-adv-x="874" 
d="M393 694q0 364 -192 674h385q182 -282 182 -674q0 -354 -129 -632.5t-348 -475.5h-418q94 95 163.5 176t140.5 188.5t115.5 215t72.5 243.5t28 285z" />
    <glyph glyph-name="asterisk" unicode="*" horiz-adv-x="931" 
d="M123 901l160 256l155 -121l21 199l291 -70l-70 -186l199 41l22 -299l-196 8l100 -176l-279 -115l-53 191l-135 -150l-197 230l168 110z" />
    <glyph glyph-name="plus" unicode="+" horiz-adv-x="1019" 
d="M98 618h303l52 293h221l-51 -293h311l-39 -221h-311l-58 -321h-221l57 321h-303z" />
    <glyph glyph-name="comma" unicode="," horiz-adv-x="632" 
d="M502 162q0 -127 -65 -220t-173 -138.5t-244 -45.5v164q89 3 159.5 34t70.5 79q-89 -5 -150 41t-61 151q0 100 65 157.5t156 57.5q115 0 178.5 -80.5t63.5 -199.5z" />
    <glyph glyph-name="hyphen" unicode="-" horiz-adv-x="712" 
d="M76 362l63 349h520l-63 -349h-520z" />
    <glyph glyph-name="period" unicode="." horiz-adv-x="632" 
d="M35 213q0 97 64.5 163t164.5 66t165 -66t65 -163t-65 -163t-165 -66t-164.5 66t-64.5 163z" />
    <glyph glyph-name="slash" unicode="/" horiz-adv-x="962" 
d="M-176 -416l870 1782h375l-876 -1782h-369z" />
    <glyph glyph-name="zero" unicode="0" horiz-adv-x="1140" 
d="M551 317q74 0 115 56.5t41 150.5q0 62 -31 104t-88 42q-74 0 -115 -56.5t-41 -150.5q0 -62 31 -104t88 -42zM535 -25q-116 0 -211 36.5t-156 99.5t-94 146.5t-33 178.5q0 136 44 246.5t121 181t179.5 108.5t220.5 38q116 0 211 -36.5t156 -99.5t94 -146.5t33 -178.5
q0 -136 -44 -246.5t-121 -181t-179.5 -108.5t-220.5 -38z" />
    <glyph glyph-name="one" unicode="1" horiz-adv-x="817" 
d="M618 0h-428l105 594l-254 -35l63 359l691 79z" />
    <glyph glyph-name="two" unicode="2" horiz-adv-x="1019" 
d="M934 332l-62 -332h-892l51 289q204 46 351.5 137t147.5 162q0 63 -65 63q-37 0 -55.5 -33t-28.5 -94l-328 174q45 150 173 231t306 81q195 0 305.5 -87.5t110.5 -236.5q0 -67 -18.5 -120t-49 -88.5t-78 -63t-95.5 -44t-111 -30.5v-8h338z" />
    <glyph glyph-name="three" unicode="3" horiz-adv-x="1003" 
d="M655 362v-8q125 -6 200 -82.5t75 -183.5q0 -99 -44.5 -173.5t-121 -116t-166 -61.5t-192.5 -20q-219 0 -344.5 92t-143.5 248l373 103q0 -64 27 -100.5t81 -36.5q88 0 88 83q0 52 -55 88.5t-180 36.5l47 248q141 0 197.5 31t56.5 90q0 32 -19 52t-51 20q-41 0 -64 -34
t-28 -91l-321 162q27 103 96.5 172t162.5 99t208 30q191 0 308.5 -89.5t117.5 -246.5q0 -139 -81 -224t-227 -88z" />
    <glyph glyph-name="four" unicode="4" horiz-adv-x="1271" 
d="M518 -268l47 268h-585l53 301l727 670h405l-121 -688h197l-51 -283h-197l-47 -268h-428zM459 283h155l25 147q4 25 11.5 56t12.5 49l5 18h-9q-47 -61 -94 -104l-92 -84l-106 -84v-9q41 11 92 11z" />
    <glyph glyph-name="five" unicode="5" horiz-adv-x="1036" 
d="M51 227l144 758h811l-62 -342h-448l-37 -166q71 58 198 58q143 0 237.5 -91.5t94.5 -250.5q0 -99 -29.5 -179.5t-81 -134.5t-123 -90.5t-153 -53t-174.5 -16.5q-212 0 -338 85t-151 237l387 133q0 -68 32 -111t93 -43q58 0 93.5 35.5t35.5 100.5q0 52 -28 82t-71 30
q-53 0 -80 -41h-350z" />
    <glyph glyph-name="six" unicode="6" horiz-adv-x="1101" 
d="M1122 1055l-270 -240q-37 82 -147 82q-104 0 -167 -74t-79 -188h10q32 64 102 100.5t154 36.5q148 0 240 -92t92 -250q0 -205 -139.5 -330t-374.5 -125q-229 0 -360.5 142t-131.5 375q0 144 44 275.5t126.5 235.5t213 166t290.5 62q140 0 246.5 -49t150.5 -127zM561 291
q44 0 77.5 33t33.5 86q0 40 -24 65t-66 25q-44 0 -77.5 -33t-33.5 -86q0 -40 24 -65t66 -25z" />
    <glyph glyph-name="seven" unicode="7" horiz-adv-x="1116" 
d="M600 610h-182l-19 -106h-358l82 467h1014l-58 -324l-575 -915h-457z" />
    <glyph glyph-name="eight" unicode="8" horiz-adv-x="1093" 
d="M514 -25q-96 0 -180 17.5t-157 55.5t-115 107t-42 162q0 108 82 196.5t197 107.5v8q-78 31 -120 92.5t-42 144.5q0 73 31 137.5t91 116t156.5 81.5t217.5 30q71 0 135 -10t124.5 -34.5t104.5 -61t70.5 -94.5t26.5 -130q0 -99 -71 -182.5t-189 -108.5v-10q94 -26 149 -97
t55 -167q0 -159 -137.5 -260t-386.5 -101zM518 268q50 0 83.5 33t33.5 84q0 39 -25.5 65.5t-66.5 26.5q-50 0 -83.5 -33t-33.5 -84q0 -39 25.5 -65.5t66.5 -26.5zM606 758q45 0 75 29.5t30 74.5q0 34 -23 58t-59 24q-45 0 -75 -29.5t-30 -74.5q0 -34 23 -58t59 -24z" />
    <glyph glyph-name="nine" unicode="9" horiz-adv-x="1114" 
d="M-31 -94l260 239q44 -104 162 -104q110 0 187 74.5t84 206.5h-11q-28 -71 -97 -104.5t-159 -33.5q-148 0 -243 96t-95 259q0 213 138 342t368 129q238 0 369 -144t131 -405q0 -154 -46.5 -289t-131.5 -236.5t-215 -160t-287 -58.5q-146 0 -257.5 54t-156.5 135zM551 684
q-43 0 -75 -33t-32 -86q0 -40 25.5 -65t67.5 -25q43 0 74.5 33t31.5 86q0 40 -25 65t-67 25z" />
    <glyph glyph-name="colon" unicode=":" horiz-adv-x="632" 
d="M35 213q0 97 64.5 163t164.5 66t165 -66t65 -163t-65 -163t-165 -66t-164.5 66t-64.5 163zM127 741q0 97 64.5 163.5t164.5 66.5t165 -66.5t65 -163.5t-65 -163t-165 -66t-164.5 66t-64.5 163z" />
    <glyph glyph-name="semicolon" unicode=";" horiz-adv-x="632" 
d="M131 741q0 97 64.5 163.5t164.5 66.5t165 -66.5t65 -163.5t-65 -163t-165 -66t-164.5 66t-64.5 163zM502 162q0 -127 -65 -220t-173 -138.5t-244 -45.5v164q89 3 159.5 34t70.5 79q-89 -5 -150 41t-61 151q0 100 65 157.5t156 57.5q115 0 178.5 -80.5t63.5 -199.5z" />
    <glyph glyph-name="less" unicode="&#x3c;" horiz-adv-x="862" 
d="M819 737l-323 -248l225 -229l-215 -194l-414 440l545 434z" />
    <glyph glyph-name="equal" unicode="=" horiz-adv-x="1019" 
d="M862 213h-835l39 223h835zM926 571h-836l39 224h836z" />
    <glyph glyph-name="greater" unicode="&#x3e;" horiz-adv-x="862" 
d="M41 264l324 248l-226 229l215 195l414 -440l-545 -435z" />
    <glyph glyph-name="question" unicode="?" horiz-adv-x="1056" 
d="M449 743l-357 101q43 187 181 287t354 100q132 0 233.5 -37.5t164 -120.5t62.5 -203q0 -72 -23 -130.5t-60.5 -97.5t-88.5 -67t-103.5 -42t-109.5 -19l-14 -86h-366l45 254h63q110 0 172 29.5t62 103.5q0 40 -23 61t-63 21q-57 0 -86.5 -40t-42.5 -114zM270 166
q0 92 61.5 145.5t155.5 53.5q98 0 160 -53t62 -146q0 -88 -62.5 -139.5t-159.5 -51.5q-93 0 -155 52t-62 139z" />
    <glyph glyph-name="at" unicode="@" horiz-adv-x="1843" 
d="M1393 139q91 0 143.5 100.5t52.5 292.5q0 275 -163 418.5t-451 143.5q-208 0 -372.5 -99.5t-254.5 -270t-90 -380.5q0 -311 175.5 -464.5t508.5 -153.5q114 0 201 15t213 54l28 -141q-210 -66 -452 -66q-215 1 -378.5 57.5t-263 159t-149 237.5t-49.5 300q0 179 63.5 340
t176.5 282t281.5 192t367.5 71q187 0 335.5 -54t242.5 -148.5t143 -218.5t49 -269q0 -562 -446 -562q-116 0 -188 49.5t-83 129.5q-27 -81 -105.5 -130t-193.5 -49q-147 0 -237 89t-90 266q0 231 110.5 372.5t292.5 141.5q97 0 162 -43.5t84 -114.5l82 137h303l-86 -489
q-17 -108 -17 -137q0 -58 54 -58zM965 375l12 63q6 30 6 56q0 67 -65 67q-59 0 -92 -65t-33 -152q0 -84 61 -84q83 0 111 115z" />
    <glyph glyph-name="A" unicode="A" horiz-adv-x="1384" 
d="M874 0l-24 164h-389l-84 -164h-440l630 1206h549l182 -1206h-424zM694 651l-76 -174h189l-21 174q-5 43 -8.5 93.5t-4.5 79.5l-1 30h-8q-27 -103 -70 -203z" />
    <glyph glyph-name="B" unicode="B" horiz-adv-x="1196" 
d="M907 625l-2 -9q123 -13 181.5 -84.5t58.5 -169.5q0 -179 -131 -270.5t-359 -91.5h-632l210 1206h588q184 0 270.5 -75.5t86.5 -202.5q0 -133 -75.5 -213.5t-195.5 -89.5zM563 721h94q115 0 115 96q0 40 -22.5 58t-67.5 18h-88zM522 485l-30 -170h124q123 0 123 97
q0 73 -92 73h-125z" />
    <glyph glyph-name="C" unicode="C" horiz-adv-x="1210" 
d="M512 479q0 -66 30 -109.5t91 -43.5q65 0 100 37.5t53 113.5l404 -141q-108 -361 -582 -361q-248 0 -392 138t-144 372q0 180 49.5 322.5t138.5 234.5t211.5 140.5t269.5 48.5q220 0 353 -101t157 -278l-424 -117q0 146 -108 146q-133 0 -182 -215q-25 -119 -25 -187z" />
    <glyph glyph-name="D" unicode="D" horiz-adv-x="1294" 
d="M512 346h84q114 0 166.5 61t75.5 218q6 44 6 75q0 90 -41.5 125t-120.5 35h-80zM567 0h-544l210 1206h488q268 0 413.5 -125t145.5 -366q0 -362 -183.5 -538.5t-529.5 -176.5z" />
    <glyph glyph-name="E" unicode="E" horiz-adv-x="1081" 
d="M991 344l-59 -344h-909l210 1206h910l-62 -344h-495l-21 -108h432l-49 -301h-434l-20 -109h497z" />
    <glyph glyph-name="F" unicode="F" horiz-adv-x="1011" 
d="M451 0h-428l210 1206h871l-64 -360h-442l-27 -164h379l-61 -342h-379z" />
    <glyph glyph-name="G" unicode="G" horiz-adv-x="1308" 
d="M725 678h553l-119 -678h-260l-22 154q-32 -87 -123 -133t-205 -46q-223 0 -350 131t-127 379q0 180 49.5 322.5t138.5 234.5t211.5 140.5t269.5 48.5q223 0 368.5 -102.5t168.5 -276.5l-424 -117q0 68 -33 107t-90 39t-99 -35t-62 -79.5t-31 -100.5q-27 -114 -27 -187
q0 -82 37.5 -128t114.5 -46q55 0 96.5 25t50.5 67l4 19h-135z" />
    <glyph glyph-name="H" unicode="H" horiz-adv-x="1329" 
d="M23 0l210 1206h429l-74 -413h274l74 413h428l-211 -1206h-428l76 432h-275l-75 -432h-428z" />
    <glyph glyph-name="I" unicode="I" horiz-adv-x="626" 
d="M233 1206h429l-211 -1206h-428z" />
    <glyph glyph-name="J" unicode="J" horiz-adv-x="1052" 
d="M674 1206h426l-148 -837q-69 -394 -518 -394q-130 0 -231.5 47t-160.5 137t-62 210l387 127q0 -86 16.5 -131.5t62.5 -45.5q39 0 59.5 26t33.5 99z" />
    <glyph glyph-name="K" unicode="K" horiz-adv-x="1247" 
d="M1165 0h-448l-129 438h-60l-77 -438h-428l210 1206h429l-72 -420h53l264 420h473l-413 -612z" />
    <glyph glyph-name="L" unicode="L" horiz-adv-x="983" 
d="M233 1206h431l-150 -846h412l-62 -360h-841z" />
    <glyph glyph-name="M" unicode="M" horiz-adv-x="1538" 
d="M858 229h-248l-39 148l-39 170h-8q-5 -68 -28 -203l-62 -344h-411l210 1206h435l82 -250q20 -60 35.5 -114.5t20.5 -79.5l5 -25h8q37 76 137 221l172 248h445l-211 -1206h-412l62 344l41 205h-9q-57 -106 -96 -172z" />
    <glyph glyph-name="N" unicode="N" horiz-adv-x="1392" 
d="M631 1206l180 -354q27 -53 51.5 -106t35.5 -80l11 -27h9q11 114 38 268l52 299h419l-210 -1206h-373l-166 303q-40 74 -74 140.5t-48 96.5l-13 29h-8q-12 -106 -43 -284l-50 -285h-419l210 1206h398z" />
    <glyph glyph-name="O" unicode="O" horiz-adv-x="1312" 
d="M641 326q47 0 82.5 20t58.5 59.5t37.5 84t26.5 106.5q12 61 12 123q0 77 -34 119.5t-95 42.5q-38 0 -68.5 -14.5t-51.5 -37.5t-38 -59.5t-27 -73.5t-20 -86q-12 -62 -12 -123q0 -77 34 -119t95 -42zM618 -25q-119 0 -217.5 32.5t-172.5 96t-115 164t-41 228.5
q0 159 42.5 291.5t125.5 232.5t214 155.5t298 55.5q160 0 281 -56t193 -175t72 -289q0 -159 -42.5 -292t-125.5 -232.5t-214 -155.5t-298 -56z" />
    <glyph glyph-name="P" unicode="P" horiz-adv-x="1173" 
d="M602 854l-41 -221h78q67 0 106 33.5t39 95.5q0 92 -102 92h-80zM451 0h-428l210 1206h502q220 0 339.5 -102t119.5 -281q0 -136 -40 -239t-113 -164.5t-168.5 -92t-213.5 -30.5h-155z" />
    <glyph glyph-name="Q" unicode="Q" horiz-adv-x="1312" 
d="M981 -406q-257 3 -396 107t-161 299q-164 46 -258 172t-94 324q0 159 42.5 291.5t125.5 232.5t214 155.5t298 55.5q160 0 281 -56t193 -175t72 -289q0 -141 -34 -263t-100 -218t-169.5 -159.5t-236.5 -84.5q34 -60 176 -60q66 0 123 17zM641 326q47 0 82.5 20t58.5 59.5
t37.5 84t26.5 106.5q12 61 12 123q0 77 -34 119.5t-95 42.5q-38 0 -68.5 -14.5t-51.5 -37.5t-38 -59.5t-27 -73.5t-20 -86q-12 -62 -12 -123q0 -77 34 -119t95 -42z" />
    <glyph glyph-name="R" unicode="R" horiz-adv-x="1220" 
d="M1178 0h-443q-38 38 -55 133l-14 86q-11 71 -30.5 95t-78.5 24h-57l-60 -338h-417l210 1206h574q193 0 299 -96.5t106 -269.5q0 -144 -82 -231.5t-198 -100.5v-8q61 -17 93 -57.5t46 -110.5l43 -201q17 -75 64 -131zM590 852l-35 -197h115q53 0 88 30.5t35 90.5
q0 36 -25 56t-72 20h-106z" />
    <glyph glyph-name="S" unicode="S" horiz-adv-x="1067" 
d="M-20 307l376 101q0 -51 38.5 -84t88.5 -33q76 0 76 55q0 28 -23.5 42.5t-80.5 29.5q-336 91 -336 389q0 110 43 194t117 133t163.5 73t192.5 24q209 0 328.5 -85t128.5 -259l-385 -60q-1 39 -30 65t-69 26q-35 0 -52 -15.5t-17 -40.5q0 -26 28 -40.5t121 -43.5
q318 -97 318 -377q0 -111 -41 -194t-115 -133t-171 -74.5t-216 -24.5q-211 0 -339.5 86t-143.5 246z" />
    <glyph glyph-name="T" unicode="T" horiz-adv-x="1101" 
d="M682 0h-428l147 846h-301l64 360h1032l-63 -360h-302z" />
    <glyph glyph-name="U" unicode="U" horiz-adv-x="1294" 
d="M913 1206h428l-131 -749q-25 -139 -73 -232.5t-126.5 -148.5t-179 -78t-241.5 -23q-232 0 -367 104t-135 314q0 73 14 150l119 663h428l-114 -628q-17 -90 -17 -140q0 -62 25 -92.5t86 -30.5q35 0 60 10t41.5 27t30 53.5t22 73.5t20.5 103z" />
    <glyph glyph-name="V" unicode="V" horiz-adv-x="1282" 
d="M567 1206l51 -477q7 -67 9 -144.5t0 -122.5l-2 -44h8q3 17 9 47.5t32 113.5t61 154l234 473h440l-633 -1206h-473l-162 1206h426z" />
    <glyph glyph-name="W" unicode="W" horiz-adv-x="1806" 
d="M1239 1206l-20 -551q-2 -47 -8 -106t-11 -94l-6 -35h8q29 133 68 239l215 547h448l-495 -1206h-516l-19 424q-2 45 1 108t7 104l4 40h-8q-18 -141 -57 -258l-141 -418h-529l-35 1206h420l6 -553q1 -46 -2 -104.5t-7 -93.5l-3 -35h8q27 131 62 229l198 557h412z" />
    <glyph glyph-name="X" unicode="X" horiz-adv-x="1263" 
d="M754 0l-62 160q-22 57 -38.5 109t-22.5 75l-6 23h-11q-38 -82 -120 -205l-109 -162h-463l402 610l-189 596h455l37 -125q18 -63 31.5 -119t17.5 -81l4 -25h12q43 88 133 225l82 125h473l-409 -604l225 -602h-442z" />
    <glyph glyph-name="Y" unicode="Y" horiz-adv-x="1298" 
d="M584 1206l53 -178q17 -58 31 -111.5t19 -77.5l5 -24h8q37 78 131 213l125 178h469l-571 -811l-70 -395h-428l70 395l-285 811h443z" />
    <glyph glyph-name="Z" unicode="Z" horiz-adv-x="1134" 
d="M43 334l387 366l158 144v8q-47 -6 -174 -6h-277l64 360h997l-57 -327l-408 -379q-44 -41 -83.5 -76t-57.5 -50l-17 -14v-8q47 8 164 8h334l-63 -360h-1026z" />
    <glyph glyph-name="bracketleft" unicode="[" horiz-adv-x="868" 
d="M664 1067l-211 -1184h276l-51 -299h-658l314 1784h657l-51 -301h-276z" />
    <glyph glyph-name="backslash" unicode="\" horiz-adv-x="868" 
d="M526 1366l244 -1782h-334l-250 1782h340z" />
    <glyph glyph-name="bracketright" unicode="]" horiz-adv-x="868" 
d="M221 -115l211 1184h-276l51 299h657l-313 -1784h-657l51 301h276z" />
    <glyph glyph-name="asciicircum" unicode="^" horiz-adv-x="1103" 
d="M500 1368h418l200 -711h-385l-45 201q-11 50 -17.5 94.5t-7.5 63.5l-1 20h-9q-14 -59 -84 -178l-114 -201h-406z" />
    <glyph glyph-name="underscore" unicode="_" horiz-adv-x="983" 
d="M-39 -346l53 301h781l-56 -301h-778z" />
    <glyph glyph-name="grave" unicode="`" horiz-adv-x="1024" 
d="M827 1055h-327l-303 319h514z" />
    <glyph glyph-name="a" unicode="a" horiz-adv-x="1216" 
d="M1174 946l-95 -534q-10 -56 -10 -80q0 -39 35 -39q26 0 67 18l-57 -280q-34 -20 -95 -32.5t-124 -12.5q-99 0 -161.5 50t-74.5 138q-36 -88 -112 -143.5t-180 -55.5q-153 0 -243.5 103.5t-90.5 296.5q0 162 55.5 297.5t161 217t239.5 81.5q210 0 259 -180l92 155h334z
M670 422l16 88q8 41 8 78q0 42 -20.5 67t-57.5 25q-47 0 -82.5 -44.5t-53 -111.5t-17.5 -143q0 -54 20.5 -84.5t59.5 -30.5q98 0 127 156z" />
    <glyph glyph-name="b" unicode="b" horiz-adv-x="1175" 
d="M502 524l-17 -88q-8 -41 -8 -78q0 -42 20.5 -67t57.5 -25q70 0 115 91t45 208q0 53 -23 84t-63 31q-98 0 -127 -156zM412 164l-86 -164h-326l242 1368h409l-102 -569q34 83 104 127.5t168 44.5q152 0 237 -102.5t85 -297.5q0 -164 -56 -299.5t-161 -216t-240 -80.5
q-107 0 -179 48t-95 141z" />
    <glyph glyph-name="c" unicode="c" horiz-adv-x="1019" 
d="M625 391l344 -119q-54 -156 -172.5 -226.5t-300.5 -70.5q-203 0 -333 113.5t-130 308.5q0 261 148 417.5t415 156.5q100 0 179 -32.5t127 -87.5t72.5 -124.5t24.5 -148.5l-350 -46q0 33 -1.5 52t-8.5 42t-23.5 33.5t-42.5 10.5q-62 0 -98.5 -81t-36.5 -183
q0 -68 20.5 -99t65.5 -31q41 0 67 33.5t34 81.5z" />
    <glyph glyph-name="d" unicode="d" horiz-adv-x="1222" 
d="M1255 1368l-170 -956q-10 -56 -10 -80q0 -39 35 -39q27 0 68 18l-58 -280q-34 -20 -95 -32.5t-124 -12.5q-99 0 -161 50t-74 138q-35 -87 -114.5 -143t-184.5 -56q-153 0 -243.5 103.5t-90.5 296.5q0 162 55.5 297.5t161 217t239.5 81.5q103 0 167.5 -41.5t86.5 -118.5
l99 557h413zM676 422l16 88q8 41 8 78q0 42 -20 67t-57 25q-70 0 -115 -91t-45 -208q0 -53 23 -84t63 -31q98 0 127 156z" />
    <glyph glyph-name="e" unicode="e" horiz-adv-x="1026" 
d="M543 276q48 0 77 22.5t46 80.5l309 -135q-59 -134 -175.5 -201.5t-310.5 -67.5q-206 0 -331 113.5t-125 308.5q0 269 154 421.5t405 152.5q98 0 176.5 -29t128 -78.5t76 -114t26.5 -137.5q0 -118 -43 -202h-530q0 -65 30 -99.5t87 -34.5zM444 557h164q10 20 10 51
t-17 51.5t-50 20.5q-85 0 -107 -123z" />
    <glyph glyph-name="f" unicode="f" horiz-adv-x="786" 
d="M51 -37l119 680h-121l55 303h121l6 37q63 401 426 401q188 0 324 -110l-135 -262q-48 57 -113 57q-40 0 -63.5 -20t-32.5 -68l-6 -35h211l-56 -303h-208l-127 -733q-32 -186 -134 -264t-260 -78q-151 0 -245 65l98 285q29 -37 70 -37q57 0 71 82z" />
    <glyph glyph-name="g" unicode="g" horiz-adv-x="1144" 
d="M594 84l22 119q-59 -172 -270 -172q-133 0 -224 91t-91 259q0 116 29 221t82 188t137 132t186 49q223 0 270 -174l90 149h330l-154 -885q-23 -134 -79 -230.5t-141 -153.5t-189.5 -83t-235.5 -26q-165 0 -289.5 55.5t-185.5 161.5l246 248q81 -156 244 -156
q185 0 223 207zM662 459l12 78q6 30 6 61q0 44 -22 68t-62 24q-62 0 -102.5 -86.5t-40.5 -185.5q0 -53 21.5 -82t57.5 -29q52 0 85 40t45 112z" />
    <glyph glyph-name="h" unicode="h" horiz-adv-x="1163" 
d="M651 1368l-104 -586q31 93 100.5 141t159.5 48q122 0 195 -66.5t73 -175.5q0 -43 -6 -80l-39 -237q-10 -56 -10 -80q0 -39 35 -39q26 0 67 18l-57 -280q-34 -20 -95.5 -32.5t-127.5 -12.5q-125 0 -185.5 63t-60.5 176q0 36 8 90l39 234q4 32 4 45q0 57 -51 57
q-41 0 -64.5 -41t-42.5 -147l-79 -463h-410l240 1368h411z" />
    <glyph glyph-name="i" unicode="i" horiz-adv-x="600" 
d="M555 946l-92 -534q-10 -56 -10 -80q0 -39 34 -39q27 0 68 18l-57 -280q-34 -20 -96 -32.5t-128 -12.5q-125 0 -185 63t-60 176q0 36 8 90l110 631h408zM162 1210q0 100 68 155.5t165 55.5t165.5 -55.5t68.5 -155.5t-68.5 -155.5t-165.5 -55.5t-165 55.5t-68 155.5z" />
    <glyph glyph-name="j" unicode="j" horiz-adv-x="563" 
d="M166 946h407l-170 -973q-17 -101 -46 -173.5t-65 -117t-88 -70.5t-107 -35t-130 -9q-73 0 -148 21.5t-112 52.5l98 305q38 -53 91 -53q52 0 73.5 31t34.5 104zM180 1210q0 100 68.5 155.5t165.5 55.5t165 -55.5t68 -155.5t-68 -155.5t-165 -55.5t-165.5 55.5t-68.5 155.5
z" />
    <glyph glyph-name="k" unicode="k" horiz-adv-x="1128" 
d="M580 162l-68 188h-43l-59 -350h-410l240 1368h411l-125 -715h43l174 293h457l-307 -446l51 -135q25 -72 80 -72q30 0 59 10l-57 -287q-73 -30 -186 -30q-106 0 -167.5 44.5t-92.5 131.5z" />
    <glyph glyph-name="l" unicode="l" horiz-adv-x="600" 
d="M631 1368l-168 -956q-10 -56 -10 -80q0 -39 34 -39q27 0 68 18l-57 -280q-34 -20 -96 -32.5t-128 -12.5q-125 0 -185 63t-60 176q0 36 8 90l186 1053h408z" />
    <glyph glyph-name="m" unicode="m" horiz-adv-x="1683" 
d="M1124 315l37 240q4 32 4 43q0 53 -43 53q-36 0 -58 -33.5t-36 -121.5l-78 -496h-411l90 555q4 32 4 43q0 53 -43 53q-36 0 -58 -33.5t-36 -121.5l-86 -496h-410l166 946h332l20 -184q27 103 104.5 156t178.5 53q104 0 170 -56t78 -151q27 100 107 153.5t179 53.5
q117 0 188.5 -66.5t71.5 -175.5q0 -43 -6 -80l-39 -237q-10 -56 -10 -80q0 -39 35 -39q26 0 67 18l-57 -280q-34 -20 -95.5 -32.5t-127.5 -12.5q-125 0 -185.5 63t-60.5 176q0 36 8 90z" />
    <glyph glyph-name="n" unicode="n" horiz-adv-x="1163" 
d="M1069 649l-39 -237q-10 -56 -10 -80q0 -39 35 -39q26 0 67 18l-57 -280q-34 -20 -95.5 -32.5t-127.5 -12.5q-125 0 -185.5 63t-60.5 176q0 36 8 90l39 234q4 32 4 45q0 57 -51 57q-41 0 -64.5 -41t-42.5 -147l-79 -463h-410l166 946h332l20 -192q66 217 289 217
q122 0 195 -66.5t73 -175.5q0 -43 -6 -80z" />
    <glyph glyph-name="o" unicode="o" horiz-adv-x="1099" 
d="M602 971q204 0 334.5 -112t130.5 -308q0 -170 -62.5 -298.5t-192.5 -203t-314 -74.5q-204 0 -334.5 112.5t-130.5 309.5q0 169 62.5 297t192.5 202.5t314 74.5zM528 276q60 0 97 84t37 193q0 55 -23.5 86t-67.5 31q-60 0 -96.5 -83.5t-36.5 -193.5q0 -55 23 -86t67 -31z
" />
    <glyph glyph-name="p" unicode="p" horiz-adv-x="1175" 
d="M500 518l-17 -88q-8 -41 -8 -78q0 -42 20.5 -67t57.5 -25q70 0 115 91t45 208q0 53 -23 84t-63 31q-98 0 -127 -156zM436 154l-100 -570h-410l240 1362h332l20 -186q29 105 111 158t180 53q160 0 247 -102t87 -298q0 -164 -56 -299.5t-161 -216t-240 -80.5
q-217 0 -250 179z" />
    <glyph glyph-name="q" unicode="q" horiz-adv-x="1169" 
d="M754 791l92 155h334l-240 -1362h-412l97 547q-30 -75 -95.5 -115.5t-162.5 -40.5q-153 0 -243.5 103.5t-90.5 296.5q0 162 55.5 297.5t161 217t239.5 81.5q110 0 176 -48t89 -132zM676 422l16 88q8 41 8 78q0 42 -20 67t-57 25q-70 0 -115 -91t-45 -208q0 -53 23 -84
t63 -31q98 0 127 156z" />
    <glyph glyph-name="r" unicode="r" horiz-adv-x="854" 
d="M905 946l-78 -434q-65 49 -147 49q-87 0 -138 -48.5t-71 -164.5l-61 -348h-410l166 946h332l20 -262q28 141 104.5 214t178.5 73q59 0 104 -25z" />
    <glyph glyph-name="s" unicode="s" horiz-adv-x="946" 
d="M-25 240l332 79q1 -47 31 -72.5t70 -25.5q61 0 61 45q0 25 -21 40.5t-75 25.5q-293 58 -293 307q0 162 117 247t323 85q212 0 313.5 -75.5t104.5 -207.5l-315 -47q-2 40 -24 63t-60 23q-27 0 -42.5 -11.5t-15.5 -29.5q0 -26 26 -43t99 -37q149 -40 214 -110t65 -193
q0 -160 -116.5 -244t-344.5 -84q-130 0 -222 25.5t-152 85.5t-75 154z" />
    <glyph glyph-name="t" unicode="t" horiz-adv-x="811" 
d="M741 373l-59 -330q-85 -68 -260 -68q-150 0 -243 80.5t-93 241.5q0 57 12 125l39 221h-106l53 303h109l34 201l412 35l-41 -236h203l-53 -303h-203l-35 -203q-6 -36 -6 -47q0 -69 82 -69q71 0 155 49z" />
    <glyph glyph-name="u" unicode="u" horiz-adv-x="1153" 
d="M1110 946l-94 -534q-10 -56 -10 -80q0 -39 34 -39q27 0 68 18l-57 -280q-34 -20 -96 -32.5t-128 -12.5q-110 0 -163 49.5t-64 144.5q-63 -205 -315 -205q-116 0 -186 66.5t-70 181.5q0 55 10 121l106 602h408l-90 -524q-8 -47 -8 -72q0 -55 51 -55q42 0 69.5 42.5
t45.5 145.5l79 463h410z" />
    <glyph glyph-name="v" unicode="v" horiz-adv-x="1103" 
d="M213 0l-131 946h403l27 -266q7 -68 7 -144t-3 -118l-4 -41h8q37 164 113 303l145 266h418l-553 -946h-430z" />
    <glyph glyph-name="w" unicode="w" horiz-adv-x="1587" 
d="M1040 946l-8 -340q-1 -50 -7 -107t-11 -89l-6 -31h8q35 125 80 225l155 342h428l-475 -946h-442l-4 227q-1 49 2.5 115.5t7.5 107.5l4 42h-8q-41 -156 -84 -265l-90 -227h-449l-59 946h399l11 -336q2 -61 0.5 -112.5t-3.5 -85.5l-2 -33h9q20 114 63 229l125 338h356z" />
    <glyph glyph-name="x" unicode="x" horiz-adv-x="1122" 
d="M537 297h-9q-31 -96 -82 -178l-75 -119h-443l316 481l-142 465h433l38 -143q9 -34 14.5 -75t6.5 -65l2 -24h8q17 84 64 164l84 143h452l-319 -465l153 -481h-420l-40 119q-14 40 -24 84.5t-14 68.5z" />
    <glyph glyph-name="y" unicode="y" horiz-adv-x="1116" 
d="M492 946l30 -278q7 -68 7.5 -141.5t-2.5 -112.5l-3 -39h8q33 146 111 289l156 282h409l-585 -1030q-61 -107 -126 -178.5t-132.5 -107t-129 -49t-135.5 -13.5q-66 0 -126 16t-91 39l107 320q50 -37 119 -37q43 0 78 27t51 85l-158 928h412z" />
    <glyph glyph-name="z" unicode="z" horiz-adv-x="962" 
d="M20 262l269 242q37 34 77.5 68t62.5 52l22 17v8q-50 -6 -134 -6h-211l54 303h823l-47 -268l-307 -264q-40 -36 -75 -64t-50 -38l-15 -9v-8q73 10 173 10h235l-55 -305h-867z" />
    <glyph glyph-name="braceleft" unicode="{" horiz-adv-x="935" 
d="M51 332l49 291h74q72 0 102 34t46 123l36 215q28 169 130.5 271t285.5 102q101 0 165 -24t120 -72l-111 -258q-52 41 -117 41q-87 0 -104 -109l-31 -190q-12 -74 -44.5 -129t-79 -85t-95 -44.5t-102.5 -16.5v-8q47 -2 86 -13.5t73 -34.5t53 -64.5t19 -96.5q0 -30 -6 -65
l-31 -179q-6 -34 -6 -51q0 -69 70 -69q65 0 131 41l22 -258q-100 -97 -317 -97q-154 0 -225.5 74.5t-71.5 202.5q0 52 10 106l31 178q12 74 12 101q0 45 -22 64.5t-78 19.5h-74z" />
    <glyph glyph-name="bar" unicode="|" horiz-adv-x="718" 
d="M379 -416h-342l313 1782h342z" />
    <glyph glyph-name="braceright" unicode="}" horiz-adv-x="935" 
d="M895 602l-49 -291h-74q-72 0 -101.5 -34t-45.5 -123l-37 -215q-28 -169 -130.5 -271t-285.5 -102q-101 0 -165 24t-120 72l111 258q52 -41 117 -41q87 0 104 109l31 190q12 74 44.5 129t79 85t95 44.5t102.5 16.5v8q-47 2 -86 13.5t-73 34.5t-53 64.5t-19 96.5q0 30 6 65
l31 178q6 34 6 52q0 69 -70 69q-65 0 -131 -41l-22 258q100 97 317 97q154 0 225.5 -74.5t71.5 -202.5q0 -52 -10 -106l-31 -179q-12 -74 -12 -100q0 -45 22 -64.5t78 -19.5h74z" />
    <glyph glyph-name="asciitilde" unicode="~" horiz-adv-x="999" 
d="M573 412l-100 49q-53 26 -96 26q-95 0 -103 -110l-202 88q-15 53 -15 113q0 109 70.5 187.5t187.5 78.5q81 0 156 -37l100 -49q55 -27 97 -27q94 0 102 111l203 -88q14 -49 14 -113q0 -109 -70.5 -187.5t-187.5 -78.5q-81 0 -156 37z" />
    <glyph glyph-name="nbspace" unicode="&#xa0;" horiz-adv-x="313" 
 />
    <glyph glyph-name="exclamdown" unicode="&#xa1;" horiz-adv-x="657" 
d="M463 -260h-539l264 778h320zM602 780q0 -92 -61.5 -145t-155.5 -53q-98 0 -159.5 52.5t-61.5 145.5q0 88 62 139.5t159 51.5q93 0 155 -52t62 -139z" />
    <glyph glyph-name="cent" unicode="&#xa2;" horiz-adv-x="1087" 
d="M375 -193l33 183q-165 32 -260 147t-95 281q0 280 140 429t393 161l30 170h172l-32 -179q139 -26 223 -109.5t98 -207.5l-385 -107q0 117 -92 117q-95 0 -127 -147q-16 -81 -16 -142q0 -54 24 -82t68 -28q105 0 117 127l374 -117q-76 -313 -462 -326l-31 -170h-172z" />
    <glyph glyph-name="sterling" unicode="&#xa3;" horiz-adv-x="1032" 
d="M70 399l24 138h101q-25 81 -25 125q0 170 119.5 259t322.5 89q166 0 265.5 -64t109.5 -182l-291 -166q-3 49 -20.5 72.5t-63.5 23.5q-42 0 -64 -26t-22 -64q0 -28 13 -67h188l-25 -138h-163q-35 -78 -113 -100h260q56 0 90.5 18t57.5 60l172 -182q-102 -195 -326 -195
h-680l51 299h62q96 0 106 100h-149z" />
    <glyph glyph-name="currency" unicode="&#xa4;" horiz-adv-x="944" 
d="M854 647q0 -167 -92 -276l59 -74l-106 -92l-66 80q-85 -43 -205 -43q-126 0 -211 55l-114 -96l-80 96l106 90q-36 59 -36 150q0 173 98 280l-64 80l109 92l70 -88q86 39 196 39q121 0 211 -55l125 104l78 -96l-117 -98q39 -64 39 -148zM457 438q32 0 55 35t33 85t10 108
q0 77 -49 77q-32 0 -55 -35t-33 -84.5t-10 -107.5q0 -78 49 -78z" />
    <glyph glyph-name="yen" unicode="&#xa5;" horiz-adv-x="1253" 
d="M80 483l22 121h177l-138 381h400l41 -123q17 -51 27.5 -102.5t12.5 -77.5l1 -25h6q26 90 112 201l99 127h434l-295 -381h180l-22 -121h-252l-82 -106h315l-20 -121h-344l-43 -256h-392l43 256h-321l20 121h297l-36 106h-242z" />
    <glyph glyph-name="brokenbar" unicode="&#xa6;" horiz-adv-x="718" 
d="M553 569h-342l139 797h342zM379 -416h-342l139 797h342z" />
    <glyph glyph-name="section" unicode="&#xa7;" horiz-adv-x="1015" 
d="M754 309q53 -84 53 -170q0 -108 -55.5 -181.5t-148 -106.5t-216.5 -33q-174 0 -270.5 71t-116.5 193l311 65q0 -90 74 -90q27 0 43 14t16 38q0 23 -19 37t-79 32q-151 44 -224 110.5t-73 186.5q0 103 59 176t154 88q-53 84 -53 170q0 161 113.5 241.5t304.5 80.5
q174 0 271.5 -71t117.5 -193l-311 -66q0 90 -74 90q-28 0 -44 -14t-16 -37t19.5 -37.5t79.5 -32.5q151 -44 224 -110.5t73 -186.5q0 -103 -59 -176t-154 -88zM510 465l65 -23q33 18 33 62q0 27 -22.5 43.5t-79.5 36.5l-66 22q-32 -18 -32 -61q0 -27 22.5 -43.5t79.5 -36.5z
" />
    <glyph glyph-name="dieresis" unicode="&#xa8;" horiz-adv-x="1024" 
d="M70 1208q0 93 59.5 145t144.5 52t145 -52t60 -145q0 -92 -60 -143t-145 -51t-144.5 51t-59.5 143zM520 1208q0 93 60 145t145 52t145 -52t60 -145q0 -92 -60 -143t-145 -51t-145 51t-60 143z" />
    <glyph glyph-name="copyright" unicode="&#xa9;" horiz-adv-x="1429" 
d="M113 602q0 179 84 323.5t227 225t315 80.5q128 0 244 -47.5t200.5 -129.5t134.5 -200t50 -252t-50 -251.5t-134.5 -199.5t-200.5 -129t-244 -47t-243.5 47t-199.5 129t-133.5 199.5t-49.5 251.5zM176 602q0 -163 77 -294t206 -202t284 -71q115 0 218.5 42t179.5 115.5
t121 180t45 229.5q0 162 -76.5 293.5t-205 203.5t-282.5 72q-115 0 -219.5 -42.5t-181 -117t-121.5 -181t-45 -228.5zM723 449q82 0 94 100l305 -92q-63 -256 -399 -256q-183 0 -290 97t-107 257q0 223 122.5 339t337.5 116q157 0 252 -77.5t111 -203.5l-309 -59
q0 92 -76 92q-77 0 -102 -117q-15 -59 -15 -110q0 -42 20 -64t56 -22z" />
    <glyph glyph-name="ordfeminine" unicode="&#xaa;" horiz-adv-x="919" 
d="M580 874l8 46q6 30 6 49q0 65 -57 65q-50 0 -78.5 -54.5t-28.5 -127.5q0 -84 55 -84q36 0 61 27.5t34 78.5zM737 580q-154 0 -172 120q-20 -57 -78 -94t-129 -37q-107 0 -169 68t-62 194q0 170 88 286t240 116q69 0 112.5 -32.5t55.5 -88.5l61 102h240l-66 -364
q-6 -30 -6 -45q0 -29 31 -29q22 0 49 10l-31 -180q-57 -26 -164 -26z" />
    <glyph glyph-name="guillemotleft" unicode="&#xab;" horiz-adv-x="1245" 
d="M61 492l525 432l157 -195l-147 -129q-44 -38 -78 -64t-46 -33l-13 -7v-9q30 -22 98 -106l102 -127l-225 -195zM567 492l525 432l157 -195l-147 -129q-44 -38 -78 -64t-46 -33l-13 -7v-9q30 -22 98 -106l102 -127l-225 -195z" />
    <glyph glyph-name="logicalnot" unicode="&#xac;" horiz-adv-x="1028" 
d="M672 422h-596l39 223h835l-71 -405h-240z" />
    <glyph glyph-name="uni00AD" unicode="&#xad;" horiz-adv-x="651" 
d="M76 362l63 349h459l-63 -349h-459z" />
    <glyph glyph-name="registered" unicode="&#xae;" horiz-adv-x="1429" 
d="M113 602q0 179 84 323.5t227 225t315 80.5q128 0 244 -47.5t200.5 -129.5t134.5 -200t50 -252t-50 -251.5t-134.5 -199.5t-200.5 -129t-244 -47t-243.5 47t-199.5 129t-133.5 199.5t-49.5 251.5zM176 602q0 -163 77 -294t206 -202t284 -71q115 0 218.5 42t179.5 115.5
t121 180t45 229.5q0 162 -76.5 293.5t-205 203.5t-282.5 72q-115 0 -219.5 -42.5t-181 -117t-121.5 -181t-45 -228.5zM1118 248h-330q-25 31 -40 96l-15 66q-5 25 -13.5 35t-29.5 10h-18l-37 -207h-301l129 739h395q281 0 281 -231q0 -99 -58.5 -152.5t-134.5 -60.5l-2 -8
q50 -7 72 -29.5t35 -71.5l28 -102q14 -52 39 -84zM725 762l-20 -119h61q33 0 53.5 16t20.5 48q0 55 -58 55h-57z" />
    <glyph glyph-name="macron" unicode="&#xaf;" horiz-adv-x="1024" 
d="M840 1055h-707l51 288h707z" />
    <glyph glyph-name="degree" unicode="&#xb0;" horiz-adv-x="630" 
d="M358 659q-124 0 -196 74.5t-72 188.5q0 130 87 219.5t226 89.5q128 0 198.5 -73.5t70.5 -188.5q0 -130 -87.5 -220t-226.5 -90zM393 1040q-44 0 -73 -32.5t-29 -77.5q0 -35 21 -57.5t57 -22.5q43 0 72.5 33t29.5 78q0 35 -21 57t-57 22z" />
    <glyph glyph-name="plusminus" unicode="&#xb1;" horiz-adv-x="1019" 
d="M129 801h303l39 217h221l-39 -217h312l-39 -223h-312l-43 -248h-221l43 248h-303zM823 -10h-835l39 223h835z" />
    <glyph glyph-name="twosuperior" unicode="&#xb2;" horiz-adv-x="716" 
d="M348 887l-227 78q0 126 92 192t225 66q138 0 215.5 -60.5t77.5 -175.5q0 -61 -28 -112.5t-73.5 -83.5t-96.5 -52t-103 -26v-6h268l-36 -224h-607l35 201q167 51 260.5 122.5t93.5 137.5q0 47 -36 47q-29 0 -44.5 -29.5t-15.5 -74.5z" />
    <glyph glyph-name="threesuperior" unicode="&#xb3;" horiz-adv-x="688" 
d="M326 952l-203 92q57 179 299 179q126 0 202 -54.5t76 -150.5q0 -79 -47.5 -121.5t-122.5 -50.5l-2 -8q69 -11 110.5 -54.5t41.5 -109.5q0 -98 -91 -151.5t-233 -53.5q-130 0 -213 49.5t-100 140.5l236 91q0 -37 15.5 -56.5t43.5 -19.5q53 0 53 49q0 51 -123 59l25 133
q31 0 51.5 2t41.5 7.5t31.5 18t10.5 32.5q0 39 -41 39q-52 0 -61 -62z" />
    <glyph glyph-name="acute" unicode="&#xb4;" horiz-adv-x="1024" 
d="M502 1055h-334l184 319h504z" />
    <glyph glyph-name="mu" unicode="&#xb5;" horiz-adv-x="1153" 
d="M1110 946l-94 -534q-10 -56 -10 -80q0 -39 34 -39q27 0 68 18l-57 -280q-34 -20 -96 -32.5t-128 -12.5q-110 0 -163 49.5t-64 144.5q-38 -127 -151 -176q-25 -11 -60 -18l-74 -402h-413l243 1362h408l-90 -524q-8 -47 -8 -72q0 -55 51 -55q42 0 69.5 42.5t45.5 145.5
l79 463h410z" />
    <glyph glyph-name="mu" unicode="&#x3bc;" horiz-adv-x="1153" 
d="M1110 946l-94 -534q-10 -56 -10 -80q0 -39 34 -39q27 0 68 18l-57 -280q-34 -20 -96 -32.5t-128 -12.5q-110 0 -163 49.5t-64 144.5q-38 -127 -151 -176q-25 -11 -60 -18l-74 -402h-413l243 1362h408l-90 -524q-8 -47 -8 -72q0 -55 51 -55q42 0 69.5 42.5t45.5 145.5
l79 463h410z" />
    <glyph glyph-name="paragraph" unicode="&#xb6;" horiz-adv-x="1294" 
d="M1104 864l-146 -825q-35 -195 -151 -284t-283 -89q-102 0 -166 19.5t-118 56.5l114 285q43 -41 113 -41q98 0 119 120l43 250h-103q-176 0 -289.5 100.5t-113.5 274.5q0 225 145 350t394 125h663l-59 -342h-162z" />
    <glyph glyph-name="periodcentered" unicode="&#xb7;" horiz-adv-x="632" 
d="M92 520q0 97 65 163.5t165 66.5t164.5 -66.5t64.5 -163.5t-64.5 -163t-164.5 -66t-165 66t-65 163z" />
    <glyph glyph-name="cedilla" unicode="&#xb8;" horiz-adv-x="1024" 
d="M764 -238q0 -92 -68 -143t-184 -51q-161 0 -252 72l55 155q59 -49 123 -49q54 0 54 41q0 51 -82 51l90 230h125l-50 -129q86 0 137.5 -49.5t51.5 -127.5z" />
    <glyph glyph-name="onesuperior" unicode="&#xb9;" horiz-adv-x="692" 
d="M653 483h-567l35 205h153l54 273l-148 -27l37 221l426 59l-94 -526h139z" />
    <glyph glyph-name="ordmasculine" unicode="&#xba;" horiz-adv-x="825" 
d="M834 954q0 -170 -101.5 -276.5t-288.5 -106.5q-140 0 -228.5 75t-88.5 204q0 170 101 276.5t288 106.5q140 0 229 -75t89 -204zM457 758q44 0 69 65.5t25 149.5q0 74 -47 74q-44 0 -69 -65.5t-25 -150.5q0 -73 47 -73z" />
    <glyph glyph-name="guillemotright" unicode="&#xbb;" horiz-adv-x="1245" 
d="M705 492l-525 -433l-157 195l147 129q44 38 78 64t46 33l13 7v9q-30 22 -98 106l-103 127l226 195zM1210 492l-524 -433l-158 195l148 129q44 38 78 64t46 33l13 7v9q-30 22 -98 106l-103 127l226 195z" />
    <glyph glyph-name="onequarter" unicode="&#xbc;" horiz-adv-x="1724" 
d="M653 483h-567l35 205h153l54 273l-148 -27l37 221l426 59l-94 -526h139zM381 0l829 1206h226l-842 -1206h-213zM1237 0l18 115h-350l33 190l405 418h302l-76 -420h94l-33 -188h-94l-18 -115h-281zM1212 299h76l21 111q4 24 10.5 50.5t10.5 41.5l5 14h-8q-25 -45 -76 -96
l-59 -60q-15 -16 -32 -30.5t-26 -21.5l-10 -7v-8q33 6 88 6z" />
    <glyph glyph-name="onehalf" unicode="&#xbd;" horiz-adv-x="1753" 
d="M653 483h-567l35 205h153l54 273l-148 -27l37 221l426 59l-94 -526h139zM381 0l829 1206h226l-842 -1206h-213zM1303 403l-228 78q0 85 46 145t116 86.5t156 26.5q138 0 215.5 -60t77.5 -175q0 -61 -28.5 -112.5t-74 -84t-96.5 -52.5t-103 -26v-6h269l-37 -223h-606
l34 201q167 51 261 122.5t94 137.5q0 47 -37 47q-29 0 -44 -29.5t-15 -75.5z" />
    <glyph glyph-name="threequarters" unicode="&#xbe;" horiz-adv-x="1689" 
d="M326 952l-203 92q57 179 299 179q126 0 202 -54.5t76 -150.5q0 -79 -47.5 -121.5t-122.5 -50.5l-2 -8q69 -11 110.5 -54.5t41.5 -109.5q0 -98 -91 -151.5t-233 -53.5q-130 0 -213 49.5t-100 140.5l236 91q0 -37 15.5 -56.5t43.5 -19.5q53 0 53 49q0 51 -123 59l25 133
q31 0 51.5 2t41.5 7.5t31.5 18t10.5 32.5q0 39 -41 39q-52 0 -61 -62zM346 0l830 1206h225l-842 -1206h-213zM1202 0l19 115h-351l33 190l406 418h301l-76 -420h94l-33 -188h-94l-18 -115h-281zM1178 299h75l21 111q4 24 10.5 50.5t11.5 41.5l4 14h-8q-24 -45 -75 -96
l-60 -60q-15 -16 -31.5 -30.5t-25.5 -21.5l-10 -7v-8q33 6 88 6z" />
    <glyph glyph-name="questiondown" unicode="&#xbf;" horiz-adv-x="1056" 
d="M627 203l356 -101q-43 -187 -181 -287t-353 -100q-132 0 -233.5 37.5t-164.5 120.5t-63 203q0 72 23 130.5t60.5 97.5t88.5 67t103.5 42t109.5 19l14 86h367l-45 -254h-64q-110 0 -171.5 -29.5t-61.5 -103.5q0 -40 23 -61t63 -21q57 0 86.5 40t42.5 114zM805 780
q0 -92 -61.5 -145t-155.5 -53q-98 0 -159.5 52.5t-61.5 145.5q0 88 62 139.5t159 51.5q93 0 155 -52t62 -139z" />
    <glyph glyph-name="Agrave" unicode="&#xc0;" horiz-adv-x="1384" 
d="M874 0l-24 164h-389l-84 -164h-440l630 1206h549l182 -1206h-424zM694 651l-76 -174h189l-21 174q-5 43 -8.5 93.5t-4.5 79.5l-1 30h-8q-27 -103 -70 -203zM1010 1284h-328l-303 320h514z" />
    <glyph glyph-name="Aacute" unicode="&#xc1;" horiz-adv-x="1384" 
d="M874 0l-24 164h-389l-84 -164h-440l630 1206h549l182 -1206h-424zM694 651l-76 -174h189l-21 174q-5 43 -8.5 93.5t-4.5 79.5l-1 30h-8q-27 -103 -70 -203zM985 1284h-334l185 320h503z" />
    <glyph glyph-name="Acircumflex" unicode="&#xc2;" horiz-adv-x="1384" 
d="M874 0l-24 164h-389l-84 -164h-440l630 1206h549l182 -1206h-424zM694 651l-76 -174h189l-21 174q-5 43 -8.5 93.5t-4.5 79.5l-1 30h-8q-27 -103 -70 -203zM770 1618h277l264 -334h-348l-43 66q-10 16 -18 31t-10 23l-3 7h-10q-11 -21 -58 -68l-57 -59h-377z" />
    <glyph glyph-name="Atilde" unicode="&#xc3;" horiz-adv-x="1384" 
d="M874 0l-24 164h-389l-84 -164h-440l630 1206h549l182 -1206h-424zM694 651l-76 -174h189l-21 174q-5 43 -8.5 93.5t-4.5 79.5l-1 30h-8q-27 -103 -70 -203zM858 1331q-39 25 -57.5 34t-38.5 9q-67 0 -84 -90h-205q0 63 8 116t26.5 100.5t47.5 80.5t73.5 52.5t102.5 19.5
q35 0 65 -8t47 -17t48 -29q39 -25 57.5 -34t38.5 -9q67 0 84 91h205q0 -63 -8 -116t-26.5 -100.5t-47.5 -80.5t-73.5 -52.5t-102.5 -19.5q-35 0 -64.5 7.5t-47.5 17t-48 28.5z" />
    <glyph glyph-name="Adieresis" unicode="&#xc4;" horiz-adv-x="1384" 
d="M874 0l-24 164h-389l-84 -164h-440l630 1206h549l182 -1206h-424zM694 651l-76 -174h189l-21 174q-5 43 -8.5 93.5t-4.5 79.5l-1 30h-8q-27 -103 -70 -203zM444 1464q0 93 60 145t145 52t145 -52t60 -145q0 -92 -60 -143t-145 -51t-145 51t-60 143zM895 1464q0 93 60 145
t145 52t145 -52t60 -145q0 -92 -60 -143t-145 -51t-145 51t-60 143z" />
    <glyph glyph-name="Aring" unicode="&#xc5;" horiz-adv-x="1384" 
d="M874 0l-24 164h-389l-84 -164h-440l630 1206h549l182 -1206h-424zM694 651l-76 -174h189l-21 174q-5 43 -8.5 93.5t-4.5 79.5l-1 30h-8q-27 -103 -70 -203zM868 1272q-112 0 -177.5 62t-65.5 153q0 112 76.5 187t195.5 75q112 0 178 -62t66 -153q0 -111 -77 -186.5
t-196 -75.5zM877 1427q37 0 61.5 27.5t24.5 65.5q0 32 -19.5 52.5t-54.5 20.5q-37 0 -61.5 -27t-24.5 -65q0 -32 19.5 -53t54.5 -21z" />
    <glyph glyph-name="AE" unicode="&#xc6;" horiz-adv-x="1927" 
d="M793 1206h1196l-62 -344h-495l-21 -108h432l-49 -301h-434l-21 -109h498l-59 -344h-910l27 164h-389l-111 -164h-458zM1034 936l-313 -459h229l41 230q10 56 23 113.5t20 86.5l8 29h-8z" />
    <glyph glyph-name="Ccedilla" unicode="&#xc7;" horiz-adv-x="1210" 
d="M774 -238q0 -92 -68 -143t-184 -51q-161 0 -252 72l56 155q59 -49 123 -49q53 0 53 41q0 51 -82 51l57 150q-191 34 -298 165t-107 332q0 180 49.5 322.5t138.5 234.5t211.5 140.5t269.5 48.5q220 0 353 -101t157 -278l-424 -117q0 146 -108 146q-133 0 -182 -215
q-25 -119 -25 -187q0 -66 30 -109.5t91 -43.5q65 0 100 37.5t53 113.5l404 -141q-108 -361 -582 -361h-8l-14 -36q86 0 137 -49.5t51 -127.5z" />
    <glyph glyph-name="Egrave" unicode="&#xc8;" horiz-adv-x="1081" 
d="M991 344l-59 -344h-909l210 1206h910l-62 -344h-495l-21 -108h432l-49 -301h-434l-20 -109h497zM848 1284h-328l-303 320h514z" />
    <glyph glyph-name="Eacute" unicode="&#xc9;" horiz-adv-x="1081" 
d="M991 344l-59 -344h-909l210 1206h910l-62 -344h-495l-21 -108h432l-49 -301h-434l-20 -109h497zM823 1284h-334l185 320h504z" />
    <glyph glyph-name="Ecircumflex" unicode="&#xca;" horiz-adv-x="1081" 
d="M991 344l-59 -344h-909l210 1206h910l-62 -344h-495l-21 -108h432l-49 -301h-434l-20 -109h497zM633 1618h276l265 -334h-349l-43 66q-10 16 -17.5 31t-10.5 23l-2 7h-11q-10 -21 -57 -68l-57 -59h-377z" />
    <glyph glyph-name="Edieresis" unicode="&#xcb;" horiz-adv-x="1081" 
d="M991 344l-59 -344h-909l210 1206h910l-62 -344h-495l-21 -108h432l-49 -301h-434l-20 -109h497zM283 1464q0 93 59.5 145t144.5 52t145 -52t60 -145q0 -92 -60 -143t-145 -51t-144.5 51t-59.5 143zM733 1464q0 93 60 145t145 52t145 -52t60 -145q0 -92 -60 -143t-145 -51
t-145 51t-60 143z" />
    <glyph glyph-name="Igrave" unicode="&#xcc;" horiz-adv-x="626" 
d="M233 1206h429l-211 -1206h-428zM629 1284h-328l-303 320h514z" />
    <glyph glyph-name="Iacute" unicode="&#xcd;" horiz-adv-x="626" 
d="M233 1206h429l-211 -1206h-428zM604 1284h-334l185 320h503z" />
    <glyph glyph-name="Icircumflex" unicode="&#xce;" horiz-adv-x="626" 
d="M233 1206h429l-211 -1206h-428zM375 1618h276l264 -334h-348l-43 66q-10 16 -17.5 31t-10.5 23l-2 7h-11q-10 -21 -57 -68l-57 -59h-377z" />
    <glyph glyph-name="Idieresis" unicode="&#xcf;" horiz-adv-x="626" 
d="M233 1206h429l-211 -1206h-428zM63 1464q0 93 60 145t145 52t145 -52t60 -145q0 -92 -60 -143t-145 -51t-145 51t-60 143zM514 1464q0 93 60 145t145 52t145 -52t60 -145q0 -92 -60 -143t-145 -51t-145 51t-60 143z" />
    <glyph glyph-name="Eth" unicode="&#xd0;" horiz-adv-x="1294" 
d="M2 459l51 293h115l80 454h473q268 0 413.5 -125t145.5 -366q0 -362 -183.5 -538.5t-529.5 -176.5h-530l80 459h-115zM512 346h84q114 0 166.5 61t75.5 218q6 44 6 75q0 90 -41.5 125t-120.5 35h-80l-20 -108h125l-52 -293h-125z" />
    <glyph glyph-name="Ntilde" unicode="&#xd1;" horiz-adv-x="1392" 
d="M631 1206l180 -354q27 -53 51.5 -106t35.5 -80l11 -27h9q11 114 38 268l52 299h419l-210 -1206h-373l-166 303q-40 74 -74 140.5t-48 96.5l-13 29h-8q-12 -106 -43 -284l-50 -285h-419l210 1206h398zM860 1331q-39 25 -57.5 34t-38.5 9q-67 0 -84 -90h-205q0 63 8 116
t26.5 100.5t47.5 80.5t73.5 52.5t102.5 19.5q35 0 65 -8t47 -17t48 -29q39 -25 57.5 -34t38.5 -9q67 0 84 91h205q0 -63 -8 -116t-26.5 -100.5t-47.5 -80.5t-73.5 -52.5t-102.5 -19.5q-35 0 -64.5 7.5t-47.5 17t-48 28.5z" />
    <glyph glyph-name="Ograve" unicode="&#xd2;" horiz-adv-x="1312" 
d="M641 326q47 0 82.5 20t58.5 59.5t37.5 84t26.5 106.5q12 61 12 123q0 77 -34 119.5t-95 42.5q-38 0 -68.5 -14.5t-51.5 -37.5t-38 -59.5t-27 -73.5t-20 -86q-12 -62 -12 -123q0 -77 34 -119t95 -42zM618 -25q-119 0 -217.5 32.5t-172.5 96t-115 164t-41 228.5
q0 159 42.5 291.5t125.5 232.5t214 155.5t298 55.5q160 0 281 -56t193 -175t72 -289q0 -159 -42.5 -292t-125.5 -232.5t-214 -155.5t-298 -56zM971 1284h-328l-303 320h514z" />
    <glyph glyph-name="Oacute" unicode="&#xd3;" horiz-adv-x="1312" 
d="M641 326q47 0 82.5 20t58.5 59.5t37.5 84t26.5 106.5q12 61 12 123q0 77 -34 119.5t-95 42.5q-38 0 -68.5 -14.5t-51.5 -37.5t-38 -59.5t-27 -73.5t-20 -86q-12 -62 -12 -123q0 -77 34 -119t95 -42zM618 -25q-119 0 -217.5 32.5t-172.5 96t-115 164t-41 228.5
q0 159 42.5 291.5t125.5 232.5t214 155.5t298 55.5q160 0 281 -56t193 -175t72 -289q0 -159 -42.5 -292t-125.5 -232.5t-214 -155.5t-298 -56zM946 1284h-334l185 320h503z" />
    <glyph glyph-name="Ocircumflex" unicode="&#xd4;" horiz-adv-x="1312" 
d="M641 326q47 0 82.5 20t58.5 59.5t37.5 84t26.5 106.5q12 61 12 123q0 77 -34 119.5t-95 42.5q-38 0 -68.5 -14.5t-51.5 -37.5t-38 -59.5t-27 -73.5t-20 -86q-12 -62 -12 -123q0 -77 34 -119t95 -42zM618 -25q-119 0 -217.5 32.5t-172.5 96t-115 164t-41 228.5
q0 159 42.5 291.5t125.5 232.5t214 155.5t298 55.5q160 0 281 -56t193 -175t72 -289q0 -159 -42.5 -292t-125.5 -232.5t-214 -155.5t-298 -56zM715 1618h276l264 -334h-348l-43 66q-10 16 -17.5 31t-10.5 23l-2 7h-11q-10 -21 -57 -68l-57 -59h-377z" />
    <glyph glyph-name="Otilde" unicode="&#xd5;" horiz-adv-x="1312" 
d="M641 326q47 0 82.5 20t58.5 59.5t37.5 84t26.5 106.5q12 61 12 123q0 77 -34 119.5t-95 42.5q-38 0 -68.5 -14.5t-51.5 -37.5t-38 -59.5t-27 -73.5t-20 -86q-12 -62 -12 -123q0 -77 34 -119t95 -42zM618 -25q-119 0 -217.5 32.5t-172.5 96t-115 164t-41 228.5
q0 159 42.5 291.5t125.5 232.5t214 155.5t298 55.5q160 0 281 -56t193 -175t72 -289q0 -159 -42.5 -292t-125.5 -232.5t-214 -155.5t-298 -56zM819 1331q-39 25 -57.5 34t-38.5 9q-67 0 -84 -90h-205q0 63 8 116t26.5 100.5t47.5 80.5t73.5 52.5t102.5 19.5q35 0 65 -8
t47 -17t48 -29q39 -25 57.5 -34t38.5 -9q67 0 84 91h205q0 -63 -8 -116t-26.5 -100.5t-47.5 -80.5t-73.5 -52.5t-102.5 -19.5q-35 0 -64.5 7.5t-47.5 17t-48 28.5z" />
    <glyph glyph-name="Odieresis" unicode="&#xd6;" horiz-adv-x="1312" 
d="M641 326q47 0 82.5 20t58.5 59.5t37.5 84t26.5 106.5q12 61 12 123q0 77 -34 119.5t-95 42.5q-38 0 -68.5 -14.5t-51.5 -37.5t-38 -59.5t-27 -73.5t-20 -86q-12 -62 -12 -123q0 -77 34 -119t95 -42zM618 -25q-119 0 -217.5 32.5t-172.5 96t-115 164t-41 228.5
q0 159 42.5 291.5t125.5 232.5t214 155.5t298 55.5q160 0 281 -56t193 -175t72 -289q0 -159 -42.5 -292t-125.5 -232.5t-214 -155.5t-298 -56zM406 1464q0 93 59.5 145t144.5 52t145 -52t60 -145q0 -92 -60 -143t-145 -51t-144.5 51t-59.5 143zM856 1464q0 93 60 145t145 52
t145 -52t60 -145q0 -92 -60 -143t-145 -51t-145 51t-60 143z" />
    <glyph glyph-name="multiply" unicode="&#xd7;" horiz-adv-x="991" 
d="M37 287l274 229l-186 232l182 153l187 -227l276 239l148 -170l-283 -241l203 -246l-189 -154l-198 246l-273 -231z" />
    <glyph glyph-name="Oslash" unicode="&#xd8;" horiz-adv-x="1312" 
d="M618 -25q-221 0 -362 105l-111 -105l-108 113l113 107q-78 122 -78 301q0 159 42.5 291.5t125.5 232.5t214 155.5t298 55.5q215 0 362 -107l111 107l114 -113l-116 -112q75 -124 75 -295q0 -159 -42.5 -292t-125.5 -232.5t-214 -155.5t-298 -56zM502 610q-11 -57 -13 -88
l340 328q-40 37 -100 37q-90 0 -144 -69t-83 -208zM641 319q90 0 144 69t83 208q10 68 11 82l-336 -324q41 -35 98 -35z" />
    <glyph glyph-name="Ugrave" unicode="&#xd9;" horiz-adv-x="1294" 
d="M913 1206h428l-131 -749q-25 -139 -73 -232.5t-126.5 -148.5t-179 -78t-241.5 -23q-232 0 -367 104t-135 314q0 73 14 150l119 663h428l-114 -628q-17 -90 -17 -140q0 -62 25 -92.5t86 -30.5q35 0 60 10t41.5 27t30 53.5t22 73.5t20.5 103zM969 1284h-328l-303 320h514z
" />
    <glyph glyph-name="Uacute" unicode="&#xda;" horiz-adv-x="1294" 
d="M913 1206h428l-131 -749q-25 -139 -73 -232.5t-126.5 -148.5t-179 -78t-241.5 -23q-232 0 -367 104t-135 314q0 73 14 150l119 663h428l-114 -628q-17 -90 -17 -140q0 -62 25 -92.5t86 -30.5q35 0 60 10t41.5 27t30 53.5t22 73.5t20.5 103zM942 1284h-334l185 320h503z
" />
    <glyph glyph-name="Ucircumflex" unicode="&#xdb;" horiz-adv-x="1294" 
d="M913 1206h428l-131 -749q-25 -139 -73 -232.5t-126.5 -148.5t-179 -78t-241.5 -23q-232 0 -367 104t-135 314q0 73 14 150l119 663h428l-114 -628q-17 -90 -17 -140q0 -62 25 -92.5t86 -30.5q35 0 60 10t41.5 27t30 53.5t22 73.5t20.5 103zM711 1618h276l264 -334h-348
l-43 66q-10 16 -18 31t-10 23l-3 7h-10q-10 -21 -57 -68l-57 -59h-377z" />
    <glyph glyph-name="Udieresis" unicode="&#xdc;" horiz-adv-x="1294" 
d="M913 1206h428l-131 -749q-25 -139 -73 -232.5t-126.5 -148.5t-179 -78t-241.5 -23q-232 0 -367 104t-135 314q0 73 14 150l119 663h428l-114 -628q-17 -90 -17 -140q0 -62 25 -92.5t86 -30.5q35 0 60 10t41.5 27t30 53.5t22 73.5t20.5 103zM401 1464q0 93 60 145t145 52
t145 -52t60 -145q0 -92 -60 -143t-145 -51t-145 51t-60 143zM852 1464q0 93 60 145t145 52t145 -52t60 -145q0 -92 -60 -143t-145 -51t-145 51t-60 143z" />
    <glyph glyph-name="Yacute" unicode="&#xdd;" horiz-adv-x="1298" 
d="M584 1206l53 -178q17 -58 31 -111.5t19 -77.5l5 -24h8q37 78 131 213l125 178h469l-571 -811l-70 -395h-428l70 395l-285 811h443zM922 1284h-334l184 320h504z" />
    <glyph glyph-name="Thorn" unicode="&#xde;" horiz-adv-x="1173" 
d="M573 698l-41 -221h78q67 0 106.5 33.5t39.5 95.5q0 92 -103 92h-80zM451 0h-428l210 1206h431l-29 -155h72q220 0 339 -102t119 -281q0 -136 -40 -239t-112.5 -165t-168 -92.5t-213.5 -30.5h-156z" />
    <glyph glyph-name="germandbls" unicode="&#xdf;" horiz-adv-x="1261" 
d="M551 860l-166 -950q-16 -96 -53 -164.5t-90.5 -106t-115.5 -54.5t-138 -17q-152 0 -246 65l98 285q29 -37 70 -37q58 0 72 82l157 891q49 279 209 407t445 128q123 0 215.5 -27t146.5 -75t80.5 -107.5t26.5 -130.5q0 -143 -75 -228t-202 -106v-8q124 -27 185 -103
t61 -217q0 -191 -123.5 -301.5t-335.5 -110.5q-200 0 -299 88l86 328q46 -46 84.5 -64t83.5 -18q52 0 84.5 27.5t32.5 85.5q0 56 -37.5 79t-120.5 23h-119l58 330h112q140 0 140 100q0 45 -33 72t-90 27q-94 0 -140.5 -49t-62.5 -144z" />
    <glyph glyph-name="agrave" unicode="&#xe0;" horiz-adv-x="1216" 
d="M1174 946l-95 -534q-10 -56 -10 -80q0 -39 35 -39q26 0 67 18l-57 -280q-34 -20 -95 -32.5t-124 -12.5q-99 0 -161.5 50t-74.5 138q-36 -88 -112 -143.5t-180 -55.5q-153 0 -243.5 103.5t-90.5 296.5q0 162 55.5 297.5t161 217t239.5 81.5q210 0 259 -180l92 155h334z
M670 422l16 88q8 41 8 78q0 42 -20.5 67t-57.5 25q-47 0 -82.5 -44.5t-53 -111.5t-17.5 -143q0 -54 20.5 -84.5t59.5 -30.5q98 0 127 156zM905 1055h-327l-304 319h514z" />
    <glyph glyph-name="aacute" unicode="&#xe1;" horiz-adv-x="1216" 
d="M1174 946l-95 -534q-10 -56 -10 -80q0 -39 35 -39q26 0 67 18l-57 -280q-34 -20 -95 -32.5t-124 -12.5q-99 0 -161.5 50t-74.5 138q-36 -88 -112 -143.5t-180 -55.5q-153 0 -243.5 103.5t-90.5 296.5q0 162 55.5 297.5t161 217t239.5 81.5q210 0 259 -180l92 155h334z
M670 422l16 88q8 41 8 78q0 42 -20.5 67t-57.5 25q-47 0 -82.5 -44.5t-53 -111.5t-17.5 -143q0 -54 20.5 -84.5t59.5 -30.5q98 0 127 156zM870 1055h-333l184 319h504z" />
    <glyph glyph-name="acircumflex" unicode="&#xe2;" horiz-adv-x="1216" 
d="M1174 946l-95 -534q-10 -56 -10 -80q0 -39 35 -39q26 0 67 18l-57 -280q-34 -20 -95 -32.5t-124 -12.5q-99 0 -161.5 50t-74.5 138q-36 -88 -112 -143.5t-180 -55.5q-153 0 -243.5 103.5t-90.5 296.5q0 162 55.5 297.5t161 217t239.5 81.5q210 0 259 -180l92 155h334z
M670 422l16 88q8 41 8 78q0 42 -20.5 67t-57.5 25q-47 0 -82.5 -44.5t-53 -111.5t-17.5 -143q0 -54 20.5 -84.5t59.5 -30.5q98 0 127 156zM629 1389h276l264 -334h-348l-43 65q-10 16 -17.5 31.5t-10.5 22.5l-2 8h-11q-10 -21 -57 -68l-57 -59h-377z" />
    <glyph glyph-name="atilde" unicode="&#xe3;" horiz-adv-x="1216" 
d="M1174 946l-95 -534q-10 -56 -10 -80q0 -39 35 -39q26 0 67 18l-57 -280q-34 -20 -95 -32.5t-124 -12.5q-99 0 -161.5 50t-74.5 138q-36 -88 -112 -143.5t-180 -55.5q-153 0 -243.5 103.5t-90.5 296.5q0 162 55.5 297.5t161 217t239.5 81.5q210 0 259 -180l92 155h334z
M670 422l16 88q8 41 8 78q0 42 -20.5 67t-57.5 25q-47 0 -82.5 -44.5t-53 -111.5t-17.5 -143q0 -54 20.5 -84.5t59.5 -30.5q98 0 127 156zM735 1092q-39 25 -57.5 34t-38.5 9q-67 0 -84 -91h-205q0 63 8 116t26.5 100.5t47.5 80.5t73.5 52.5t102.5 19.5q35 0 64.5 -7.5
t47.5 -17t48 -28.5q39 -25 57.5 -34t38.5 -9q67 0 84 90h205q0 -63 -8 -116t-26.5 -100.5t-47.5 -80.5t-73.5 -52.5t-102.5 -19.5q-35 0 -65 8t-47 17t-48 29z" />
    <glyph glyph-name="adieresis" unicode="&#xe4;" horiz-adv-x="1216" 
d="M1174 946l-95 -534q-10 -56 -10 -80q0 -39 35 -39q26 0 67 18l-57 -280q-34 -20 -95 -32.5t-124 -12.5q-99 0 -161.5 50t-74.5 138q-36 -88 -112 -143.5t-180 -55.5q-153 0 -243.5 103.5t-90.5 296.5q0 162 55.5 297.5t161 217t239.5 81.5q210 0 259 -180l92 155h334z
M670 422l16 88q8 41 8 78q0 42 -20.5 67t-57.5 25q-47 0 -82.5 -44.5t-53 -111.5t-17.5 -143q0 -54 20.5 -84.5t59.5 -30.5q98 0 127 156zM311 1208q0 93 60 145t145 52t145 -52t60 -145q0 -92 -60 -143t-145 -51t-145 51t-60 143zM762 1208q0 93 60 145t145 52t144.5 -52
t59.5 -145q0 -92 -59.5 -143t-144.5 -51t-145 51t-60 143z" />
    <glyph glyph-name="aring" unicode="&#xe5;" horiz-adv-x="1216" 
d="M1174 946l-95 -534q-10 -56 -10 -80q0 -39 35 -39q26 0 67 18l-57 -280q-34 -20 -95 -32.5t-124 -12.5q-99 0 -161.5 50t-74.5 138q-36 -88 -112 -143.5t-180 -55.5q-153 0 -243.5 103.5t-90.5 296.5q0 162 55.5 297.5t161 217t239.5 81.5q210 0 259 -180l92 155h334z
M670 422l16 88q8 41 8 78q0 42 -20.5 67t-57.5 25q-47 0 -82.5 -44.5t-53 -111.5t-17.5 -143q0 -54 20.5 -84.5t59.5 -30.5q98 0 127 156zM745 1004q-112 0 -177.5 62t-65.5 153q0 112 76.5 187t195.5 75q112 0 178 -62t66 -153q0 -111 -77 -186.5t-196 -75.5zM754 1159
q37 0 61.5 27t24.5 65q0 32 -19.5 53t-54.5 21q-37 0 -61.5 -27t-24.5 -65q0 -32 19.5 -53t54.5 -21z" />
    <glyph glyph-name="ae" unicode="&#xe6;" horiz-adv-x="1546" 
d="M1477 410l-529 -11q11 -123 115 -123q48 0 77 22.5t46 80.5l309 -135q-59 -135 -175 -202t-310 -67q-238 0 -355 158q-47 -75 -134 -116.5t-199 -41.5q-140 0 -221 71t-81 200q0 101 51.5 170.5t132.5 99.5t187 31l195 2q5 38 22 84v14q0 43 -41 43q-29 0 -40.5 -21.5
t-16.5 -76.5l-389 74q29 152 148.5 228.5t314.5 76.5q166 0 252 -64q125 64 276 64q98 0 176.5 -29t128.5 -78.5t76.5 -114t26.5 -137.5q0 -118 -43 -202zM580 311q-7 47 -7 82h-45q-108 -3 -108 -88q0 -30 17.5 -45.5t45.5 -15.5q80 0 97 67zM1071 680q-44 0 -73 -34
t-42 -91l172 2q11 22 11 51q0 31 -17 51.5t-51 20.5z" />
    <glyph glyph-name="ccedilla" unicode="&#xe7;" horiz-adv-x="1019" 
d="M666 -238q0 -92 -68 -143t-184 -51q-161 0 -252 72l55 155q59 -49 123 -49q53 0 53 41q0 51 -82 51l60 152q-155 32 -246.5 138t-91.5 269q0 261 148 417.5t415 156.5q100 0 179 -32.5t127 -87.5t72.5 -124.5t24.5 -148.5l-350 -46q0 33 -1.5 52t-8.5 42t-23.5 33.5
t-42.5 10.5q-62 0 -98.5 -81t-36.5 -183q0 -68 20.5 -99t65.5 -31q41 0 67 33.5t34 81.5l344 -119q-54 -156 -172.5 -226.5t-300.5 -70.5h-4l-15 -36q86 0 137.5 -49.5t51.5 -127.5z" />
    <glyph glyph-name="egrave" unicode="&#xe8;" horiz-adv-x="1026" 
d="M543 276q48 0 77 22.5t46 80.5l309 -135q-59 -134 -175.5 -201.5t-310.5 -67.5q-206 0 -331 113.5t-125 308.5q0 269 154 421.5t405 152.5q98 0 176.5 -29t128 -78.5t76 -114t26.5 -137.5q0 -118 -43 -202h-530q0 -65 30 -99.5t87 -34.5zM444 557h164q10 20 10 51
t-17 51.5t-50 20.5q-85 0 -107 -123zM803 1055h-328l-303 319h514z" />
    <glyph glyph-name="eacute" unicode="&#xe9;" horiz-adv-x="1026" 
d="M543 276q48 0 77 22.5t46 80.5l309 -135q-59 -134 -175.5 -201.5t-310.5 -67.5q-206 0 -331 113.5t-125 308.5q0 269 154 421.5t405 152.5q98 0 176.5 -29t128 -78.5t76 -114t26.5 -137.5q0 -118 -43 -202h-530q0 -65 30 -99.5t87 -34.5zM444 557h164q10 20 10 51
t-17 51.5t-50 20.5q-85 0 -107 -123zM768 1055h-334l184 319h504z" />
    <glyph glyph-name="ecircumflex" unicode="&#xea;" horiz-adv-x="1026" 
d="M543 276q48 0 77 22.5t46 80.5l309 -135q-59 -134 -175.5 -201.5t-310.5 -67.5q-206 0 -331 113.5t-125 308.5q0 269 154 421.5t405 152.5q98 0 176.5 -29t128 -78.5t76 -114t26.5 -137.5q0 -118 -43 -202h-530q0 -65 30 -99.5t87 -34.5zM444 557h164q10 20 10 51
t-17 51.5t-50 20.5q-85 0 -107 -123zM526 1389h277l264 -334h-348l-43 65q-10 16 -18 31.5t-10 22.5l-3 8h-10q-10 -21 -57 -68l-58 -59h-377z" />
    <glyph glyph-name="edieresis" unicode="&#xeb;" horiz-adv-x="1026" 
d="M543 276q48 0 77 22.5t46 80.5l309 -135q-59 -134 -175.5 -201.5t-310.5 -67.5q-206 0 -331 113.5t-125 308.5q0 269 154 421.5t405 152.5q98 0 176.5 -29t128 -78.5t76 -114t26.5 -137.5q0 -118 -43 -202h-530q0 -65 30 -99.5t87 -34.5zM444 557h164q10 20 10 51
t-17 51.5t-50 20.5q-85 0 -107 -123zM209 1208q0 93 60 145t145 52t144.5 -52t59.5 -145q0 -92 -59.5 -143t-144.5 -51t-145 51t-60 143zM659 1208q0 93 60 145t145 52t145 -52t60 -145q0 -92 -60 -143t-145 -51t-145 51t-60 143z" />
    <glyph glyph-name="igrave" unicode="&#xec;" horiz-adv-x="600" 
d="M555 946l-92 -534q-10 -56 -10 -80q0 -39 34 -39q27 0 68 18l-57 -280q-34 -20 -96 -32.5t-128 -12.5q-125 0 -185 63t-60 176q0 36 8 90l110 631h408zM555 1055h-328l-303 319h514z" />
    <glyph glyph-name="iacute" unicode="&#xed;" horiz-adv-x="600" 
d="M555 946l-92 -534q-10 -56 -10 -80q0 -39 34 -39q27 0 68 18l-57 -280q-34 -20 -96 -32.5t-128 -12.5q-125 0 -185 63t-60 176q0 36 8 90l110 631h408zM520 1055h-334l185 319h503z" />
    <glyph glyph-name="icircumflex" unicode="&#xee;" horiz-adv-x="600" 
d="M555 946l-92 -534q-10 -56 -10 -80q0 -39 34 -39q27 0 68 18l-57 -280q-34 -20 -96 -32.5t-128 -12.5q-125 0 -185 63t-60 176q0 36 8 90l110 631h408zM279 1389h276l264 -334h-348l-43 65q-10 16 -18 31.5t-10 22.5l-3 8h-10q-10 -21 -57 -68l-58 -59h-376z" />
    <glyph glyph-name="idieresis" unicode="&#xef;" horiz-adv-x="600" 
d="M555 946l-92 -534q-10 -56 -10 -80q0 -39 34 -39q27 0 68 18l-57 -280q-34 -20 -96 -32.5t-128 -12.5q-125 0 -185 63t-60 176q0 36 8 90l110 631h408zM-39 1208q0 93 60 145t145 52t145 -52t60 -145q0 -92 -60 -143t-145 -51t-145 51t-60 143zM412 1208q0 93 59.5 145
t144.5 52t145 -52t60 -145q0 -92 -60 -143t-145 -51t-144.5 51t-59.5 143z" />
    <glyph glyph-name="eth" unicode="&#xf0;" horiz-adv-x="1099" 
d="M242 926l-43 125l237 61q-109 76 -233 123l370 151q139 -65 248 -174l168 45l43 -124l-117 -31q152 -215 152 -473q0 -314 -144.5 -484t-424.5 -170q-204 0 -334.5 112.5t-130.5 309.5q0 247 118.5 377.5t327.5 130.5q59 0 110.5 -20.5t72.5 -46.5h8q-31 85 -113 170z
M528 276q60 0 97 84t37 193q0 55 -23.5 86t-67.5 31q-60 0 -96.5 -83.5t-36.5 -193.5q0 -55 23 -86t67 -31z" />
    <glyph glyph-name="ntilde" unicode="&#xf1;" horiz-adv-x="1163" 
d="M1069 649l-39 -237q-10 -56 -10 -80q0 -39 35 -39q26 0 67 18l-57 -280q-34 -20 -95.5 -32.5t-127.5 -12.5q-125 0 -185.5 63t-60.5 176q0 36 8 90l39 234q4 32 4 45q0 57 -51 57q-41 0 -64.5 -41t-42.5 -147l-79 -463h-410l166 946h332l20 -192q66 217 289 217
q122 0 195 -66.5t73 -175.5q0 -43 -6 -80zM651 1092q-39 25 -57.5 34t-38.5 9q-67 0 -84 -91h-205q0 63 8 116t26.5 100.5t47.5 80.5t73.5 52.5t102.5 19.5q35 0 64.5 -7.5t47.5 -17t48 -28.5q39 -25 57.5 -34t38.5 -9q67 0 84 90h205q0 -63 -8 -116t-26.5 -100.5
t-47.5 -80.5t-73.5 -52.5t-102.5 -19.5q-35 0 -65 8t-47 17t-48 29z" />
    <glyph glyph-name="ograve" unicode="&#xf2;" horiz-adv-x="1099" 
d="M602 971q204 0 334.5 -112t130.5 -308q0 -170 -62.5 -298.5t-192.5 -203t-314 -74.5q-204 0 -334.5 112.5t-130.5 309.5q0 169 62.5 297t192.5 202.5t314 74.5zM528 276q60 0 97 84t37 193q0 55 -23.5 86t-67.5 31q-60 0 -96.5 -83.5t-36.5 -193.5q0 -55 23 -86t67 -31z
M836 1055h-328l-303 319h514z" />
    <glyph glyph-name="oacute" unicode="&#xf3;" horiz-adv-x="1099" 
d="M602 971q204 0 334.5 -112t130.5 -308q0 -170 -62.5 -298.5t-192.5 -203t-314 -74.5q-204 0 -334.5 112.5t-130.5 309.5q0 169 62.5 297t192.5 202.5t314 74.5zM528 276q60 0 97 84t37 193q0 55 -23.5 86t-67.5 31q-60 0 -96.5 -83.5t-36.5 -193.5q0 -55 23 -86t67 -31z
M801 1055h-334l184 319h504z" />
    <glyph glyph-name="ocircumflex" unicode="&#xf4;" horiz-adv-x="1099" 
d="M602 971q204 0 334.5 -112t130.5 -308q0 -170 -62.5 -298.5t-192.5 -203t-314 -74.5q-204 0 -334.5 112.5t-130.5 309.5q0 169 62.5 297t192.5 202.5t314 74.5zM528 276q60 0 97 84t37 193q0 55 -23.5 86t-67.5 31q-60 0 -96.5 -83.5t-36.5 -193.5q0 -55 23 -86t67 -31z
M559 1389h277l264 -334h-348l-43 65q-10 16 -18 31.5t-11 22.5l-2 8h-10q-11 -21 -58 -68l-57 -59h-377z" />
    <glyph glyph-name="otilde" unicode="&#xf5;" horiz-adv-x="1099" 
d="M602 971q204 0 334.5 -112t130.5 -308q0 -170 -62.5 -298.5t-192.5 -203t-314 -74.5q-204 0 -334.5 112.5t-130.5 309.5q0 169 62.5 297t192.5 202.5t314 74.5zM528 276q60 0 97 84t37 193q0 55 -23.5 86t-67.5 31q-60 0 -96.5 -83.5t-36.5 -193.5q0 -55 23 -86t67 -31z
M666 1092q-38 25 -57 34t-40 9q-67 0 -84 -91h-204q0 63 8 116t26.5 100.5t47.5 80.5t73.5 52.5t102.5 19.5q50 0 82 -12.5t77 -40.5q38 -25 57 -34t40 -9q67 0 84 90h204q0 -63 -8 -116t-26.5 -100.5t-47.5 -80.5t-73.5 -52.5t-102.5 -19.5q-35 0 -64.5 8t-46.5 17t-48 29z
" />
    <glyph glyph-name="odieresis" unicode="&#xf6;" horiz-adv-x="1099" 
d="M602 971q204 0 334.5 -112t130.5 -308q0 -170 -62.5 -298.5t-192.5 -203t-314 -74.5q-204 0 -334.5 112.5t-130.5 309.5q0 169 62.5 297t192.5 202.5t314 74.5zM528 276q60 0 97 84t37 193q0 55 -23.5 86t-67.5 31q-60 0 -96.5 -83.5t-36.5 -193.5q0 -55 23 -86t67 -31z
M242 1208q0 93 59.5 145t144.5 52t145 -52t60 -145q0 -92 -60 -143t-145 -51t-144.5 51t-59.5 143zM692 1208q0 93 60 145t145 52t145 -52t60 -145q0 -92 -60 -143t-145 -51t-145 51t-60 143z" />
    <glyph glyph-name="divide" unicode="&#xf7;" horiz-adv-x="1019" 
d="M895 397h-836l39 221h836zM283 166q0 62 42 105.5t103 43.5t104 -43.5t43 -105.5q0 -60 -42.5 -101.5t-104.5 -41.5q-61 0 -103 41.5t-42 101.5zM408 844q0 62 42 105.5t103 43.5t104 -43.5t43 -105.5q0 -60 -43 -102t-104 -42t-103 42t-42 102z" />
    <glyph glyph-name="oslash" unicode="&#xf8;" horiz-adv-x="1099" 
d="M-10 80l102 90q-59 97 -59 227q0 169 62.5 297t192.5 202.5t314 74.5q176 0 303 -88l101 88l102 -105l-102 -90q61 -95 61 -225q0 -170 -62.5 -298.5t-192.5 -203t-314 -74.5q-178 0 -305 88l-101 -88zM524 268q74 0 120 61t52 177l-245 -215q33 -23 73 -23zM578 678
q-74 0 -121 -61t-54 -175l244 215q-32 21 -69 21z" />
    <glyph glyph-name="ugrave" unicode="&#xf9;" horiz-adv-x="1153" 
d="M1110 946l-94 -534q-10 -56 -10 -80q0 -39 34 -39q27 0 68 18l-57 -280q-34 -20 -96 -32.5t-128 -12.5q-110 0 -163 49.5t-64 144.5q-63 -205 -315 -205q-116 0 -186 66.5t-70 181.5q0 55 10 121l106 602h408l-90 -524q-8 -47 -8 -72q0 -55 51 -55q42 0 69.5 42.5
t45.5 145.5l79 463h410zM834 1055h-328l-303 319h514z" />
    <glyph glyph-name="uacute" unicode="&#xfa;" horiz-adv-x="1153" 
d="M1110 946l-94 -534q-10 -56 -10 -80q0 -39 34 -39q27 0 68 18l-57 -280q-34 -20 -96 -32.5t-128 -12.5q-110 0 -163 49.5t-64 144.5q-63 -205 -315 -205q-116 0 -186 66.5t-70 181.5q0 55 10 121l106 602h408l-90 -524q-8 -47 -8 -72q0 -55 51 -55q42 0 69.5 42.5
t45.5 145.5l79 463h410zM799 1055h-334l184 319h504z" />
    <glyph glyph-name="ucircumflex" unicode="&#xfb;" horiz-adv-x="1153" 
d="M1110 946l-94 -534q-10 -56 -10 -80q0 -39 34 -39q27 0 68 18l-57 -280q-34 -20 -96 -32.5t-128 -12.5q-110 0 -163 49.5t-64 144.5q-63 -205 -315 -205q-116 0 -186 66.5t-70 181.5q0 55 10 121l106 602h408l-90 -524q-8 -47 -8 -72q0 -55 51 -55q42 0 69.5 42.5
t45.5 145.5l79 463h410zM557 1389h277l264 -334h-348l-43 65q-10 16 -18 31.5t-11 22.5l-2 8h-10q-11 -21 -58 -68l-57 -59h-377z" />
    <glyph glyph-name="udieresis" unicode="&#xfc;" horiz-adv-x="1153" 
d="M1110 946l-94 -534q-10 -56 -10 -80q0 -39 34 -39q27 0 68 18l-57 -280q-34 -20 -96 -32.5t-128 -12.5q-110 0 -163 49.5t-64 144.5q-63 -205 -315 -205q-116 0 -186 66.5t-70 181.5q0 55 10 121l106 602h408l-90 -524q-8 -47 -8 -72q0 -55 51 -55q42 0 69.5 42.5
t45.5 145.5l79 463h410zM240 1208q0 93 59.5 145t144.5 52t145 -52t60 -145q0 -92 -60 -143t-145 -51t-144.5 51t-59.5 143zM690 1208q0 93 60 145t145 52t145 -52t60 -145q0 -92 -60 -143t-145 -51t-145 51t-60 143z" />
    <glyph glyph-name="yacute" unicode="&#xfd;" horiz-adv-x="1116" 
d="M492 946l30 -278q7 -68 7.5 -141.5t-2.5 -112.5l-3 -39h8q33 146 111 289l156 282h409l-585 -1030q-61 -107 -126 -178.5t-132.5 -107t-129 -49t-135.5 -13.5q-66 0 -126 16t-91 39l107 320q50 -37 119 -37q43 0 78 27t51 85l-158 928h412zM819 1055h-334l185 319h504z
" />
    <glyph glyph-name="thorn" unicode="&#xfe;" horiz-adv-x="1175" 
d="M500 518l-17 -88q-8 -41 -8 -78q0 -42 20.5 -67t57.5 -25q70 0 115 91t45 208q0 53 -23 84t-63 31q-98 0 -127 -156zM436 154l-100 -570h-410l314 1784h411l-102 -567q78 170 264 170q160 0 245 -102t85 -298q0 -164 -56 -299.5t-161 -216t-240 -80.5q-217 0 -250 179z
" />
    <glyph glyph-name="ydieresis" unicode="&#xff;" horiz-adv-x="1116" 
d="M492 946l30 -278q7 -68 7.5 -141.5t-2.5 -112.5l-3 -39h8q33 146 111 289l156 282h409l-585 -1030q-61 -107 -126 -178.5t-132.5 -107t-129 -49t-135.5 -13.5q-66 0 -126 16t-91 39l107 320q50 -37 119 -37q43 0 78 27t51 85l-158 928h412zM236 1208q0 93 59.5 145
t144.5 52t145 -52t60 -145q0 -92 -60 -143t-145 -51t-144.5 51t-59.5 143zM686 1208q0 93 60 145t145 52t145 -52t60 -145q0 -92 -60 -143t-145 -51t-145 51t-60 143z" />
    <glyph glyph-name="Amacron" unicode="&#x100;" horiz-adv-x="1384" 
d="M874 0l-24 164h-389l-84 -164h-440l630 1206h549l182 -1206h-424zM694 651l-76 -174h189l-21 174q-5 43 -8.5 93.5t-4.5 79.5l-1 30h-8q-27 -103 -70 -203zM1196 1284h-707l52 289h706z" />
    <glyph glyph-name="amacron" unicode="&#x101;" horiz-adv-x="1216" 
d="M1174 946l-95 -534q-10 -56 -10 -80q0 -39 35 -39q26 0 67 18l-57 -280q-34 -20 -95 -32.5t-124 -12.5q-99 0 -161.5 50t-74.5 138q-36 -88 -112 -143.5t-180 -55.5q-153 0 -243.5 103.5t-90.5 296.5q0 162 55.5 297.5t161 217t239.5 81.5q210 0 259 -180l92 155h334z
M670 422l16 88q8 41 8 78q0 42 -20.5 67t-57.5 25q-47 0 -82.5 -44.5t-53 -111.5t-17.5 -143q0 -54 20.5 -84.5t59.5 -30.5q98 0 127 156zM1073 1055h-706l51 288h706z" />
    <glyph glyph-name="Abreve" unicode="&#x102;" horiz-adv-x="1384" 
d="M874 0l-24 164h-389l-84 -164h-440l630 1206h549l182 -1206h-424zM694 651l-76 -174h189l-21 174q-5 43 -8.5 93.5t-4.5 79.5l-1 30h-8q-27 -103 -70 -203zM821 1274q-153 0 -230 71.5t-77 188.5q0 52 8 96h285q-4 -28 -4 -41q0 -59 59 -59q40 0 60 25t28 75h281
q-11 -62 -28 -111.5t-48.5 -96.5t-75 -78.5t-109 -50.5t-149.5 -19z" />
    <glyph glyph-name="abreve" unicode="&#x103;" horiz-adv-x="1216" 
d="M1174 946l-95 -534q-10 -56 -10 -80q0 -39 35 -39q26 0 67 18l-57 -280q-34 -20 -95 -32.5t-124 -12.5q-99 0 -161.5 50t-74.5 138q-36 -88 -112 -143.5t-180 -55.5q-153 0 -243.5 103.5t-90.5 296.5q0 162 55.5 297.5t161 217t239.5 81.5q210 0 259 -180l92 155h334z
M670 422l16 88q8 41 8 78q0 42 -20.5 67t-57.5 25q-47 0 -82.5 -44.5t-53 -111.5t-17.5 -143q0 -54 20.5 -84.5t59.5 -30.5q98 0 127 156zM721 1044q-153 0 -230 72t-77 189q0 52 8 96h285q-5 -35 -5 -41q0 -60 60 -60q40 0 60 25.5t28 75.5h280q-13 -79 -38 -138.5
t-70.5 -111.5t-121 -79.5t-179.5 -27.5z" />
    <glyph glyph-name="Aogonek" unicode="&#x104;" horiz-adv-x="1384" 
d="M598 -193q0 113 74.5 185.5t187.5 103.5l-10 68h-389l-84 -164h-440l630 1206h549l182 -1206h-241q-82 0 -121 -33.5t-39 -79.5q0 -65 76 -65q63 0 123 51l82 -205q-57 -53 -123 -76.5t-158 -23.5q-60 0 -111.5 12.5t-94.5 39t-68 74.5t-25 113zM694 651l-76 -174h189
l-21 174q-5 43 -8.5 93.5t-4.5 79.5l-1 30h-8q-27 -103 -70 -203z" />
    <glyph glyph-name="aogonek" unicode="&#x105;" horiz-adv-x="1216" 
d="M588 -193q0 152 137 236q-57 48 -66 131q-36 -88 -112 -143.5t-180 -55.5q-153 0 -243.5 103.5t-90.5 296.5q0 162 55.5 297.5t161 217t239.5 81.5q210 0 259 -180l92 155h334l-95 -534q-10 -56 -10 -80q0 -39 35 -39q26 0 67 18l-57 -280q-41 -6 -71 -12.5t-61.5 -18
t-50.5 -26t-31.5 -36.5t-12.5 -51q0 -65 76 -65q62 0 122 51l82 -205q-57 -53 -122.5 -76.5t-157.5 -23.5q-60 0 -111.5 12.5t-94.5 39t-68 74.5t-25 113zM670 422l16 88q8 41 8 78q0 42 -20.5 67t-57.5 25q-47 0 -82.5 -44.5t-53 -111.5t-17.5 -143q0 -54 20.5 -84.5
t59.5 -30.5q98 0 127 156z" />
    <glyph glyph-name="Cacute" unicode="&#x106;" horiz-adv-x="1210" 
d="M512 479q0 -66 30 -109.5t91 -43.5q65 0 100 37.5t53 113.5l404 -141q-108 -361 -582 -361q-248 0 -392 138t-144 372q0 180 49.5 322.5t138.5 234.5t211.5 140.5t269.5 48.5q220 0 353 -101t157 -278l-424 -117q0 146 -108 146q-133 0 -182 -215q-25 -119 -25 -187z
M924 1284h-334l184 320h504z" />
    <glyph glyph-name="cacute" unicode="&#x107;" horiz-adv-x="1019" 
d="M625 391l344 -119q-54 -156 -172.5 -226.5t-300.5 -70.5q-203 0 -333 113.5t-130 308.5q0 261 148 417.5t415 156.5q100 0 179 -32.5t127 -87.5t72.5 -124.5t24.5 -148.5l-350 -46q0 33 -1.5 52t-8.5 42t-23.5 33.5t-42.5 10.5q-62 0 -98.5 -81t-36.5 -183
q0 -68 20.5 -99t65.5 -31q41 0 67 33.5t34 81.5zM780 1055h-334l185 319h504z" />
    <glyph glyph-name="Ccircumflex" unicode="&#x108;" horiz-adv-x="1210" 
d="M512 479q0 -66 30 -109.5t91 -43.5q65 0 100 37.5t53 113.5l404 -141q-108 -361 -582 -361q-248 0 -392 138t-144 372q0 180 49.5 322.5t138.5 234.5t211.5 140.5t269.5 48.5q220 0 353 -101t157 -278l-424 -117q0 146 -108 146q-133 0 -182 -215q-25 -119 -25 -187z
M733 1618h277l264 -334h-348l-43 66q-10 16 -18 31t-11 23l-2 7h-10q-11 -21 -58 -68l-57 -59h-377z" />
    <glyph glyph-name="ccircumflex" unicode="&#x109;" horiz-adv-x="1019" 
d="M625 391l344 -119q-54 -156 -172.5 -226.5t-300.5 -70.5q-203 0 -333 113.5t-130 308.5q0 261 148 417.5t415 156.5q100 0 179 -32.5t127 -87.5t72.5 -124.5t24.5 -148.5l-350 -46q0 33 -1.5 52t-8.5 42t-23.5 33.5t-42.5 10.5q-62 0 -98.5 -81t-36.5 -183
q0 -68 20.5 -99t65.5 -31q41 0 67 33.5t34 81.5zM526 1389h277l264 -334h-348l-43 65q-10 16 -18 31.5t-10 22.5l-3 8h-10q-10 -21 -57 -68l-58 -59h-377z" />
    <glyph glyph-name="Cdotaccent" unicode="&#x10a;" horiz-adv-x="1210" 
d="M512 479q0 -66 30 -109.5t91 -43.5q65 0 100 37.5t53 113.5l404 -141q-108 -361 -582 -361q-248 0 -392 138t-144 372q0 180 49.5 322.5t138.5 234.5t211.5 140.5t269.5 48.5q220 0 353 -101t157 -278l-424 -117q0 146 -108 146q-133 0 -182 -215q-25 -119 -25 -187z
M582 1479q0 100 68 155.5t165 55.5t165.5 -55.5t68.5 -155.5t-68.5 -155.5t-165.5 -55.5t-165 55.5t-68 155.5z" />
    <glyph glyph-name="cdotaccent" unicode="&#x10b;" horiz-adv-x="1019" 
d="M625 391l344 -119q-54 -156 -172.5 -226.5t-300.5 -70.5q-203 0 -333 113.5t-130 308.5q0 261 148 417.5t415 156.5q100 0 179 -32.5t127 -87.5t72.5 -124.5t24.5 -148.5l-350 -46q0 33 -1.5 52t-8.5 42t-23.5 33.5t-42.5 10.5q-62 0 -98.5 -81t-36.5 -183
q0 -68 20.5 -99t65.5 -31q41 0 67 33.5t34 81.5zM432 1214q0 100 68.5 155.5t165.5 55.5t165 -55.5t68 -155.5t-68 -155t-165 -55q-98 0 -166 55t-68 155z" />
    <glyph glyph-name="Ccaron" unicode="&#x10c;" horiz-adv-x="1210" 
d="M512 479q0 -66 30 -109.5t91 -43.5q65 0 100 37.5t53 113.5l404 -141q-108 -361 -582 -361q-248 0 -392 138t-144 372q0 180 49.5 322.5t138.5 234.5t211.5 140.5t269.5 48.5q220 0 353 -101t157 -278l-424 -117q0 146 -108 146q-133 0 -182 -215q-25 -119 -25 -187z
M932 1284h-277l-264 334h348l43 -66q10 -16 18 -31t10 -23l3 -7h10q11 21 58 68l57 59h377z" />
    <glyph glyph-name="ccaron" unicode="&#x10d;" horiz-adv-x="1019" 
d="M625 391l344 -119q-54 -156 -172.5 -226.5t-300.5 -70.5q-203 0 -333 113.5t-130 308.5q0 261 148 417.5t415 156.5q100 0 179 -32.5t127 -87.5t72.5 -124.5t24.5 -148.5l-350 -46q0 33 -1.5 52t-8.5 42t-23.5 33.5t-42.5 10.5q-62 0 -98.5 -81t-36.5 -183
q0 -68 20.5 -99t65.5 -31q41 0 67 33.5t34 81.5zM780 1055h-276l-264 334h348l43 -66q10 -16 18 -31t11 -22l2 -8h10q10 20 57 67l57 60h377z" />
    <glyph glyph-name="Dcaron" unicode="&#x10e;" horiz-adv-x="1294" 
d="M512 346h84q114 0 166.5 61t75.5 218q6 44 6 75q0 90 -41.5 125t-120.5 35h-80zM567 0h-544l210 1206h488q268 0 413.5 -125t145.5 -366q0 -362 -183.5 -538.5t-529.5 -176.5zM864 1284h-276l-264 334h348l43 -66q10 -16 17.5 -31t9.5 -23l3 -7h11q10 21 57 68l57 59h377
z" />
    <glyph glyph-name="dcaron" unicode="&#x10f;" horiz-adv-x="1222" 
d="M1255 1368l-170 -956q-10 -56 -10 -80q0 -39 35 -39q27 0 68 18l-58 -280q-34 -20 -95 -32.5t-124 -12.5q-99 0 -161 50t-74 138q-35 -87 -114.5 -143t-184.5 -56q-153 0 -243.5 103.5t-90.5 296.5q0 162 55.5 297.5t161 217t239.5 81.5q103 0 167.5 -41.5t86.5 -118.5
l99 557h413zM676 422l16 88q8 41 8 78q0 42 -20 67t-57 25q-70 0 -115 -91t-45 -208q0 -53 23 -84t63 -31q98 0 127 156zM1747 1368l-191 -362h-294l86 362h399z" />
    <glyph glyph-name="Dcroat" unicode="&#x110;" horiz-adv-x="1294" 
d="M2 459l51 293h115l80 454h473q268 0 413.5 -125t145.5 -366q0 -362 -183.5 -538.5t-529.5 -176.5h-530l80 459h-115zM512 346h84q114 0 166.5 61t75.5 218q6 44 6 75q0 90 -41.5 125t-120.5 35h-80l-20 -108h125l-52 -293h-125z" />
    <glyph glyph-name="dcroat" unicode="&#x111;" horiz-adv-x="1222" 
d="M1255 1368l-20 -117h117l-39 -217h-117l-111 -622q-10 -56 -10 -80q0 -39 35 -39q27 0 68 18l-58 -280q-34 -20 -95 -32.5t-124 -12.5q-99 0 -161 50t-74 138q-35 -87 -114.5 -143t-184.5 -56q-153 0 -243.5 103.5t-90.5 296.5q0 162 55.5 297.5t161 217t239.5 81.5
q103 0 167.5 -41.5t86.5 -118.5l39 223h-245l38 217h246l21 117h413zM676 422l16 88q8 41 8 78q0 42 -20 67t-57 25q-70 0 -115 -91t-45 -208q0 -53 23 -84t63 -31q98 0 127 156z" />
    <glyph glyph-name="Emacron" unicode="&#x112;" horiz-adv-x="1081" 
d="M991 344l-59 -344h-909l210 1206h910l-62 -344h-495l-21 -108h432l-49 -301h-434l-20 -109h497zM1034 1284h-706l51 289h706z" />
    <glyph glyph-name="emacron" unicode="&#x113;" horiz-adv-x="1026" 
d="M543 276q48 0 77 22.5t46 80.5l309 -135q-59 -134 -175.5 -201.5t-310.5 -67.5q-206 0 -331 113.5t-125 308.5q0 269 154 421.5t405 152.5q98 0 176.5 -29t128 -78.5t76 -114t26.5 -137.5q0 -118 -43 -202h-530q0 -65 30 -99.5t87 -34.5zM444 557h164q10 20 10 51
t-17 51.5t-50 20.5q-85 0 -107 -123zM971 1055h-707l51 288h707z" />
    <glyph glyph-name="Ebreve" unicode="&#x114;" horiz-adv-x="1081" 
d="M991 344l-59 -344h-909l210 1206h910l-62 -344h-495l-21 -108h432l-49 -301h-434l-20 -109h497zM659 1274q-153 0 -230 71.5t-77 188.5q0 52 8 96h285q-4 -28 -4 -41q0 -59 59 -59q40 0 60 25t28 75h281q-11 -62 -28 -111.5t-48.5 -96.5t-75 -78.5t-109 -50.5t-149.5 -19
z" />
    <glyph glyph-name="ebreve" unicode="&#x115;" horiz-adv-x="1026" 
d="M543 276q48 0 77 22.5t46 80.5l309 -135q-59 -134 -175.5 -201.5t-310.5 -67.5q-206 0 -331 113.5t-125 308.5q0 269 154 421.5t405 152.5q98 0 176.5 -29t128 -78.5t76 -114t26.5 -137.5q0 -118 -43 -202h-530q0 -65 30 -99.5t87 -34.5zM444 557h164q10 20 10 51
t-17 51.5t-50 20.5q-85 0 -107 -123zM618 1044q-153 0 -230 72t-77 189q0 52 8 96h285q-4 -28 -4 -41q0 -60 59 -60q40 0 60.5 25.5t28.5 75.5h280q-11 -62 -28 -111.5t-48.5 -97t-75 -79t-109 -50.5t-149.5 -19z" />
    <glyph glyph-name="Edotaccent" unicode="&#x116;" horiz-adv-x="1081" 
d="M991 344l-59 -344h-909l210 1206h910l-62 -344h-495l-21 -108h432l-49 -301h-434l-20 -109h497zM481 1479q0 100 68.5 155.5t165.5 55.5t165 -55.5t68 -155.5t-68 -155.5t-165 -55.5t-165.5 55.5t-68.5 155.5z" />
    <glyph glyph-name="edotaccent" unicode="&#x117;" horiz-adv-x="1026" 
d="M543 276q48 0 77 22.5t46 80.5l309 -135q-59 -134 -175.5 -201.5t-310.5 -67.5q-206 0 -331 113.5t-125 308.5q0 269 154 421.5t405 152.5q98 0 176.5 -29t128 -78.5t76 -114t26.5 -137.5q0 -118 -43 -202h-530q0 -65 30 -99.5t87 -34.5zM444 557h164q10 20 10 51
t-17 51.5t-50 20.5q-85 0 -107 -123zM420 1214q0 100 68 155.5t165 55.5t165.5 -55.5t68.5 -155.5t-68 -155t-166 -55q-97 0 -165 55t-68 155z" />
    <glyph glyph-name="Eogonek" unicode="&#x118;" horiz-adv-x="1081" 
d="M395 -201q0 137 107 201h-479l210 1206h910l-62 -344h-495l-21 -108h432l-49 -301h-434l-20 -109h497l-59 -344h-98q-71 0 -107.5 -30.5t-36.5 -80.5q0 -32 21 -49.5t59 -17.5q63 0 123 51l82 -205q-57 -53 -123 -76.5t-158 -23.5q-60 0 -111.5 12.5t-94.5 38.5t-68 72
t-25 108z" />
    <glyph glyph-name="eogonek" unicode="&#x119;" horiz-adv-x="1026" 
d="M283 -193q0 109 71 183q-150 34 -235.5 140t-85.5 267q0 269 154 421.5t405 152.5q98 0 176.5 -29t128 -78.5t76 -114t26.5 -137.5q0 -118 -43 -202h-530q0 -65 30 -99.5t87 -34.5q48 0 77 22.5t46 80.5l309 -135q-41 -95 -107.5 -146.5t-175.5 -91.5q-110 -40 -110 -119
q0 -65 75 -65q63 0 123 51l82 -205q-57 -53 -122.5 -76.5t-157.5 -23.5q-60 0 -111.5 12.5t-94.5 39t-68 74.5t-25 113zM444 557h164q10 20 10 51t-17 51.5t-50 20.5q-85 0 -107 -123z" />
    <glyph glyph-name="Ecaron" unicode="&#x11a;" horiz-adv-x="1081" 
d="M991 344l-59 -344h-909l210 1206h910l-62 -344h-495l-21 -108h432l-49 -301h-434l-20 -109h497zM831 1284h-276l-264 334h348l43 -66q10 -16 18 -31t10 -23l3 -7h10q10 21 57 68l58 59h376z" />
    <glyph glyph-name="ecaron" unicode="&#x11b;" horiz-adv-x="1026" 
d="M543 276q48 0 77 22.5t46 80.5l309 -135q-59 -134 -175.5 -201.5t-310.5 -67.5q-206 0 -331 113.5t-125 308.5q0 269 154 421.5t405 152.5q98 0 176.5 -29t128 -78.5t76 -114t26.5 -137.5q0 -118 -43 -202h-530q0 -65 30 -99.5t87 -34.5zM444 557h164q10 20 10 51
t-17 51.5t-50 20.5q-85 0 -107 -123zM768 1055h-276l-265 334h348l43 -66q10 -16 18 -31t10 -22l3 -8h10q11 20 58 67l57 60h377z" />
    <glyph glyph-name="Gcircumflex" unicode="&#x11c;" horiz-adv-x="1308" 
d="M725 678h553l-119 -678h-260l-22 154q-32 -87 -123 -133t-205 -46q-223 0 -350 131t-127 379q0 180 49.5 322.5t138.5 234.5t211.5 140.5t269.5 48.5q223 0 368.5 -102.5t168.5 -276.5l-424 -117q0 68 -33 107t-90 39t-99 -35t-62 -79.5t-31 -100.5q-27 -114 -27 -187
q0 -82 37.5 -128t114.5 -46q55 0 96.5 25t50.5 67l4 19h-135zM705 1618h276l264 -334h-348l-43 66q-10 16 -18 31t-10 23l-3 7h-10q-10 -21 -57 -68l-58 -59h-376z" />
    <glyph glyph-name="gcircumflex" unicode="&#x11d;" horiz-adv-x="1144" 
d="M594 84l22 119q-59 -172 -270 -172q-133 0 -224 91t-91 259q0 116 29 221t82 188t137 132t186 49q223 0 270 -174l90 149h330l-154 -885q-23 -134 -79 -230.5t-141 -153.5t-189.5 -83t-235.5 -26q-165 0 -289.5 55.5t-185.5 161.5l246 248q81 -156 244 -156
q185 0 223 207zM662 459l12 78q6 30 6 61q0 44 -22 68t-62 24q-62 0 -102.5 -86.5t-40.5 -185.5q0 -53 21.5 -82t57.5 -29q52 0 85 40t45 112zM594 1389h276l265 -334h-349l-43 65q-10 16 -17.5 31.5t-9.5 22.5l-3 8h-11q-10 -21 -57 -68l-57 -59h-377z" />
    <glyph glyph-name="Gbreve" unicode="&#x11e;" horiz-adv-x="1308" 
d="M725 678h553l-119 -678h-260l-22 154q-32 -87 -123 -133t-205 -46q-223 0 -350 131t-127 379q0 180 49.5 322.5t138.5 234.5t211.5 140.5t269.5 48.5q223 0 368.5 -102.5t168.5 -276.5l-424 -117q0 68 -33 107t-90 39t-99 -35t-62 -79.5t-31 -100.5q-27 -114 -27 -187
q0 -82 37.5 -128t114.5 -46q55 0 96.5 25t50.5 67l4 19h-135zM772 1274q-153 0 -230 71.5t-77 188.5q0 52 8 96h285q-4 -28 -4 -41q0 -59 59 -59q40 0 60 25t28 75h281q-11 -62 -28 -111.5t-48.5 -96.5t-75 -78.5t-109 -50.5t-149.5 -19z" />
    <glyph glyph-name="gbreve" unicode="&#x11f;" horiz-adv-x="1144" 
d="M594 84l22 119q-59 -172 -270 -172q-133 0 -224 91t-91 259q0 116 29 221t82 188t137 132t186 49q223 0 270 -174l90 149h330l-154 -885q-23 -134 -79 -230.5t-141 -153.5t-189.5 -83t-235.5 -26q-165 0 -289.5 55.5t-185.5 161.5l246 248q81 -156 244 -156
q185 0 223 207zM662 459l12 78q6 30 6 61q0 44 -22 68t-62 24q-62 0 -102.5 -86.5t-40.5 -185.5q0 -53 21.5 -82t57.5 -29q52 0 85 40t45 112zM684 1044q-153 0 -230 72t-77 189q0 52 8 96h285q-4 -28 -4 -41q0 -60 59 -60q40 0 60 25.5t28 75.5h281q-11 -62 -28 -111.5
t-48.5 -97t-75 -79t-109 -50.5t-149.5 -19z" />
    <glyph glyph-name="Gdotaccent" unicode="&#x120;" horiz-adv-x="1308" 
d="M725 678h553l-119 -678h-260l-22 154q-32 -87 -123 -133t-205 -46q-223 0 -350 131t-127 379q0 180 49.5 322.5t138.5 234.5t211.5 140.5t269.5 48.5q223 0 368.5 -102.5t168.5 -276.5l-424 -117q0 68 -33 107t-90 39t-99 -35t-62 -79.5t-31 -100.5q-27 -114 -27 -187
q0 -82 37.5 -128t114.5 -46q55 0 96.5 25t50.5 67l4 19h-135zM573 1479q0 100 68.5 155.5t165.5 55.5t165 -55.5t68 -155.5t-68 -155.5t-165 -55.5t-165.5 55.5t-68.5 155.5z" />
    <glyph glyph-name="gdotaccent" unicode="&#x121;" horiz-adv-x="1144" 
d="M594 84l22 119q-59 -172 -270 -172q-133 0 -224 91t-91 259q0 116 29 221t82 188t137 132t186 49q223 0 270 -174l90 149h330l-154 -885q-23 -134 -79 -230.5t-141 -153.5t-189.5 -83t-235.5 -26q-165 0 -289.5 55.5t-185.5 161.5l246 248q81 -156 244 -156
q185 0 223 207zM662 459l12 78q6 30 6 61q0 44 -22 68t-62 24q-62 0 -102.5 -86.5t-40.5 -185.5q0 -53 21.5 -82t57.5 -29q52 0 85 40t45 112zM487 1214q0 100 68.5 155.5t165.5 55.5t165 -55.5t68 -155.5t-68 -155t-165 -55q-98 0 -166 55t-68 155z" />
    <glyph glyph-name="Gcommaaccent" unicode="&#x122;" horiz-adv-x="1308" 
d="M725 678h553l-119 -678h-260l-22 154q-32 -87 -123 -133t-205 -46q-223 0 -350 131t-127 379q0 180 49.5 322.5t138.5 234.5t211.5 140.5t269.5 48.5q223 0 368.5 -102.5t168.5 -276.5l-424 -117q0 68 -33 107t-90 39t-99 -35t-62 -79.5t-31 -100.5q-27 -114 -27 -187
q0 -82 37.5 -128t114.5 -46q55 0 96.5 25t50.5 67l4 19h-135zM741 -272q0 -75 -30.5 -130t-86.5 -86.5t-125 -46t-155 -14.5v119q191 0 191 63q-47 0 -85 11.5t-67 46.5t-29 90q0 81 52.5 122.5t134.5 41.5q91 0 145.5 -62t54.5 -155z" />
    <glyph glyph-name="gcommaaccent" unicode="&#x123;" horiz-adv-x="1144" 
d="M594 84l22 119q-59 -172 -270 -172q-133 0 -224 91t-91 259q0 116 29 221t82 188t137 132t186 49q223 0 270 -174l90 149h330l-154 -885q-23 -134 -79 -230.5t-141 -153.5t-189.5 -83t-235.5 -26q-165 0 -289.5 55.5t-185.5 161.5l246 248q81 -156 244 -156
q185 0 223 207zM662 459l12 78q6 30 6 61q0 44 -22 68t-62 24q-62 0 -102.5 -86.5t-40.5 -185.5q0 -53 21.5 -82t57.5 -29q52 0 85 40t45 112zM545 1233q0 147 110.5 220t286.5 73v-119q-190 0 -190 -64q34 0 64 -7t57 -22.5t43 -45.5t16 -72q0 -81 -52.5 -122.5
t-134.5 -41.5q-93 0 -146.5 54.5t-53.5 146.5z" />
    <glyph glyph-name="Hcircumflex" unicode="&#x124;" horiz-adv-x="1329" 
d="M23 0l210 1206h429l-74 -413h274l74 413h428l-211 -1206h-428l76 432h-275l-75 -432h-428zM723 1618h276l265 -334h-349l-43 66q-10 16 -17.5 31t-10.5 23l-2 7h-11q-10 -21 -57 -68l-57 -59h-377z" />
    <glyph glyph-name="hcircumflex" unicode="&#x125;" horiz-adv-x="1163" 
d="M651 1368l-104 -586q31 93 100.5 141t159.5 48q122 0 195 -66.5t73 -175.5q0 -43 -6 -80l-39 -237q-10 -56 -10 -80q0 -39 35 -39q26 0 67 18l-57 -280q-34 -20 -95.5 -32.5t-127.5 -12.5q-125 0 -185.5 63t-60.5 176q0 36 8 90l39 234q4 32 4 45q0 57 -51 57
q-41 0 -64.5 -41t-42.5 -147l-79 -463h-410l240 1368h411zM358 1745h277l264 -334h-348l-43 66q-10 16 -18 31t-10 22l-3 8h-10q-10 -21 -57 -68l-58 -59h-377z" />
    <glyph glyph-name="Hbar" unicode="&#x126;" horiz-adv-x="1345" 
d="M53 807l47 272h121l23 127h428l-23 -127h264l23 127h428l-23 -127h127l-47 -272h-127l-141 -807h-428l66 371h-265l-65 -371h-428l141 807h-121zM582 690h264l20 117h-264z" />
    <glyph glyph-name="hbar" unicode="&#x127;" horiz-adv-x="1163" 
d="M651 1368l-20 -117h258l-39 -217h-258l-45 -252q31 93 100.5 141t159.5 48q122 0 195 -66.5t73 -175.5q0 -43 -6 -80l-39 -237q-10 -56 -10 -80q0 -39 35 -39q26 0 67 18l-57 -280q-34 -20 -95.5 -32.5t-127.5 -12.5q-125 0 -185.5 63t-60.5 176q0 36 8 90l39 234
q4 32 4 45q0 57 -51 57q-41 0 -64.5 -41t-42.5 -147l-79 -463h-410l180 1034h-106l39 217h106l21 117h411z" />
    <glyph glyph-name="Itilde" unicode="&#x128;" horiz-adv-x="626" 
d="M233 1206h429l-211 -1206h-428zM477 1331q-39 25 -57.5 34t-38.5 9q-67 0 -84 -90h-205q0 63 8 116t26.5 100.5t47.5 80.5t73.5 52.5t102.5 19.5q35 0 65 -8t47 -17t48 -29q39 -25 57.5 -34t38.5 -9q67 0 84 91h205q0 -63 -8 -116t-26.5 -100.5t-47.5 -80.5t-73.5 -52.5
t-102.5 -19.5q-35 0 -64.5 7.5t-47.5 17t-48 28.5z" />
    <glyph glyph-name="itilde" unicode="&#x129;" horiz-adv-x="600" 
d="M555 946l-92 -534q-10 -56 -10 -80q0 -39 34 -39q27 0 68 18l-57 -280q-34 -20 -96 -32.5t-128 -12.5q-125 0 -185 63t-60 176q0 36 8 90l110 631h408zM385 1092q-39 25 -57.5 34t-38.5 9q-67 0 -84 -91h-205q0 63 8 116t26.5 100.5t47.5 80.5t73.5 52.5t102.5 19.5
q35 0 64.5 -7.5t47.5 -17t48 -28.5q39 -25 57.5 -34t38.5 -9q67 0 84 90h205q0 -63 -8 -116t-26.5 -100.5t-47.5 -80.5t-73.5 -52.5t-102.5 -19.5q-35 0 -65 8t-47 17t-48 29z" />
    <glyph glyph-name="Imacron" unicode="&#x12a;" horiz-adv-x="626" 
d="M233 1206h429l-211 -1206h-428zM815 1284h-706l51 289h706z" />
    <glyph glyph-name="imacron" unicode="&#x12b;" horiz-adv-x="600" 
d="M555 946l-92 -534q-10 -56 -10 -80q0 -39 34 -39q27 0 68 18l-57 -280q-34 -20 -96 -32.5t-128 -12.5q-125 0 -185 63t-60 176q0 36 8 90l110 631h408zM725 1055h-707l52 288h706z" />
    <glyph glyph-name="Ibreve" unicode="&#x12c;" horiz-adv-x="626" 
d="M233 1206h429l-211 -1206h-428zM440 1274q-153 0 -230 71.5t-77 188.5q0 52 8 96h285q-4 -28 -4 -41q0 -59 59 -59q40 0 60 25t28 75h281q-11 -62 -28 -111.5t-48.5 -96.5t-75 -78.5t-109 -50.5t-149.5 -19z" />
    <glyph glyph-name="ibreve" unicode="&#x12d;" horiz-adv-x="600" 
d="M555 946l-92 -534q-10 -56 -10 -80q0 -39 34 -39q27 0 68 18l-57 -280q-34 -20 -96 -32.5t-128 -12.5q-125 0 -185 63t-60 176q0 36 8 90l110 631h408zM371 1044q-153 0 -230.5 72t-77.5 189q0 47 9 96h284q-4 -28 -4 -41q0 -60 60 -60q40 0 60 25.5t28 75.5h280
q-13 -79 -38 -138.5t-70.5 -111.5t-121 -79.5t-179.5 -27.5z" />
    <glyph glyph-name="Iogonek" unicode="&#x12e;" horiz-adv-x="626" 
d="M-66 -193q0 117 89 199l210 1200h429l-211 -1206h-66q-77 0 -114.5 -33.5t-37.5 -79.5q0 -65 76 -65q63 0 123 51l82 -205q-57 -53 -123 -76.5t-158 -23.5q-60 0 -111.5 12.5t-94.5 39t-68 74.5t-25 113z" />
    <glyph glyph-name="iogonek" unicode="&#x12f;" horiz-adv-x="600" 
d="M-23 -193q0 149 125 228q-73 62 -73 190q0 36 8 90l110 631h408l-92 -534q-10 -56 -10 -80q0 -39 34 -39q27 0 68 18l-57 -280q-44 -6 -77 -14.5t-69.5 -24t-56 -42.5t-19.5 -63q0 -65 76 -65q63 0 123 51l82 -205q-57 -53 -123 -76.5t-158 -23.5q-60 0 -111.5 12.5
t-94.5 39t-68 74.5t-25 113zM162 1210q0 100 68 155.5t165 55.5t165.5 -55.5t68.5 -155.5t-68.5 -155.5t-165.5 -55.5t-165 55.5t-68 155.5z" />
    <glyph glyph-name="Idotaccent" unicode="&#x130;" horiz-adv-x="626" 
d="M233 1206h429l-211 -1206h-428zM262 1479q0 100 68.5 155.5t165.5 55.5t165 -55.5t68 -155.5t-68 -155.5t-165 -55.5t-165.5 55.5t-68.5 155.5z" />
    <glyph glyph-name="dotlessi" unicode="&#x131;" horiz-adv-x="600" 
d="M555 946l-92 -534q-10 -56 -10 -80q0 -39 34 -39q27 0 68 18l-57 -280q-34 -20 -96 -32.5t-128 -12.5q-125 0 -185 63t-60 176q0 36 8 90l110 631h408z" />
    <glyph glyph-name="IJ" unicode="&#x132;" horiz-adv-x="1605" 
d="M233 1206h429l-211 -1206h-428zM1227 1206h426l-148 -837q-69 -394 -518 -394q-130 0 -231.5 47t-161 137t-62.5 210l388 127q0 -86 16.5 -131.5t62.5 -45.5q39 0 59.5 26t33.5 99z" />
    <glyph glyph-name="ij" unicode="&#x133;" horiz-adv-x="1110" 
d="M555 946l-92 -534q-10 -56 -10 -80q0 -39 34 -39q27 0 68 18l-57 -280q-34 -20 -96 -32.5t-128 -12.5q-125 0 -185 63t-60 176q0 36 8 90l110 631h408zM162 1210q0 100 68 155.5t165 55.5t165.5 -55.5t68.5 -155.5t-68.5 -155.5t-165.5 -55.5t-165 55.5t-68 155.5z
M713 946h407l-170 -973q-17 -101 -46 -173.5t-65 -117t-88 -70.5t-107 -35t-130 -9q-73 0 -148 21.5t-112 52.5l98 305q38 -53 90 -53t74 31t35 104zM727 1210q0 100 68.5 155.5t165.5 55.5t165 -55.5t68 -155.5t-68 -155.5t-165 -55.5t-165.5 55.5t-68.5 155.5z" />
    <glyph glyph-name="Jcircumflex" unicode="&#x134;" horiz-adv-x="1052" 
d="M674 1206h426l-148 -837q-69 -394 -518 -394q-130 0 -231.5 47t-160.5 137t-62 210l387 127q0 -86 16.5 -131.5t62.5 -45.5q39 0 59.5 26t33.5 99zM805 1618h276l265 -334h-349l-43 66q-10 16 -17.5 31t-10.5 23l-2 7h-11q-10 -21 -57 -68l-57 -59h-377z" />
    <glyph glyph-name="jcircumflex" unicode="&#x135;" horiz-adv-x="563" 
d="M166 946h407l-170 -973q-17 -101 -46 -173.5t-65 -117t-88 -70.5t-107 -35t-130 -9q-73 0 -148 21.5t-112 52.5l98 305q38 -53 91 -53q52 0 73.5 31t34.5 104zM295 1389h276l265 -334h-349l-43 65q-10 16 -17.5 31.5t-10.5 22.5l-2 8h-11q-10 -21 -57 -68l-57 -59h-377z
" />
    <glyph glyph-name="Kcommaaccent" unicode="&#x136;" horiz-adv-x="1247" 
d="M1165 0h-448l-129 438h-60l-77 -438h-428l210 1206h429l-72 -420h53l264 420h473l-413 -612zM727 -272q0 -75 -30.5 -130t-86.5 -86.5t-125 -46t-155 -14.5v119q190 0 190 63q-34 0 -64 7t-57 23t-43 46t-16 72q0 81 52.5 122.5t133.5 41.5q92 0 146.5 -62t54.5 -155z
" />
    <glyph glyph-name="kcommaaccent" unicode="&#x137;" horiz-adv-x="1128" 
d="M580 162l-68 188h-43l-59 -350h-410l240 1368h411l-125 -715h43l174 293h457l-307 -446l51 -135q25 -72 80 -72q30 0 59 10l-57 -287q-73 -30 -186 -30q-106 0 -167.5 44.5t-92.5 131.5zM655 -272q0 -75 -30.5 -130t-86.5 -86.5t-125 -46t-155 -14.5v119q191 0 191 63
q-47 0 -85 11.5t-67 46.5t-29 90q0 81 52.5 122.5t134.5 41.5q91 0 145.5 -62t54.5 -155z" />
    <glyph glyph-name="kgreenlandic" unicode="&#x138;" horiz-adv-x="1128" 
d="M580 162l-68 188h-43l-59 -350h-410l166 946h412l-52 -293h43l174 293h457l-307 -446l51 -135q25 -72 80 -72q30 0 59 10l-57 -287q-73 -30 -186 -30q-106 0 -167.5 44.5t-92.5 131.5z" />
    <glyph glyph-name="Lacute" unicode="&#x139;" horiz-adv-x="983" 
d="M233 1206h431l-150 -846h412l-62 -360h-841zM625 1284h-334l184 320h504z" />
    <glyph glyph-name="lacute" unicode="&#x13a;" horiz-adv-x="600" 
d="M631 1368l-168 -956q-10 -56 -10 -80q0 -39 34 -39q27 0 68 18l-57 -280q-34 -20 -96 -32.5t-128 -12.5q-125 0 -185 63t-60 176q0 36 8 90l186 1053h408zM594 1415h-334l184 320h504z" />
    <glyph glyph-name="Lcommaaccent" unicode="&#x13b;" horiz-adv-x="983" 
d="M233 1206h431l-150 -846h412l-62 -360h-841zM582 -272q0 -75 -31 -130t-86.5 -86.5t-125 -46t-155.5 -14.5v119q191 0 191 63q-34 0 -64 7t-57 23t-43 46t-16 72q0 81 52.5 122.5t133.5 41.5q92 0 146.5 -62t54.5 -155z" />
    <glyph glyph-name="lcommaaccent" unicode="&#x13c;" horiz-adv-x="600" 
d="M631 1368l-168 -956q-10 -56 -10 -80q0 -39 34 -39q27 0 68 18l-57 -280q-34 -20 -96 -32.5t-128 -12.5q-125 0 -185 63t-60 176q0 36 8 90l186 1053h408zM385 -272q0 -75 -30.5 -130t-86.5 -86.5t-125 -46t-155 -14.5v119q190 0 190 63q-34 0 -64 7t-57 23t-43 46
t-16 72q0 81 52.5 122.5t133.5 41.5q92 0 146.5 -62t54.5 -155z" />
    <glyph glyph-name="Lcaron" unicode="&#x13d;" horiz-adv-x="983" 
d="M233 1206h431l-150 -846h412l-62 -360h-841zM1190 1206l-191 -362h-294l86 362h399z" />
    <glyph glyph-name="lcaron" unicode="&#x13e;" horiz-adv-x="600" 
d="M631 1368l-168 -956q-10 -56 -10 -80q0 -39 34 -39q27 0 68 18l-57 -280q-34 -20 -96 -32.5t-128 -12.5q-125 0 -185 63t-60 176q0 36 8 90l186 1053h408zM1122 1368l-190 -362h-295l86 362h399z" />
    <glyph glyph-name="Ldot" unicode="&#x13f;" horiz-adv-x="983" 
d="M233 1206h431l-150 -846h412l-62 -360h-841zM631 664q0 97 64.5 163t164.5 66t165 -66t65 -163t-65 -163.5t-165 -66.5t-164.5 66.5t-64.5 163.5z" />
    <glyph glyph-name="ldot" unicode="&#x140;" horiz-adv-x="993" 
d="M631 1368l-168 -956q-10 -56 -10 -80q0 -39 34 -39q27 0 68 18l-57 -280q-34 -20 -96 -32.5t-128 -12.5q-125 0 -185 63t-60 176q0 36 8 90l186 1053h408zM565 676q0 97 65 163t165 66t164.5 -66t64.5 -163t-64.5 -163.5t-164.5 -66.5t-165 66.5t-65 163.5z" />
    <glyph glyph-name="Lslash" unicode="&#x141;" horiz-adv-x="993" 
d="M-10 389l51 283l115 37l88 497h430l-66 -366l232 73l-52 -282l-229 -72l-35 -199h412l-62 -360h-841l73 426z" />
    <glyph glyph-name="lslash" unicode="&#x142;" horiz-adv-x="628" 
d="M-20 459l47 268l104 43l107 598h407l-78 -438l133 55l-47 -268l-133 -55l-43 -250q-10 -56 -10 -80q0 -39 35 -39q26 0 67 18l-57 -280q-34 -20 -95.5 -32.5t-127.5 -12.5q-125 0 -185.5 63t-60.5 176q0 36 8 90l33 187z" />
    <glyph glyph-name="Nacute" unicode="&#x143;" horiz-adv-x="1392" 
d="M631 1206l180 -354q27 -53 51.5 -106t35.5 -80l11 -27h9q11 114 38 268l52 299h419l-210 -1206h-373l-166 303q-40 74 -74 140.5t-48 96.5l-13 29h-8q-12 -106 -43 -284l-50 -285h-419l210 1206h398zM987 1284h-334l185 320h503z" />
    <glyph glyph-name="nacute" unicode="&#x144;" horiz-adv-x="1163" 
d="M1069 649l-39 -237q-10 -56 -10 -80q0 -39 35 -39q26 0 67 18l-57 -280q-34 -20 -95.5 -32.5t-127.5 -12.5q-125 0 -185.5 63t-60.5 176q0 36 8 90l39 234q4 32 4 45q0 57 -51 57q-41 0 -64.5 -41t-42.5 -147l-79 -463h-410l166 946h332l20 -192q66 217 289 217
q122 0 195 -66.5t73 -175.5q0 -43 -6 -80zM807 1055h-334l184 319h504z" />
    <glyph glyph-name="Ncommaaccent" unicode="&#x145;" horiz-adv-x="1392" 
d="M631 1206l180 -354q27 -53 51.5 -106t35.5 -80l11 -27h9q11 114 38 268l52 299h419l-210 -1206h-373l-166 303q-40 74 -74 140.5t-48 96.5l-13 29h-8q-12 -106 -43 -284l-50 -285h-419l210 1206h398zM793 -272q0 -75 -31 -130t-86.5 -86.5t-125 -46t-155.5 -14.5v119
q191 0 191 63q-34 0 -64 7t-57 23t-43 46t-16 72q0 81 52.5 122.5t133.5 41.5q92 0 146.5 -62t54.5 -155z" />
    <glyph glyph-name="ncommaaccent" unicode="&#x146;" horiz-adv-x="1163" 
d="M1069 649l-39 -237q-10 -56 -10 -80q0 -39 35 -39q26 0 67 18l-57 -280q-34 -20 -95.5 -32.5t-127.5 -12.5q-125 0 -185.5 63t-60.5 176q0 36 8 90l39 234q4 32 4 45q0 57 -51 57q-41 0 -64.5 -41t-42.5 -147l-79 -463h-410l166 946h332l20 -192q66 217 289 217
q122 0 195 -66.5t73 -175.5q0 -43 -6 -80zM666 -272q0 -75 -31 -130t-86.5 -86.5t-125 -46t-155.5 -14.5v119q191 0 191 63q-34 0 -64 7t-57 23t-43 46t-16 72q0 81 52.5 122.5t133.5 41.5q92 0 146.5 -62t54.5 -155z" />
    <glyph glyph-name="Ncaron" unicode="&#x147;" horiz-adv-x="1392" 
d="M631 1206l180 -354q27 -53 51.5 -106t35.5 -80l11 -27h9q11 114 38 268l52 299h419l-210 -1206h-373l-166 303q-40 74 -74 140.5t-48 96.5l-13 29h-8q-12 -106 -43 -284l-50 -285h-419l210 1206h398zM995 1284h-276l-264 334h348l43 -66q10 -16 18 -31t10 -23l3 -7h10
q10 21 57 68l57 59h377z" />
    <glyph glyph-name="ncaron" unicode="&#x148;" horiz-adv-x="1163" 
d="M1069 649l-39 -237q-10 -56 -10 -80q0 -39 35 -39q26 0 67 18l-57 -280q-34 -20 -95.5 -32.5t-127.5 -12.5q-125 0 -185.5 63t-60.5 176q0 36 8 90l39 234q4 32 4 45q0 57 -51 57q-41 0 -64.5 -41t-42.5 -147l-79 -463h-410l166 946h332l20 -192q66 217 289 217
q122 0 195 -66.5t73 -175.5q0 -43 -6 -80zM786 1055h-276l-264 334h348l43 -66q10 -16 18 -31t11 -22l2 -8h10q10 20 57 67l58 60h376z" />
    <glyph glyph-name="Eng" unicode="&#x14a;" horiz-adv-x="1392" 
d="M819 33l-141 270l-135 266h-8q-12 -106 -43 -284l-50 -285h-419l210 1206h398l180 -354q27 -53 51.5 -106t35.5 -80l11 -27h9q11 114 38 268l52 299h419l-210 -1206q-74 -424 -529 -424q-175 0 -286 74t-142 205l367 157q7 -92 82 -92q42 0 69.5 25.5t40.5 87.5z" />
    <glyph glyph-name="eng" unicode="&#x14b;" horiz-adv-x="1112" 
d="M1069 649l-117 -676q-15 -85 -36.5 -149t-52 -108t-65 -73.5t-81 -45.5t-94 -22.5t-109.5 -6.5q-73 0 -148 21.5t-112 52.5l98 305q38 -53 90 -53t75 31.5t34 103.5l92 520q4 32 4 45q0 57 -51 57q-41 0 -64.5 -41t-42.5 -147l-79 -463h-410l166 946h332l20 -192
q66 217 289 217q122 0 195 -66.5t73 -175.5q0 -43 -6 -80z" />
    <glyph glyph-name="Omacron" unicode="&#x14c;" horiz-adv-x="1312" 
d="M641 326q47 0 82.5 20t58.5 59.5t37.5 84t26.5 106.5q12 61 12 123q0 77 -34 119.5t-95 42.5q-38 0 -68.5 -14.5t-51.5 -37.5t-38 -59.5t-27 -73.5t-20 -86q-12 -62 -12 -123q0 -77 34 -119t95 -42zM618 -25q-119 0 -217.5 32.5t-172.5 96t-115 164t-41 228.5
q0 159 42.5 291.5t125.5 232.5t214 155.5t298 55.5q160 0 281 -56t193 -175t72 -289q0 -159 -42.5 -292t-125.5 -232.5t-214 -155.5t-298 -56zM1157 1284h-706l51 289h706z" />
    <glyph glyph-name="omacron" unicode="&#x14d;" horiz-adv-x="1099" 
d="M602 971q204 0 334.5 -112t130.5 -308q0 -170 -62.5 -298.5t-192.5 -203t-314 -74.5q-204 0 -334.5 112.5t-130.5 309.5q0 169 62.5 297t192.5 202.5t314 74.5zM528 276q60 0 97 84t37 193q0 55 -23.5 86t-67.5 31q-60 0 -96.5 -83.5t-36.5 -193.5q0 -55 23 -86t67 -31z
M1004 1055h-707l51 288h707z" />
    <glyph glyph-name="Obreve" unicode="&#x14e;" horiz-adv-x="1312" 
d="M641 326q47 0 82.5 20t58.5 59.5t37.5 84t26.5 106.5q12 61 12 123q0 77 -34 119.5t-95 42.5q-38 0 -68.5 -14.5t-51.5 -37.5t-38 -59.5t-27 -73.5t-20 -86q-12 -62 -12 -123q0 -77 34 -119t95 -42zM618 -25q-119 0 -217.5 32.5t-172.5 96t-115 164t-41 228.5
q0 159 42.5 291.5t125.5 232.5t214 155.5t298 55.5q160 0 281 -56t193 -175t72 -289q0 -159 -42.5 -292t-125.5 -232.5t-214 -155.5t-298 -56zM782 1274q-153 0 -230 71.5t-77 188.5q0 52 8 96h285q-4 -28 -4 -41q0 -59 59 -59q40 0 60 25t28 75h281q-11 -62 -28 -111.5
t-48.5 -96.5t-75 -78.5t-109 -50.5t-149.5 -19z" />
    <glyph glyph-name="obreve" unicode="&#x14f;" horiz-adv-x="1099" 
d="M602 971q204 0 334.5 -112t130.5 -308q0 -170 -62.5 -298.5t-192.5 -203t-314 -74.5q-204 0 -334.5 112.5t-130.5 309.5q0 169 62.5 297t192.5 202.5t314 74.5zM528 276q60 0 97 84t37 193q0 55 -23.5 86t-67.5 31q-60 0 -96.5 -83.5t-36.5 -193.5q0 -55 23 -86t67 -31z
M651 1044q-153 0 -230 72t-77 189q0 52 8 96h285q-4 -28 -4 -41q0 -60 59 -60q40 0 60 25.5t28 75.5h281q-11 -62 -28 -111.5t-48.5 -97t-75 -79t-109 -50.5t-149.5 -19z" />
    <glyph glyph-name="Ohungarumlaut" unicode="&#x150;" horiz-adv-x="1312" 
d="M641 326q47 0 82.5 20t58.5 59.5t37.5 84t26.5 106.5q12 61 12 123q0 77 -34 119.5t-95 42.5q-38 0 -68.5 -14.5t-51.5 -37.5t-38 -59.5t-27 -73.5t-20 -86q-12 -62 -12 -123q0 -77 34 -119t95 -42zM618 -25q-119 0 -217.5 32.5t-172.5 96t-115 164t-41 228.5
q0 159 42.5 291.5t125.5 232.5t214 155.5t298 55.5q160 0 281 -56t193 -175t72 -289q0 -159 -42.5 -292t-125.5 -232.5t-214 -155.5t-298 -56zM705 1284h-291l75 340h402zM1135 1284h-312l131 340h424z" />
    <glyph glyph-name="ohungarumlaut" unicode="&#x151;" horiz-adv-x="1099" 
d="M602 971q204 0 334.5 -112t130.5 -308q0 -170 -62.5 -298.5t-192.5 -203t-314 -74.5q-204 0 -334.5 112.5t-130.5 309.5q0 169 62.5 297t192.5 202.5t314 74.5zM528 276q60 0 97 84t37 193q0 55 -23.5 86t-67.5 31q-60 0 -96.5 -83.5t-36.5 -193.5q0 -55 23 -86t67 -31z
M563 1055h-291l76 340h402zM993 1055h-311l131 340h424z" />
    <glyph glyph-name="OE" unicode="&#x152;" horiz-adv-x="1785" 
d="M618 -25q-119 0 -217.5 32.5t-172.5 96t-115 164t-41 228.5q0 159 42.5 291.5t125.5 232.5t214 155.5t298 55.5q98 0 190 -25h905l-61 -344h-524q11 -48 14 -108h426l-49 -301h-406q-9 -44 -35 -109h484l-60 -344h-813q-95 -25 -205 -25zM641 326q47 0 82.5 20t58.5 59.5
t37.5 84t26.5 106.5q12 61 12 123q0 77 -34 119.5t-95 42.5q-38 0 -68.5 -14.5t-51.5 -37.5t-38 -59.5t-27 -73.5t-20 -86q-12 -62 -12 -123q0 -77 34 -119t95 -42z" />
    <glyph glyph-name="oe" unicode="&#x153;" horiz-adv-x="1605" 
d="M1122 276q48 0 77 22.5t46 80.5l309 -135q-59 -135 -175 -202t-310 -67q-146 0 -270 82q-137 -82 -301 -82q-204 0 -334.5 112.5t-130.5 309.5q0 169 62.5 297t192.5 202.5t314 74.5q152 0 277 -84q138 84 292 84q98 0 176.5 -29t128.5 -78.5t76.5 -114t26.5 -137.5
q0 -118 -43 -202h-530q0 -65 29.5 -99.5t86.5 -34.5zM528 276q60 0 97 84t37 193q0 55 -23.5 86t-67.5 31q-60 0 -96.5 -83.5t-36.5 -193.5q0 -55 23 -86t67 -31zM1024 557h164q10 20 10 51t-17 51.5t-51 20.5q-84 0 -106 -123z" />
    <glyph glyph-name="Racute" unicode="&#x154;" horiz-adv-x="1220" 
d="M1178 0h-443q-38 38 -55 133l-14 86q-11 71 -30.5 95t-78.5 24h-57l-60 -338h-417l210 1206h574q193 0 299 -96.5t106 -269.5q0 -144 -82 -231.5t-198 -100.5v-8q61 -17 93 -57.5t46 -110.5l43 -201q17 -75 64 -131zM590 852l-35 -197h115q53 0 88 30.5t35 90.5
q0 36 -25 56t-72 20h-106zM858 1284h-334l185 320h503z" />
    <glyph glyph-name="racute" unicode="&#x155;" horiz-adv-x="854" 
d="M905 946l-78 -434q-65 49 -147 49q-87 0 -138 -48.5t-71 -164.5l-61 -348h-410l166 946h332l20 -262q28 141 104.5 214t178.5 73q59 0 104 -25zM702 1055h-333l184 319h504z" />
    <glyph glyph-name="Rcommaaccent" unicode="&#x156;" horiz-adv-x="1220" 
d="M1178 0h-443q-38 38 -55 133l-14 86q-11 71 -30.5 95t-78.5 24h-57l-60 -338h-417l210 1206h574q193 0 299 -96.5t106 -269.5q0 -144 -82 -231.5t-198 -100.5v-8q61 -17 93 -57.5t46 -110.5l43 -201q17 -75 64 -131zM590 852l-35 -197h115q53 0 88 30.5t35 90.5
q0 36 -25 56t-72 20h-106zM705 -272q0 -75 -31 -130t-86.5 -86.5t-125 -46t-155.5 -14.5v119q191 0 191 63q-47 0 -85 11.5t-67 46.5t-29 90q0 81 52.5 122.5t134.5 41.5q92 0 146.5 -62t54.5 -155z" />
    <glyph glyph-name="rcommaaccent" unicode="&#x157;" horiz-adv-x="854" 
d="M905 946l-78 -434q-65 49 -147 49q-87 0 -138 -48.5t-71 -164.5l-61 -348h-410l166 946h332l20 -262q28 141 104.5 214t178.5 73q59 0 104 -25zM377 -272q0 -75 -30.5 -130t-86.5 -86.5t-125 -46t-155 -14.5v119q190 0 190 63q-34 0 -64 7t-57 23t-43 46t-16 72
q0 81 52.5 122.5t133.5 41.5q92 0 146.5 -62t54.5 -155z" />
    <glyph glyph-name="Rcaron" unicode="&#x158;" horiz-adv-x="1220" 
d="M1178 0h-443q-38 38 -55 133l-14 86q-11 71 -30.5 95t-78.5 24h-57l-60 -338h-417l210 1206h574q193 0 299 -96.5t106 -269.5q0 -144 -82 -231.5t-198 -100.5v-8q61 -17 93 -57.5t46 -110.5l43 -201q17 -75 64 -131zM590 852l-35 -197h115q53 0 88 30.5t35 90.5
q0 36 -25 56t-72 20h-106zM866 1284h-276l-264 334h348l43 -66q10 -16 18 -31t11 -23l2 -7h10q10 21 57 68l57 59h377z" />
    <glyph glyph-name="rcaron" unicode="&#x159;" horiz-adv-x="854" 
d="M905 946l-78 -434q-65 49 -147 49q-87 0 -138 -48.5t-71 -164.5l-61 -348h-410l166 946h332l20 -262q28 141 104.5 214t178.5 73q59 0 104 -25zM702 1055h-276l-264 334h348l43 -66q10 -16 18 -31t11 -22l2 -8h10q10 20 57 67l58 60h376z" />
    <glyph glyph-name="Sacute" unicode="&#x15a;" horiz-adv-x="1067" 
d="M-20 307l376 101q0 -51 38.5 -84t88.5 -33q76 0 76 55q0 28 -23.5 42.5t-80.5 29.5q-336 91 -336 389q0 110 43 194t117 133t163.5 73t192.5 24q209 0 328.5 -85t128.5 -259l-385 -60q-1 39 -30 65t-69 26q-35 0 -52 -15.5t-17 -40.5q0 -26 28 -40.5t121 -43.5
q318 -97 318 -377q0 -111 -41 -194t-115 -133t-171 -74.5t-216 -24.5q-211 0 -339.5 86t-143.5 246zM797 1284h-334l184 320h504z" />
    <glyph glyph-name="sacute" unicode="&#x15b;" horiz-adv-x="946" 
d="M-25 240l332 79q1 -47 31 -72.5t70 -25.5q61 0 61 45q0 25 -21 40.5t-75 25.5q-293 58 -293 307q0 162 117 247t323 85q212 0 313.5 -75.5t104.5 -207.5l-315 -47q-2 40 -24 63t-60 23q-27 0 -42.5 -11.5t-15.5 -29.5q0 -26 26 -43t99 -37q149 -40 214 -110t65 -193
q0 -160 -116.5 -244t-344.5 -84q-130 0 -222 25.5t-152 85.5t-75 154zM709 1055h-334l184 319h504z" />
    <glyph glyph-name="Scircumflex" unicode="&#x15c;" horiz-adv-x="1067" 
d="M-20 307l376 101q0 -51 38.5 -84t88.5 -33q76 0 76 55q0 28 -23.5 42.5t-80.5 29.5q-336 91 -336 389q0 110 43 194t117 133t163.5 73t192.5 24q209 0 328.5 -85t128.5 -259l-385 -60q-1 39 -30 65t-69 26q-35 0 -52 -15.5t-17 -40.5q0 -26 28 -40.5t121 -43.5
q318 -97 318 -377q0 -111 -41 -194t-115 -133t-171 -74.5t-216 -24.5q-211 0 -339.5 86t-143.5 246zM606 1618h277l264 -334h-348l-43 66q-10 16 -18 31t-10 23l-3 7h-10q-11 -21 -58 -68l-57 -59h-377z" />
    <glyph glyph-name="scircumflex" unicode="&#x15d;" horiz-adv-x="946" 
d="M-25 240l332 79q1 -47 31 -72.5t70 -25.5q61 0 61 45q0 25 -21 40.5t-75 25.5q-293 58 -293 307q0 162 117 247t323 85q212 0 313.5 -75.5t104.5 -207.5l-315 -47q-2 40 -24 63t-60 23q-27 0 -42.5 -11.5t-15.5 -29.5q0 -26 26 -43t99 -37q149 -40 214 -110t65 -193
q0 -160 -116.5 -244t-344.5 -84q-130 0 -222 25.5t-152 85.5t-75 154zM477 1389h277l264 -334h-348l-43 65q-10 16 -18 31.5t-11 22.5l-2 8h-10q-11 -21 -58 -68l-57 -59h-377z" />
    <glyph glyph-name="Scedilla" unicode="&#x15e;" horiz-adv-x="1067" 
d="M647 -238q0 -92 -68 -143t-184 -51q-161 0 -252 72l56 155q59 -49 123 -49q53 0 53 41q0 51 -82 51l55 146q-162 21 -258.5 103.5t-109.5 219.5l376 101q0 -51 38.5 -84t88.5 -33q76 0 76 55q0 28 -23.5 42.5t-80.5 29.5q-336 91 -336 389q0 110 43 194t117 133t163.5 73
t192.5 24q209 0 328.5 -85t128.5 -259l-385 -60q-1 39 -30 65t-69 26q-35 0 -52 -15.5t-17 -40.5q0 -26 28 -40.5t121 -43.5q318 -97 318 -377q0 -110 -40 -192.5t-113.5 -132.5t-168 -74.5t-211.5 -26.5l-14 -36q86 0 137 -49.5t51 -127.5z" />
    <glyph glyph-name="scedilla" unicode="&#x15f;" horiz-adv-x="946" 
d="M594 -238q0 -92 -68 -143t-184 -51q-161 0 -252 72l55 155q59 -49 123 -49q54 0 54 41q0 51 -82 51l57 146q-287 32 -322 256l332 79q1 -47 31 -72.5t70 -25.5q61 0 61 45q0 25 -21 40.5t-75 25.5q-293 58 -293 307q0 162 117 247t323 85q212 0 313.5 -75.5t104.5 -207.5
l-315 -47q-2 40 -24 63t-60 23q-27 0 -42.5 -11.5t-15.5 -29.5q0 -26 26 -43t99 -37q149 -40 214 -110t65 -193q0 -160 -116.5 -244t-344.5 -84h-4l-14 -36q86 0 137 -49.5t51 -127.5z" />
    <glyph glyph-name="Scaron" unicode="&#x160;" horiz-adv-x="1067" 
d="M-20 307l376 101q0 -51 38.5 -84t88.5 -33q76 0 76 55q0 28 -23.5 42.5t-80.5 29.5q-336 91 -336 389q0 110 43 194t117 133t163.5 73t192.5 24q209 0 328.5 -85t128.5 -259l-385 -60q-1 39 -30 65t-69 26q-35 0 -52 -15.5t-17 -40.5q0 -26 28 -40.5t121 -43.5
q318 -97 318 -377q0 -111 -41 -194t-115 -133t-171 -74.5t-216 -24.5q-211 0 -339.5 86t-143.5 246zM805 1284h-277l-264 334h348l43 -66q10 -16 18 -31t11 -23l2 -7h10q11 21 58 68l57 59h377z" />
    <glyph glyph-name="scaron" unicode="&#x161;" horiz-adv-x="946" 
d="M-25 240l332 79q1 -47 31 -72.5t70 -25.5q61 0 61 45q0 25 -21 40.5t-75 25.5q-293 58 -293 307q0 162 117 247t323 85q212 0 313.5 -75.5t104.5 -207.5l-315 -47q-2 40 -24 63t-60 23q-27 0 -42.5 -11.5t-15.5 -29.5q0 -26 26 -43t99 -37q149 -40 214 -110t65 -193
q0 -160 -116.5 -244t-344.5 -84q-130 0 -222 25.5t-152 85.5t-75 154zM709 1055h-277l-264 334h348l43 -66q10 -16 18 -31t11 -22l2 -8h10q10 20 57 67l58 60h377z" />
    <glyph glyph-name="Tcommaaccent" unicode="&#x162;" horiz-adv-x="1101" 
d="M682 0h-428l147 846h-301l64 360h1032l-63 -360h-302zM653 -272q0 -75 -30.5 -130t-86.5 -86.5t-125 -46t-155 -14.5v119q190 0 190 63q-34 0 -64 7t-57 23t-43 46t-16 72q0 81 52.5 122.5t134.5 41.5q91 0 145.5 -62t54.5 -155z" />
    <glyph glyph-name="tcommaaccent" unicode="&#x163;" horiz-adv-x="811" 
d="M741 373l-59 -330q-85 -68 -260 -68q-150 0 -243 80.5t-93 241.5q0 57 12 125l39 221h-106l53 303h109l34 201l412 35l-41 -236h203l-53 -303h-203l-35 -203q-6 -36 -6 -47q0 -69 82 -69q71 0 155 49zM487 -272q0 -75 -30.5 -130t-86.5 -86.5t-125 -46t-155 -14.5v119
q191 0 191 63q-47 0 -85 11.5t-67 46.5t-29 90q0 81 52.5 122.5t134.5 41.5q91 0 145.5 -62t54.5 -155z" />
    <glyph glyph-name="Tcaron" unicode="&#x164;" horiz-adv-x="1101" 
d="M682 0h-428l147 846h-301l64 360h1032l-63 -360h-302zM856 1284h-276l-265 334h349l43 -66q10 -16 17.5 -31t9.5 -23l3 -7h11q10 21 57 68l57 59h377z" />
    <glyph glyph-name="tcaron" unicode="&#x165;" horiz-adv-x="811" 
d="M741 373l-59 -330q-85 -68 -260 -68q-150 0 -243 80.5t-93 241.5q0 57 12 125l39 221h-106l53 303h109l34 201l412 35l-41 -236h203l-53 -303h-203l-35 -203q-6 -36 -6 -47q0 -69 82 -69q71 0 155 49zM1145 1364l-191 -363h-295l86 363h400z" />
    <glyph glyph-name="Tbar" unicode="&#x166;" horiz-adv-x="1101" 
d="M141 373l54 305h176l30 168h-301l64 360h1032l-63 -360h-302l-30 -168h198l-53 -305h-198l-66 -373h-428l63 373h-176z" />
    <glyph glyph-name="tbar" unicode="&#x167;" horiz-adv-x="811" 
d="M-6 434l29 166h106l12 70h-106l49 276h109l34 201l412 35l-41 -236h203l-49 -276h-203l-12 -70h204l-28 -166h-205q-4 -24 -4 -41q0 -69 82 -69q71 0 155 49l-59 -330q-85 -68 -260 -68q-150 0 -243 80.5t-93 241.5q0 57 12 125l2 12h-106z" />
    <glyph glyph-name="Utilde" unicode="&#x168;" horiz-adv-x="1294" 
d="M913 1206h428l-131 -749q-25 -139 -73 -232.5t-126.5 -148.5t-179 -78t-241.5 -23q-232 0 -367 104t-135 314q0 73 14 150l119 663h428l-114 -628q-17 -90 -17 -140q0 -62 25 -92.5t86 -30.5q35 0 60 10t41.5 27t30 53.5t22 73.5t20.5 103zM815 1331q-39 25 -57.5 34
t-38.5 9q-67 0 -84 -90h-205q0 63 8 116t26.5 100.5t47.5 80.5t73.5 52.5t102.5 19.5q35 0 65 -8t47 -17t48 -29q39 -25 57.5 -34t38.5 -9q67 0 84 91h205q0 -63 -8 -116t-26.5 -100.5t-47.5 -80.5t-73.5 -52.5t-102.5 -19.5q-35 0 -64.5 7.5t-47.5 17t-48 28.5z" />
    <glyph glyph-name="utilde" unicode="&#x169;" horiz-adv-x="1153" 
d="M1110 946l-94 -534q-10 -56 -10 -80q0 -39 34 -39q27 0 68 18l-57 -280q-34 -20 -96 -32.5t-128 -12.5q-110 0 -163 49.5t-64 144.5q-63 -205 -315 -205q-116 0 -186 66.5t-70 181.5q0 55 10 121l106 602h408l-90 -524q-8 -47 -8 -72q0 -55 51 -55q42 0 69.5 42.5
t45.5 145.5l79 463h410zM664 1092q-38 25 -57 34t-40 9q-67 0 -84 -91h-204q0 63 8 116t26.5 100.5t47.5 80.5t73.5 52.5t102.5 19.5q50 0 82 -12.5t77 -40.5q38 -25 57 -34t40 -9q67 0 84 90h204q0 -63 -8 -116t-26.5 -100.5t-47.5 -80.5t-73.5 -52.5t-102.5 -19.5
q-35 0 -64.5 8t-46.5 17t-48 29z" />
    <glyph glyph-name="Umacron" unicode="&#x16a;" horiz-adv-x="1294" 
d="M913 1206h428l-131 -749q-25 -139 -73 -232.5t-126.5 -148.5t-179 -78t-241.5 -23q-232 0 -367 104t-135 314q0 73 14 150l119 663h428l-114 -628q-17 -90 -17 -140q0 -62 25 -92.5t86 -30.5q35 0 60 10t41.5 27t30 53.5t22 73.5t20.5 103zM1153 1284h-707l52 289h706z
" />
    <glyph glyph-name="umacron" unicode="&#x16b;" horiz-adv-x="1153" 
d="M1110 946l-94 -534q-10 -56 -10 -80q0 -39 34 -39q27 0 68 18l-57 -280q-34 -20 -96 -32.5t-128 -12.5q-110 0 -163 49.5t-64 144.5q-63 -205 -315 -205q-116 0 -186 66.5t-70 181.5q0 55 10 121l106 602h408l-90 -524q-8 -47 -8 -72q0 -55 51 -55q42 0 69.5 42.5
t45.5 145.5l79 463h410zM1001 1055h-706l51 288h707z" />
    <glyph glyph-name="Ubreve" unicode="&#x16c;" horiz-adv-x="1294" 
d="M913 1206h428l-131 -749q-25 -139 -73 -232.5t-126.5 -148.5t-179 -78t-241.5 -23q-232 0 -367 104t-135 314q0 73 14 150l119 663h428l-114 -628q-17 -90 -17 -140q0 -62 25 -92.5t86 -30.5q35 0 60 10t41.5 27t30 53.5t22 73.5t20.5 103zM778 1274q-153 0 -230 71.5
t-77 188.5q0 52 8 96h285q-4 -28 -4 -41q0 -59 59 -59q40 0 60 25t28 75h281q-11 -62 -28 -111.5t-48.5 -96.5t-75 -78.5t-109 -50.5t-149.5 -19z" />
    <glyph glyph-name="ubreve" unicode="&#x16d;" horiz-adv-x="1153" 
d="M1110 946l-94 -534q-10 -56 -10 -80q0 -39 34 -39q27 0 68 18l-57 -280q-34 -20 -96 -32.5t-128 -12.5q-110 0 -163 49.5t-64 144.5q-63 -205 -315 -205q-116 0 -186 66.5t-70 181.5q0 55 10 121l106 602h408l-90 -524q-8 -47 -8 -72q0 -55 51 -55q42 0 69.5 42.5
t45.5 145.5l79 463h410zM649 1044q-153 0 -230 72t-77 189q0 52 8 96h285q-4 -28 -4 -41q0 -60 59 -60q40 0 60 25.5t28 75.5h281q-11 -62 -28 -111.5t-48.5 -97t-75 -79t-109 -50.5t-149.5 -19z" />
    <glyph glyph-name="Uring" unicode="&#x16e;" horiz-adv-x="1294" 
d="M913 1206h428l-131 -749q-25 -139 -73 -232.5t-126.5 -148.5t-179 -78t-241.5 -23q-232 0 -367 104t-135 314q0 73 14 150l119 663h428l-114 -628q-17 -90 -17 -140q0 -62 25 -92.5t86 -30.5q35 0 60 10t41.5 27t30 53.5t22 73.5t20.5 103zM809 1272q-112 0 -178 62
t-66 153q0 111 77 186.5t196 75.5q112 0 177.5 -62t65.5 -153q0 -112 -76.5 -187t-195.5 -75zM817 1427q37 0 61.5 27.5t24.5 65.5q0 32 -19.5 52.5t-54.5 20.5q-37 0 -61.5 -27t-24.5 -65q0 -32 19.5 -53t54.5 -21z" />
    <glyph glyph-name="uring" unicode="&#x16f;" horiz-adv-x="1153" 
d="M1110 946l-94 -534q-10 -56 -10 -80q0 -39 34 -39q27 0 68 18l-57 -280q-34 -20 -96 -32.5t-128 -12.5q-110 0 -163 49.5t-64 144.5q-63 -205 -315 -205q-116 0 -186 66.5t-70 181.5q0 55 10 121l106 602h408l-90 -524q-8 -47 -8 -72q0 -55 51 -55q42 0 69.5 42.5
t45.5 145.5l79 463h410zM674 1004q-112 0 -178 62t-66 153q0 112 76.5 187t195.5 75q112 0 178 -62t66 -153q0 -112 -76.5 -187t-195.5 -75zM682 1159q37 0 61.5 27t24.5 65q0 32 -19.5 53t-54.5 21q-37 0 -61.5 -27t-24.5 -65q0 -32 19.5 -53t54.5 -21z" />
    <glyph glyph-name="Uhungarumlaut" unicode="&#x170;" horiz-adv-x="1294" 
d="M913 1206h428l-131 -749q-25 -139 -73 -232.5t-126.5 -148.5t-179 -78t-241.5 -23q-232 0 -367 104t-135 314q0 73 14 150l119 663h428l-114 -628q-17 -90 -17 -140q0 -62 25 -92.5t86 -30.5q35 0 60 10t41.5 27t30 53.5t22 73.5t20.5 103zM719 1284h-291l76 340h401z
M1149 1284h-311l131 340h424z" />
    <glyph glyph-name="uhungarumlaut" unicode="&#x171;" horiz-adv-x="1153" 
d="M1110 946l-94 -534q-10 -56 -10 -80q0 -39 34 -39q27 0 68 18l-57 -280q-34 -20 -96 -32.5t-128 -12.5q-110 0 -163 49.5t-64 144.5q-63 -205 -315 -205q-116 0 -186 66.5t-70 181.5q0 55 10 121l106 602h408l-90 -524q-8 -47 -8 -72q0 -55 51 -55q42 0 69.5 42.5
t45.5 145.5l79 463h410zM561 1055h-291l76 340h402zM991 1055h-311l131 340h424z" />
    <glyph glyph-name="Uogonek" unicode="&#x172;" horiz-adv-x="1294" 
d="M350 -193q0 108 74 185q-159 32 -247.5 132t-88.5 269q0 73 14 150l119 663h428l-114 -628q-17 -90 -17 -140q0 -62 25 -92.5t86 -30.5q35 0 60 10t41.5 27t30 53.5t22 73.5t20.5 103l110 624h428l-131 -749q-42 -240 -159 -348t-334 -127q-68 -41 -68 -95q0 -65 76 -65
q63 0 123 51l82 -205q-57 -53 -123 -76.5t-158 -23.5q-60 0 -111.5 12.5t-94.5 39t-68 74.5t-25 113z" />
    <glyph glyph-name="uogonek" unicode="&#x173;" horiz-adv-x="1153" 
d="M596 174q-32 -106 -110 -152.5t-201 -46.5q-116 0 -186 66.5t-70 181.5q0 55 10 121l106 602h408l-90 -524q-8 -47 -8 -72q0 -55 51 -55q42 0 69.5 42.5t45.5 145.5l79 463h410l-94 -534q-10 -56 -10 -80q0 -39 34 -39q27 0 68 18l-57 -280q-52 -8 -88.5 -17t-70.5 -24.5
t-51.5 -41.5t-17.5 -61q0 -65 76 -65q63 0 123 51l82 -205q-57 -53 -123 -76.5t-158 -23.5q-60 0 -111.5 12.5t-94.5 39t-68 74.5t-25 113q0 151 138 236q-57 48 -66 131z" />
    <glyph glyph-name="Wcircumflex" unicode="&#x174;" horiz-adv-x="1806" 
d="M1239 1206l-20 -551q-2 -47 -8 -106t-11 -94l-6 -35h8q29 133 68 239l215 547h448l-495 -1206h-516l-19 424q-2 45 1 108t7 104l4 40h-8q-18 -141 -57 -258l-141 -418h-529l-35 1206h420l6 -553q1 -46 -2 -104.5t-7 -93.5l-3 -35h8q27 131 62 229l198 557h412zM967 1618
h276l264 -334h-348l-43 66q-10 16 -18 31t-10 23l-3 7h-10q-10 -21 -57 -68l-57 -59h-377z" />
    <glyph glyph-name="wcircumflex" unicode="&#x175;" horiz-adv-x="1587" 
d="M1040 946l-8 -340q-1 -50 -7 -107t-11 -89l-6 -31h8q35 125 80 225l155 342h428l-475 -946h-442l-4 227q-1 49 2.5 115.5t7.5 107.5l4 42h-8q-41 -156 -84 -265l-90 -227h-449l-59 946h399l11 -336q2 -61 0.5 -112.5t-3.5 -85.5l-2 -33h9q20 114 63 229l125 338h356z
M805 1389h276l265 -334h-349l-43 65q-10 16 -17.5 31.5t-10.5 22.5l-2 8h-11q-10 -21 -57 -68l-57 -59h-377z" />
    <glyph glyph-name="Ycircumflex" unicode="&#x176;" horiz-adv-x="1298" 
d="M584 1206l53 -178q17 -58 31 -111.5t19 -77.5l5 -24h8q37 78 131 213l125 178h469l-571 -811l-70 -395h-428l70 395l-285 811h443zM690 1618h277l264 -334h-348l-43 66q-10 16 -18 31t-10 23l-3 7h-10q-11 -21 -58 -68l-57 -59h-377z" />
    <glyph glyph-name="ycircumflex" unicode="&#x177;" horiz-adv-x="1116" 
d="M492 946l30 -278q7 -68 7.5 -141.5t-2.5 -112.5l-3 -39h8q33 146 111 289l156 282h409l-585 -1030q-61 -107 -126 -178.5t-132.5 -107t-129 -49t-135.5 -13.5q-66 0 -126 16t-91 39l107 320q50 -37 119 -37q43 0 78 27t51 85l-158 928h412zM578 1389h276l264 -334h-348
l-43 65q-10 16 -18 31.5t-11 22.5l-2 8h-10q-10 -21 -57 -68l-58 -59h-376z" />
    <glyph glyph-name="Ydieresis" unicode="&#x178;" horiz-adv-x="1298" 
d="M584 1206l53 -178q17 -58 31 -111.5t19 -77.5l5 -24h8q37 78 131 213l125 178h469l-571 -811l-70 -395h-428l70 395l-285 811h443zM381 1464q0 93 60 145t145 52t145 -52t60 -145q0 -92 -60 -143t-145 -51t-145 51t-60 143zM831 1464q0 93 60 145t145 52t145 -52t60 -145
q0 -92 -60 -143t-145 -51t-145 51t-60 143z" />
    <glyph glyph-name="Zacute" unicode="&#x179;" horiz-adv-x="1134" 
d="M43 334l387 366l158 144v8q-47 -6 -174 -6h-277l64 360h997l-57 -327l-408 -379q-44 -41 -83.5 -76t-57.5 -50l-17 -14v-8q47 8 164 8h334l-63 -360h-1026zM852 1284h-334l184 320h504z" />
    <glyph glyph-name="zacute" unicode="&#x17a;" horiz-adv-x="962" 
d="M20 262l269 242q37 34 77.5 68t62.5 52l22 17v8q-50 -6 -134 -6h-211l54 303h823l-47 -268l-307 -264q-40 -36 -75 -64t-50 -38l-15 -9v-8q73 10 173 10h235l-55 -305h-867zM731 1055h-334l185 319h503z" />
    <glyph glyph-name="Zdotaccent" unicode="&#x17b;" horiz-adv-x="1134" 
d="M43 334l387 366l158 144v8q-47 -6 -174 -6h-277l64 360h997l-57 -327l-408 -379q-44 -41 -83.5 -76t-57.5 -50l-17 -14v-8q47 8 164 8h334l-63 -360h-1026zM510 1479q0 100 68 155.5t165 55.5t165.5 -55.5t68.5 -155.5t-68.5 -155.5t-165.5 -55.5t-165 55.5t-68 155.5z
" />
    <glyph glyph-name="zdotaccent" unicode="&#x17c;" horiz-adv-x="962" 
d="M20 262l269 242q37 34 77.5 68t62.5 52l22 17v8q-50 -6 -134 -6h-211l54 303h823l-47 -268l-307 -264q-40 -36 -75 -64t-50 -38l-15 -9v-8q73 10 173 10h235l-55 -305h-867zM383 1214q0 100 68 155.5t165 55.5t165.5 -55.5t68.5 -155.5t-68 -155t-166 -55q-97 0 -165 55
t-68 155z" />
    <glyph glyph-name="Zcaron" unicode="&#x17d;" horiz-adv-x="1134" 
d="M43 334l387 366l158 144v8q-47 -6 -174 -6h-277l64 360h997l-57 -327l-408 -379q-44 -41 -83.5 -76t-57.5 -50l-17 -14v-8q47 8 164 8h334l-63 -360h-1026zM840 1284h-277l-264 334h348l43 -66q10 -16 18 -31t10 -23l3 -7h10q10 21 57 68l58 59h377z" />
    <glyph glyph-name="zcaron" unicode="&#x17e;" horiz-adv-x="962" 
d="M20 262l269 242q37 34 77.5 68t62.5 52l22 17v8q-50 -6 -134 -6h-211l54 303h823l-47 -268l-307 -264q-40 -36 -75 -64t-50 -38l-15 -9v-8q73 10 173 10h235l-55 -305h-867zM731 1055h-276l-265 334h349l43 -66q10 -16 17.5 -31t10.5 -22l2 -8h11q10 20 57 67l57 60h377z
" />
    <glyph glyph-name="Schwa" unicode="&#x18f;" horiz-adv-x="1220" 
d="M635 860q-47 0 -76 -30.5t-63 -106.5l-361 162q93 180 229 263t345 83q227 0 362 -140.5t135 -369.5q0 -164 -41.5 -299.5t-121.5 -235.5t-206 -155.5t-288 -55.5q-244 0 -366 122t-122 331q0 140 54 254h630q0 90 -24 134t-86 44zM723 496h-223q-21 -40 -21 -88
q0 -95 90 -95q62 0 101.5 52t52.5 131z" />
    <glyph glyph-name="florin" unicode="&#x192;" horiz-adv-x="1200" 
d="M45 -248l143 451h-137l68 262h141l27 86q78 250 210.5 354.5t354.5 104.5q115 0 209.5 -43t144.5 -117l-213 -293q-21 45 -60.5 73.5t-84.5 28.5q-65 0 -97 -30t-55 -101l-18 -63h242l-68 -262h-246l-145 -451h-416z" />
    <glyph glyph-name="Khook" unicode="&#x198;" horiz-adv-x="1280" 
d="M950 608l215 -608h-448l-129 438h-60l-77 -438h-428l210 1206h429l-72 -420h53l88 183q30 61 62 105.5t76.5 81.5t104 56t134.5 19q118 0 194 -61t101 -154l-213 -228q-10 23 -23 32t-34 9q-26 0 -45 -13t-41 -50z" />
    <glyph glyph-name="khook" unicode="&#x199;" horiz-adv-x="1128" 
d="M584 981l-58 -328h43l174 293h457l-307 -446l51 -135q25 -72 80 -72q30 0 59 10l-57 -287q-73 -30 -186 -30q-106 0 -167.5 44.5t-92.5 131.5l-68 188h-43l-59 -350h-410l172 983q37 213 145.5 307t280.5 94q188 0 324 -110l-136 -262q-48 57 -112 57q-39 0 -60 -20
t-30 -68z" />
    <glyph glyph-name="Ezh" unicode="&#x1b7;" horiz-adv-x="1054" 
d="M301 569l129 136q37 38 74 73t56 50l18 16v8q-66 -6 -144 -6h-301l66 360h940l-56 -301l-387 -385v-2q152 -35 222.5 -136.5t70.5 -240.5q0 -130 -45.5 -228t-127 -156.5t-187 -87.5t-234.5 -29q-477 0 -540 356l372 168q6 -199 183 -199q66 0 109.5 38.5t43.5 113.5
q0 178 -313 178z" />
    <glyph glyph-name="Acaron" unicode="&#x1cd;" horiz-adv-x="1384" 
d="M874 0l-24 164h-389l-84 -164h-440l630 1206h549l182 -1206h-424zM694 651l-76 -174h189l-21 174q-5 43 -8.5 93.5t-4.5 79.5l-1 30h-8q-27 -103 -70 -203zM993 1284h-276l-264 334h348l43 -66q10 -16 17.5 -31t10.5 -23l2 -7h11q10 21 57 68l57 59h377z" />
    <glyph glyph-name="acaron" unicode="&#x1ce;" horiz-adv-x="1216" 
d="M1174 946l-95 -534q-10 -56 -10 -80q0 -39 35 -39q26 0 67 18l-57 -280q-34 -20 -95 -32.5t-124 -12.5q-99 0 -161.5 50t-74.5 138q-36 -88 -112 -143.5t-180 -55.5q-153 0 -243.5 103.5t-90.5 296.5q0 162 55.5 297.5t161 217t239.5 81.5q210 0 259 -180l92 155h334z
M670 422l16 88q8 41 8 78q0 42 -20.5 67t-57.5 25q-47 0 -82.5 -44.5t-53 -111.5t-17.5 -143q0 -54 20.5 -84.5t59.5 -30.5q98 0 127 156zM870 1055h-276l-264 334h348l43 -66q10 -16 18 -31t11 -22l2 -8h10q10 20 57 67l58 60h376z" />
    <glyph glyph-name="Icaron" unicode="&#x1cf;" horiz-adv-x="626" 
d="M233 1206h429l-211 -1206h-428zM612 1284h-276l-264 334h348l43 -66q10 -16 18 -31t11 -23l2 -7h10q10 21 57 68l57 59h377z" />
    <glyph glyph-name="icaron" unicode="&#x1d0;" horiz-adv-x="600" 
d="M555 946l-92 -534q-10 -56 -10 -80q0 -39 34 -39q27 0 68 18l-57 -280q-34 -20 -96 -32.5t-128 -12.5q-125 0 -185 63t-60 176q0 36 8 90l110 631h408zM522 1055h-276l-264 334h348l43 -66q10 -16 17.5 -31t9.5 -22l3 -8h11q10 20 57 67l57 60h377z" />
    <glyph glyph-name="Ocaron" unicode="&#x1d1;" horiz-adv-x="1312" 
d="M641 326q47 0 82.5 20t58.5 59.5t37.5 84t26.5 106.5q12 61 12 123q0 77 -34 119.5t-95 42.5q-38 0 -68.5 -14.5t-51.5 -37.5t-38 -59.5t-27 -73.5t-20 -86q-12 -62 -12 -123q0 -77 34 -119t95 -42zM618 -25q-119 0 -217.5 32.5t-172.5 96t-115 164t-41 228.5
q0 159 42.5 291.5t125.5 232.5t214 155.5t298 55.5q160 0 281 -56t193 -175t72 -289q0 -159 -42.5 -292t-125.5 -232.5t-214 -155.5t-298 -56zM954 1284h-276l-264 334h348l43 -66q10 -16 18 -31t11 -23l2 -7h10q10 21 57 68l58 59h376z" />
    <glyph glyph-name="ocaron" unicode="&#x1d2;" horiz-adv-x="1099" 
d="M602 971q204 0 334.5 -112t130.5 -308q0 -170 -62.5 -298.5t-192.5 -203t-314 -74.5q-204 0 -334.5 112.5t-130.5 309.5q0 169 62.5 297t192.5 202.5t314 74.5zM528 276q60 0 97 84t37 193q0 55 -23.5 86t-67.5 31q-60 0 -96.5 -83.5t-36.5 -193.5q0 -55 23 -86t67 -31z
M778 1055h-276l-264 334h348l43 -66q10 -16 17.5 -31t9.5 -22l3 -8h11q10 20 57 67l57 60h377z" />
    <glyph glyph-name="Ucaron" unicode="&#x1d3;" horiz-adv-x="1294" 
d="M913 1206h428l-131 -749q-25 -139 -73 -232.5t-126.5 -148.5t-179 -78t-241.5 -23q-232 0 -367 104t-135 314q0 73 14 150l119 663h428l-114 -628q-17 -90 -17 -140q0 -62 25 -92.5t86 -30.5q35 0 60 10t41.5 27t30 53.5t22 73.5t20.5 103zM936 1284h-277l-264 334h348
l43 -66q10 -16 18 -31t10 -23l3 -7h10q11 21 58 68l57 59h377z" />
    <glyph glyph-name="ucaron" unicode="&#x1d4;" horiz-adv-x="1153" 
d="M1110 946l-94 -534q-10 -56 -10 -80q0 -39 34 -39q27 0 68 18l-57 -280q-34 -20 -96 -32.5t-128 -12.5q-110 0 -163 49.5t-64 144.5q-63 -205 -315 -205q-116 0 -186 66.5t-70 181.5q0 55 10 121l106 602h408l-90 -524q-8 -47 -8 -72q0 -55 51 -55q42 0 69.5 42.5
t45.5 145.5l79 463h410zM780 1055h-276l-264 334h348l43 -66q10 -16 18 -31t11 -22l2 -8h10q10 20 57 67l57 60h377z" />
    <glyph glyph-name="uni01D9" unicode="&#x1d9;" horiz-adv-x="1294" 
d="M913 1206h428l-131 -749q-25 -139 -73 -232.5t-126.5 -148.5t-179 -78t-241.5 -23q-232 0 -367 104t-135 314q0 73 14 150l119 663h428l-114 -628q-17 -90 -17 -140q0 -62 25 -92.5t86 -30.5q35 0 60 10t41.5 27t30 53.5t22 73.5t20.5 103zM379 1444q0 93 60 144.5
t145 51.5t144.5 -51.5t59.5 -144.5q0 -92 -59.5 -143.5t-144.5 -51.5t-145 51.5t-60 143.5zM829 1444q0 93 60 144.5t145 51.5t145 -51.5t60 -144.5q0 -92 -60 -143.5t-145 -51.5t-145 51.5t-60 143.5zM983 1673h-276l-265 334h349l43 -65q10 -16 17.5 -31.5t10.5 -22.5
l2 -8h10q11 21 58 68l57 59h377z" />
    <glyph glyph-name="uni01DA" unicode="&#x1da;" horiz-adv-x="1153" 
d="M1110 946l-94 -534q-10 -56 -10 -80q0 -39 34 -39q27 0 68 18l-57 -280q-34 -20 -96 -32.5t-128 -12.5q-110 0 -163 49.5t-64 144.5q-63 -205 -315 -205q-116 0 -186 66.5t-70 181.5q0 55 10 121l106 602h408l-90 -524q-8 -47 -8 -72q0 -55 51 -55q42 0 69.5 42.5
t45.5 145.5l79 463h410zM236 1198q0 93 59.5 145t144.5 52t145 -52t60 -145q0 -92 -60 -143t-145 -51t-144.5 51t-59.5 143zM686 1198q0 93 60 145t145 52t145 -52t60 -145q0 -92 -60 -143t-145 -51t-145 51t-60 143zM840 1427h-277l-264 334h348l43 -65q10 -16 18 -31.5
t10 -22.5l3 -8h10q10 21 57 68l58 59h377z" />
    <glyph glyph-name="uni004100A800AF" unicode="&#x1de;" horiz-adv-x="1384" 
d="M874 0l-24 164h-389l-84 -164h-440l630 1206h549l182 -1206h-424zM694 651l-76 -174h189l-21 174q-5 43 -8.5 93.5t-4.5 79.5l-1 30h-8q-27 -103 -70 -203zM444 1430q0 93 60 144.5t145 51.5t145 -51.5t60 -144.5q0 -92 -60 -143.5t-145 -51.5t-145 51.5t-60 143.5z
M895 1430q0 93 60 144.5t145 51.5t145 -51.5t60 -144.5q0 -92 -60 -143.5t-145 -51.5t-145 51.5t-60 143.5zM1274 1655h-707l51 289h707z" />
    <glyph glyph-name="adieresismacron" unicode="&#x1df;" horiz-adv-x="1216" 
d="M1174 946l-95 -534q-10 -56 -10 -80q0 -39 35 -39q26 0 67 18l-57 -280q-34 -20 -95 -32.5t-124 -12.5q-99 0 -161.5 50t-74.5 138q-36 -88 -112 -143.5t-180 -55.5q-153 0 -243.5 103.5t-90.5 296.5q0 162 55.5 297.5t161 217t239.5 81.5q210 0 259 -180l92 155h334z
M670 422l16 88q8 41 8 78q0 42 -20.5 67t-57.5 25q-47 0 -82.5 -44.5t-53 -111.5t-17.5 -143q0 -54 20.5 -84.5t59.5 -30.5q98 0 127 156zM301 1194q0 93 60 145t145 52t145 -52t60 -145q0 -92 -60 -143.5t-145 -51.5t-145 51.5t-60 143.5zM752 1194q0 93 59.5 145t144.5 52
t145 -52t60 -145q0 -92 -60 -143.5t-145 -51.5t-144.5 51.5t-59.5 143.5zM1143 1436h-707l51 288h707z" />
    <glyph glyph-name="AEmacron" unicode="&#x1e2;" horiz-adv-x="1927" 
d="M793 1206h1196l-62 -344h-495l-21 -108h432l-49 -301h-434l-21 -109h498l-59 -344h-910l27 164h-389l-111 -164h-458zM1710 1284h-706l51 289h706zM1034 936l-313 -459h229l41 230q10 56 23 113.5t20 86.5l8 29h-8z" />
    <glyph glyph-name="aemacron" unicode="&#x1e3;" horiz-adv-x="1546" 
d="M1477 410l-529 -11q11 -123 115 -123q48 0 77 22.5t46 80.5l309 -135q-59 -135 -175 -202t-310 -67q-238 0 -355 158q-47 -75 -134 -116.5t-199 -41.5q-140 0 -221 71t-81 200q0 101 51.5 170.5t132.5 99.5t187 31l195 2q5 38 22 84v14q0 43 -41 43q-29 0 -40.5 -21.5
t-16.5 -76.5l-389 74q29 152 148.5 228.5t314.5 76.5q166 0 252 -64q125 64 276 64q98 0 176.5 -29t128.5 -78.5t76.5 -114t26.5 -137.5q0 -118 -43 -202zM1245 1055h-706l51 288h706zM580 311q-7 47 -7 82h-45q-108 -3 -108 -88q0 -30 17.5 -45.5t45.5 -15.5q80 0 97 67z
M1071 680q-44 0 -73 -34t-42 -91l172 2q11 22 11 51q0 31 -17 51.5t-51 20.5z" />
    <glyph glyph-name="Gstroke" unicode="&#x1e4;" horiz-adv-x="1325" 
d="M657 356l25 142h152l12 51h-156l25 141h565l-35 -192h111l-25 -142h-110l-62 -356h-260l-22 154q-32 -87 -123 -133t-205 -46q-223 0 -350 131t-127 379q0 180 49.5 322.5t138.5 234.5t211.5 140.5t269.5 48.5q223 0 368.5 -102.5t168.5 -276.5l-424 -117q0 68 -33 107
t-90 39q-142 0 -192 -215q-27 -128 -27 -187q0 -88 35.5 -145.5t109.5 -57.5q51 0 91 21.5t53 58.5h-144z" />
    <glyph glyph-name="gstroke" unicode="&#x1e5;" horiz-adv-x="1144" 
d="M369 -88l18 115h197q0 6 2 10l35 184q-59 -168 -271 -168q-85 0 -154.5 36.5t-114 116t-44.5 189.5q0 113 28.5 215.5t81.5 183.5t136 129t184 48q222 0 268 -170l90 145h330l-154 -885l-8 -34h103l-19 -115h-116q-70 -181 -221.5 -262.5t-383.5 -81.5
q-165 0 -289.5 55.5t-185.5 161.5l246 248q93 -178 248 -178q126 0 168 57h-174zM662 471l12 76q6 30 6 59q0 44 -21.5 67t-60.5 23q-62 0 -102.5 -84.5t-40.5 -181.5q0 -51 22 -78.5t58 -27.5q101 0 127 147z" />
    <glyph glyph-name="Gcaron" unicode="&#x1e6;" horiz-adv-x="1308" 
d="M725 678h553l-119 -678h-260l-22 154q-32 -87 -123 -133t-205 -46q-223 0 -350 131t-127 379q0 180 49.5 322.5t138.5 234.5t211.5 140.5t269.5 48.5q223 0 368.5 -102.5t168.5 -276.5l-424 -117q0 68 -33 107t-90 39t-99 -35t-62 -79.5t-31 -100.5q-27 -114 -27 -187
q0 -82 37.5 -128t114.5 -46q55 0 96.5 25t50.5 67l4 19h-135zM924 1284h-277l-264 334h348l43 -66q10 -16 18 -31t10 -23l3 -7h10q10 21 57 68l58 59h377z" />
    <glyph glyph-name="gcaron" unicode="&#x1e7;" horiz-adv-x="1144" 
d="M594 84l22 119q-59 -172 -270 -172q-133 0 -224 91t-91 259q0 116 29 221t82 188t137 132t186 49q223 0 270 -174l90 149h330l-154 -885q-23 -134 -79 -230.5t-141 -153.5t-189.5 -83t-235.5 -26q-165 0 -289.5 55.5t-185.5 161.5l246 248q81 -156 244 -156
q185 0 223 207zM662 459l12 78q6 30 6 61q0 44 -22 68t-62 24q-62 0 -102.5 -86.5t-40.5 -185.5q0 -53 21.5 -82t57.5 -29q52 0 85 40t45 112zM836 1055h-277l-264 334h348l43 -66q10 -16 18 -31t10 -22l3 -8h10q10 20 57 67l58 60h377z" />
    <glyph glyph-name="Kcaron" unicode="&#x1e8;" horiz-adv-x="1247" 
d="M1165 0h-448l-129 438h-60l-77 -438h-428l210 1206h429l-72 -420h53l264 420h473l-413 -612zM930 1284h-277l-264 334h348l43 -66q10 -16 18 -31t10 -23l3 -7h10q11 21 58 68l57 59h377z" />
    <glyph glyph-name="kcaron" unicode="&#x1e9;" horiz-adv-x="1128" 
d="M580 162l-68 188h-43l-59 -350h-410l240 1368h411l-125 -715h43l174 293h457l-307 -446l51 -135q25 -72 80 -72q30 0 59 10l-57 -287q-73 -30 -186 -30q-106 0 -167.5 44.5t-92.5 131.5zM592 1419h-277l-264 334h348l43 -65q10 -16 18 -31.5t10 -22.5l3 -8h10
q11 21 58 68l57 59h377z" />
    <glyph glyph-name="Oogonek" unicode="&#x1ea;" horiz-adv-x="1312" 
d="M391 -193q0 106 72 185q-180 37 -285.5 165t-105.5 339q0 159 42.5 291.5t125.5 232.5t214 155.5t298 55.5q160 0 281 -56t193 -175t72 -289q0 -286 -135 -480.5t-391 -240.5q-82 -44 -82 -103q0 -65 76 -65q63 0 123 51l82 -205q-57 -53 -123 -76.5t-158 -23.5
q-60 0 -111.5 12.5t-94.5 39t-68 74.5t-25 113zM641 326q47 0 82.5 20t58.5 59.5t37.5 84t26.5 106.5q12 61 12 123q0 77 -34 119.5t-95 42.5q-38 0 -68.5 -14.5t-51.5 -37.5t-38 -59.5t-27 -73.5t-20 -86q-12 -62 -12 -123q0 -77 34 -119t95 -42z" />
    <glyph glyph-name="oogonek" unicode="&#x1eb;" horiz-adv-x="1099" 
d="M240 -193q0 114 82 193q-133 41 -211 143.5t-78 253.5q0 169 62.5 297t192.5 202.5t314 74.5q204 0 334.5 -112t130.5 -308q0 -232 -117.5 -383.5t-339.5 -183.5q-71 -38 -71 -97q0 -65 75 -65q63 0 123 51l82 -205q-57 -53 -122.5 -76.5t-157.5 -23.5q-60 0 -111.5 12.5
t-94.5 39t-68 74.5t-25 113zM528 276q60 0 97 84t37 193q0 55 -23.5 86t-67.5 31q-60 0 -96.5 -83.5t-36.5 -193.5q0 -55 23 -86t67 -31z" />
    <glyph glyph-name="uni004F02DB00AF" unicode="&#x1ec;" horiz-adv-x="1312" 
d="M391 -193q0 106 72 185q-180 37 -285.5 165t-105.5 339q0 159 42.5 291.5t125.5 232.5t214 155.5t298 55.5q160 0 281 -56t193 -175t72 -289q0 -286 -135 -480.5t-391 -240.5q-82 -44 -82 -103q0 -65 76 -65q63 0 123 51l82 -205q-57 -53 -123 -76.5t-158 -23.5
q-60 0 -111.5 12.5t-94.5 39t-68 74.5t-25 113zM1157 1284h-706l51 289h706zM641 326q47 0 82.5 20t58.5 59.5t37.5 84t26.5 106.5q12 61 12 123q0 77 -34 119.5t-95 42.5q-38 0 -68.5 -14.5t-51.5 -37.5t-38 -59.5t-27 -73.5t-20 -86q-12 -62 -12 -123q0 -77 34 -119
t95 -42z" />
    <glyph glyph-name="oogonekmacron" unicode="&#x1ed;" horiz-adv-x="1099" 
d="M1004 1055h-707l51 288h707zM240 -193q0 114 82 193q-133 41 -211 143.5t-78 253.5q0 169 62.5 297t192.5 202.5t314 74.5q204 0 334.5 -112t130.5 -308q0 -232 -117.5 -383.5t-339.5 -183.5q-71 -38 -71 -97q0 -65 75 -65q63 0 123 51l82 -205q-57 -53 -122.5 -76.5
t-157.5 -23.5q-60 0 -111.5 12.5t-94.5 39t-68 74.5t-25 113zM528 276q60 0 97 84t37 193q0 55 -23.5 86t-67.5 31q-60 0 -96.5 -83.5t-36.5 -193.5q0 -55 23 -86t67 -31z" />
    <glyph glyph-name="Ezhcaron" unicode="&#x1ee;" horiz-adv-x="1054" 
d="M301 569l129 136q37 38 74 73t56 50l18 16v8q-66 -6 -144 -6h-301l66 360h940l-56 -301l-387 -385v-2q152 -35 222.5 -136.5t70.5 -240.5q0 -130 -45.5 -228t-127 -156.5t-187 -87.5t-234.5 -29q-477 0 -540 356l372 168q6 -199 183 -199q66 0 109.5 38.5t43.5 113.5
q0 178 -313 178zM799 1284h-277l-264 334h348l43 -66q10 -16 18 -31t11 -23l2 -7h10q11 21 58 68l57 59h377z" />
    <glyph glyph-name="ezhcaron" unicode="&#x1ef;" horiz-adv-x="899" 
d="M225 457l92 84l117 98v8q-88 -4 -168 -4h-182l53 303h803l-49 -278l-291 -238v-6q115 -22 178.5 -101t63.5 -210q0 -109 -41.5 -192t-115.5 -133t-169.5 -74.5t-210.5 -24.5q-119 0 -213 30t-157.5 98t-73.5 167l346 151q4 -69 38.5 -100t82.5 -31q47 0 78.5 24.5
t31.5 69.5q0 65 -55 95t-199 30zM680 1055h-277l-264 334h348l43 -66q10 -16 18 -31t10 -22l3 -8h10q11 20 58 67l57 60h377z" />
    <glyph glyph-name="jcaron" unicode="&#x1f0;" horiz-adv-x="563" 
d="M166 946h407l-170 -973q-17 -101 -46 -173.5t-65 -117t-88 -70.5t-107 -35t-130 -9q-73 0 -148 21.5t-112 52.5l98 305q38 -53 91 -53q52 0 73.5 31t34.5 104zM537 1055h-277l-264 334h348l43 -66q10 -16 18 -31t11 -22l2 -8h10q10 20 57 67l58 60h377z" />
    <glyph glyph-name="jcaron" unicode="&#xe10c;" horiz-adv-x="563" 
d="M166 946h407l-170 -973q-17 -101 -46 -173.5t-65 -117t-88 -70.5t-107 -35t-130 -9q-73 0 -148 21.5t-112 52.5l98 305q38 -53 91 -53q52 0 73.5 31t34.5 104zM537 1055h-277l-264 334h348l43 -66q10 -16 18 -31t11 -22l2 -8h10q10 20 57 67l58 60h377z" />
    <glyph glyph-name="Gacute" unicode="&#x1f4;" horiz-adv-x="1308" 
d="M725 678h553l-119 -678h-260l-22 154q-32 -87 -123 -133t-205 -46q-223 0 -350 131t-127 379q0 180 49.5 322.5t138.5 234.5t211.5 140.5t269.5 48.5q223 0 368.5 -102.5t168.5 -276.5l-424 -117q0 68 -33 107t-90 39t-99 -35t-62 -79.5t-31 -100.5q-27 -114 -27 -187
q0 -82 37.5 -128t114.5 -46q55 0 96.5 25t50.5 67l4 19h-135zM936 1284h-334l184 320h504z" />
    <glyph glyph-name="gacute" unicode="&#x1f5;" horiz-adv-x="1144" 
d="M594 84l22 119q-59 -172 -270 -172q-133 0 -224 91t-91 259q0 116 29 221t82 188t137 132t186 49q223 0 270 -174l90 149h330l-154 -885q-23 -134 -79 -230.5t-141 -153.5t-189.5 -83t-235.5 -26q-165 0 -289.5 55.5t-185.5 161.5l246 248q81 -156 244 -156
q185 0 223 207zM662 459l12 78q6 30 6 61q0 44 -22 68t-62 24q-62 0 -102.5 -86.5t-40.5 -185.5q0 -53 21.5 -82t57.5 -29q52 0 85 40t45 112zM834 1055h-334l184 319h504z" />
    <glyph glyph-name="Ngrave" unicode="&#x1f8;" horiz-adv-x="1392" 
d="M631 1206l180 -354q27 -53 51.5 -106t35.5 -80l11 -27h9q11 114 38 268l52 299h419l-210 -1206h-373l-166 303q-40 74 -74 140.5t-48 96.5l-13 29h-8q-12 -106 -43 -284l-50 -285h-419l210 1206h398zM1012 1284h-328l-303 320h514z" />
    <glyph glyph-name="ngrave" unicode="&#x1f9;" horiz-adv-x="1163" 
d="M1069 649l-39 -237q-10 -56 -10 -80q0 -39 35 -39q26 0 67 18l-57 -280q-34 -20 -95.5 -32.5t-127.5 -12.5q-125 0 -185.5 63t-60.5 176q0 36 8 90l39 234q4 32 4 45q0 57 -51 57q-41 0 -64.5 -41t-42.5 -147l-79 -463h-410l166 946h332l20 -192q66 217 289 217
q122 0 195 -66.5t73 -175.5q0 -43 -6 -80zM842 1055h-328l-303 319h514z" />
    <glyph glyph-name="uni004102DA00B4" unicode="&#x1fa;" horiz-adv-x="1384" 
d="M874 0l-24 164h-389l-84 -164h-440l630 1206h549l182 -1206h-424zM694 651l-76 -174h189l-21 174q-5 43 -8.5 93.5t-4.5 79.5l-1 30h-8q-27 -103 -70 -203zM868 1231q-112 0 -177.5 62t-65.5 153q0 112 76.5 187t195.5 75q112 0 178 -62t66 -153q0 -111 -77 -186.5
t-196 -75.5zM877 1386q37 0 61.5 27.5t24.5 65.5q0 32 -19.5 52.5t-54.5 20.5q-37 0 -61.5 -27t-24.5 -65q0 -32 19.5 -53t54.5 -21zM1116 1731h-334l185 319h503z" />
    <glyph glyph-name="aringacute" unicode="&#x1fb;" horiz-adv-x="1216" 
d="M745 981q-112 0 -177.5 62t-65.5 153q0 112 76.5 187t195.5 75q112 0 178 -62t66 -153q0 -111 -77 -186.5t-196 -75.5zM754 1137q37 0 61.5 27t24.5 65q0 32 -19.5 53t-54.5 21q-37 0 -61.5 -27.5t-24.5 -65.5q0 -32 19.5 -52.5t54.5 -20.5zM1174 946l-95 -534
q-10 -56 -10 -80q0 -39 35 -39q26 0 67 18l-57 -280q-34 -20 -95 -32.5t-124 -12.5q-99 0 -161.5 50t-74.5 138q-36 -88 -112 -143.5t-180 -55.5q-153 0 -243.5 103.5t-90.5 296.5q0 162 55.5 297.5t161 217t239.5 81.5q210 0 259 -180l92 155h334zM670 422l16 88q8 41 8 78
q0 42 -20.5 67t-57.5 25q-47 0 -82.5 -44.5t-53 -111.5t-17.5 -143q0 -54 20.5 -84.5t59.5 -30.5q98 0 127 156zM967 1491h-334l184 319h504z" />
    <glyph glyph-name="AEacute" unicode="&#x1fc;" horiz-adv-x="1927" 
d="M793 1206h1196l-62 -344h-495l-21 -108h432l-49 -301h-434l-21 -109h498l-59 -344h-910l27 164h-389l-111 -164h-458zM1499 1284h-334l185 320h503zM1034 936l-313 -459h229l41 230q10 56 23 113.5t20 86.5l8 29h-8z" />
    <glyph glyph-name="aeacute" unicode="&#x1fd;" horiz-adv-x="1546" 
d="M1477 410l-529 -11q11 -123 115 -123q48 0 77 22.5t46 80.5l309 -135q-59 -135 -175 -202t-310 -67q-238 0 -355 158q-47 -75 -134 -116.5t-199 -41.5q-140 0 -221 71t-81 200q0 101 51.5 170.5t132.5 99.5t187 31l195 2q5 38 22 84v14q0 43 -41 43q-29 0 -40.5 -21.5
t-16.5 -76.5l-389 74q29 152 148.5 228.5t314.5 76.5q166 0 252 -64q125 64 276 64q98 0 176.5 -29t128.5 -78.5t76.5 -114t26.5 -137.5q0 -118 -43 -202zM1040 1055h-333l184 319h504zM580 311q-7 47 -7 82h-45q-108 -3 -108 -88q0 -30 17.5 -45.5t45.5 -15.5q80 0 97 67z
M1071 680q-44 0 -73 -34t-42 -91l172 2q11 22 11 51q0 31 -17 51.5t-51 20.5z" />
    <glyph glyph-name="Oslashacute" unicode="&#x1fe;" horiz-adv-x="1312" 
d="M618 -25q-221 0 -362 105l-111 -105l-108 113l113 107q-78 122 -78 301q0 159 42.5 291.5t125.5 232.5t214 155.5t298 55.5q215 0 362 -107l111 107l114 -113l-116 -112q75 -124 75 -295q0 -159 -42.5 -292t-125.5 -232.5t-214 -155.5t-298 -56zM950 1284h-334l185 320
h504zM502 610q-11 -57 -13 -88l340 328q-40 37 -100 37q-90 0 -144 -69t-83 -208zM641 319q90 0 144 69t83 208q10 68 11 82l-336 -324q41 -35 98 -35z" />
    <glyph glyph-name="oslashacute" unicode="&#x1ff;" horiz-adv-x="1099" 
d="M-10 80l102 90q-59 97 -59 227q0 169 62.5 297t192.5 202.5t314 74.5q176 0 303 -88l101 88l102 -105l-102 -90q61 -95 61 -225q0 -170 -62.5 -298.5t-192.5 -203t-314 -74.5q-178 0 -305 88l-101 -88zM801 1055h-334l184 319h504zM524 268q74 0 120 61t52 177l-245 -215
q33 -23 73 -23zM578 678q-74 0 -121 -61t-54 -175l244 215q-32 21 -69 21z" />
    <glyph glyph-name="Adoublegrave" unicode="&#x200;" horiz-adv-x="1384" 
d="M874 0l-24 164h-389l-84 -164h-440l630 1206h549l182 -1206h-424zM694 651l-76 -174h189l-21 174q-5 43 -8.5 93.5t-4.5 79.5l-1 30h-8q-27 -103 -70 -203zM1198 1284h-287l-125 340h398zM795 1284h-320l-180 340h428z" />
    <glyph glyph-name="edoublegrave" unicode="&#x201;" horiz-adv-x="1026" 
d="M543 276q48 0 77 22.5t46 80.5l309 -135q-59 -134 -175.5 -201.5t-310.5 -67.5q-206 0 -331 113.5t-125 308.5q0 269 154 421.5t405 152.5q98 0 176.5 -29t128 -78.5t76 -114t26.5 -137.5q0 -118 -43 -202h-530q0 -65 30 -99.5t87 -34.5zM444 557h164q10 20 10 51
t-17 51.5t-50 20.5q-85 0 -107 -123zM979 1055h-287l-125 340h398zM575 1055h-319l-180 340h428z" />
    <glyph glyph-name="edoublegrave" unicode="&#x205;" horiz-adv-x="1026" 
d="M543 276q48 0 77 22.5t46 80.5l309 -135q-59 -134 -175.5 -201.5t-310.5 -67.5q-206 0 -331 113.5t-125 308.5q0 269 154 421.5t405 152.5q98 0 176.5 -29t128 -78.5t76 -114t26.5 -137.5q0 -118 -43 -202h-530q0 -65 30 -99.5t87 -34.5zM444 557h164q10 20 10 51
t-17 51.5t-50 20.5q-85 0 -107 -123zM979 1055h-287l-125 340h398zM575 1055h-319l-180 340h428z" />
    <glyph glyph-name="Ainvertedbreve" unicode="&#x202;" horiz-adv-x="1384" 
d="M874 0l-24 164h-389l-84 -164h-440l630 1206h549l182 -1206h-424zM694 651l-76 -174h189l-21 174q-5 43 -8.5 93.5t-4.5 79.5l-1 30h-8q-27 -103 -70 -203zM905 1640q153 0 230 -71.5t77 -188.5q0 -52 -8 -96h-284q4 28 4 41q0 59 -60 59q-40 0 -60 -25t-28 -75h-280
q11 62 27.5 111.5t48 96.5t75 78.5t109 50.5t149.5 19z" />
    <glyph glyph-name="ainvertedbreve" unicode="&#x203;" horiz-adv-x="1216" 
d="M1174 946l-95 -534q-10 -56 -10 -80q0 -39 35 -39q26 0 67 18l-57 -280q-34 -20 -95 -32.5t-124 -12.5q-99 0 -161.5 50t-74.5 138q-36 -88 -112 -143.5t-180 -55.5q-153 0 -243.5 103.5t-90.5 296.5q0 162 55.5 297.5t161 217t239.5 81.5q210 0 259 -180l92 155h334z
M670 422l16 88q8 41 8 78q0 42 -20.5 67t-57.5 25q-47 0 -82.5 -44.5t-53 -111.5t-17.5 -143q0 -54 20.5 -84.5t59.5 -30.5q98 0 127 156zM780 1411q153 0 230 -71.5t77 -188.5q0 -52 -8 -96h-284q4 28 4 41q0 59 -60 59q-40 0 -60 -25t-28 -75h-280q11 62 27.5 111.5
t48 96.5t75 78.5t109 50.5t149.5 19z" />
    <glyph glyph-name="Edoublegrave" unicode="&#x204;" horiz-adv-x="1081" 
d="M991 344l-59 -344h-909l210 1206h910l-62 -344h-495l-21 -108h432l-49 -301h-434l-20 -109h497zM1036 1284h-286l-125 340h397zM633 1284h-320l-180 340h428z" />
    <glyph glyph-name="Einvertedbreve" unicode="&#x206;" horiz-adv-x="1081" 
d="M991 344l-59 -344h-909l210 1206h910l-62 -344h-495l-21 -108h432l-49 -301h-434l-20 -109h497zM743 1640q153 0 230.5 -71.5t77.5 -188.5q0 -46 -9 -96h-284q4 28 4 41q0 59 -60 59q-40 0 -60 -25t-28 -75h-280q11 62 27.5 111.5t48 96.5t75 78.5t109 50.5t149.5 19z
" />
    <glyph glyph-name="einvertedbreve" unicode="&#x207;" horiz-adv-x="1026" 
d="M543 276q48 0 77 22.5t46 80.5l309 -135q-59 -134 -175.5 -201.5t-310.5 -67.5q-206 0 -331 113.5t-125 308.5q0 269 154 421.5t405 152.5q98 0 176.5 -29t128 -78.5t76 -114t26.5 -137.5q0 -118 -43 -202h-530q0 -65 30 -99.5t87 -34.5zM444 557h164q10 20 10 51
t-17 51.5t-50 20.5q-85 0 -107 -123zM678 1411q153 0 230 -71.5t77 -188.5q0 -52 -8 -96h-285q4 28 4 41q0 59 -59 59q-40 0 -60 -25t-28 -75h-281q11 62 28 111.5t48.5 96.5t75 78.5t109 50.5t149.5 19z" />
    <glyph glyph-name="Idoublegrave" unicode="&#x208;" horiz-adv-x="626" 
d="M233 1206h429l-211 -1206h-428zM817 1284h-287l-124 340h397zM414 1284h-320l-180 340h428z" />
    <glyph glyph-name="idoublegrave" unicode="&#x209;" horiz-adv-x="600" 
d="M555 946l-92 -534q-10 -56 -10 -80q0 -39 34 -39q27 0 68 18l-57 -280q-34 -20 -96 -32.5t-128 -12.5q-125 0 -185 63t-60 176q0 36 8 90l110 631h408zM731 1055h-287l-125 340h398zM328 1055h-320l-180 340h428z" />
    <glyph glyph-name="Iinvertedbreve" unicode="&#x20a;" horiz-adv-x="626" 
d="M233 1206h429l-211 -1206h-428zM545 1640q153 0 230 -71.5t77 -188.5q0 -52 -8 -96h-285q4 28 4 41q0 59 -59 59q-40 0 -60 -25t-28 -75h-281q11 62 28 111.5t48.5 96.5t75 78.5t109 50.5t149.5 19z" />
    <glyph glyph-name="iinvertedbreve" unicode="&#x20b;" horiz-adv-x="600" 
d="M555 946l-92 -534q-10 -56 -10 -80q0 -39 34 -39q27 0 68 18l-57 -280q-34 -20 -96 -32.5t-128 -12.5q-125 0 -185 63t-60 176q0 36 8 90l110 631h408zM430 1411q153 0 230 -71.5t77 -188.5q0 -52 -8 -96h-285q5 35 5 41q0 59 -60 59q-40 0 -60 -25t-28 -75h-281
q11 62 28 111.5t48.5 96.5t75 78.5t109 50.5t149.5 19z" />
    <glyph glyph-name="Odoublegrave" unicode="&#x20c;" horiz-adv-x="1312" 
d="M641 326q47 0 82.5 20t58.5 59.5t37.5 84t26.5 106.5q12 61 12 123q0 77 -34 119.5t-95 42.5q-38 0 -68.5 -14.5t-51.5 -37.5t-38 -59.5t-27 -73.5t-20 -86q-12 -62 -12 -123q0 -77 34 -119t95 -42zM618 -25q-119 0 -217.5 32.5t-172.5 96t-115 164t-41 228.5
q0 159 42.5 291.5t125.5 232.5t214 155.5t298 55.5q160 0 281 -56t193 -175t72 -289q0 -159 -42.5 -292t-125.5 -232.5t-214 -155.5t-298 -56zM1139 1284h-287l-125 340h397zM735 1284h-319l-180 340h428z" />
    <glyph glyph-name="odoublegrave" unicode="&#x20d;" horiz-adv-x="1099" 
d="M602 971q204 0 334.5 -112t130.5 -308q0 -170 -62.5 -298.5t-192.5 -203t-314 -74.5q-204 0 -334.5 112.5t-130.5 309.5q0 169 62.5 297t192.5 202.5t314 74.5zM528 276q60 0 97 84t37 193q0 55 -23.5 86t-67.5 31q-60 0 -96.5 -83.5t-36.5 -193.5q0 -55 23 -86t67 -31z
M1012 1055h-287l-125 340h397zM608 1055h-319l-180 340h428z" />
    <glyph glyph-name="Oinvertedbreve" unicode="&#x20e;" horiz-adv-x="1312" 
d="M641 326q47 0 82.5 20t58.5 59.5t37.5 84t26.5 106.5q12 61 12 123q0 77 -34 119.5t-95 42.5q-38 0 -68.5 -14.5t-51.5 -37.5t-38 -59.5t-27 -73.5t-20 -86q-12 -62 -12 -123q0 -77 34 -119t95 -42zM618 -25q-119 0 -217.5 32.5t-172.5 96t-115 164t-41 228.5
q0 159 42.5 291.5t125.5 232.5t214 155.5t298 55.5q160 0 281 -56t193 -175t72 -289q0 -159 -42.5 -292t-125.5 -232.5t-214 -155.5t-298 -56zM866 1640q153 0 230.5 -71.5t77.5 -188.5q0 -46 -9 -96h-284q4 28 4 41q0 59 -60 59q-40 0 -60 -25t-28 -75h-280
q11 62 27.5 111.5t48 96.5t75 78.5t109 50.5t149.5 19z" />
    <glyph glyph-name="oinvertedbreve" unicode="&#x20f;" horiz-adv-x="1099" 
d="M602 971q204 0 334.5 -112t130.5 -308q0 -170 -62.5 -298.5t-192.5 -203t-314 -74.5q-204 0 -334.5 112.5t-130.5 309.5q0 169 62.5 297t192.5 202.5t314 74.5zM528 276q60 0 97 84t37 193q0 55 -23.5 86t-67.5 31q-60 0 -96.5 -83.5t-36.5 -193.5q0 -55 23 -86t67 -31z
M694 1411q153 0 230 -71.5t77 -188.5q0 -52 -8 -96h-284q4 28 4 41q0 59 -60 59q-40 0 -60 -25t-28 -75h-280q11 62 27.5 111.5t48 96.5t75 78.5t109 50.5t149.5 19z" />
    <glyph glyph-name="Rinvertedbreve" unicode="&#x212;" horiz-adv-x="1220" 
d="M1178 0h-443q-38 38 -55 133l-14 86q-11 71 -30.5 95t-78.5 24h-57l-60 -338h-417l210 1206h574q193 0 299 -96.5t106 -269.5q0 -144 -82 -231.5t-198 -100.5v-8q61 -17 93 -57.5t46 -110.5l43 -201q17 -75 64 -131zM590 852l-35 -197h115q53 0 88 30.5t35 90.5
q0 36 -25 56t-72 20h-106zM778 1640q153 0 230 -71.5t77 -188.5q0 -52 -8 -96h-284q4 28 4 41q0 59 -60 59q-40 0 -60 -25t-28 -75h-280q11 62 27.5 111.5t48 96.5t75 78.5t109 50.5t149.5 19z" />
    <glyph glyph-name="rinvertedbreve" unicode="&#x213;" horiz-adv-x="854" 
d="M905 946l-78 -434q-65 49 -147 49q-87 0 -138 -48.5t-71 -164.5l-61 -348h-410l166 946h332l20 -262q28 141 104.5 214t178.5 73q59 0 104 -25zM612 1411q153 0 230.5 -71.5t77.5 -188.5q0 -47 -9 -96h-284q4 28 4 41q0 59 -60 59q-40 0 -60 -25t-28 -75h-280
q11 62 27.5 111.5t48 96.5t75 78.5t109 50.5t149.5 19z" />
    <glyph glyph-name="Udoublegrave" unicode="&#x214;" horiz-adv-x="1294" 
d="M913 1206h428l-131 -749q-25 -139 -73 -232.5t-126.5 -148.5t-179 -78t-241.5 -23q-232 0 -367 104t-135 314q0 73 14 150l119 663h428l-114 -628q-17 -90 -17 -140q0 -62 25 -92.5t86 -30.5q35 0 60 10t41.5 27t30 53.5t22 73.5t20.5 103zM1155 1284h-287l-125 340h398z
M752 1284h-320l-180 340h428z" />
    <glyph glyph-name="udoublegrave" unicode="&#x215;" horiz-adv-x="1153" 
d="M1110 946l-94 -534q-10 -56 -10 -80q0 -39 34 -39q27 0 68 18l-57 -280q-34 -20 -96 -32.5t-128 -12.5q-110 0 -163 49.5t-64 144.5q-63 -205 -315 -205q-116 0 -186 66.5t-70 181.5q0 55 10 121l106 602h408l-90 -524q-8 -47 -8 -72q0 -55 51 -55q42 0 69.5 42.5
t45.5 145.5l79 463h410zM1010 1055h-287l-125 340h397zM606 1055h-319l-181 340h429z" />
    <glyph glyph-name="Uinvertedbreve" unicode="&#x216;" horiz-adv-x="1294" 
d="M913 1206h428l-131 -749q-25 -139 -73 -232.5t-126.5 -148.5t-179 -78t-241.5 -23q-232 0 -367 104t-135 314q0 73 14 150l119 663h428l-114 -628q-17 -90 -17 -140q0 -62 25 -92.5t86 -30.5q35 0 60 10t41.5 27t30 53.5t22 73.5t20.5 103zM856 1640q153 0 230 -71.5
t77 -188.5q0 -52 -8 -96h-285q4 28 4 41q0 59 -59 59q-40 0 -60 -25t-28 -75h-281q11 62 28 111.5t48.5 96.5t75 78.5t109 50.5t149.5 19z" />
    <glyph glyph-name="uinvertedbreve" unicode="&#x217;" horiz-adv-x="1153" 
d="M1110 946l-94 -534q-10 -56 -10 -80q0 -39 34 -39q27 0 68 18l-57 -280q-34 -20 -96 -32.5t-128 -12.5q-110 0 -163 49.5t-64 144.5q-63 -205 -315 -205q-116 0 -186 66.5t-70 181.5q0 55 10 121l106 602h408l-90 -524q-8 -47 -8 -72q0 -55 51 -55q42 0 69.5 42.5
t45.5 145.5l79 463h410zM709 1411q153 0 230 -71.5t77 -188.5q0 -52 -8 -96h-285q4 28 4 41q0 59 -59 59q-40 0 -60 -25t-28 -75h-281q11 62 28 111.5t48.5 96.5t75 78.5t109 50.5t149.5 19z" />
    <glyph glyph-name="Scommaaccent" unicode="&#x218;" horiz-adv-x="1067" 
d="M-20 307l376 101q0 -51 38.5 -84t88.5 -33q76 0 76 55q0 28 -23.5 42.5t-80.5 29.5q-336 91 -336 389q0 110 43 194t117 133t163.5 73t192.5 24q209 0 328.5 -85t128.5 -259l-385 -60q-1 39 -30 65t-69 26q-35 0 -52 -15.5t-17 -40.5q0 -26 28 -40.5t121 -43.5
q318 -97 318 -377q0 -111 -41 -194t-115 -133t-171 -74.5t-216 -24.5q-211 0 -339.5 86t-143.5 246zM602 -272q0 -75 -30.5 -130t-86.5 -86.5t-125 -46t-155 -14.5v119q190 0 190 63q-34 0 -64 7t-57 23t-43 46t-16 72q0 81 52.5 122.5t133.5 41.5q92 0 146.5 -62t54.5 -155
z" />
    <glyph glyph-name="scommaaccent" unicode="&#x219;" horiz-adv-x="946" 
d="M-25 240l332 79q1 -47 31 -72.5t70 -25.5q61 0 61 45q0 25 -21 40.5t-75 25.5q-293 58 -293 307q0 162 117 247t323 85q212 0 313.5 -75.5t104.5 -207.5l-315 -47q-2 40 -24 63t-60 23q-27 0 -42.5 -11.5t-15.5 -29.5q0 -26 26 -43t99 -37q149 -40 214 -110t65 -193
q0 -160 -116.5 -244t-344.5 -84q-130 0 -222 25.5t-152 85.5t-75 154zM547 -272q0 -75 -30.5 -130t-86.5 -86.5t-125 -46t-155 -14.5v119q190 0 190 63q-34 0 -64 7t-57 23t-43 46t-16 72q0 81 52.5 122.5t133.5 41.5q92 0 146.5 -62t54.5 -155z" />
    <glyph glyph-name="Hcaron" unicode="&#x21e;" horiz-adv-x="1329" 
d="M23 0l210 1206h429l-74 -413h274l74 413h428l-211 -1206h-428l76 432h-275l-75 -432h-428zM963 1284h-277l-264 334h348l43 -66q10 -16 18 -31t11 -23l2 -7h10q10 21 57 68l58 59h377z" />
    <glyph glyph-name="hcaron" unicode="&#x21f;" horiz-adv-x="1163" 
d="M651 1368l-104 -586q31 93 100.5 141t159.5 48q122 0 195 -66.5t73 -175.5q0 -43 -6 -80l-39 -237q-10 -56 -10 -80q0 -39 35 -39q26 0 67 18l-57 -280q-34 -20 -95.5 -32.5t-127.5 -12.5q-125 0 -185.5 63t-60.5 176q0 36 8 90l39 234q4 32 4 45q0 57 -51 57
q-41 0 -64.5 -41t-42.5 -147l-79 -463h-410l240 1368h411zM598 1423h-276l-265 334h349l43 -65q10 -16 17.5 -31.5t9.5 -22.5l3 -8h10q11 21 58 68l57 59h377z" />
    <glyph glyph-name="Adotabove" unicode="&#x226;" horiz-adv-x="1384" 
d="M874 0l-24 164h-389l-84 -164h-440l630 1206h549l182 -1206h-424zM694 651l-76 -174h189l-21 174q-5 43 -8.5 93.5t-4.5 79.5l-1 30h-8q-27 -103 -70 -203zM643 1479q0 100 68.5 155.5t165.5 55.5t165 -55.5t68 -155.5t-68 -155.5t-165 -55.5t-165.5 55.5t-68.5 155.5z
" />
    <glyph glyph-name="adotabove" unicode="&#x227;" horiz-adv-x="1216" 
d="M1174 946l-95 -534q-10 -56 -10 -80q0 -39 35 -39q26 0 67 18l-57 -280q-34 -20 -95 -32.5t-124 -12.5q-99 0 -161.5 50t-74.5 138q-36 -88 -112 -143.5t-180 -55.5q-153 0 -243.5 103.5t-90.5 296.5q0 162 55.5 297.5t161 217t239.5 81.5q210 0 259 -180l92 155h334z
M670 422l16 88q8 41 8 78q0 42 -20.5 67t-57.5 25q-47 0 -82.5 -44.5t-53 -111.5t-17.5 -143q0 -54 20.5 -84.5t59.5 -30.5q98 0 127 156zM522 1214q0 100 68.5 155.5t165.5 55.5t165 -55.5t68 -155.5t-68 -155t-165 -55q-98 0 -166 55t-68 155z" />
    <glyph glyph-name="Otildemacron" unicode="&#x22c;" horiz-adv-x="1312" 
d="M641 326q47 0 82.5 20t58.5 59.5t37.5 84t26.5 106.5q12 61 12 123q0 77 -34 119.5t-95 42.5q-38 0 -68.5 -14.5t-51.5 -37.5t-38 -59.5t-27 -73.5t-20 -86q-12 -62 -12 -123q0 -77 34 -119t95 -42zM618 -25q-119 0 -217.5 32.5t-172.5 96t-115 164t-41 228.5
q0 159 42.5 291.5t125.5 232.5t214 155.5t298 55.5q160 0 281 -56t193 -175t72 -289q0 -159 -42.5 -292t-125.5 -232.5t-214 -155.5t-298 -56zM819 1294q-39 25 -57.5 34t-38.5 9q-67 0 -84 -90h-205q0 63 8 116t26.5 100.5t47.5 80.5t73.5 52.5t102.5 19.5q35 0 64.5 -7.5
t47.5 -17t48 -28.5q39 -25 57.5 -34t38.5 -9q67 0 84 90h205q0 -63 -8 -116t-26.5 -100.5t-47.5 -80.5t-73.5 -52.5t-102.5 -19.5q-35 0 -64.5 7.5t-47.5 17t-48 28.5zM1260 1653h-707l51 289h707z" />
    <glyph glyph-name="otildemacron" unicode="&#x22d;" horiz-adv-x="1099" 
d="M602 971q204 0 334.5 -112t130.5 -308q0 -170 -62.5 -298.5t-192.5 -203t-314 -74.5q-204 0 -334.5 112.5t-130.5 309.5q0 169 62.5 297t192.5 202.5t314 74.5zM528 276q60 0 97 84t37 193q0 55 -23.5 86t-67.5 31q-60 0 -96.5 -83.5t-36.5 -193.5q0 -55 23 -86t67 -31z
M666 1044q-38 25 -57 34t-40 9q-67 0 -84 -90h-204q0 63 8 116t26.5 100.5t47.5 80.5t73.5 52.5t102.5 19.5q50 0 82 -12.5t77 -40.5q38 -25 57 -34t40 -9q67 0 84 90h204q0 -63 -8 -116t-26.5 -100.5t-47.5 -80.5t-73.5 -52.5t-102.5 -19.5q-50 0 -82 12.5t-77 40.5z
M1106 1415h-707l52 289h706z" />
    <glyph glyph-name="Odotabove" unicode="&#x22e;" horiz-adv-x="1312" 
d="M641 326q47 0 82.5 20t58.5 59.5t37.5 84t26.5 106.5q12 61 12 123q0 77 -34 119.5t-95 42.5q-38 0 -68.5 -14.5t-51.5 -37.5t-38 -59.5t-27 -73.5t-20 -86q-12 -62 -12 -123q0 -77 34 -119t95 -42zM618 -25q-119 0 -217.5 32.5t-172.5 96t-115 164t-41 228.5
q0 159 42.5 291.5t125.5 232.5t214 155.5t298 55.5q160 0 281 -56t193 -175t72 -289q0 -159 -42.5 -292t-125.5 -232.5t-214 -155.5t-298 -56zM604 1479q0 100 68.5 155.5t165.5 55.5t165 -55.5t68 -155.5t-68 -155.5t-165 -55.5t-165.5 55.5t-68.5 155.5z" />
    <glyph glyph-name="odotabove" unicode="&#x22f;" horiz-adv-x="1099" 
d="M602 971q204 0 334.5 -112t130.5 -308q0 -170 -62.5 -298.5t-192.5 -203t-314 -74.5q-204 0 -334.5 112.5t-130.5 309.5q0 169 62.5 297t192.5 202.5t314 74.5zM528 276q60 0 97 84t37 193q0 55 -23.5 86t-67.5 31q-60 0 -96.5 -83.5t-36.5 -193.5q0 -55 23 -86t67 -31z
M453 1214q0 100 68 155.5t165 55.5t165.5 -55.5t68.5 -155.5t-68 -155t-166 -55q-97 0 -165 55t-68 155z" />
    <glyph glyph-name="odotabovemacron" unicode="&#x231;" horiz-adv-x="1099" 
d="M602 971q204 0 334.5 -112t130.5 -308q0 -170 -62.5 -298.5t-192.5 -203t-314 -74.5q-204 0 -334.5 112.5t-130.5 309.5q0 169 62.5 297t192.5 202.5t314 74.5zM528 276q60 0 97 84t37 193q0 55 -23.5 86t-67.5 31q-60 0 -96.5 -83.5t-36.5 -193.5q0 -55 23 -86t67 -31z
M459 1212q0 100 68 155.5t165 55.5t165.5 -55.5t68.5 -155.5t-68.5 -155.5t-165.5 -55.5t-165 55.5t-68 155.5zM1118 1464h-706l51 289h706z" />
    <glyph glyph-name="odotabovemacron" unicode="&#xe11e;" horiz-adv-x="1099" 
d="M602 971q204 0 334.5 -112t130.5 -308q0 -170 -62.5 -298.5t-192.5 -203t-314 -74.5q-204 0 -334.5 112.5t-130.5 309.5q0 169 62.5 297t192.5 202.5t314 74.5zM528 276q60 0 97 84t37 193q0 55 -23.5 86t-67.5 31q-60 0 -96.5 -83.5t-36.5 -193.5q0 -55 23 -86t67 -31z
M459 1212q0 100 68 155.5t165 55.5t165.5 -55.5t68.5 -155.5t-68.5 -155.5t-165.5 -55.5t-165 55.5t-68 155.5zM1118 1464h-706l51 289h706z" />
    <glyph glyph-name="Ymacron" unicode="&#x232;" horiz-adv-x="1298" 
d="M584 1206l53 -178q17 -58 31 -111.5t19 -77.5l5 -24h8q37 78 131 213l125 178h469l-571 -811l-70 -395h-428l70 395l-285 811h443zM1133 1284h-707l51 289h707z" />
    <glyph glyph-name="ymacron" unicode="&#x233;" horiz-adv-x="1116" 
d="M492 946l30 -278q7 -68 7.5 -141.5t-2.5 -112.5l-3 -39h8q33 146 111 289l156 282h409l-585 -1030q-61 -107 -126 -178.5t-132.5 -107t-129 -49t-135.5 -13.5q-66 0 -126 16t-91 39l107 320q50 -37 119 -37q43 0 78 27t51 85l-158 928h412zM1022 1055h-707l52 288h706z
" />
    <glyph glyph-name="dotlessj" unicode="&#x237;" horiz-adv-x="563" 
d="M166 946h407l-170 -973q-17 -101 -46 -173.5t-65 -117t-88 -70.5t-107 -35t-130 -9q-73 0 -148 21.5t-112 52.5l98 305q38 -53 91 -53q52 0 73.5 31t34.5 104z" />
    <glyph glyph-name="schwa" unicode="&#x259;" horiz-adv-x="1026" 
d="M489 670q-45 0 -73 -24.5t-47 -78.5l-310 135q117 269 473 269q215 0 338 -112.5t123 -309.5q0 -270 -149.5 -422t-399.5 -152q-130 0 -226 50t-143.5 130.5t-47.5 178.5q0 119 43 203h530q0 133 -111 133zM582 389h-164q-10 -20 -10 -51t17 -51.5t50 -20.5q85 0 107 123
z" />
    <glyph glyph-name="ezh" unicode="&#x292;" horiz-adv-x="899" 
d="M225 457l92 84l117 98v8q-88 -4 -168 -4h-182l53 303h803l-49 -278l-291 -238v-6q115 -22 178.5 -101t63.5 -210q0 -109 -41.5 -192t-115.5 -133t-169.5 -74.5t-210.5 -24.5q-119 0 -213 30t-157.5 98t-73.5 167l346 151q4 -69 38.5 -100t82.5 -31q47 0 78.5 24.5
t31.5 69.5q0 65 -55 95t-199 30z" />
    <glyph glyph-name="circumflex" unicode="&#x2c6;" horiz-adv-x="1024" 
d="M432 1389h277l264 -334h-348l-43 65q-10 16 -18 31.5t-10 22.5l-3 8h-10q-11 -21 -58 -68l-57 -59h-377z" />
    <glyph glyph-name="caron" unicode="&#x2c7;" horiz-adv-x="1024" 
d="M590 1055h-277l-264 334h348l43 -66q10 -16 18 -31t10 -22l3 -8h10q11 20 58 67l57 60h377z" />
    <glyph glyph-name="breve" unicode="&#x2d8;" horiz-adv-x="1024" 
d="M461 1044q-153 0 -230 72t-77 189q0 52 8 96h284q-4 -28 -4 -41q0 -60 60 -60q40 0 60 25.5t28 75.5h280q-13 -79 -38 -138.5t-70.5 -111.5t-121 -79.5t-179.5 -27.5z" />
    <glyph glyph-name="dotaccent" unicode="&#x2d9;" horiz-adv-x="1024" 
d="M279 1214q0 100 68 155.5t165 55.5t165 -55.5t68 -155.5t-68 -155t-165 -55t-165 55t-68 155z" />
    <glyph glyph-name="ring" unicode="&#x2da;" horiz-adv-x="1024" 
d="M500 1004q-112 0 -178 62t-66 153q0 112 76.5 187t195.5 75q112 0 178 -62t66 -153q0 -112 -76.5 -187t-195.5 -75zM508 1159q37 0 61.5 27t24.5 65q0 32 -19.5 53t-54.5 21q-37 0 -61.5 -27t-24.5 -65q0 -32 19.5 -53t54.5 -21z" />
    <glyph glyph-name="ogonek" unicode="&#x2db;" horiz-adv-x="1024" 
d="M217 -193q0 63 26 116t67.5 87.5t95 59t107 35t105.5 10.5l119 -78q-47 -13 -80.5 -24.5t-68.5 -30t-53.5 -42.5t-18.5 -53q0 -65 76 -65q63 0 123 51l82 -205q-57 -53 -123 -76.5t-158 -23.5q-60 0 -111.5 12.5t-94.5 39t-68 74.5t-25 113z" />
    <glyph glyph-name="tilde" unicode="&#x2dc;" horiz-adv-x="1024" 
d="M496 1092q-38 25 -57 34t-40 9q-67 0 -84 -91h-204q0 63 8 116t26.5 100.5t47.5 80.5t73.5 52.5t102.5 19.5q50 0 82 -12.5t77 -40.5q38 -25 57 -34t40 -9q67 0 84 90h204q0 -63 -8 -116t-26.5 -100.5t-47.5 -80.5t-73.5 -52.5t-102.5 -19.5q-35 0 -64.5 8t-46.5 17
t-48 29z" />
    <glyph glyph-name="hungarumlaut" unicode="&#x2dd;" horiz-adv-x="1024" 
d="M319 1055h-290l75 340h402zM750 1055h-312l131 340h424z" />
    <glyph glyph-name="uni0312" unicode="&#x312;" horiz-adv-x="1024" 
d="M313 1475q0 147 111 219.5t287 72.5v-118q-191 0 -191 -64q34 0 64 -7t57 -22.5t43 -45.5t16 -72q0 -81 -52.5 -122.5t-133.5 -41.5q-93 0 -147 55t-54 146z" />
    <glyph glyph-name="uni0320" unicode="&#x320;" horiz-adv-x="1024" 
d="M795 -428h-627l61 338h627z" />
    <glyph glyph-name="uni0323" unicode="&#x323;" horiz-adv-x="1024" 
d="M293 -266q0 95 64 146.5t155 51.5q93 0 157 -51.5t64 -146.5t-64.5 -147t-156.5 -52q-91 0 -155 52t-64 147z" />
    <glyph glyph-name="uni0329" unicode="&#x329;" horiz-adv-x="1024" 
d="M258 -489l78 436h430l-78 -404z" />
    <glyph glyph-name="pi" unicode="&#x3c0;" horiz-adv-x="1640" 
d="M473 985h1086l-56 -317h-176l-45 -262q-4 -18 -4 -37q0 -58 57 -58q43 0 76 16.5t76 59.5l59 -264q-58 -73 -159.5 -110.5t-221.5 -37.5q-144 0 -227.5 67t-83.5 198q0 83 33 192l67 236h-116l-222 -668h-407l225 668h-37q-65 0 -82 -101h-295q10 55 23 100.5t35.5 96
t56.5 88t79.5 69t111.5 48t147 16.5z" />
    <glyph glyph-name="pi" unicode="&#x3d6;" horiz-adv-x="1640" 
d="M473 985h1086l-56 -317h-176l-45 -262q-4 -18 -4 -37q0 -58 57 -58q43 0 76 16.5t76 59.5l59 -264q-58 -73 -159.5 -110.5t-221.5 -37.5q-144 0 -227.5 67t-83.5 198q0 83 33 192l67 236h-116l-222 -668h-407l225 668h-37q-65 0 -82 -101h-295q10 55 23 100.5t35.5 96
t56.5 88t79.5 69t111.5 48t147 16.5z" />
    <glyph glyph-name="uni0E3F" unicode="&#xe3f;" horiz-adv-x="1114" 
d="M354 -193l33 193h-364l172 985h366l35 193h172l-35 -193h2q170 0 249 -63t79 -174q0 -103 -68 -164.5t-170 -71.5v-8q58 -4 101.5 -24t68.5 -50.5t37 -65.5t12 -73q0 -291 -444 -291h-41l-33 -193h-172zM494 399l-25 -137h88q43 0 68.5 20.5t25.5 55.5q0 61 -69 61h-88z
M528 596h66q86 0 86 74q0 59 -68 59h-59z" />
    <glyph glyph-name="Ddotbelow" unicode="&#x1e0c;" horiz-adv-x="1294" 
d="M512 346h84q114 0 166.5 61t75.5 218q6 44 6 75q0 90 -41.5 125t-120.5 35h-80zM567 0h-544l210 1206h488q268 0 413.5 -125t145.5 -366q0 -362 -183.5 -538.5t-529.5 -176.5zM221 -266q0 95 64 146.5t155 51.5q93 0 157.5 -51.5t64.5 -146.5t-64.5 -147t-157.5 -52
q-91 0 -155 52t-64 147z" />
    <glyph glyph-name="ddotbelow" unicode="&#x1e0d;" horiz-adv-x="1222" 
d="M1255 1368l-170 -956q-10 -56 -10 -80q0 -39 35 -39q27 0 68 18l-58 -280q-34 -20 -95 -32.5t-124 -12.5q-99 0 -161 50t-74 138q-35 -87 -114.5 -143t-184.5 -56q-153 0 -243.5 103.5t-90.5 296.5q0 162 55.5 297.5t161 217t239.5 81.5q103 0 167.5 -41.5t86.5 -118.5
l99 557h413zM676 422l16 88q8 41 8 78q0 42 -20 67t-57 25q-70 0 -115 -91t-45 -208q0 -53 23 -84t63 -31q98 0 127 156zM295 -266q0 95 64 146.5t155 51.5q93 0 157 -51.5t64 -146.5t-64.5 -147t-156.5 -52q-91 0 -155 52t-64 147z" />
    <glyph glyph-name="Dcedilla" unicode="&#x1e10;" horiz-adv-x="1294" 
d="M707 -238q0 -92 -68 -143t-184 -51q-161 0 -252 72l55 155q59 -49 123 -49q53 0 53 41q0 51 -82 51l64 162h-393l210 1206h488q268 0 413.5 -125t145.5 -366q0 -362 -183.5 -538.5t-529.5 -176.5h-26l-23 -61q86 0 137.5 -49.5t51.5 -127.5zM512 346h84q114 0 166.5 61
t75.5 218q6 44 6 75q0 90 -41.5 125t-120.5 35h-80z" />
    <glyph glyph-name="dcedilla" unicode="&#x1e11;" horiz-adv-x="1222" 
d="M1255 1368l-170 -956q-10 -56 -10 -80q0 -39 35 -39q27 0 68 18l-58 -280q-34 -20 -95 -32.5t-124 -12.5q-99 0 -161 50t-74 138q-35 -87 -114.5 -143t-184.5 -56q-153 0 -243.5 103.5t-90.5 296.5q0 162 55.5 297.5t161 217t239.5 81.5q103 0 167.5 -41.5t86.5 -118.5
l99 557h413zM676 422l16 88q8 41 8 78q0 42 -20 67t-57 25q-70 0 -115 -91t-45 -208q0 -53 23 -84t63 -31q98 0 127 156zM770 -238q0 -92 -68 -143t-184 -51q-161 0 -252 72l56 155q59 -49 122 -49q54 0 54 41q0 51 -82 51l18 107q44 12 94 12q110 0 176 -49t66 -146z" />
    <glyph glyph-name="Hdotbelow" unicode="&#x1e24;" horiz-adv-x="1329" 
d="M23 0l210 1206h429l-74 -413h274l74 413h428l-211 -1206h-428l76 432h-275l-75 -432h-428zM319 -266q0 94 64.5 146t155.5 52q93 0 157 -51.5t64 -146.5t-64.5 -147t-156.5 -52q-91 0 -155.5 52t-64.5 147z" />
    <glyph glyph-name="hdotbelow" unicode="&#x1e25;" horiz-adv-x="1163" 
d="M651 1368l-104 -586q31 93 100.5 141t159.5 48q122 0 195 -66.5t73 -175.5q0 -43 -6 -80l-39 -237q-10 -56 -10 -80q0 -39 35 -39q26 0 67 18l-57 -280q-34 -20 -95.5 -32.5t-127.5 -12.5q-125 0 -185.5 63t-60.5 176q0 36 8 90l39 234q4 32 4 45q0 57 -51 57
q-41 0 -64.5 -41t-42.5 -147l-79 -463h-410l240 1368h411zM221 -266q0 95 64 146.5t155 51.5q93 0 157.5 -51.5t64.5 -146.5t-64.5 -147t-157.5 -52q-91 0 -155 52t-64 147z" />
    <glyph glyph-name="Ldotbelow" unicode="&#x1e36;" horiz-adv-x="983" 
d="M233 1206h431l-150 -846h412l-62 -360h-841zM141 -266q0 95 64 146.5t155 51.5q93 0 157.5 -51.5t64.5 -146.5t-64.5 -147t-157.5 -52q-91 0 -155 52t-64 147z" />
    <glyph glyph-name="ldotbelow" unicode="&#x1e37;" horiz-adv-x="600" 
d="M631 1368l-168 -956q-10 -56 -10 -80q0 -39 34 -39q27 0 68 18l-57 -280q-34 -20 -96 -32.5t-128 -12.5q-125 0 -185 63t-60 176q0 36 8 90l186 1053h408zM-55 -266q0 95 64 146.5t155 51.5q93 0 157 -51.5t64 -146.5t-64.5 -147t-156.5 -52q-91 0 -155 52t-64 147z" />
    <glyph glyph-name="uni004C032300AF" unicode="&#x1e38;" horiz-adv-x="983" 
d="M233 1206h431l-150 -846h412l-62 -360h-841zM827 1284h-706l51 289h707zM141 -266q0 95 64 146.5t155 51.5q93 0 157.5 -51.5t64.5 -146.5t-64.5 -147t-157.5 -52q-91 0 -155 52t-64 147z" />
    <glyph glyph-name="ldotbelowmacron" unicode="&#x1e39;" horiz-adv-x="600" 
d="M631 1368l-168 -956q-10 -56 -10 -80q0 -39 34 -39q27 0 68 18l-57 -280q-34 -20 -96 -32.5t-128 -12.5q-125 0 -185 63t-60 176q0 36 8 90l186 1053h408zM791 1423h-707l51 289h707zM-55 -266q0 95 64 146.5t155 51.5q93 0 157 -51.5t64 -146.5t-64.5 -147t-156.5 -52
q-91 0 -155 52t-64 147z" />
    <glyph glyph-name="Mdotbelow" unicode="&#x1e42;" horiz-adv-x="1538" 
d="M858 229h-248l-39 148l-39 170h-8q-5 -68 -28 -203l-62 -344h-411l210 1206h435l82 -250q20 -60 35.5 -114.5t20.5 -79.5l5 -25h8q37 76 137 221l172 248h445l-211 -1206h-412l62 344l41 205h-9q-57 -106 -96 -172zM424 -266q0 95 64 146.5t155 51.5q93 0 157 -51.5
t64 -146.5t-64.5 -147t-156.5 -52q-91 0 -155 52t-64 147z" />
    <glyph glyph-name="mdotbelow" unicode="&#x1e43;" horiz-adv-x="1683" 
d="M1124 315l37 240q4 32 4 43q0 53 -43 53q-36 0 -58 -33.5t-36 -121.5l-78 -496h-411l90 555q4 32 4 43q0 53 -43 53q-36 0 -58 -33.5t-36 -121.5l-86 -496h-410l166 946h332l20 -184q27 103 104.5 156t178.5 53q104 0 170 -56t78 -151q27 100 107 153.5t179 53.5
q117 0 188.5 -66.5t71.5 -175.5q0 -43 -6 -80l-39 -237q-10 -56 -10 -80q0 -39 35 -39q26 0 67 18l-57 -280q-34 -20 -95.5 -32.5t-127.5 -12.5q-125 0 -185.5 63t-60.5 176q0 36 8 90zM471 -266q0 95 64 146.5t155 51.5q93 0 157 -51.5t64 -146.5t-64.5 -147t-156.5 -52
q-91 0 -155 52t-64 147z" />
    <glyph glyph-name="Ndotaccent" unicode="&#x1e44;" horiz-adv-x="1392" 
d="M631 1206l180 -354q27 -53 51.5 -106t35.5 -80l11 -27h9q11 114 38 268l52 299h419l-210 -1206h-373l-166 303q-40 74 -74 140.5t-48 96.5l-13 29h-8q-12 -106 -43 -284l-50 -285h-419l210 1206h398zM645 1479q0 100 68.5 155.5t165.5 55.5t165 -55.5t68 -155.5
t-68 -155.5t-165 -55.5t-165.5 55.5t-68.5 155.5z" />
    <glyph glyph-name="ndotaccent" unicode="&#x1e45;" horiz-adv-x="1163" 
d="M1069 649l-39 -237q-10 -56 -10 -80q0 -39 35 -39q26 0 67 18l-57 -280q-34 -20 -95.5 -32.5t-127.5 -12.5q-125 0 -185.5 63t-60.5 176q0 36 8 90l39 234q4 32 4 45q0 57 -51 57q-41 0 -64.5 -41t-42.5 -147l-79 -463h-410l166 946h332l20 -192q66 217 289 217
q122 0 195 -66.5t73 -175.5q0 -43 -6 -80zM418 1214q0 100 68 155.5t165 55.5t165.5 -55.5t68.5 -155.5t-68 -155t-166 -55q-97 0 -165 55t-68 155z" />
    <glyph glyph-name="Ndotbelow" unicode="&#x1e46;" horiz-adv-x="1392" 
d="M631 1206l180 -354q27 -53 51.5 -106t35.5 -80l11 -27h9q11 114 38 268l52 299h419l-210 -1206h-373l-166 303q-40 74 -74 140.5t-48 96.5l-13 29h-8q-12 -106 -43 -284l-50 -285h-419l210 1206h398zM352 -266q0 95 64 146.5t155 51.5q93 0 157.5 -51.5t64.5 -146.5
t-64.5 -147t-157.5 -52q-91 0 -155 52t-64 147z" />
    <glyph glyph-name="ndotbelow" unicode="&#x1e47;" horiz-adv-x="1163" 
d="M1069 649l-39 -237q-10 -56 -10 -80q0 -39 35 -39q26 0 67 18l-57 -280q-34 -20 -95.5 -32.5t-127.5 -12.5q-125 0 -185.5 63t-60.5 176q0 36 8 90l39 234q4 32 4 45q0 57 -51 57q-41 0 -64.5 -41t-42.5 -147l-79 -463h-410l166 946h332l20 -192q66 217 289 217
q122 0 195 -66.5t73 -175.5q0 -43 -6 -80zM225 -266q0 95 64 146.5t155 51.5q93 0 157.5 -51.5t64.5 -146.5t-64.5 -147t-157.5 -52q-91 0 -155 52t-64 147z" />
    <glyph glyph-name="Rdotbelow" unicode="&#x1e5a;" horiz-adv-x="1220" 
d="M1178 0h-443q-38 38 -55 133l-14 86q-11 71 -30.5 95t-78.5 24h-57l-60 -338h-417l210 1206h574q193 0 299 -96.5t106 -269.5q0 -144 -82 -231.5t-198 -100.5v-8q61 -17 93 -57.5t46 -110.5l43 -201q17 -75 64 -131zM590 852l-35 -197h115q53 0 88 30.5t35 90.5
q0 36 -25 56t-72 20h-106zM264 -266q0 95 64 146.5t155 51.5q93 0 157.5 -51.5t64.5 -146.5t-64.5 -147t-157.5 -52q-91 0 -155 52t-64 147z" />
    <glyph glyph-name="rdotbelow" unicode="&#x1e5b;" horiz-adv-x="854" 
d="M905 946l-78 -434q-65 49 -147 49q-87 0 -138 -48.5t-71 -164.5l-61 -348h-410l166 946h332l20 -262q28 141 104.5 214t178.5 73q59 0 104 -25zM-68 -266q0 94 64.5 146t155.5 52q93 0 157 -51.5t64 -146.5t-64.5 -147t-156.5 -52q-91 0 -155.5 52t-64.5 147z" />
    <glyph glyph-name="Rdotbelowmacron" unicode="&#x1e5c;" horiz-adv-x="1220" 
d="M1178 0h-443q-38 38 -55 133l-14 86q-11 71 -30.5 95t-78.5 24h-57l-60 -338h-417l210 1206h574q193 0 299 -96.5t106 -269.5q0 -144 -82 -231.5t-198 -100.5v-8q61 -17 93 -57.5t46 -110.5l43 -201q17 -75 64 -131zM590 852l-35 -197h115q53 0 88 30.5t35 90.5
q0 36 -25 56t-72 20h-106zM264 -266q0 95 64 146.5t155 51.5q93 0 157.5 -51.5t64.5 -146.5t-64.5 -147t-157.5 -52q-91 0 -155 52t-64 147zM1090 1284h-707l51 289h707z" />
    <glyph glyph-name="rdotbelowmacron" unicode="&#x1e5d;" horiz-adv-x="854" 
d="M905 946l-78 -434q-65 49 -147 49q-87 0 -138 -48.5t-71 -164.5l-61 -348h-410l166 946h332l20 -262q28 141 104.5 214t178.5 73q59 0 104 -25zM-68 -266q0 94 64.5 146t155.5 52q93 0 157 -51.5t64 -146.5t-64.5 -147t-156.5 -52q-91 0 -155.5 52t-64.5 147zM905 1055
h-706l51 288h706z" />
    <glyph glyph-name="Sdotbelow" unicode="&#x1e62;" horiz-adv-x="1067" 
d="M-20 307l376 101q0 -51 38.5 -84t88.5 -33q76 0 76 55q0 28 -23.5 42.5t-80.5 29.5q-336 91 -336 389q0 110 43 194t117 133t163.5 73t192.5 24q209 0 328.5 -85t128.5 -259l-385 -60q-1 39 -30 65t-69 26q-35 0 -52 -15.5t-17 -40.5q0 -26 28 -40.5t121 -43.5
q318 -97 318 -377q0 -111 -41 -194t-115 -133t-171 -74.5t-216 -24.5q-211 0 -339.5 86t-143.5 246zM162 -266q0 95 64 146.5t155 51.5q93 0 157 -51.5t64 -146.5t-64.5 -147t-156.5 -52q-91 0 -155 52t-64 147z" />
    <glyph glyph-name="sdotbelow" unicode="&#x1e63;" horiz-adv-x="946" 
d="M-25 240l332 79q1 -47 31 -72.5t70 -25.5q61 0 61 45q0 25 -21 40.5t-75 25.5q-293 58 -293 307q0 162 117 247t323 85q212 0 313.5 -75.5t104.5 -207.5l-315 -47q-2 40 -24 63t-60 23q-27 0 -42.5 -11.5t-15.5 -29.5q0 -26 26 -43t99 -37q149 -40 214 -110t65 -193
q0 -160 -116.5 -244t-344.5 -84q-130 0 -222 25.5t-152 85.5t-75 154zM106 -266q0 94 64.5 146t155.5 52q93 0 157 -51.5t64 -146.5t-64.5 -147t-156.5 -52q-91 0 -155.5 52t-64.5 147z" />
    <glyph glyph-name="Tdotbelow" unicode="&#x1e6c;" horiz-adv-x="1101" 
d="M682 0h-428l147 846h-301l64 360h1032l-63 -360h-302zM213 -266q0 95 64 146.5t155 51.5q93 0 157 -51.5t64 -146.5t-64.5 -147t-156.5 -52q-91 0 -155 52t-64 147z" />
    <glyph glyph-name="tdotbelow" unicode="&#x1e6d;" horiz-adv-x="811" 
d="M741 373l-59 -330q-85 -68 -260 -68q-150 0 -243 80.5t-93 241.5q0 57 12 125l39 221h-106l53 303h109l34 201l412 35l-41 -236h203l-53 -303h-203l-35 -203q-6 -36 -6 -47q0 -69 82 -69q71 0 155 49zM47 -266q0 95 64 146.5t155 51.5q93 0 157 -51.5t64 -146.5
t-64.5 -147t-156.5 -52q-91 0 -155 52t-64 147z" />
    <glyph glyph-name="Wgrave" unicode="&#x1e80;" horiz-adv-x="1806" 
d="M1239 1206l-20 -551q-2 -47 -8 -106t-11 -94l-6 -35h8q29 133 68 239l215 547h448l-495 -1206h-516l-19 424q-2 45 1 108t7 104l4 40h-8q-18 -141 -57 -258l-141 -418h-529l-35 1206h420l6 -553q1 -46 -2 -104.5t-7 -93.5l-3 -35h8q27 131 62 229l198 557h412zM1202 1284
h-328l-303 320h514z" />
    <glyph glyph-name="wgrave" unicode="&#x1e81;" horiz-adv-x="1587" 
d="M1040 946l-8 -340q-1 -50 -7 -107t-11 -89l-6 -31h8q35 125 80 225l155 342h428l-475 -946h-442l-4 227q-1 49 2.5 115.5t7.5 107.5l4 42h-8q-41 -156 -84 -265l-90 -227h-449l-59 946h399l11 -336q2 -61 0.5 -112.5t-3.5 -85.5l-2 -33h9q20 114 63 229l125 338h356z
M1044 1055h-327l-303 319h514z" />
    <glyph glyph-name="Wacute" unicode="&#x1e82;" horiz-adv-x="1806" 
d="M1239 1206l-20 -551q-2 -47 -8 -106t-11 -94l-6 -35h8q29 133 68 239l215 547h448l-495 -1206h-516l-19 424q-2 45 1 108t7 104l4 40h-8q-18 -141 -57 -258l-141 -418h-529l-35 1206h420l6 -553q1 -46 -2 -104.5t-7 -93.5l-3 -35h8q27 131 62 229l198 557h412zM1178 1284
h-334l184 320h504z" />
    <glyph glyph-name="wacute" unicode="&#x1e83;" horiz-adv-x="1587" 
d="M1040 946l-8 -340q-1 -50 -7 -107t-11 -89l-6 -31h8q35 125 80 225l155 342h428l-475 -946h-442l-4 227q-1 49 2.5 115.5t7.5 107.5l4 42h-8q-41 -156 -84 -265l-90 -227h-449l-59 946h399l11 -336q2 -61 0.5 -112.5t-3.5 -85.5l-2 -33h9q20 114 63 229l125 338h356z
M1047 1055h-334l184 319h504z" />
    <glyph glyph-name="Wdieresis" unicode="&#x1e84;" horiz-adv-x="1806" 
d="M1239 1206l-20 -551q-2 -47 -8 -106t-11 -94l-6 -35h8q29 133 68 239l215 547h448l-495 -1206h-516l-19 424q-2 45 1 108t7 104l4 40h-8q-18 -141 -57 -258l-141 -418h-529l-35 1206h420l6 -553q1 -46 -2 -104.5t-7 -93.5l-3 -35h8q27 131 62 229l198 557h412zM637 1464
q0 93 60 145t145 52t145 -52t60 -145q0 -92 -60 -143t-145 -51t-145 51t-60 143zM1087 1464q0 93 60 145t145 52t145 -52t60 -145q0 -92 -60 -143t-145 -51t-145 51t-60 143z" />
    <glyph glyph-name="wdieresis" unicode="&#x1e85;" horiz-adv-x="1587" 
d="M1040 946l-8 -340q-1 -50 -7 -107t-11 -89l-6 -31h8q35 125 80 225l155 342h428l-475 -946h-442l-4 227q-1 49 2.5 115.5t7.5 107.5l4 42h-8q-41 -156 -84 -265l-90 -227h-449l-59 946h399l11 -336q2 -61 0.5 -112.5t-3.5 -85.5l-2 -33h9q20 114 63 229l125 338h356z
M487 1208q0 93 60 145t145 52t145 -52t60 -145q0 -92 -60 -143t-145 -51t-145 51t-60 143zM938 1208q0 93 60 145t145 52t145 -52t60 -145q0 -92 -60 -143t-145 -51t-145 51t-60 143z" />
    <glyph glyph-name="Idotbelow" unicode="&#x1eca;" horiz-adv-x="626" 
d="M233 1206h429l-211 -1206h-428zM-31 -266q0 95 64 146.5t155 51.5q93 0 157.5 -51.5t64.5 -146.5t-64.5 -147t-157.5 -52q-91 0 -155 52t-64 147z" />
    <glyph glyph-name="idotbelow" unicode="&#x1ecb;" horiz-adv-x="600" 
d="M555 946l-92 -534q-10 -56 -10 -80q0 -39 34 -39q27 0 68 18l-57 -280q-34 -20 -96 -32.5t-128 -12.5q-125 0 -185 63t-60 176q0 36 8 90l110 631h408zM162 1210q0 100 68 155.5t165 55.5t165.5 -55.5t68.5 -155.5t-68.5 -155.5t-165.5 -55.5t-165 55.5t-68 155.5z
M-61 -266q0 95 64 146.5t155 51.5q93 0 157 -51.5t64 -146.5t-64.5 -147t-156.5 -52q-91 0 -155 52t-64 147z" />
    <glyph glyph-name="Odotbelow" unicode="&#x1ecc;" horiz-adv-x="1312" 
d="M641 326q47 0 82.5 20t58.5 59.5t37.5 84t26.5 106.5q12 61 12 123q0 77 -34 119.5t-95 42.5q-38 0 -68.5 -14.5t-51.5 -37.5t-38 -59.5t-27 -73.5t-20 -86q-12 -62 -12 -123q0 -77 34 -119t95 -42zM618 -25q-119 0 -217.5 32.5t-172.5 96t-115 164t-41 228.5
q0 159 42.5 291.5t125.5 232.5t214 155.5t298 55.5q160 0 281 -56t193 -175t72 -289q0 -159 -42.5 -292t-125.5 -232.5t-214 -155.5t-298 -56zM311 -266q0 95 64 146.5t155 51.5q93 0 157.5 -51.5t64.5 -146.5t-64.5 -147t-157.5 -52q-91 0 -155 52t-64 147z" />
    <glyph glyph-name="odotbelow" unicode="&#x1ecd;" horiz-adv-x="1099" 
d="M602 971q204 0 334.5 -112t130.5 -308q0 -170 -62.5 -298.5t-192.5 -203t-314 -74.5q-204 0 -334.5 112.5t-130.5 309.5q0 169 62.5 297t192.5 202.5t314 74.5zM528 276q60 0 97 84t37 193q0 55 -23.5 86t-67.5 31q-60 0 -96.5 -83.5t-36.5 -193.5q0 -55 23 -86t67 -31z
M199 -266q0 95 64 146.5t155 51.5q93 0 157 -51.5t64 -146.5t-64.5 -147t-156.5 -52q-91 0 -155 52t-64 147z" />
    <glyph glyph-name="Udotbelow" unicode="&#x1ee4;" horiz-adv-x="1294" 
d="M913 1206h428l-131 -749q-25 -139 -73 -232.5t-126.5 -148.5t-179 -78t-241.5 -23q-232 0 -367 104t-135 314q0 73 14 150l119 663h428l-114 -628q-17 -90 -17 -140q0 -62 25 -92.5t86 -30.5q35 0 60 10t41.5 27t30 53.5t22 73.5t20.5 103zM307 -266q0 95 64 146.5
t155 51.5q93 0 157.5 -51.5t64.5 -146.5t-64.5 -147t-157.5 -52q-91 0 -155 52t-64 147z" />
    <glyph glyph-name="udotbelow" unicode="&#x1ee5;" horiz-adv-x="1153" 
d="M1110 946l-94 -534q-10 -56 -10 -80q0 -39 34 -39q27 0 68 18l-57 -280q-34 -20 -96 -32.5t-128 -12.5q-110 0 -163 49.5t-64 144.5q-63 -205 -315 -205q-116 0 -186 66.5t-70 181.5q0 55 10 121l106 602h408l-90 -524q-8 -47 -8 -72q0 -55 51 -55q42 0 69.5 42.5
t45.5 145.5l79 463h410zM197 -266q0 95 64 146.5t155 51.5q93 0 157 -51.5t64 -146.5t-64.5 -147t-156.5 -52q-91 0 -155 52t-64 147z" />
    <glyph glyph-name="Ygrave" unicode="&#x1ef2;" horiz-adv-x="1298" 
d="M584 1206l53 -178q17 -58 31 -111.5t19 -77.5l5 -24h8q37 78 131 213l125 178h469l-571 -811l-70 -395h-428l70 395l-285 811h443zM946 1284h-328l-303 320h514z" />
    <glyph glyph-name="ygrave" unicode="&#x1ef3;" horiz-adv-x="1116" 
d="M492 946l30 -278q7 -68 7.5 -141.5t-2.5 -112.5l-3 -39h8q33 146 111 289l156 282h409l-585 -1030q-61 -107 -126 -178.5t-132.5 -107t-129 -49t-135.5 -13.5q-66 0 -126 16t-91 39l107 320q50 -37 119 -37q43 0 78 27t51 85l-158 928h412zM854 1055h-328l-303 319h514z
" />
    <glyph glyph-name="Ytilde" unicode="&#x1ef8;" horiz-adv-x="1298" 
d="M584 1206l53 -178q17 -58 31 -111.5t19 -77.5l5 -24h8q37 78 131 213l125 178h469l-571 -811l-70 -395h-428l70 395l-285 811h443zM795 1331q-38 25 -57 34t-40 9q-67 0 -84 -90h-204q0 63 8 116t26.5 100.5t47.5 80.5t73.5 52.5t102.5 19.5q35 0 64.5 -8t46.5 -17
t48 -29q38 -25 57 -34t40 -9q67 0 84 91h204q0 -63 -8 -116t-26.5 -100.5t-47.5 -80.5t-73.5 -52.5t-102.5 -19.5q-50 0 -82 12.5t-77 40.5z" />
    <glyph glyph-name="ytilde" unicode="&#x1ef9;" horiz-adv-x="1116" 
d="M492 946l30 -278q7 -68 7.5 -141.5t-2.5 -112.5l-3 -39h8q33 146 111 289l156 282h409l-585 -1030q-61 -107 -126 -178.5t-132.5 -107t-129 -49t-135.5 -13.5q-66 0 -126 16t-91 39l107 320q50 -37 119 -37q43 0 78 27t51 85l-158 928h412zM682 1092q-39 25 -57.5 34
t-38.5 9q-67 0 -84 -91h-205q0 63 8 116t26.5 100.5t47.5 80.5t73.5 52.5t102.5 19.5q35 0 64.5 -7.5t47.5 -17t48 -28.5q39 -25 57.5 -34t38.5 -9q67 0 84 90h205q0 -63 -8 -116t-26.5 -100.5t-47.5 -80.5t-73.5 -52.5t-102.5 -19.5q-35 0 -65 8t-47 17t-48 29z" />
    <glyph glyph-name="enspace" unicode="&#x2002;" horiz-adv-x="921" 
 />
    <glyph glyph-name="emspace" unicode="&#x2003;" horiz-adv-x="1843" 
 />
    <glyph glyph-name="threeperemspace" unicode="&#x2004;" horiz-adv-x="614" 
 />
    <glyph glyph-name="fourperemspace" unicode="&#x2005;" horiz-adv-x="460" 
 />
    <glyph glyph-name="sixperemspace" unicode="&#x2006;" horiz-adv-x="307" 
 />
    <glyph glyph-name="figurespace" unicode="&#x2007;" horiz-adv-x="1050" 
 />
    <glyph glyph-name="punctuationspace" unicode="&#x2008;" horiz-adv-x="350" 
 />
    <glyph glyph-name="thinspace" unicode="&#x2009;" horiz-adv-x="184" 
 />
    <glyph glyph-name="hairspace" unicode="&#x200a;" horiz-adv-x="92" 
 />
    <glyph glyph-name="zerowidthspace" unicode="&#x200b;" horiz-adv-x="0" 
 />
    <glyph glyph-name="figuredash" unicode="&#x2012;" horiz-adv-x="1132" 
d="M82 395l45 267h940l-45 -267h-940z" />
    <glyph glyph-name="endash" unicode="&#x2013;" horiz-adv-x="970" 
d="M82 395l45 267h778l-45 -267h-778z" />
    <glyph glyph-name="emdash" unicode="&#x2014;" horiz-adv-x="1994" 
d="M82 395l45 267h1802l-45 -267h-1802z" />
    <glyph glyph-name="uni2015" unicode="&#x2015;" horiz-adv-x="2535" 
d="M82 395l45 267h2343l-45 -267h-2343z" />
    <glyph glyph-name="doublebar" unicode="&#x2016;" horiz-adv-x="1271" 
d="M379 -416h-342l313 1782h342zM932 -416h-342l313 1782h342z" />
    <glyph glyph-name="quoteleft" unicode="&#x2018;" horiz-adv-x="632" 
d="M160 977q0 127 65 220t172.5 138t243.5 45v-163q-89 -3 -159 -34t-70 -79q41 2 77 -7t67 -30t49 -61t18 -95q0 -100 -65 -157.5t-157 -57.5q-115 0 -178 81t-63 200z" />
    <glyph glyph-name="quoteright" unicode="&#x2019;" horiz-adv-x="632" 
d="M643 1108q0 -127 -65 -220t-172.5 -138t-243.5 -45v163q89 3 159 34t70 79q-41 -2 -77 7t-67 30t-49 61t-18 95q0 100 65 157.5t156 57.5q115 0 178.5 -81t63.5 -200z" />
    <glyph glyph-name="quotesinglbase" unicode="&#x201a;" horiz-adv-x="632" 
d="M485 164q0 -127 -65 -220t-172.5 -138.5t-243.5 -45.5v164q89 3 159 34t70 79q-41 -2 -77 6.5t-66.5 29.5t-48.5 61t-18 95q0 100 65 157.5t156 57.5q115 0 178 -80.5t63 -199.5z" />
    <glyph glyph-name="reversequoteleft" unicode="&#x201b;" horiz-adv-x="632" 
d="M162 1108q0 119 63 200t178 81q92 0 157 -57.5t65 -157.5q0 -55 -18 -95t-49 -61t-67 -30t-77 -7q0 -48 70 -79t159 -34v-163q-136 0 -243.5 45t-172.5 138t-65 220z" />
    <glyph glyph-name="quotedblleft" unicode="&#x201c;" horiz-adv-x="1161" 
d="M160 977q0 127 65 220t172.5 138t243.5 45v-163q-89 -3 -159 -34t-70 -79q41 2 77 -7t67 -30t49 -61t18 -95q0 -100 -65 -157.5t-157 -57.5q-115 0 -178 81t-63 200zM688 977q0 127 65 220t172.5 138t243.5 45v-163q-89 -3 -159 -34t-70 -79q41 2 77 -7t67 -30t49 -61
t18 -95q0 -100 -65 -157.5t-156 -57.5q-115 0 -178.5 81t-63.5 200z" />
    <glyph glyph-name="quotedblright" unicode="&#x201d;" horiz-adv-x="1161" 
d="M643 1108q0 -127 -65 -220t-172.5 -138t-243.5 -45v163q89 3 159 34t70 79q-41 -2 -77 7t-67 30t-49 61t-18 95q0 100 65 157.5t156 57.5q115 0 178.5 -81t63.5 -200zM1171 1108q0 -127 -65 -220t-172.5 -138t-243.5 -45v163q89 3 159.5 34t70.5 79q-41 -2 -77 7t-67 30
t-49 61t-18 95q0 100 65 157.5t156 57.5q115 0 178 -81t63 -200z" />
    <glyph glyph-name="quotedblbase" unicode="&#x201e;" horiz-adv-x="1161" 
d="M485 162q0 -127 -65 -220t-172.5 -138.5t-243.5 -45.5v164q89 3 159 34t70 79q-41 -2 -77 6.5t-66.5 29.5t-48.5 61t-18 95q0 100 65 157.5t156 57.5q115 0 178 -80.5t63 -199.5zM1014 162q0 -127 -65 -220t-173 -138.5t-244 -45.5v164q89 3 159.5 34t70.5 79
q-89 -5 -150 41t-61 151q0 100 65 157.5t156 57.5q115 0 178.5 -80.5t63.5 -199.5z" />
    <glyph glyph-name="reversequotedblleft" unicode="&#x201f;" horiz-adv-x="1183" 
d="M690 1108q0 119 63.5 200t178.5 81q91 0 156 -57.5t65 -157.5q0 -55 -18 -95t-49 -61t-67 -30t-77 -7q0 -48 70 -79t159 -34v-163q-136 0 -243.5 45t-172.5 138t-65 220zM162 1108q0 119 63 200t178 81q92 0 157 -57.5t65 -157.5q0 -55 -18 -95t-49 -61t-67 -30t-77 -7
q0 -48 70 -79t159 -34v-163q-136 0 -243.5 45t-172.5 138t-65 220z" />
    <glyph glyph-name="dagger" unicode="&#x2020;" horiz-adv-x="1200" 
d="M416 412l-340 -23l63 356l330 -20l63 481h396l-105 -481l338 20l-63 -356l-330 23l-106 -721h-394z" />
    <glyph glyph-name="daggerdbl" unicode="&#x2021;" horiz-adv-x="1241" 
d="M821 575l-30 -184l342 19l-64 -359l-336 23l-47 -381h-389l92 381l-348 -23l63 359l332 -19l33 184l-340 -22l64 362l331 -22l35 313h393l-73 -313l342 22l-64 -362z" />
    <glyph glyph-name="bullet" unicode="&#x2022;" horiz-adv-x="831" 
d="M90 573q0 140 103 243.5t245 103.5q141 0 244.5 -103.5t103.5 -243.5q0 -144 -103.5 -248t-244.5 -104q-143 0 -245.5 103.5t-102.5 248.5z" />
    <glyph glyph-name="ellipsis" unicode="&#x2026;" horiz-adv-x="1898" 
d="M35 213q0 97 64.5 163t164.5 66t165 -66t65 -163t-65 -163t-165 -66t-164.5 66t-64.5 163zM668 213q0 97 64.5 163t164.5 66t164.5 -66t64.5 -163t-64.5 -163t-164.5 -66t-164.5 66t-64.5 163zM1300 213q0 97 65 163t165 66t164.5 -66t64.5 -163t-64.5 -163t-164.5 -66
t-165 66t-65 163z" />
    <glyph glyph-name="perthousand" unicode="&#x2030;" horiz-adv-x="2611" 
d="M479 1223q145 0 226 -86.5t81 -229.5q0 -192 -103.5 -315t-272.5 -123q-145 0 -226.5 86.5t-81.5 228.5q0 192 104 315.5t273 123.5zM426 676q43 0 69.5 68.5t26.5 152.5q0 60 -13 89.5t-46 29.5q-43 0 -69.5 -69.5t-26.5 -151.5q0 -60 13 -89.5t46 -29.5zM414 0
l829 1206h225l-841 -1206h-213zM1477 739q145 0 226 -86.5t81 -228.5q0 -192 -104 -315t-273 -123q-145 0 -226 86.5t-81 228.5q0 192 104 315t273 123zM1423 193q43 0 70 69t27 152q0 59 -13 88.5t-47 29.5q-43 0 -69.5 -69.5t-26.5 -151.5q0 -60 13 -89t46 -29zM2243 739
q145 0 226 -86.5t81 -228.5q0 -192 -104 -315t-273 -123q-145 0 -226 86.5t-81 228.5q0 192 104 315t273 123zM2189 193q43 0 70 69t27 152q0 59 -13 88.5t-47 29.5q-43 0 -69.5 -69.5t-26.5 -151.5q0 -60 13 -89t46 -29z" />
    <glyph glyph-name="tripleprime" unicode="&#x2034;" horiz-adv-x="1355" 
d="M147 844l93 524h374l-225 -524h-242zM590 844l92 524h375l-226 -524h-241zM1032 844l92 524h375l-225 -524h-242z" />
    <glyph glyph-name="guilsinglleft" unicode="&#x2039;" horiz-adv-x="739" 
d="M61 492l525 432l157 -195l-147 -129q-44 -38 -78 -64t-46 -33l-13 -7v-9q30 -22 98 -106l102 -127l-225 -195z" />
    <glyph glyph-name="guilsinglright" unicode="&#x203a;" horiz-adv-x="739" 
d="M705 492l-525 -433l-157 195l147 129q44 38 78 64t46 33l13 7v9q-30 22 -98 106l-103 127l226 195z" />
    <glyph glyph-name="fraction" unicode="&#x2044;" horiz-adv-x="313" 
d="M-352 0l829 1206h225l-841 -1206h-213z" />
    <glyph glyph-name="uni2070" unicode="&#x2070;" horiz-adv-x="765" 
d="M479 1223q145 0 226 -86.5t81 -229.5q0 -192 -103.5 -315t-272.5 -123q-145 0 -226.5 86.5t-81.5 228.5q0 192 104 315.5t273 123.5zM426 676q43 0 69.5 68.5t26.5 152.5q0 60 -13 89.5t-46 29.5q-43 0 -69.5 -69.5t-26.5 -151.5q0 -60 13 -89.5t46 -29.5z" />
    <glyph glyph-name="uni2074" unicode="&#x2074;" horiz-adv-x="780" 
d="M375 483l18 115h-350l33 190l405 418h301l-75 -420h94l-33 -188h-94l-19 -115h-280zM350 782h76l20 111q4 24 10.5 50.5t11.5 40.5l5 15h-8q-25 -45 -76 -96l-59 -59q-15 -16 -32 -31t-26 -22l-10 -7v-8q33 6 88 6z" />
    <glyph glyph-name="uni2075" unicode="&#x2075;" horiz-adv-x="688" 
d="M117 780l78 426h514l-37 -213h-303l-21 -90q50 47 139 47q96 0 158 -53t62 -156q0 -137 -95.5 -204.5t-259.5 -67.5q-121 0 -200.5 50t-98.5 138l244 99q0 -40 19 -63t55 -23q31 0 50 21.5t19 56.5q0 28 -17.5 41.5t-39.5 13.5q-31 0 -45 -23h-221z" />
    <glyph glyph-name="uni2076" unicode="&#x2076;" horiz-adv-x="704" 
d="M745 1118l-167 -147q-17 45 -84 45q-63 0 -100 -51.5t-40 -114.5h11q43 98 161 98q88 0 144.5 -51t56.5 -143q0 -134 -88 -209.5t-233 -75.5q-154 0 -234 82t-80 233q0 85 24.5 161.5t72.5 139.5t131 100.5t190 37.5q82 0 147 -31t88 -74zM414 662q29 0 49 20.5t20 54.5
q0 62 -55 62q-29 0 -49.5 -21t-20.5 -55q0 -61 56 -61z" />
    <glyph glyph-name="uni2077" unicode="&#x2077;" horiz-adv-x="710" 
d="M475 1008h-137l-16 -97h-234l51 295h654l-35 -200l-338 -523h-291z" />
    <glyph glyph-name="uni2078" unicode="&#x2078;" horiz-adv-x="724" 
d="M461 1223q76 0 140.5 -19t109.5 -66t45 -116q0 -66 -39.5 -113t-104.5 -61v-8q121 -32 121 -158q0 -101 -92 -155t-244 -54q-148 0 -235.5 54t-87.5 159q0 64 45.5 114t124.5 62v8q-105 29 -105 138q0 95 86.5 155t235.5 60zM399 657q26 0 45 18t19 50q0 25 -13.5 40
t-35.5 15q-27 0 -45.5 -17.5t-18.5 -49.5q0 -26 13.5 -41t35.5 -15zM438 934q25 0 42.5 16.5t17.5 46.5q0 23 -12.5 37.5t-32.5 14.5q-25 0 -42.5 -16.5t-17.5 -47.5q0 -23 12.5 -37t32.5 -14z" />
    <glyph glyph-name="uni2079" unicode="&#x2079;" horiz-adv-x="704" 
d="M80 573l168 148q17 -45 84 -45q63 0 99.5 51.5t39.5 114.5h-10q-44 -99 -162 -99q-88 0 -144.5 51.5t-56.5 143.5q0 134 88.5 209.5t233.5 75.5q153 0 233 -82.5t80 -233.5q0 -67 -14.5 -129.5t-47.5 -119t-80.5 -98.5t-118.5 -66.5t-157 -24.5q-82 0 -147 31t-88 73z
M412 1030q-29 0 -49.5 -21t-20.5 -55q0 -61 55 -61q29 0 49.5 21t20.5 55q0 61 -55 61z" />
    <glyph glyph-name="uni207A" unicode="&#x207a;" horiz-adv-x="905" 
d="M166 952h258l45 252h199l-45 -252h264l-33 -196h-264l-49 -273h-199l49 273h-258z" />
    <glyph glyph-name="uni207B" unicode="&#x207b;" horiz-adv-x="903" 
d="M858 756h-719l33 196h719z" />
    <glyph glyph-name="uni207C" unicode="&#x207c;" horiz-adv-x="903" 
d="M831 616h-718l32 193h719zM885 926h-719l35 192h719z" />
    <glyph glyph-name="uni207D" unicode="&#x207d;" horiz-adv-x="483" 
d="M594 1303q-115 -147 -175.5 -291t-60.5 -316q0 -153 72 -323h-219q-19 44 -30 75.5t-22.5 100t-11.5 147.5q0 204 62 349t166 258h219z" />
    <glyph glyph-name="uni207E" unicode="&#x207e;" horiz-adv-x="483" 
d="M256 373h-219q114 147 174.5 290.5t60.5 315.5q0 156 -71 324h219q18 -43 29 -75.5t22.5 -100.5t11.5 -148q0 -204 -61.5 -348.5t-165.5 -257.5z" />
    <glyph glyph-name="n.superior" unicode="&#x207f;" horiz-adv-x="903" 
d="M553 791l27 149q4 24 4 31q0 41 -49 41q-34 0 -55.5 -29.5t-33.5 -97.5l-51 -297h-293l113 626h254l12 -127q56 146 215 146q89 0 139 -44.5t50 -117.5q0 -23 -4 -51l-31 -170q-6 -30 -6 -45q0 -29 30 -29q23 0 50 10l-31 -180q-57 -26 -164 -26q-182 0 -182 153
q0 31 6 58z" />
    <glyph glyph-name="uni2080" unicode="&#x2080;" horiz-adv-x="765" 
d="M397 739q145 0 226.5 -86.5t81.5 -228.5q0 -192 -104 -315t-273 -123q-145 0 -226.5 86.5t-81.5 228.5q0 192 104 315t273 123zM344 193q43 0 69.5 68.5t26.5 152.5q0 60 -13 89t-46 29q-43 0 -69.5 -69.5t-26.5 -151.5q0 -60 13 -89t46 -29z" />
    <glyph glyph-name="uni2081" unicode="&#x2081;" horiz-adv-x="692" 
d="M571 0h-567l35 205h154l53 272l-148 -26l37 221l426 59l-94 -526h139z" />
    <glyph glyph-name="uni2082" unicode="&#x2082;" horiz-adv-x="716" 
d="M266 403l-227 78q0 126 92 192t225 66q138 0 215.5 -60t77.5 -175q0 -61 -28 -112.5t-73.5 -84t-96.5 -52.5t-103 -26v-6h268l-36 -223h-607l35 201q167 51 260.5 122.5t93.5 137.5q0 47 -36 47q-29 0 -44.5 -29.5t-15.5 -75.5z" />
    <glyph glyph-name="uni2083" unicode="&#x2083;" horiz-adv-x="688" 
d="M256 469l-203 92q57 178 299 178q126 0 202.5 -54.5t76.5 -149.5q0 -79 -48 -122t-122 -51l-2 -8q69 -11 110 -54.5t41 -109.5q0 -98 -90.5 -151t-232.5 -53q-131 0 -214 49.5t-100 140.5l236 90q0 -37 15.5 -56.5t43.5 -19.5q54 0 54 50q0 51 -123 59l24 133
q31 0 51.5 2t41.5 7.5t31.5 18t10.5 32.5q0 38 -41 38q-52 0 -61 -61z" />
    <glyph glyph-name="uni2084" unicode="&#x2084;" horiz-adv-x="780" 
d="M293 0l18 115h-350l33 190l405 418h301l-75 -420h94l-33 -188h-94l-19 -115h-280zM268 299h76l21 111q4 24 10.5 50.5t10.5 41.5l5 14h-8q-25 -45 -76 -96l-59 -60q-15 -16 -32 -30.5t-26 -21.5l-10 -7v-8q33 6 88 6z" />
    <glyph glyph-name="uni2085" unicode="&#x2085;" horiz-adv-x="688" 
d="M35 297l78 426h514l-37 -213h-303l-21 -90q50 47 140 47q96 0 157.5 -53t61.5 -156q0 -137 -95.5 -204.5t-259.5 -67.5q-121 0 -200.5 50t-98.5 138l244 98q0 -40 19 -63t55 -23q31 0 50 21.5t19 56.5q0 28 -17.5 41.5t-39.5 13.5q-31 0 -45 -22h-221z" />
    <glyph glyph-name="uni2086" unicode="&#x2086;" horiz-adv-x="704" 
d="M664 635l-168 -148q-17 45 -84 45q-63 0 -100 -51.5t-40 -113.5h11q43 98 161 98q88 0 144.5 -51.5t56.5 -143.5q0 -134 -88 -209t-233 -75q-154 0 -234 82t-80 233q0 67 14.5 129.5t47.5 119t80.5 98.5t118.5 66.5t157 24.5q82 0 147.5 -31t88.5 -73zM332 178
q29 0 49 21t20 55q0 61 -55 61q-29 0 -49.5 -20.5t-20.5 -54.5q0 -62 56 -62z" />
    <glyph glyph-name="uni2087" unicode="&#x2087;" horiz-adv-x="710" 
d="M393 524h-137l-16 -96h-234l51 295h654l-35 -201l-338 -522h-291z" />
    <glyph glyph-name="uni2088" unicode="&#x2088;" horiz-adv-x="724" 
d="M379 739q77 0 141 -19t109 -65.5t45 -115.5q0 -66 -39.5 -113t-104.5 -61v-9q121 -32 121 -157q0 -101 -92 -155t-244 -54q-148 0 -235.5 54t-87.5 159q0 64 45.5 114t124.5 62v8q-105 29 -105 137q0 95 86.5 155t235.5 60zM317 174q26 0 45 18t19 50q0 25 -13.5 40
t-35.5 15q-26 0 -45 -18t-19 -50q0 -26 13.5 -40.5t35.5 -14.5zM356 451q25 0 42.5 16.5t17.5 46.5q0 23 -12.5 37t-32.5 14q-25 0 -42.5 -16.5t-17.5 -46.5q0 -23 12.5 -37t32.5 -14z" />
    <glyph glyph-name="uni2089" unicode="&#x2089;" horiz-adv-x="704" 
d="M-2 90l168 148q17 -45 84 -45q63 0 99.5 51t39.5 114h-10q-43 -98 -162 -98q-88 0 -144.5 51.5t-56.5 143.5q0 134 88 209t234 75q154 0 233.5 -82t79.5 -233q0 -67 -14.5 -129.5t-47.5 -119t-80.5 -98.5t-118.5 -66.5t-157 -24.5q-82 0 -147 31t-88 73zM330 547
q-29 0 -49.5 -21t-20.5 -55q0 -61 55 -61q29 0 49.5 20.5t20.5 54.5q0 62 -55 62z" />
    <glyph glyph-name="uni208A" unicode="&#x208a;" horiz-adv-x="905" 
d="M84 469h258l45 252h199l-45 -252h264l-33 -197h-264l-49 -272h-199l49 272h-258z" />
    <glyph glyph-name="uni208B" unicode="&#x208b;" horiz-adv-x="903" 
d="M776 272h-719l33 197h719z" />
    <glyph glyph-name="uni208C" unicode="&#x208c;" horiz-adv-x="903" 
d="M750 133h-719l32 193h719zM803 442h-719l35 193h719z" />
    <glyph glyph-name="uni208D" unicode="&#x208d;" horiz-adv-x="483" 
d="M512 819q-115 -147 -175.5 -291t-60.5 -315q0 -154 72 -324h-219q-18 43 -29 75.5t-22.5 100.5t-11.5 148q0 204 61.5 348.5t165.5 257.5h219z" />
    <glyph glyph-name="uni208E" unicode="&#x208e;" horiz-adv-x="483" 
d="M174 -111h-219q114 146 174.5 290.5t60.5 316.5q0 155 -71 323h219q18 -43 29 -75t22.5 -100t11.5 -148q0 -204 -61.5 -349.5t-165.5 -257.5z" />
    <glyph glyph-name="uni20A1" unicode="&#x20a1;" horiz-adv-x="1122" 
d="M229 -121l50 158q-108 56 -167 155t-59 226q0 270 134.5 418t379.5 170l56 186l135 -39l-43 -145q31 -3 67 -9l39 134l135 -39l-41 -140q85 -41 136 -111t61 -161l-401 -107q0 117 -97 117q-99 0 -131 -147q-18 -78 -18 -142q0 -54 25.5 -82t70.5 -28q109 0 121 127
l391 -117q-73 -302 -448 -326l-62 -196l-135 39l49 160q-19 2 -67 10l-45 -150z" />
    <glyph glyph-name="uni20A2" unicode="&#x20a2;" horiz-adv-x="1122" 
d="M666 309l-13 -76q39 8 62.5 35t38.5 84l319 -49q-80 -328 -520 -328q-227 0 -363.5 123t-136.5 320q0 286 160 439t442 153q196 0 318 -88.5t139 -239.5l-326 -74q0 67 -37.5 103.5t-103.5 36.5q-56 0 -99.5 -32.5t-67.5 -85.5t-36 -110.5t-12 -116.5q0 -104 64 -151
l55 311h145l-4 -117q26 64 71.5 96.5t135.5 32.5l-53 -178q-27 6 -51 6q-110 0 -127 -94z" />
    <glyph glyph-name="franc" unicode="&#x20a3;" horiz-adv-x="1083" 
d="M799 219h-244l-37 -219h-416l37 219h-127l23 125h127l14 80h-127l23 125h127l75 436h809l-57 -330h-393l-19 -106h244l-22 -125h-244l-14 -80h243z" />
    <glyph glyph-name="lira" unicode="&#x20a4;" horiz-adv-x="1032" 
d="M86 492l16 96h78q-10 42 -10 76q0 163 117.5 254.5t333.5 91.5q154 0 255 -65t111 -181l-295 -139q-3 49 -21.5 72.5t-64.5 23.5q-40 0 -62 -24.5t-22 -65.5q0 -15 4 -43h209l-16 -96h-168q2 -8 2 -21q0 -5 -1 -15t-1 -14h160l-19 -96h-182q-41 -53 -88 -65h260
q56 0 90 17.5t57 59.5l177 -163q-102 -195 -326 -195h-680l47 281h62q69 0 96 65h-146l19 96h141q-4 35 -10 50h-123z" />
    <glyph glyph-name="uni20A6" unicode="&#x20a6;" horiz-adv-x="1458" 
d="M20 305l21 121h131l18 106h-131l23 121h131l57 332h387l113 -205q28 -52 52.5 -102.5t35.5 -75.5l10 -24h6q11 98 29 198l37 209h414l-60 -332h144l-23 -121h-141l-19 -106h142l-21 -121h-143l-53 -305h-371l-135 229q-28 48 -51 93.5t-32 66.5l-9 21h-9q-1 -53 -28 -209
l-35 -201h-412l54 305h-132z" />
    <glyph glyph-name="peseta" unicode="&#x20a7;" horiz-adv-x="2641" 
d="M1602 250l344 84q1 -49 31.5 -76t72.5 -27q64 0 64 48q0 23 -23.5 38t-75.5 29q-99 26 -164 63t-100 93h-186l-88 -502h-373l88 502h-137q-42 -155 -167.5 -235.5t-279.5 -80.5h-141l-33 -186h-411l172 985h462q273 0 369 -158h721q51 90 158.5 136.5t261.5 46.5
q220 0 325.5 -78t108.5 -215l-328 -49q-2 41 -24 64.5t-62 23.5q-28 0 -43.5 -11.5t-15.5 -29.5q0 -27 26 -43.5t103 -40.5q151 -45 220 -118t69 -198q0 -165 -121 -252.5t-357 -87.5q-205 0 -323.5 65t-142.5 210zM551 672l-33 -180h66q52 0 84 28.5t32 83.5q0 31 -20 49.5
t-55 18.5h-74z" />
    <glyph glyph-name="uni20A8" unicode="&#x20a8;" horiz-adv-x="1896" 
d="M559 686l-33 -188h82q50 0 80.5 28t30.5 78q0 82 -86 82h-74zM838 92l-363 150l-41 -242h-411l172 985h518q180 0 279.5 -89.5t99.5 -244.5q0 -205 -191 -282l252 -93q200 -73 277 -73q43 0 43 35q0 20 -17.5 29t-69.5 18q-253 47 -253 266q0 140 101.5 213.5t278.5 73.5
q185 0 273 -65t90 -179l-272 -41q-2 34 -21 54t-51 20q-25 0 -38 -10t-13 -25q0 -24 22 -38.5t86 -31.5q129 -35 185.5 -96t56.5 -166q0 -139 -101.5 -212t-299.5 -73q-288 0 -592 117z" />
    <glyph glyph-name="uni20A9" unicode="&#x20a9;" horiz-adv-x="1841" 
d="M41 305l20 121h172l-6 106h-147l22 121h117l-18 332h387l14 -364q3 -55 4 -115.5t0 -93.5v-33h4q23 111 72 246l131 360h346l15 -362q2 -52 0.5 -106t-4.5 -96l-3 -42h9q22 135 59 233l143 373h422l-143 -332h137l-22 -121h-166l-45 -106h192l-20 -121h-224l-129 -305
h-460l-17 256q-4 48 -4 110t2 100l2 38h-8q-27 -131 -74 -250l-100 -254h-463l-18 305h-199z" />
    <glyph glyph-name="uni20AA" unicode="&#x20aa;" horiz-adv-x="1720" 
d="M1085 383h-194l41 231q2 10 2 29q0 28 -18.5 39.5t-59.5 11.5h-289l-121 -694h-413l172 985h682q150 0 208 -46.5t58 -139.5q0 -46 -14 -125zM1284 985h414l-119 -674q-57 -311 -420 -311h-620l104 602h195l-54 -311h301q41 0 62 15.5t27 51.5z" />
    <glyph glyph-name="Euro" unicode="&#x20ac;" horiz-adv-x="1155" 
d="M33 528l20 111h90q56 180 204 275.5t353 95.5q206 0 316.5 -87.5t128.5 -242.5l-314 -96q0 61 -34.5 100t-96.5 39q-94 0 -143 -84h191l-41 -111h-187q-5 -28 -8 -75h172l-39 -111h-131q22 -82 115 -82q72 0 114 40.5t68 115.5l313 -94q-85 -347 -495 -347
q-211 0 -343.5 97t-160.5 270h-125l18 111h99q0 25 4 75h-88z" />
    <glyph glyph-name="uni20AE" unicode="&#x20ae;" horiz-adv-x="1054" 
d="M125 354l20 121l162 21l25 143h-252l61 346h914l-62 -346h-250l-16 -86l178 25l-20 -121l-178 -25l-15 -86l176 25l-20 -121l-178 -25l-39 -225h-412l29 168l-160 -21l23 121l159 21l15 86z" />
    <glyph glyph-name="uni20B1" unicode="&#x20b1;" horiz-adv-x="1333" 
d="M41 504l25 137h155l62 344h477q205 0 310.5 -89t105.5 -249v-6h157l-24 -137h-152q-28 -106 -99.5 -179.5t-159.5 -106t-187 -32.5h-156l-33 -186h-411l88 504h-158zM639 672l-33 -180h66q52 0 84 28.5t32 83.5q0 31 -20 49.5t-55 18.5h-74z" />
    <glyph glyph-name="afii61289" unicode="&#x2113;" horiz-adv-x="1019" 
d="M82 227l-62 131l205 131v398q0 258 107 370.5t311 112.5q140 0 227.5 -75.5t87.5 -229.5q0 -103 -21 -183.5t-67 -148.5t-102.5 -122t-144.5 -119q0 -156 120 -156q22 0 39.5 2.5t32.5 8t22 8.5t20 11t15 9l-16 -338q-111 -62 -293 -62q-62 0 -120.5 18.5t-108 55
t-79.5 99.5t-30 143v22zM623 1032v-354q77 66 112 150.5t35 218.5q0 122 -76 122q-40 0 -55.5 -32t-15.5 -105z" />
    <glyph glyph-name="afii61352" unicode="&#x2116;" horiz-adv-x="2324" 
d="M1448 0l43 250h674l-43 -250h-674zM1001 874l11 68q24 152 142.5 220.5t322.5 68.5l75 -324q-62 -2 -99 -29t-50 -100l-135 -778h-373l-166 303l-141 268h-8q-9 -104 -29 -239l-10 -68q-24 -152 -142.5 -220.5t-322.5 -68.5l-76 324q62 2 99.5 29.5t50.5 99.5l135 778
h397l180 -354q27 -53 52 -106t36 -80l11 -27h8q16 126 32 235zM2284 739q0 -179 -107 -292t-305 -113q-148 0 -242 79t-94 216q0 179 107.5 292t304.5 113q148 0 242 -79t94 -216zM1884 530q48 0 74.5 70t26.5 160q0 78 -50 78q-32 0 -55.5 -35.5t-34 -86.5t-10.5 -108
q0 -78 49 -78z" />
    <glyph glyph-name="published" unicode="&#x2117;" horiz-adv-x="1429" 
d="M113 602q0 179 84 323.5t227 225t315 80.5q128 0 244 -47.5t200.5 -129.5t134.5 -200t50 -252t-50 -251.5t-134.5 -199.5t-200.5 -129t-244 -47t-243.5 47t-199.5 129t-133.5 199.5t-49.5 251.5zM176 602q0 -163 77 -294t206 -202t284 -71q115 0 218.5 42t179.5 115.5
t121 180t45 229.5q0 162 -76.5 293.5t-205 203.5t-282.5 72q-115 0 -219.5 -42.5t-181 -117t-121.5 -181t-45 -228.5zM762 741l-23 -139h58q86 0 86 80q0 30 -15.5 44.5t-52.5 14.5h-53zM672 221h-297l133 764h330q172 0 260 -69.5t88 -202.5q0 -171 -107 -258.5t-280 -87.5
h-101z" />
    <glyph glyph-name="servicemark" unicode="&#x2120;" horiz-adv-x="1368" 
d="M1012 774h-66l-39 119h-8l-33 -195h-213l88 508h215l64 -178h8l125 178h215l-88 -508h-213l33 195h-8zM113 829l176 43q1 -25 16 -38t37 -13q33 0 33 25q0 12 -10.5 20t-40.5 17q-75 22 -110.5 57t-35.5 102q0 85 62 131t176 46q106 0 161 -40.5t58 -109.5l-168 -25
q-2 21 -13.5 33.5t-31.5 12.5q-31 0 -31 -25q0 -14 14.5 -23.5t53.5 -19.5q72 -18 104.5 -54t32.5 -94q0 -91 -64.5 -137.5t-185.5 -46.5q-211 0 -233 139z" />
    <glyph glyph-name="trademark" unicode="&#x2122;" horiz-adv-x="1333" 
d="M430 698h-215l57 330h-127l31 178h469l-31 -178h-127zM977 774h-66l-39 119h-8l-33 -195h-213l89 508h215l63 -178h8l125 178h215l-88 -508h-213l33 195h-8z" />
    <glyph glyph-name="estimated" unicode="&#x212e;" horiz-adv-x="1325" 
d="M662 1231q145 0 257.5 -53t179.5 -143t100.5 -199.5t33.5 -233.5v-53h-883v-346q119 -119 312 -119q266 0 376 213h136q-62 -149 -190.5 -235.5t-321.5 -86.5q-116 0 -211.5 35t-161 94.5t-111 140t-66 170.5t-20.5 187q0 98 21 188t66 171t110.5 140.5t161 94.5
t211.5 35zM662 1122q-197 0 -312 -118v-349h625v349q-115 118 -313 118z" />
    <glyph glyph-name="uni2153" unicode="&#x2153;" horiz-adv-x="1734" 
d="M653 483h-567l35 205h153l54 273l-148 -27l37 221l426 59l-94 -526h139zM381 0l829 1206h226l-842 -1206h-213zM1303 469l-203 92q57 178 299 178q126 0 202 -54.5t76 -149.5q0 -79 -48 -122t-122 -51l-2 -8q69 -11 110.5 -54.5t41.5 -109.5q0 -98 -90.5 -151t-233.5 -53
q-130 0 -213 49.5t-100 140.5l235 90q0 -36 16 -56t44 -20q53 0 53 50q0 51 -123 59l25 133q31 0 51.5 2t41.5 7.5t31.5 18t10.5 32.5q0 38 -41 38q-52 0 -61 -61z" />
    <glyph glyph-name="uni2154" unicode="&#x2154;" horiz-adv-x="1738" 
d="M348 887l-227 78q0 126 92 192t225 66q138 0 215.5 -60.5t77.5 -175.5q0 -61 -28 -112.5t-73.5 -83.5t-96.5 -52t-103 -26v-6h268l-36 -224h-607l35 201q167 51 260.5 122.5t93.5 137.5q0 47 -36 47q-29 0 -44.5 -29.5t-15.5 -74.5zM385 0l829 1206h226l-842 -1206h-213z
M1307 469l-203 92q57 178 299 178q126 0 202 -54.5t76 -149.5q0 -79 -48 -122t-122 -51l-2 -8q69 -11 110.5 -54.5t41.5 -109.5q0 -98 -90.5 -151t-233.5 -53q-130 0 -213 49.5t-100 140.5l236 90q0 -37 15.5 -56.5t43.5 -19.5q53 0 53 50q0 51 -123 59l25 133q31 0 51.5 2
t41.5 7.5t31.5 18t10.5 32.5q0 38 -41 38q-52 0 -61 -61z" />
    <glyph glyph-name="uni215B" unicode="&#x215b;" horiz-adv-x="1761" 
d="M653 483h-567l35 205h153l54 273l-148 -27l37 221l426 59l-94 -526h139zM381 0l829 1206h226l-842 -1206h-213zM1415 739q77 0 141 -19t109 -65.5t45 -115.5q0 -66 -39 -113t-104 -61v-9q121 -32 121 -157q0 -101 -92 -155t-244 -54q-148 0 -236 54t-88 159
q0 64 45.5 114t124.5 62v8q-104 29 -104 137q0 95 86 155t235 60zM1354 174q26 0 44.5 18t18.5 50q0 25 -13.5 40t-35.5 15q-26 0 -44.5 -18t-18.5 -50q0 -26 13.5 -40.5t35.5 -14.5zM1393 451q25 0 42 16t17 47q0 23 -12.5 37t-32.5 14q-25 0 -42 -16t-17 -47
q0 -23 12.5 -37t32.5 -14z" />
    <glyph glyph-name="uni215C" unicode="&#x215c;" horiz-adv-x="1726" 
d="M326 952l-203 92q57 179 299 179q126 0 202 -54.5t76 -150.5q0 -79 -47.5 -121.5t-122.5 -50.5l-2 -8q69 -11 110.5 -54.5t41.5 -109.5q0 -98 -91 -151.5t-233 -53.5q-130 0 -213 49.5t-100 140.5l236 91q0 -37 15.5 -56.5t43.5 -19.5q53 0 53 49q0 51 -123 59l25 133
q31 0 51.5 2t41.5 7.5t31.5 18t10.5 32.5q0 39 -41 39q-52 0 -61 -62zM346 0l830 1206h225l-842 -1206h-213zM1380 739q77 0 141 -19t109 -65.5t45 -115.5q0 -66 -39 -113t-104 -61v-9q121 -32 121 -157q0 -101 -92 -155t-244 -54q-148 0 -236 54t-88 159q0 64 45.5 114
t124.5 62v8q-104 29 -104 137q0 95 86 155t235 60zM1319 174q26 0 44.5 18t18.5 50q0 25 -13.5 40t-35.5 15q-26 0 -44.5 -18t-18.5 -50q0 -26 13.5 -40.5t35.5 -14.5zM1358 451q25 0 42 16t17 47q0 23 -12.5 37t-32.5 14q-25 0 -42 -16t-17 -47q0 -23 12.5 -37t32.5 -14z
" />
    <glyph glyph-name="uni215D" unicode="&#x215d;" horiz-adv-x="1726" 
d="M117 780l78 426h514l-37 -213h-303l-21 -90q50 47 139 47q96 0 158 -53t62 -156q0 -137 -95.5 -204.5t-259.5 -67.5q-121 0 -200.5 50t-98.5 138l244 99q0 -40 19 -63t55 -23q31 0 50 21.5t19 56.5q0 28 -17.5 41.5t-39.5 13.5q-31 0 -45 -23h-221zM346 0l830 1206h225
l-842 -1206h-213zM1380 739q77 0 141 -19t109 -65.5t45 -115.5q0 -66 -39 -113t-104 -61v-9q121 -32 121 -157q0 -101 -92 -155t-244 -54q-148 0 -236 54t-88 159q0 64 45.5 114t124.5 62v8q-104 29 -104 137q0 95 86 155t235 60zM1319 174q26 0 44.5 18t18.5 50
q0 25 -13.5 40t-35.5 15q-26 0 -44.5 -18t-18.5 -50q0 -26 13.5 -40.5t35.5 -14.5zM1358 451q25 0 42 16t17 47q0 23 -12.5 37t-32.5 14q-25 0 -42 -16t-17 -47q0 -23 12.5 -37t32.5 -14z" />
    <glyph glyph-name="uni215E" unicode="&#x215e;" horiz-adv-x="1628" 
d="M475 1008h-137l-16 -97h-234l51 295h654l-35 -200l-338 -523h-291zM248 0l829 1206h226l-842 -1206h-213zM1282 739q77 0 141 -19t109 -65.5t45 -115.5q0 -66 -39 -113t-104 -61v-9q120 -31 120 -157q0 -101 -92 -155t-243 -54q-148 0 -236 54t-88 159q0 64 45.5 114
t124.5 62v8q-104 29 -104 137q0 95 86 155t235 60zM1221 174q26 0 44.5 18t18.5 50q0 25 -13.5 40t-35.5 15q-26 0 -45 -18t-19 -50q0 -26 14 -40.5t36 -14.5zM1260 451q25 0 42 16t17 47q0 23 -12.5 37t-32.5 14q-25 0 -42.5 -16.5t-17.5 -46.5q0 -23 13 -37t33 -14z" />
    </font>
</defs>
</svg>
