<?xml version="1.0" standalone="no"?>
<!DOCTYPE svg PUBLIC "-//W3C//DTD SVG 1.1//EN" "http://www.w3.org/Graphics/SVG/1.1/DTD/svg11.dtd" >
<svg xmlns="http://www.w3.org/2000/svg" xmlns:xlink="http://www.w3.org/1999/xlink" version="1.1">
<metadata>
Created by FontForge 20170731 at Fri Sep 17 22:21:27 2021
 By Aleksey,,,
Copyright (c) 2004-9 by Kris Sowersby. All rights reserved.
</metadata>
<defs>
<font id="National-Bold" horiz-adv-x="1140" >
  <font-face 
    font-family="National Bold"
    font-weight="800"
    font-stretch="normal"
    units-per-em="2048"
    panose-1="2 0 5 3 0 0 0 2 0 4"
    ascent="1638"
    descent="-410"
    x-height="946"
    cap-height="1206"
    bbox="-240 -526 2490 2077"
    underline-thickness="116"
    underline-position="-173"
    unicode-range="U+0020-F778"
  />
<missing-glyph horiz-adv-x="1546" 
d="M170 0v1206h1206v-1206h-1206zM772 541l-453 -453h908zM319 1118l453 -454l455 454h-908zM834 602l454 -452v907zM711 602l-453 455v-907z" />
    <glyph glyph-name="f_b" unicode="fb" horiz-adv-x="1736" 
d="M918 0h-193v1130q-71 46 -145 46q-146 0 -146 -152v-78h187v-211h-187v-735h-272v735h-139v211h139v68q0 80 21 143.5t57 105.5t85.5 69.5t104 39.5t115.5 12q111 0 211 -41l243 25v-598q36 102 117.5 150.5t188.5 48.5q173 0 268.5 -123.5t95.5 -349.5q0 -237 -107 -379
t-296 -142q-115 0 -186.5 45t-94.5 117zM997 530v-143q0 -58 16.5 -101.5t44.5 -67t58.5 -35t63.5 -11.5q93 0 154 77.5t61 221.5q0 143 -52 211t-145 68q-81 0 -141 -60t-60 -160z" />
    <glyph glyph-name="f_f_b" unicode="ffb" horiz-adv-x="2301" 
d="M1561 530v-143q0 -58 16.5 -101.5t44 -67t58 -35t63.5 -11.5q93 0 154 77.5t61 221.5q0 279 -197 279q-80 0 -140 -60.5t-60 -159.5zM1563 1368v-598q36 102 117.5 150.5t189.5 48.5q173 0 268.5 -123.5t95.5 -349.5q0 -237 -107 -379t-296 -142q-117 0 -187.5 44.5
t-93.5 117.5l-69 -137h-191v1130q-71 46 -145 46q-146 0 -146 -152v-78h185v-211h-185v-735h-274v735h-291v-735h-272v735h-139v211h139v66q0 77 20 138.5t53.5 100.5t79 65t93.5 37t100 11q67 0 104 -7.5t88 -29.5l-41 -229q-53 37 -110 37q-115 0 -115 -129v-60h291v68
q0 99 32 173t87 115.5t121 61.5t143 20q111 0 211 -41z" />
    <glyph glyph-name="f_f_h" unicode="ffh" horiz-adv-x="2254" 
d="M1563 1368v-602q72 203 297 203q56 0 104 -17t87.5 -52t62 -94t22.5 -136v-670h-272v567q0 84 -29 128t-100 44q-74 0 -123 -50.5t-49 -166.5v-522h-273v1130q-71 46 -145 46q-146 0 -146 -152v-78h185v-211h-185v-735h-274v735h-291v-735h-272v735h-139v211h139v66
q0 77 20 138.5t53.5 100.5t79 65t93.5 37t100 11q67 0 104 -7.5t88 -29.5l-41 -229q-53 37 -110 37q-115 0 -115 -129v-60h291v68q0 99 32 173t87 115.5t121 61.5t143 20q111 0 211 -41z" />
    <glyph glyph-name="f_f_j" unicode="ffj" horiz-adv-x="1691" 
d="M999 735v-735h-274v735h-291v-735h-272v735h-139v211h139v66q0 77 20 138.5t53.5 100.5t79 65t93.5 37t100 11q67 0 104 -7.5t88 -29.5l-41 -229q-53 37 -110 37q-115 0 -115 -129v-60h291v62q0 84 25 150t66 107.5t96.5 69t113 38.5t119.5 11q166 0 291 -69l-95 -221
q-79 59 -180 59q-70 0 -116 -35.5t-46 -118.5v-53h564v-936q0 -153 -69.5 -253.5t-189 -141.5t-280.5 -29v232q140 -20 203 29t63 206v682h-291z" />
    <glyph glyph-name="f_f_k" unicode="ffk" horiz-adv-x="2224" 
d="M1563 1368v-766h53l242 344h317l-330 -440l361 -506h-320l-266 389h-57v-389h-273v1130q-71 46 -145 46q-146 0 -146 -152v-78h185v-211h-185v-735h-274v735h-291v-735h-272v735h-139v211h139v66q0 77 20 138.5t53.5 100.5t79 65t93.5 37t100 11q67 0 104 -7.5t88 -29.5
l-41 -229q-53 37 -110 37q-115 0 -115 -129v-60h291v68q0 99 32 173t87 115.5t121 61.5t143 20q111 0 211 -41z" />
    <glyph glyph-name="f_h" unicode="fh" horiz-adv-x="1691" 
d="M999 1368v-602q72 203 295 203q119 0 199 -74.5t80 -224.5v-670h-275v567q0 84 -28.5 128t-98.5 44q-75 0 -123.5 -50.5t-48.5 -166.5v-522h-274v1130q-71 46 -145 46q-146 0 -146 -152v-78h187v-211h-187v-735h-272v735h-139v211h139v68q0 80 21 143.5t57 105.5
t85.5 69.5t104 39.5t115.5 12q111 0 211 -41z" />
    <glyph glyph-name="f_j" unicode="fj" horiz-adv-x="1128" 
d="M725 53v682h-291v-735h-272v735h-139v211h139v62q0 84 25 150t65.5 107.5t96 69t112.5 38.5t119 11q167 0 292 -69l-94 -221q-79 59 -180 59q-71 0 -117.5 -35.5t-46.5 -118.5v-53h565v-936q0 -153 -69 -253.5t-188.5 -141.5t-280.5 -29v232q138 -20 201 29t63 206z" />
    <glyph glyph-name="f_k" unicode="fk" horiz-adv-x="1658" 
d="M999 1368v-766h54l239 344h318l-328 -440l358 -506h-319l-264 389h-58v-389h-274v1130q-71 46 -145 46q-146 0 -146 -152v-78h187v-211h-187v-735h-272v735h-139v211h139v68q0 80 21 143.5t57 105.5t85.5 69.5t104 39.5t115.5 12q111 0 211 -41z" />
    <glyph glyph-name="ff" unicode="ff" horiz-adv-x="1218" 
d="M725 735h-291v-735h-272v735h-139v211h139v66q0 77 20 138.5t53.5 100.5t79 65t93.5 37t100 11q67 0 104 -7.5t88 -29.5l-41 -229q-53 37 -110 37q-115 0 -115 -129v-60h291v70q0 98 31 171t86 114.5t120 61.5t142 21q117 0 233 -36l-43 -254q-75 53 -153 53
q-142 0 -142 -148v-53h242v-211h-242v-735h-274v735z" />
    <glyph glyph-name="ffi" unicode="ffi" horiz-adv-x="1691" 
d="M725 946v62q0 84 25 150t66 107.5t96.5 69t113 38.5t119.5 11q166 0 291 -69l-95 -221q-79 59 -180 59q-70 0 -116 -35.5t-46 -118.5v-53h564v-946h-273v735h-291v-735h-274v735h-291v-735h-272v735h-139v211h139v66q0 77 20 138.5t53.5 100.5t79 65t93.5 37t100 11
q67 0 104 -7.5t88 -29.5l-41 -229q-53 37 -110 37q-115 0 -115 -129v-60h291z" />
    <glyph glyph-name="ffl" unicode="ffl" horiz-adv-x="1769" 
d="M725 946v68q0 99 32 173t87 115.5t121 61.5t143 20q111 0 211 -41l244 25v-1065q0 -42 24 -62t64 -20q37 0 71 15l-12 -230q-91 -24 -158 -24q-73 0 -129.5 22t-94.5 78t-38 141v907q-71 46 -145 46q-146 0 -146 -152v-78h185v-211h-185v-735h-274v735h-291v-735h-272
v735h-139v211h139v66q0 77 20 138.5t53.5 100.5t79 65t93.5 37t100 11q67 0 104 -7.5t88 -29.5l-41 -229q-53 37 -110 37q-115 0 -115 -129v-60h291z" />
    <glyph glyph-name="fi" unicode="fi" horiz-adv-x="1128" 
d="M162 735h-139v211h139v62q0 84 25 150t65.5 107.5t96 69t112.5 38.5t119 11q167 0 292 -69l-94 -221q-79 59 -180 59q-71 0 -117.5 -35.5t-46.5 -118.5v-53h565v-946h-274v735h-291v-735h-272v735z" />
    <glyph glyph-name="fl" unicode="fl" horiz-adv-x="1206" 
d="M1159 236l-12 -230q-94 -24 -158 -24q-73 0 -130 22t-95.5 78t-38.5 141v907q-71 46 -145 46q-146 0 -146 -152v-78h187v-211h-187v-735h-272v735h-139v211h139v68q0 80 21 143.5t57 105.5t85.5 69.5t104 39.5t115.5 12q111 0 211 -41l243 25v-1065q0 -82 86 -82
q37 0 74 15z" />
    <glyph glyph-name=".notdef" horiz-adv-x="1546" 
d="M170 0v1206h1206v-1206h-1206zM772 541l-453 -453h908zM319 1118l453 -454l455 454h-908zM834 602l454 -452v907zM711 602l-453 455v-907z" />
    <glyph glyph-name=".null" horiz-adv-x="0" 
 />
    <glyph glyph-name="nonmarkingreturn" horiz-adv-x="682" 
 />
    <glyph glyph-name="space" unicode=" " horiz-adv-x="452" 
 />
    <glyph glyph-name="exclam" unicode="!" horiz-adv-x="497" 
d="M82 1206h334l-76 -800h-182zM80 147q0 71 48.5 115.5t121.5 44.5q74 0 123 -44.5t49 -115.5t-48.5 -114t-123.5 -43q-73 0 -121.5 43t-48.5 114z" />
    <glyph glyph-name="quotedbl" unicode="&#x22;" horiz-adv-x="849" 
d="M131 844v524h268l-104 -524h-164zM492 844v524h268l-105 -524h-163z" />
    <glyph glyph-name="numbersign" unicode="#" horiz-adv-x="1312" 
d="M1206 248h-344l-76 -248h-198l76 248h-187l-76 -248h-198l76 248h-213v188h270l47 152h-277v188h334l66 209h203l-66 -209h182l66 209h201l-66 -209h221v-188h-278l-47 -152h284v-188zM584 588l-47 -152h184l47 152h-184z" />
    <glyph glyph-name="dollar" unicode="$" horiz-adv-x="1003" 
d="M459 -217v194q-338 13 -379 248l213 90q34 -128 166 -149v213l-84 16q-262 58 -262 297q0 81 27.5 141t77 96t109 54.5t132.5 24.5v168h102v-168q159 -9 249.5 -79t94.5 -196l-237 -31q-9 96 -107 117v-219l68 -10q293 -52 293 -311q0 -144 -98 -218t-263 -84v-194h-102z
M670 250q0 44 -24.5 68.5t-84.5 39.5v-194q109 11 109 86zM356 725q0 -86 103 -107v203q-50 -7 -76.5 -32t-26.5 -64z" />
    <glyph glyph-name="percent" unicode="%" horiz-adv-x="1808" 
d="M367 469q-104 0 -175.5 50.5t-104 133.5t-32.5 193q0 165 83 271t229 106q148 0 230.5 -105.5t82.5 -271.5q0 -169 -78.5 -273t-234.5 -104zM367 1049q-52 0 -82.5 -56t-30.5 -151q0 -91 31 -148t82 -57q53 0 83.5 56.5t30.5 148.5q0 97 -29.5 152t-84.5 55zM504 0
l624 1206h166l-628 -1206h-162zM1440 -14q-79 0 -139.5 28.5t-97.5 80t-56 119t-19 148.5q0 165 83 271t229 106q148 0 230.5 -105.5t82.5 -271.5q0 -169 -78.5 -272.5t-234.5 -103.5zM1440 565q-52 0 -82.5 -56t-30.5 -151q0 -91 31 -147.5t82 -56.5q53 0 83.5 56t30.5 148
q0 97 -29.5 152t-84.5 55z" />
    <glyph glyph-name="ampersand" unicode="&#x26;" horiz-adv-x="1187" 
d="M1176 147l-197 -176l-141 135q-83 -68 -180 -99.5t-232 -31.5q-78 0 -147 18.5t-126.5 55.5t-91.5 101.5t-34 148.5q0 112 69.5 197.5t208.5 119.5l-65 66q-119 113 -119 252q0 96 52 164.5t138 100.5t197 32q162 0 265.5 -76.5t103.5 -216.5q0 -106 -73 -172.5
t-190 -91.5l236 -225q40 67 47 180l223 -80q-10 -68 -41.5 -138.5t-68.5 -113.5zM299 332q0 -71 48.5 -113.5t129.5 -42.5q135 0 207 80l-274 264q-55 -38 -83 -80t-28 -108zM506 1047q-49 0 -78 -28t-29 -71q0 -33 13 -56.5t41 -53.5l73 -78q99 74 99 174q0 53 -31 83
t-88 30z" />
    <glyph glyph-name="quotesingle" unicode="'" horiz-adv-x="489" 
d="M131 844v524h268l-104 -524h-164z" />
    <glyph glyph-name="parenleft" unicode="(" horiz-adv-x="741" 
d="M377 477q0 -140 25 -263t77.5 -234.5t106 -196t137.5 -197.5h-289q-55 71 -94 129t-85.5 146t-75 174t-48.5 201.5t-20 240.5t20 240.5t48.5 201.5t75 174t85.5 146t94 129h289q-66 -89 -111 -155.5t-93 -156t-76.5 -172.5t-47 -188t-18.5 -219z" />
    <glyph glyph-name="parenright" unicode=")" horiz-adv-x="741" 
d="M365 477q-1 114 -19.5 219t-47 188t-76.5 172.5t-93 156.5t-111 155h291q55 -72 93 -129t85 -145.5t75.5 -174t48.5 -201.5t20 -241t-20 -241t-48.5 -201.5t-75.5 -174t-85 -145.5t-93 -129h-291q66 89 111 156t93 156.5t76.5 172.5t47 188t19.5 218z" />
    <glyph glyph-name="asterisk" unicode="*" horiz-adv-x="831" 
d="M520 1227l-39 -219l201 100l57 -186l-217 -37l158 -158l-166 -121l-96 201l-101 -201l-161 121l155 158l-219 37l64 184l196 -98l-37 219h205z" />
    <glyph glyph-name="plus" unicode="+" horiz-adv-x="1019" 
d="M92 584h338v327h152v-327h346v-152h-346v-356h-152v356h-338v152z" />
    <glyph glyph-name="comma" unicode="," horiz-adv-x="593" 
d="M479 104q0 -181 -102 -265.5t-279 -86.5v113q195 17 195 153q-74 -11 -129 29.5t-55 120.5q0 76 49 118t125 42q86 0 141 -62.5t55 -161.5z" />
    <glyph glyph-name="hyphen" unicode="-" horiz-adv-x="761" 
d="M127 414v231h508v-231h-508z" />
    <glyph glyph-name="period" unicode="." horiz-adv-x="598" 
d="M123 162q0 76 50 128t122 52q78 0 129 -51.5t51 -128.5q0 -73 -51.5 -122.5t-128.5 -49.5q-72 0 -122 50t-50 122z" />
    <glyph glyph-name="slash" unicode="/" horiz-adv-x="880" 
d="M20 -416l560 1784h239l-563 -1784h-236z" />
    <glyph glyph-name="zero" unicode="0" horiz-adv-x="1196" 
d="M598 -25q-159 0 -276.5 69.5t-176.5 186t-59 263.5q0 145 59 261t177 185.5t276 69.5t276 -69.5t177 -185.5t59 -261q0 -147 -59 -263.5t-176.5 -186t-276.5 -69.5zM598 768q-117 0 -182.5 -77.5t-65.5 -201.5q0 -125 65.5 -202.5t182.5 -77.5q118 0 184 77.5t66 202.5
q0 124 -66 201.5t-184 77.5z" />
    <glyph glyph-name="one" unicode="1" horiz-adv-x="747" 
d="M571 0h-256v737l-274 -32v223l530 73v-1001z" />
    <glyph glyph-name="two" unicode="2" horiz-adv-x="980" 
d="M899 227v-227h-817v190q199 101 311.5 178.5t156.5 140.5t44 132q0 62 -34 96.5t-95 34.5q-59 0 -96.5 -42t-44.5 -128l-252 62q23 169 136.5 257.5t287.5 88.5q159 0 262.5 -91t103.5 -253q0 -169 -109.5 -272.5t-312.5 -157.5v-9h459z" />
    <glyph glyph-name="three" unicode="3" horiz-adv-x="976" 
d="M559 387v-10q158 -13 239 -100t81 -222q0 -161 -121.5 -249.5t-329.5 -88.5q-173 0 -284.5 74.5t-135.5 212.5l260 96q8 -86 53.5 -132t124.5 -46q74 0 119 37.5t45 108.5q0 100 -74.5 155t-248.5 56v190q77 3 133 17t86 32t47.5 45.5t22 50t4.5 52.5q0 57 -35.5 89.5
t-89.5 32.5q-58 0 -98 -39t-46 -112l-258 70q25 142 136 222.5t282 80.5q172 0 278.5 -81.5t106.5 -236.5q0 -269 -297 -305z" />
    <glyph glyph-name="four" unicode="4" horiz-adv-x="1159" 
d="M625 -268v321h-586v183l604 749h256v-729h201v-203h-201v-321h-274zM430 256h195v227q0 43 2.5 91.5t4.5 75.5l3 28h-8q-31 -62 -80 -125l-137 -180q-25 -34 -54 -63t-45 -42l-16 -12v-8q47 8 135 8z" />
    <glyph glyph-name="five" unicode="5" horiz-adv-x="1003" 
d="M158 270l26 715h672v-244h-453l-10 -268q64 45 164 45q159 0 254.5 -101t95.5 -276q0 -105 -36.5 -187.5t-100 -133.5t-145 -77t-176.5 -26q-185 0 -297.5 73.5t-137.5 211.5l246 100q7 -91 60 -138.5t139 -47.5q88 0 140 53.5t52 165.5q0 96 -48.5 142.5t-125.5 46.5
q-71 0 -121 -54h-198z" />
    <glyph glyph-name="six" unicode="6" horiz-adv-x="1079" 
d="M977 1022l-186 -141q-53 129 -195 129q-127 0 -195.5 -123t-68.5 -344h8q24 107 100 166t178 59q173 0 275 -109t102 -270q0 -189 -118 -301.5t-326 -112.5q-215 0 -339 152t-124 430q0 136 26.5 248t73.5 190.5t111.5 132t140 78.5t160.5 25q129 0 229.5 -56t147.5 -153
zM387 373q0 -82 52 -134.5t126 -52.5q78 0 130.5 52.5t52.5 134.5q0 86 -52 137t-131 51q-75 0 -126.5 -51.5t-51.5 -136.5z" />
    <glyph glyph-name="seven" unicode="7" horiz-adv-x="1007" 
d="M633 741h-348v-147h-226v391h859v-194l-426 -1059h-273z" />
    <glyph glyph-name="eight" unicode="8" horiz-adv-x="1073" 
d="M537 -25q-219 0 -335 91.5t-116 240.5q0 115 69.5 195.5t182.5 109.5v9q-113 25 -169 101t-56 179q0 144 114.5 237t309.5 93q196 0 310 -92.5t114 -237.5q0 -103 -56 -179t-168 -101v-9q111 -29 180.5 -109.5t69.5 -195.5q0 -149 -115.5 -240.5t-334.5 -91.5zM537 1040
q-75 0 -117.5 -44.5t-42.5 -114.5q0 -80 46.5 -123t113.5 -43q66 0 112.5 43t46.5 123q0 70 -42.5 114.5t-116.5 44.5zM537 510q-75 0 -129 -43.5t-54 -122.5q0 -73 50 -120.5t133 -47.5t132.5 47t49.5 121q0 79 -53.5 122.5t-128.5 43.5z" />
    <glyph glyph-name="nine" unicode="9" horiz-adv-x="1071" 
d="M45 -68l186 138q56 -136 207 -136q80 0 139 39.5t94 110.5t51.5 161t16.5 201h-8q-24 -114 -96.5 -171.5t-181.5 -57.5q-172 0 -273.5 107t-101.5 274q0 188 116 300t318 112q230 0 350.5 -146.5t120.5 -439.5q0 -344 -147 -525.5t-412 -181.5q-130 0 -232 57t-147 158z
M684 610q0 81 -52 133t-126 52q-76 0 -128 -51.5t-52 -133.5q0 -86 51.5 -137t128.5 -51q75 0 126.5 51.5t51.5 136.5z" />
    <glyph glyph-name="colon" unicode=":" horiz-adv-x="598" 
d="M123 162q0 76 50 128t122 52q78 0 129 -51.5t51 -128.5q0 -73 -51.5 -122.5t-128.5 -49.5q-72 0 -122 50t-50 122zM123 776q0 76 50 128t122 52q78 0 129 -51.5t51 -128.5q0 -73 -51.5 -122.5t-128.5 -49.5q-72 0 -122 50t-50 122z" />
    <glyph glyph-name="semicolon" unicode=";" horiz-adv-x="593" 
d="M479 104q0 -181 -102 -265.5t-279 -86.5v113q195 17 195 153q-74 -11 -129 29.5t-55 120.5q0 76 49 118t125 42q86 0 141 -62.5t55 -161.5zM109 776q0 76 50 128t122 52q78 0 129 -51.5t51 -128.5q0 -73 -51.5 -122.5t-128.5 -49.5q-72 0 -122 50t-50 122z" />
    <glyph glyph-name="less" unicode="&#x3c;" horiz-adv-x="815" 
d="M721 815l-387 -309l379 -311l-111 -132l-510 443l520 434z" />
    <glyph glyph-name="equal" unicode="=" horiz-adv-x="1019" 
d="M928 274h-836v154h836v-154zM928 580h-836v153h836v-153z" />
    <glyph glyph-name="greater" unicode="&#x3e;" horiz-adv-x="815" 
d="M479 506l-387 309l109 125l520 -434l-510 -443l-111 132z" />
    <glyph glyph-name="question" unicode="?" horiz-adv-x="899" 
d="M256 805l-256 92q36 165 146 249.5t307 84.5q191 0 310.5 -105t119.5 -272q0 -77 -22.5 -137.5t-58.5 -98t-85 -62.5t-99 -35t-104 -11v-125h-238v274h99q112 0 164.5 39.5t52.5 135.5q0 75 -43 116t-115 41q-86 0 -128 -46.5t-50 -139.5zM225 147q0 71 49 115.5
t121 44.5q74 0 123 -44.5t49 -115.5t-48.5 -114t-123.5 -43q-72 0 -121 43.5t-49 113.5z" />
    <glyph glyph-name="at" unicode="@" horiz-adv-x="1826" 
d="M1053 346v143q0 78 -47 119t-107 41q-66 0 -113 -58.5t-47 -182.5q0 -106 43.5 -165t116.5 -59q60 0 107 40t47 122zM1305 821v-602q0 -54 16.5 -77t56.5 -23q90 0 142.5 107.5t52.5 295.5q0 141 -49 251t-135.5 179t-200 104.5t-246.5 35.5q-137 0 -260 -46t-219 -131.5
t-152.5 -220.5t-56.5 -301q0 -322 195.5 -498t531.5 -176q112 0 199.5 15t203.5 53l33 -137q-199 -64 -438 -64q-214 0 -382 57.5t-278.5 163t-168.5 254t-58 332.5q0 182 64 337.5t176.5 263.5t270.5 168.5t341 60.5q188 0 339 -53.5t248 -147t148.5 -217t51.5 -266.5
q0 -564 -416 -564q-110 0 -175.5 46t-74.5 139q-26 -101 -93.5 -143t-174.5 -42q-141 0 -234.5 108t-93.5 306q0 211 96 331t271 120q180 0 237 -127l60 108h172z" />
    <glyph glyph-name="A" unicode="A" horiz-adv-x="1261" 
d="M942 0l-88 252h-457l-86 -252h-291l437 1206h344l440 -1206h-299zM522 621l-47 -138h297l-49 135q-31 88 -54.5 174.5t-31.5 128.5l-8 42h-8q-31 -147 -99 -342z" />
    <glyph glyph-name="B" unicode="B" horiz-adv-x="1169" 
d="M811 623v-9q128 -17 197 -92.5t69 -191.5q0 -155 -106 -242.5t-320 -87.5h-493v1206h495q181 0 278 -79.5t97 -223.5q0 -112 -57.5 -183t-159.5 -97zM436 702h160q156 0 156 134q0 72 -41 103.5t-121 31.5h-154v-269zM436 500v-264h197q82 0 123 31t41 104
q0 129 -164 129h-197z" />
    <glyph glyph-name="C" unicode="C" horiz-adv-x="1200" 
d="M920 393l235 -141q-84 -144 -203 -210.5t-315 -66.5q-251 0 -402 166.5t-151 462.5q0 299 156 463t434 164q352 0 491 -305l-268 -131q-29 94 -84 142t-149 48q-137 0 -215 -103t-78 -284t75 -279t222 -98q174 0 252 172z" />
    <glyph glyph-name="D" unicode="D" horiz-adv-x="1273" 
d="M436 236h121q170 0 256 83.5t86 280.5q0 105 -22.5 178.5t-66.5 115t-101.5 59.5t-135.5 18h-137v-735zM584 0h-426v1206h444q129 0 233.5 -33.5t185 -102t125 -184t44.5 -270.5q0 -163 -45.5 -284t-128.5 -192t-190.5 -105.5t-241.5 -34.5z" />
    <glyph glyph-name="E" unicode="E" horiz-adv-x="1069" 
d="M967 242v-242h-809v1206h809v-241h-531v-240h467v-231h-467v-252h531z" />
    <glyph glyph-name="F" unicode="F" horiz-adv-x="1013" 
d="M436 0h-278v1206h786v-241h-508v-289h445v-232h-445v-444z" />
    <glyph glyph-name="G" unicode="G" horiz-adv-x="1288" 
d="M651 643h520v-643h-172l-45 135q-45 -80 -131 -120t-200 -40q-119 0 -216.5 38.5t-170 113.5t-112.5 195t-40 276q0 301 156 467t434 166q179 0 304.5 -79t186.5 -226l-268 -131q-58 190 -233 190q-41 0 -80 -11t-78.5 -39.5t-68.5 -71.5t-47.5 -112.5t-18.5 -156.5
q0 -84 16.5 -153t50.5 -123.5t92.5 -84.5t137.5 -30q117 0 177 49t60 129v41h-254v221z" />
    <glyph glyph-name="H" unicode="H" horiz-adv-x="1335" 
d="M436 0h-278v1206h278v-473h463v473h279v-1206h-279v492h-463v-492z" />
    <glyph glyph-name="I" unicode="I" horiz-adv-x="593" 
d="M158 1206h278v-1206h-278v1206z" />
    <glyph glyph-name="J" unicode="J" horiz-adv-x="960" 
d="M559 1206h277v-856q0 -100 -33 -174t-92 -117t-133 -63.5t-164 -20.5q-295 0 -414 232l205 184q38 -95 86 -140.5t119 -45.5q82 0 115.5 47t33.5 147v807z" />
    <glyph glyph-name="K" unicode="K" horiz-adv-x="1189" 
d="M1165 0h-331l-326 492h-72v-492h-278v1206h278v-473h74l299 473h319l-380 -583z" />
    <glyph glyph-name="L" unicode="L" horiz-adv-x="964" 
d="M158 1206h278v-964h471v-242h-749v1206z" />
    <glyph glyph-name="M" unicode="M" horiz-adv-x="1513" 
d="M823 279h-133l-166 276q-28 44 -51 90t-32 70l-9 24h-8q12 -67 12 -204v-535h-278v1206h282l228 -407q31 -53 52.5 -97t27.5 -62l6 -17h8q18 57 86 176l229 407h279v-1206h-277v535q0 61 2.5 112t5.5 71l3 21h-9q-29 -84 -90 -184z" />
    <glyph glyph-name="N" unicode="N" horiz-adv-x="1384" 
d="M420 1206l426 -583q30 -41 55 -81.5t35 -60.5l10 -20h8q-6 102 -6 256v489h279v-1206h-254l-426 573q-35 45 -63.5 90t-39.5 67l-12 22h-8q12 -99 12 -273v-479h-278v1206h262z" />
    <glyph glyph-name="O" unicode="O" horiz-adv-x="1312" 
d="M655 -25q-269 0 -420 163.5t-151 463.5q0 302 151 465.5t420 163.5q270 0 422 -163.5t152 -465.5q0 -300 -152.5 -463.5t-421.5 -163.5zM655 983q-139 0 -210.5 -101t-71.5 -284q0 -182 71 -282.5t211 -100.5t212.5 100.5t72.5 282.5q0 183 -72.5 284t-212.5 101z" />
    <glyph glyph-name="P" unicode="P" horiz-adv-x="1087" 
d="M436 973v-357h144q89 0 129.5 42.5t40.5 129.5q0 94 -41.5 139.5t-128.5 45.5h-144zM436 0h-278v1206h430q228 0 333 -101.5t105 -305.5q0 -193 -109 -301.5t-303 -108.5h-178v-389z" />
    <glyph glyph-name="Q" unicode="Q" horiz-adv-x="1312" 
d="M1087 -100l-75 -238q-214 -1 -335.5 85.5t-174.5 244.5q-200 42 -309 199t-109 411q0 302 151 465.5t420 163.5q270 0 422 -163.5t152 -465.5q0 -266 -120 -425.5t-339 -192.5q56 -50 141 -71t176 -13zM655 983q-139 0 -210.5 -101t-71.5 -284q0 -182 71 -282.5
t211 -100.5t212.5 100.5t72.5 282.5q0 183 -72.5 284t-212.5 101z" />
    <glyph glyph-name="R" unicode="R" horiz-adv-x="1191" 
d="M1137 0h-310q-41 32 -63 125l-45 180q-18 73 -54 97t-110 24h-119v-426h-278v1206h475q213 0 325.5 -86.5t112.5 -281.5q0 -135 -71.5 -213t-192.5 -90v-5q85 -14 131.5 -54t69.5 -122l61 -225q20 -79 68 -129zM436 971v-316h178q86 0 129 37t43 121q0 158 -172 158h-178
z" />
    <glyph glyph-name="S" unicode="S" horiz-adv-x="1054" 
d="M45 270l254 113q17 -89 78 -142t147 -53q72 0 116 30t44 89t-41.5 93t-159.5 71q-211 67 -301 156.5t-90 242.5q0 79 24 142t64 103.5t95.5 67.5t115 38.5t125.5 11.5q423 0 457 -313l-277 -70q-7 75 -56.5 114.5t-117.5 39.5q-62 0 -100.5 -28.5t-38.5 -84.5
q0 -60 46.5 -92.5t160.5 -67.5q102 -32 168 -64t117.5 -77.5t74.5 -108t23 -147.5q0 -95 -36.5 -166t-102.5 -112t-148 -61t-182 -20q-186 0 -300.5 69t-158.5 226z" />
    <glyph glyph-name="T" unicode="T" horiz-adv-x="980" 
d="M625 0h-275v965h-330v241h941v-241h-336v-965z" />
    <glyph glyph-name="U" unicode="U" horiz-adv-x="1245" 
d="M844 1206h276v-803q0 -118 -39 -203.5t-110 -133.5t-156.5 -69.5t-191.5 -21.5q-83 0 -154 13t-135.5 44t-110 79t-72 122.5t-26.5 169.5v803h278v-725q0 -138 48 -206t172 -68q125 0 173 68t48 208v723z" />
    <glyph glyph-name="V" unicode="V" horiz-adv-x="1171" 
d="M317 1206l203 -649q24 -76 41.5 -156t22.5 -123l6 -42h8q15 153 66 319l196 651h291l-397 -1206h-336l-398 1206h297z" />
    <glyph glyph-name="W" unicode="W" horiz-adv-x="1787" 
d="M1067 1206l150 -663q16 -76 30.5 -161.5t20.5 -133.5l6 -47h8q16 172 51 340l135 665h283l-264 -1206h-406l-137 596q-17 76 -29 160.5t-15 131.5l-3 46h-8q-10 -168 -51 -340l-144 -594h-391l-266 1206h295l139 -663q16 -76 30 -161.5t19 -133.5l6 -47h9q18 172 53 340
l147 665h332z" />
    <glyph glyph-name="X" unicode="X" horiz-adv-x="1206" 
d="M866 0l-174 262q-36 56 -57.5 98.5t-24.5 57.5l-4 14h-8q-10 -45 -88 -170l-166 -262h-324l414 606l-397 600h332l143 -227q40 -65 63.5 -112t26.5 -61l4 -15h10q3 39 89 186l133 229h313l-375 -585l410 -621h-320z" />
    <glyph glyph-name="Y" unicode="Y" horiz-adv-x="1116" 
d="M336 1206l141 -286q34 -72 56.5 -138t28.5 -96l5 -29h8q13 105 89 261l139 288h293l-385 -805v-401h-279v401l-412 805h316z" />
    <glyph glyph-name="Z" unicode="Z" horiz-adv-x="1050" 
d="M975 1012l-455 -623q-33 -44 -65 -81.5t-48 -52.5l-16 -15v-9q60 11 164 11h438v-242h-936v201l441 616q33 44 65 81.5t48 53.5l16 15v8q-58 -10 -164 -10h-391v241h903v-194z" />
    <glyph glyph-name="bracketleft" unicode="[" horiz-adv-x="761" 
d="M434 1163v-1376h256v-203h-532v1784h532v-205h-256z" />
    <glyph glyph-name="backslash" unicode="\" horiz-adv-x="880" 
d="M301 1368l559 -1784h-235l-564 1784h240z" />
    <glyph glyph-name="bracketright" unicode="]" horiz-adv-x="761" 
d="M328 -213v1376h-256v205h532v-1784h-532v203h256z" />
    <glyph glyph-name="asciicircum" unicode="^" horiz-adv-x="1087" 
d="M754 657l-113 240q-39 84 -63 154.5t-28 98.5l-5 28h-8q-1 -11 -4.5 -32t-28 -93.5t-64.5 -153.5l-121 -242h-258l363 711h242l360 -711h-272z" />
    <glyph glyph-name="underscore" unicode="_" horiz-adv-x="985" 
d="M102 -250v205h781v-205h-781z" />
    <glyph glyph-name="grave" unicode="`" horiz-adv-x="817" 
d="M651 1077h-248l-239 314h344z" />
    <glyph glyph-name="a" unicode="a" horiz-adv-x="1026" 
d="M592 297v96q-139 4 -199.5 -29t-60.5 -100q0 -42 27.5 -68t76.5 -26q62 0 109 31.5t47 95.5zM862 655v-368q0 -86 70 -86q28 0 59 14v-199q-53 -34 -155 -34q-181 0 -226 149q-57 -156 -274 -156q-127 0 -203 70t-76 191q0 161 133 240.5t402 64.5v90q0 131 -111 131
q-113 0 -119 -139l-272 51q10 145 120.5 220t281.5 75q179 0 274.5 -79t95.5 -235z" />
    <glyph glyph-name="b" unicode="b" 
d="M401 526v-139q0 -58 16.5 -101.5t44 -67t58 -35t62.5 -11.5q93 0 154 77.5t61 221.5q0 279 -197 279q-80 0 -139.5 -61t-59.5 -163zM389 137l-67 -137h-193v1368h274v-598q36 102 117 150.5t189 48.5q173 0 268.5 -123.5t95.5 -349.5q0 -237 -107 -379t-296 -142
q-115 0 -186.5 45t-94.5 117z" />
    <glyph glyph-name="c" unicode="c" horiz-adv-x="962" 
d="M682 332l242 -78q-25 -137 -133.5 -208t-266.5 -71q-209 0 -332.5 130.5t-123.5 363.5q0 234 124.5 367t333.5 133q168 0 270 -84.5t113 -227.5l-231 -63q-22 160 -154 160q-91 0 -140.5 -75t-49.5 -206q0 -135 51 -211t143 -76q121 0 154 146z" />
    <glyph glyph-name="d" unicode="d" 
d="M739 393v176q0 98 -53.5 147.5t-130.5 49.5q-91 0 -152 -72.5t-61 -228.5q0 -132 55.5 -205.5t153.5 -73.5q76 0 132 55t56 152zM737 821v547h275v-1368h-238l-35 164q-46 -189 -295 -189q-163 0 -269.5 126.5t-106.5 351.5q0 244 110 380t311 136q92 0 160.5 -40.5
t87.5 -107.5z" />
    <glyph glyph-name="e" unicode="e" horiz-adv-x="999" 
d="M530 186q126 0 166 129l234 -79q-35 -136 -144.5 -198.5t-261.5 -62.5q-206 0 -331 129.5t-125 354.5q0 243 122.5 376.5t337.5 133.5q195 0 297.5 -115t102.5 -305q0 -60 -13 -123h-583q5 -111 55.5 -175.5t142.5 -64.5zM340 578h326q2 12 2 32q0 69 -39.5 112.5
t-110.5 43.5q-75 0 -122.5 -51.5t-55.5 -136.5z" />
    <glyph glyph-name="f" unicode="f" horiz-adv-x="653" 
d="M162 735h-139v211h139v70q0 99 29.5 172t83 114.5t119.5 61.5t147 20q133 0 229 -45l-39 -227q-71 41 -162 41q-66 0 -100.5 -32t-34.5 -113v-62h242v-211h-242v-735h-272v735z" />
    <glyph glyph-name="g" unicode="g" horiz-adv-x="1028" 
d="M492 969q160 0 268 -60q29 29 42 56.5t29 87.5l216 -72q-7 -64 -57.5 -111.5t-115.5 -66.5q44 -68 44 -168q0 -106 -59 -181t-155.5 -110t-220.5 -35q-77 0 -114 13q-45 -27 -45 -78q0 -26 19.5 -42t55.5 -16h271q157 0 245.5 -76.5t88.5 -201.5q0 -78 -31.5 -138.5
t-83.5 -98t-125 -61.5t-148 -33t-161 -9q-93 0 -168.5 12t-139.5 38t-99.5 73.5t-35.5 113.5q0 173 250 191q-68 4 -110.5 53.5t-42.5 114.5q0 60 40 112t119 74q-100 39 -148 106.5t-48 178.5q0 161 113.5 247.5t306.5 86.5zM264 -141q0 -109 221 -109q141 0 202 26.5
t61 84.5q0 43 -27.5 61.5t-89.5 18.5h-234q-61 0 -97 -21t-36 -61zM348 635q0 -65 37 -105.5t107 -40.5t107.5 37.5t37.5 108.5q0 147 -145 147q-144 -3 -144 -147z" />
    <glyph glyph-name="h" unicode="h" horiz-adv-x="1095" 
d="M403 1368v-602q72 203 295 203q119 0 199 -74.5t80 -224.5v-670h-275v567q0 84 -28.5 128t-98.5 44q-75 0 -123.5 -50.5t-48.5 -166.5v-522h-274v1368h274z" />
    <glyph glyph-name="i" unicode="i" horiz-adv-x="532" 
d="M100 1235q0 75 47 117.5t119 42.5q75 0 122.5 -42t47.5 -118q0 -73 -48 -114.5t-122 -41.5q-72 0 -119 41.5t-47 114.5zM129 946h274v-946h-274v946z" />
    <glyph glyph-name="j" unicode="j" horiz-adv-x="532" 
d="M129 946h274v-936q0 -153 -69 -253.5t-188.5 -141.5t-280.5 -29v232q138 -20 201 29t63 206v893zM96 1235q0 75 47 117.5t119 42.5q76 0 124 -42t48 -118q0 -73 -48 -114.5t-124 -41.5q-72 0 -119 41.5t-47 114.5z" />
    <glyph glyph-name="k" unicode="k" horiz-adv-x="1062" 
d="M686 506l358 -506h-319l-266 389h-56v-389h-274v1368h274v-766h52l241 344h318z" />
    <glyph glyph-name="l" unicode="l" horiz-adv-x="591" 
d="M545 236l-15 -230q-91 -24 -157 -24q-73 0 -129.5 22t-94.5 78t-38 141v1145h274v-1065q0 -82 86 -82q37 0 74 15z" />
    <glyph glyph-name="m" unicode="m" horiz-adv-x="1632" 
d="M936 762q37 103 117.5 155t189.5 52q123 0 196.5 -73t73.5 -224v-672h-274v567q0 84 -28.5 128t-96.5 44q-70 0 -113 -51t-43 -166v-522h-274v567q0 84 -28 128t-97 44q-156 0 -156 -219v-520h-274v946h233l33 -182q73 205 291 205q217 0 250 -207z" />
    <glyph glyph-name="n" unicode="n" horiz-adv-x="1095" 
d="M362 946l33 -182q74 205 303 205q119 0 199 -74.5t80 -224.5v-670h-275v567q0 84 -28.5 128t-98.5 44q-75 0 -123.5 -50.5t-48.5 -168.5v-520h-274v946h233z" />
    <glyph glyph-name="o" unicode="o" horiz-adv-x="1050" 
d="M526 -25q-210 0 -334 132t-124 368q0 237 123.5 365.5t334.5 128.5q210 0 333.5 -128.5t123.5 -365.5q0 -236 -124 -368t-333 -132zM526 750q-95 0 -141.5 -68t-46.5 -207q0 -148 45.5 -217.5t142.5 -69.5q96 0 141.5 70t45.5 217q0 275 -187 275z" />
    <glyph glyph-name="p" unicode="p" 
d="M401 518v-131q0 -58 16.5 -101.5t44 -67t58 -35t62.5 -11.5q93 0 154 77.5t61 221.5q0 279 -197 279q-81 0 -140 -62t-59 -170zM403 125v-541h-274v1362h233l35 -182q40 107 122.5 156t189.5 49q173 0 268.5 -123.5t95.5 -349.5q0 -237 -108 -379t-297 -142
q-104 0 -173.5 43t-91.5 107z" />
    <glyph glyph-name="q" unicode="q" 
d="M739 391v178q0 98 -53.5 147.5t-130.5 49.5q-91 0 -152 -72.5t-61 -228.5q0 -132 55.5 -205.5t153.5 -73.5q76 0 132 54.5t56 150.5zM758 823l65 123h189v-1362h-271v580q-49 -189 -297 -189q-163 0 -269.5 126.5t-106.5 351.5q0 243 110 379.5t311 136.5q204 0 269 -146
z" />
    <glyph glyph-name="r" unicode="r" horiz-adv-x="806" 
d="M782 967l-30 -303q-47 16 -107 16q-45 0 -84.5 -12t-76.5 -38.5t-59 -77t-22 -120.5v-432h-274v946h238l32 -260q17 66 43 115.5t69.5 91t111.5 60.5t159 14z" />
    <glyph glyph-name="s" unicode="s" horiz-adv-x="911" 
d="M37 219l225 90q28 -141 184 -141q59 0 94 21t35 61q0 39 -27.5 61t-92.5 37l-140 33q-241 62 -241 281q0 86 32 148.5t88.5 95.5t121.5 48t143 15q355 0 375 -267l-256 -36q-7 55 -39 77.5t-93 22.5q-48 0 -77 -21t-29 -57q0 -68 92 -86l133 -29q283 -60 283 -305
q0 -77 -30.5 -134.5t-86.5 -91.5t-128 -50.5t-161 -16.5q-180 0 -279 57t-126 187z" />
    <glyph glyph-name="t" unicode="t" horiz-adv-x="790" 
d="M713 268l47 -231q-121 -62 -291 -62q-147 0 -229 74.5t-82 231.5v454h-138v211h140v201l274 33v-234h281v-211h-283v-393q0 -73 28 -103t87 -30q83 0 166 59z" />
    <glyph glyph-name="u" unicode="u" horiz-adv-x="1087" 
d="M721 0l-33 176q-26 -100 -96 -150.5t-197 -50.5q-133 0 -208.5 74t-75.5 232v665h274v-588q0 -88 30.5 -132t98.5 -44q76 0 123 63t47 193v508h274v-946h-237z" />
    <glyph glyph-name="v" unicode="v" horiz-adv-x="985" 
d="M336 0l-332 946h291l129 -430q21 -69 36.5 -146t21.5 -119l5 -42h9q20 153 67 305l137 432h281l-344 -946h-301z" />
    <glyph glyph-name="w" unicode="w" horiz-adv-x="1476" 
d="M866 946l105 -375q24 -84 39.5 -176t19.5 -142l4 -50h8q9 174 54 364l88 379h272l-246 -946h-325l-92 338q-17 68 -29.5 144t-16.5 118l-4 43h-8q-10 -151 -49 -307l-82 -336h-323l-261 946h279l98 -377q22 -84 37 -175.5t19 -141.5l4 -49h8q10 178 55 368l96 375h250z
" />
    <glyph glyph-name="x" unicode="x" horiz-adv-x="1005" 
d="M690 0l-106 174q-34 55 -54 98.5t-23 59.5l-3 16h-8q-12 -53 -86 -176l-103 -172h-295l305 473l-286 473h317l72 -133q33 -65 54.5 -114.5t26.5 -66.5l5 -16h8q10 50 90 195l76 135h299l-293 -465l307 -481h-303z" />
    <glyph glyph-name="y" unicode="y" horiz-adv-x="991" 
d="M303 946l123 -430q24 -83 40.5 -159t21.5 -111l4 -35h8q12 121 67 303l131 432h289l-375 -1030q-31 -87 -67.5 -148t-74 -99t-85.5 -59t-95 -28.5t-110 -7.5q-72 0 -170 23l41 241q58 -33 125 -33q66 0 107.5 32.5t70.5 109.5l-350 999h299z" />
    <glyph glyph-name="z" unicode="z" horiz-adv-x="874" 
d="M799 774l-305 -414q-33 -44 -65 -81.5t-48 -52.5l-16 -15v-8q59 10 163 10h289v-213h-760v166l293 416q33 44 65 81.5t48 52.5l16 15v8q-58 -10 -164 -10h-241v217h725v-172z" />
    <glyph glyph-name="braceleft" unicode="{" horiz-adv-x="862" 
d="M322 481v-8q96 -9 151 -58.5t55 -166.5v-320q0 -71 21.5 -104t77.5 -33q40 0 67 7.5t64 27.5l45 -188q-92 -60 -246 -60q-289 0 -289 301v336q0 90 -37 124t-104 34h-84v207h84q67 0 104 34t37 123v338q0 301 289 301q155 0 246 -59l-45 -191q-37 21 -64 29t-67 8
q-56 0 -77.5 -33.5t-21.5 -103.5v-319q0 -64 -16 -108.5t-46 -68.5t-64 -35t-80 -14z" />
    <glyph glyph-name="bar" unicode="|" horiz-adv-x="628" 
d="M424 -416h-219v1784h219v-1784z" />
    <glyph glyph-name="braceright" unicode="}" horiz-adv-x="862" 
d="M541 473v8q-46 3 -80 14t-64.5 35t-46.5 68.5t-16 108.5v319q0 70 -22 103.5t-79 33.5q-40 0 -66 -8t-63 -29l-45 191q91 59 246 59q289 0 289 -301v-338q0 -89 37 -123t104 -34h84v-207h-84q-67 0 -104 -34t-37 -124v-336q0 -301 -289 -301q-154 0 -246 60l45 188
q38 -20 64 -27.5t65 -7.5q57 0 79 33t22 104v320q0 61 16 105t46.5 68t65 36t79.5 16z" />
    <glyph glyph-name="asciitilde" unicode="~" horiz-adv-x="1042" 
d="M678 397q-49 0 -79 10.5t-73 36.5q-10 6 -31 17.5t-27.5 15.5t-19.5 10t-21.5 7.5t-18.5 1.5q-33 0 -52 -25.5t-12 -75.5h-151q-30 59 -27 116.5t27 103t71.5 74t106.5 28.5q65 0 139 -43q7 -4 24 -14.5t22 -13.5t17.5 -10t18 -9t14.5 -5.5t16 -4.5t15 -1q66 0 53 95h160
q33 -85 24 -155t-62.5 -114.5t-133.5 -44.5z" />
    <glyph glyph-name="nbspace" unicode="&#xa0;" horiz-adv-x="313" 
 />
    <glyph glyph-name="exclamdown" unicode="&#xa1;" horiz-adv-x="497" 
d="M416 -258h-334l76 801h182zM80 801q0 71 48.5 114t121.5 43q75 0 123.5 -43t48.5 -114t-49 -115.5t-123 -44.5q-73 0 -121.5 44.5t-48.5 115.5z" />
    <glyph glyph-name="cent" unicode="&#xa2;" horiz-adv-x="1060" 
d="M522 -217v194q-203 14 -319.5 144t-116.5 368q0 231 114 364.5t322 152.5v170h103v-168q144 -6 237 -69.5t146 -190.5l-240 -123q-21 67 -53.5 106.5t-89.5 52.5v-585q58 9 95.5 43.5t63.5 97.5l224 -137q-62 -110 -153.5 -164.5t-229.5 -61.5v-194h-103zM365 494
q0 -122 40.5 -196.5t116.5 -94.5v581q-74 -19 -115.5 -92t-41.5 -198z" />
    <glyph glyph-name="sterling" unicode="&#xa3;" horiz-adv-x="1062" 
d="M733 399h-231q-2 -62 -22.5 -109t-59.5 -67h256q54 0 92 19t59 77l191 -110q-17 -100 -96.5 -154.5t-196.5 -54.5h-627v225h66q55 0 78.5 36t23.5 87q0 27 -6 51h-180v140h117q-31 71 -31 161q0 139 109.5 224.5t261.5 85.5q74 0 135.5 -14.5t114 -46.5t86.5 -87.5
t45 -132.5l-242 -61q-12 61 -47 94t-88 33q-65 0 -97 -32.5t-32 -90.5q0 -13 2.5 -26.5t4.5 -21t9.5 -23.5t9.5 -19.5t13 -22.5t12 -20h270v-140z" />
    <glyph glyph-name="currency" unicode="&#xa4;" horiz-adv-x="925" 
d="M662 868l135 136l67 -68l-133 -133q60 -86 60 -209q0 -122 -54 -201l127 -125l-67 -67l-123 123q-83 -62 -207 -62q-130 0 -211 66l-127 -127l-68 67l132 131q-50 77 -50 195q0 120 56 205l-138 137l68 68l137 -140q83 58 201 58q116 0 195 -54zM467 772
q-107 0 -107 -180q0 -182 107 -182q106 0 106 182q0 180 -106 180z" />
    <glyph glyph-name="yen" unicode="&#xa5;" horiz-adv-x="1157" 
d="M1053 287h-324v-287h-278v287h-330v108h285l-58 97h-227v108h166l-224 385h316l135 -256q31 -58 49.5 -110.5t21.5 -75.5l3 -23h8q4 76 72 207l129 258h297l-211 -385h170v-108h-230l-53 -97h283v-108z" />
    <glyph glyph-name="brokenbar" unicode="&#xa6;" horiz-adv-x="628" 
d="M424 569h-219v799h219v-799zM424 -414h-219v797h219v-797z" />
    <glyph glyph-name="section" unicode="&#xa7;" horiz-adv-x="972" 
d="M82 59l221 88q20 -70 68.5 -105.5t115.5 -35.5q54 0 85.5 21.5t31.5 58.5q0 33 -28 55t-93 41l-147 43q-116 34 -168.5 90t-52.5 150q0 85 46 136.5t115 68.5q-56 23 -93 69t-50.5 92t-13.5 93q0 86 32 148.5t88 95.5t120.5 48t142.5 15q173 0 272 -68t105 -198l-256 -37
q-4 55 -37 77.5t-90 22.5q-49 0 -76 -21.5t-27 -56.5q0 -33 23 -54.5t80 -35.5l139 -39q130 -35 193 -98.5t63 -169.5q0 -84 -46.5 -138t-117.5 -67q76 -37 117 -101.5t41 -146.5q0 -77 -30.5 -134t-85.5 -90.5t-126 -49.5t-158 -16q-361 0 -403 249zM612 504q0 42 -39 66.5
t-122 47.5q-30 -10 -48 -34t-18 -52q0 -42 36 -65.5t126 -48.5q29 9 47 32.5t18 53.5z" />
    <glyph glyph-name="dieresis" unicode="&#xa8;" horiz-adv-x="1081" 
d="M164 1221q0 73 43 113t108 40q70 0 113 -39.5t43 -113.5q0 -72 -43.5 -113t-112.5 -41q-64 0 -107.5 41.5t-43.5 112.5zM610 1221q0 73 43.5 113t108.5 40q69 0 112.5 -39.5t43.5 -113.5q0 -73 -44 -113.5t-112 -40.5q-65 0 -108.5 41t-43.5 113z" />
    <glyph glyph-name="copyright" unicode="&#xa9;" horiz-adv-x="1439" 
d="M885 506l186 -125q-59 -91 -141 -133.5t-215 -42.5q-171 0 -276 104.5t-105 294.5q0 192 106.5 297t296.5 105q125 0 206 -49.5t128 -155.5l-203 -99q-17 58 -47.5 88.5t-87.5 30.5q-73 0 -119.5 -58t-46.5 -155q0 -99 43.5 -155t120.5 -56q57 0 91.5 26.5t62.5 82.5z
M92 602q0 179 84.5 323.5t227.5 225t315 80.5q128 0 244 -47.5t200.5 -129.5t134.5 -200t50 -252t-50 -251.5t-134.5 -199.5t-200.5 -129t-244 -47t-243.5 47t-200 129t-134 199.5t-49.5 251.5zM156 602q0 -163 77 -294t206 -202t284 -71q115 0 218 42t179.5 115.5t121 180
t44.5 229.5q0 122 -44.5 228.5t-120.5 181t-179.5 117t-218.5 42.5t-219.5 -42.5t-181 -117t-121.5 -181t-45 -228.5z" />
    <glyph glyph-name="ordfeminine" unicode="&#xaa;" horiz-adv-x="800" 
d="M430 782v74q-149 0 -149 -92q0 -28 16 -43.5t45 -15.5q35 0 61.5 19.5t26.5 57.5zM645 1022v-244q0 -43 37 -43q34 0 49 10v-143q-50 -24 -127 -24q-69 0 -105.5 19t-60.5 69q-47 -95 -184 -95q-84 0 -133 44.5t-49 123.5q0 105 87 156.5t271 50.5v60q0 75 -65 75
q-31 0 -49.5 -24t-20.5 -58l-203 33q7 97 86 148t205 51q116 0 189 -50.5t73 -158.5z" />
    <glyph glyph-name="guillemotleft" unicode="&#xab;" horiz-adv-x="1124" 
d="M766 485v-8q45 -14 106 -82l191 -213l-137 -133l-406 434l406 435l137 -138l-191 -211q-28 -30 -54.5 -51t-39.5 -27zM309 485v-8q44 -14 107 -82l188 -213l-135 -133l-408 434l408 435l135 -138l-190 -211q-28 -30 -54 -51t-38 -27z" />
    <glyph glyph-name="logicalnot" unicode="&#xac;" horiz-adv-x="1036" 
d="M768 492h-668v153h836v-395h-168v242z" />
    <glyph glyph-name="uni00AD" unicode="&#xad;" horiz-adv-x="712" 
d="M127 414v231h459v-231h-459z" />
    <glyph glyph-name="registered" unicode="&#xae;" horiz-adv-x="1439" 
d="M1090 248h-250q-30 23 -45 82l-21 71q-10 41 -32 56.5t-64 15.5h-27v-225h-219v739h318q294 0 294 -239q0 -96 -55 -145.5t-139 -57.5q62 -9 94 -31t51 -68l41 -110q16 -50 54 -88zM651 809v-170h60q61 0 89.5 19t28.5 61q0 43 -26.5 66.5t-77.5 23.5h-74zM92 602
q0 179 84.5 323.5t227.5 225t315 80.5q128 0 244 -47.5t200.5 -129.5t134.5 -200t50 -252t-50 -251.5t-134.5 -199.5t-200.5 -129t-244 -47t-243.5 47t-200 129t-134 199.5t-49.5 251.5zM156 602q0 -163 77 -294t206 -202t284 -71q115 0 218 42t179.5 115.5t121 180
t44.5 229.5q0 122 -44.5 228.5t-120.5 181t-179.5 117t-218.5 42.5t-219.5 -42.5t-181 -117t-121.5 -181t-45 -228.5z" />
    <glyph glyph-name="macron" unicode="&#xaf;" horiz-adv-x="929" 
d="M766 1104h-602v221h602v-221z" />
    <glyph glyph-name="degree" unicode="&#xb0;" horiz-adv-x="544" 
d="M49 1008q0 93 61.5 158t159.5 65t162 -65t64 -158q0 -95 -63.5 -159.5t-162.5 -64.5q-98 0 -159.5 64t-61.5 160zM190 1008q0 -39 22 -63.5t58 -24.5q38 0 61 24.5t23 63.5q0 38 -23.5 64t-60.5 26q-36 0 -58 -26t-22 -64z" />
    <glyph glyph-name="plusminus" unicode="&#xb1;" horiz-adv-x="1019" 
d="M92 735h338v254h152v-254h346v-151h-346v-283h-152v283h-338v151zM928 49h-836v154h836v-154z" />
    <glyph glyph-name="twosuperior" unicode="&#xb2;" horiz-adv-x="681" 
d="M629 641v-158h-570v131q194 140 265 209.5t71 139.5q0 84 -82 84q-42 0 -71 -31.5t-29 -93.5l-170 65q5 99 79 167.5t212 68.5q122 0 197 -60.5t75 -173.5q0 -205 -287 -340v-8h310z" />
    <glyph glyph-name="threesuperior" unicode="&#xb3;" horiz-adv-x="665" 
d="M406 852v-4q202 -15 202 -182q0 -95 -79.5 -146t-221.5 -51q-116 0 -193 43.5t-94 122.5l166 67q22 -88 123 -88q86 0 86 68q0 43 -38 69t-144 29v115q99 4 134.5 30.5t35.5 67.5q0 34 -19.5 52t-50.5 18q-39 0 -65.5 -20.5t-30.5 -59.5l-164 61q15 85 90.5 132t186.5 47
q114 0 183 -49t69 -142q0 -150 -176 -180z" />
    <glyph glyph-name="acute" unicode="&#xb4;" horiz-adv-x="817" 
d="M416 1077h-250l143 314h344z" />
    <glyph glyph-name="mu" unicode="&#xb5;" horiz-adv-x="1105" 
d="M737 0l-32 178q-23 -104 -85 -153.5t-145 -49.5q-43 0 -74 21v-412h-274v1362h274v-579q0 -170 127 -170q68 0 120 54t52 167v528h275v-946h-238z" />
    <glyph glyph-name="paragraph" unicode="&#xb6;" horiz-adv-x="1146" 
d="M909 983v-1003q0 -163 -92 -238.5t-242 -75.5q-70 0 -121 12t-108 43l49 238q70 -59 158 -59q47 0 70.5 27t23.5 93v336h-100q-218 0 -343.5 103.5t-125.5 308.5q0 438 520 438h473v-223h-162z" />
    <glyph glyph-name="periodcentered" unicode="&#xb7;" horiz-adv-x="598" 
d="M123 541q0 76 50 128t122 52q78 0 129 -51.5t51 -128.5q0 -73 -51.5 -122.5t-128.5 -49.5q-72 0 -122 50t-50 122z" />
    <glyph glyph-name="periodcentered" unicode="&#x22c5;" horiz-adv-x="598" 
d="M123 541q0 76 50 128t122 52q78 0 129 -51.5t51 -128.5q0 -73 -51.5 -122.5t-128.5 -49.5q-72 0 -122 50t-50 122z" />
    <glyph glyph-name="cedilla" unicode="&#xb8;" horiz-adv-x="763" 
d="M600 -242q0 -93 -65.5 -141.5t-169.5 -48.5q-70 0 -127.5 20.5t-87.5 53.5l51 131q63 -72 133 -72q61 0 61 53q0 71 -104 82l22 201h117l-10 -111q180 -12 180 -168z" />
    <glyph glyph-name="onesuperior" unicode="&#xb9;" horiz-adv-x="645" 
d="M608 483h-532v150h174v389l-193 -16v157l394 43v-573h157v-150z" />
    <glyph glyph-name="ordmasculine" unicode="&#xba;" horiz-adv-x="815" 
d="M408 571q-149 0 -236.5 87.5t-87.5 244.5t87.5 242.5t236.5 85.5t236 -85.5t87 -242.5t-87.5 -244.5t-235.5 -87.5zM408 1081q-107 0 -107 -180q0 -182 107 -182q106 0 106 182q0 180 -106 180z" />
    <glyph glyph-name="guillemotright" unicode="&#xbb;" horiz-adv-x="1124" 
d="M358 477v8q-43 16 -104 84l-191 211l136 138l407 -435l-407 -434l-138 133l191 213q27 30 53.5 50.5t39.5 26.5zM817 477v8q-43 16 -104 84l-191 211l135 138l406 -435l-406 -434l-137 133l191 213q27 30 53.5 50.5t39.5 26.5z" />
    <glyph glyph-name="onequarter" unicode="&#xbc;" horiz-adv-x="1781" 
d="M631 483h-533v150h174v389l-192 -16v157l393 43v-573h158v-150zM496 0l624 1206h166l-629 -1206h-161zM1444 0v143h-357v138l363 442h197v-434h102v-146h-102v-143h-203zM1448 285v133q0 32 2.5 68.5t5.5 56.5l2 20h-8q-18 -51 -59 -104l-66 -82q-20 -24 -44 -48t-38 -36
l-14 -12v-9q42 13 114 13h105z" />
    <glyph glyph-name="onehalf" unicode="&#xbd;" horiz-adv-x="1781" 
d="M631 483h-533v150h174v389l-192 -16v157l393 43v-573h158v-150zM496 0l624 1206h166l-629 -1206h-161zM1694 158v-158h-570v131q195 140 265.5 209t70.5 139q0 84 -82 84q-42 0 -71 -31.5t-29 -93.5l-170 66q5 99 79 167t212 68q122 0 197 -60t75 -173q0 -205 -287 -340
v-8h310z" />
    <glyph glyph-name="threequarters" unicode="&#xbe;" horiz-adv-x="1781" 
d="M451 852v-4q202 -15 202 -182q0 -95 -79.5 -146t-221.5 -51q-115 0 -192 43.5t-94 122.5l165 67q22 -88 123 -88q86 0 86 68q0 43 -38 69t-144 29v115q99 4 134.5 30.5t35.5 67.5q0 34 -19.5 52t-50.5 18q-39 0 -65.5 -20.5t-30.5 -59.5l-164 61q15 85 90.5 132t186.5 47
q114 0 183 -49t69 -142q0 -150 -176 -180zM496 0l624 1206h166l-629 -1206h-161zM1444 0v143h-357v138l363 442h197v-434h102v-146h-102v-143h-203zM1448 285v133q0 32 2.5 68.5t5.5 56.5l2 20h-8q-18 -51 -59 -104l-66 -82q-20 -24 -44 -48t-38 -36l-14 -12v-9
q42 13 114 13h105z" />
    <glyph glyph-name="questiondown" unicode="&#xbf;" horiz-adv-x="899" 
d="M643 141l256 -92q-36 -165 -146 -249.5t-307 -84.5q-191 0 -310.5 105t-119.5 272q0 77 22.5 137.5t58.5 98t85 62.5t99 35t104 11v125h238v-274h-99q-112 0 -164.5 -39.5t-52.5 -134.5q0 -75 43 -116.5t115 -41.5q86 0 128 46.5t50 139.5zM674 799q0 -71 -49 -115.5
t-121 -44.5q-74 0 -123 44.5t-49 115.5t48.5 114t123.5 43q72 0 121 -43.5t49 -113.5z" />
    <glyph glyph-name="Agrave" unicode="&#xc0;" horiz-adv-x="1261" 
d="M942 0l-88 252h-457l-86 -252h-291l437 1206h344l440 -1206h-299zM522 621l-47 -138h297l-49 135q-31 88 -54.5 174.5t-31.5 128.5l-8 42h-8q-31 -147 -99 -342zM770 1325h-250l-225 293h344z" />
    <glyph glyph-name="Aacute" unicode="&#xc1;" horiz-adv-x="1261" 
d="M942 0l-88 252h-457l-86 -252h-291l437 1206h344l440 -1206h-299zM522 621l-47 -138h297l-49 135q-31 88 -54.5 174.5t-31.5 128.5l-8 42h-8q-31 -147 -99 -342zM739 1325h-252l131 293h345z" />
    <glyph glyph-name="Acircumflex" unicode="&#xc2;" horiz-adv-x="1261" 
d="M942 0l-88 252h-457l-86 -252h-291l437 1206h344l440 -1206h-299zM522 621l-47 -138h297l-49 135q-31 88 -54.5 174.5t-31.5 128.5l-8 42h-8q-31 -147 -99 -342zM541 1622h174l274 -297h-254l-63 64q-16 16 -26 31.5t-12 22.5l-3 7h-8q-6 -24 -41 -61l-62 -64h-256z" />
    <glyph glyph-name="Atilde" unicode="&#xc3;" horiz-adv-x="1261" 
d="M942 0l-88 252h-457l-86 -252h-291l437 1206h344l440 -1206h-299zM522 621l-47 -138h297l-49 135q-31 88 -54.5 174.5t-31.5 128.5l-8 42h-8q-31 -147 -99 -342zM782 1329q-49 0 -79 9.5t-72 35.5q-51 30 -73.5 40.5t-45.5 10.5q-33 0 -51.5 -25t-11.5 -75h-152
q-30 59 -27 117t27 103.5t71.5 73.5t106.5 28q65 0 139 -43q9 -5 27 -16t25 -14.5l20 -10t20 -9t16.5 -4.5t18.5 -2q67 0 54 94h159q54 -124 2.5 -218.5t-174.5 -94.5z" />
    <glyph glyph-name="Adieresis" unicode="&#xc4;" horiz-adv-x="1261" 
d="M942 0l-88 252h-457l-86 -252h-291l437 1206h344l440 -1206h-299zM522 621l-47 -138h297l-49 135q-31 88 -54.5 174.5t-31.5 128.5l-8 42h-8q-31 -147 -99 -342zM248 1481q0 73 43 113t108 40q70 0 113 -39.5t43 -113.5q0 -72 -43.5 -113t-112.5 -41q-64 0 -107.5 41.5
t-43.5 112.5zM694 1481q0 73 43.5 113t108.5 40q69 0 112 -39.5t43 -113.5q0 -73 -43.5 -113.5t-111.5 -40.5q-65 0 -108.5 41t-43.5 113z" />
    <glyph glyph-name="Aring" unicode="&#xc5;" horiz-adv-x="1261" 
d="M942 0l-88 252h-457l-86 -252h-291l437 1206h344l440 -1206h-299zM522 621l-47 -138h297l-49 135q-31 88 -54.5 174.5t-31.5 128.5l-8 42h-8q-31 -147 -99 -342zM625 1290q-110 0 -173 65.5t-63 164.5q0 92 65.5 156.5t170.5 64.5q104 0 169.5 -64.5t65.5 -156.5
q0 -99 -62.5 -164.5t-172.5 -65.5zM625 1618q-47 0 -74 -27.5t-27 -72.5q0 -42 27 -70.5t74 -28.5t73.5 28.5t26.5 70.5q0 45 -26.5 72.5t-73.5 27.5z" />
    <glyph glyph-name="AE" unicode="&#xc6;" horiz-adv-x="1794" 
d="M1692 0h-809v252h-416l-158 -252h-305l719 1206h969v-241h-531v-240h469v-231h-469v-252h531v-242zM887 1004l-299 -521h295v193q0 93 3 175t6 117l3 36h-8z" />
    <glyph glyph-name="Ccedilla" unicode="&#xc7;" horiz-adv-x="1200" 
d="M889 -242q0 -93 -66 -141.5t-170 -48.5q-70 0 -127.5 20.5t-87.5 53.5l51 131q63 -72 134 -72q61 0 61 53q0 71 -104 82l14 141q-233 14 -371.5 178.5t-138.5 448.5q0 299 156 463t434 164q352 0 491 -305l-268 -131q-29 94 -84 142t-149 48q-137 0 -215 -103t-78 -284
t75 -279t222 -98q174 0 252 172l235 -141q-76 -130 -179 -196.5t-263 -78.5l-4 -51q180 -12 180 -168z" />
    <glyph glyph-name="Egrave" unicode="&#xc8;" horiz-adv-x="1069" 
d="M967 242v-242h-809v1206h809v-241h-531v-240h467v-231h-467v-252h531zM702 1325h-249l-226 293h344z" />
    <glyph glyph-name="Eacute" unicode="&#xc9;" horiz-adv-x="1069" 
d="M967 242v-242h-809v1206h809v-241h-531v-240h467v-231h-467v-252h531zM672 1325h-252l131 293h344z" />
    <glyph glyph-name="Ecircumflex" unicode="&#xca;" horiz-adv-x="1069" 
d="M967 242v-242h-809v1206h809v-241h-531v-240h467v-231h-467v-252h531zM477 1622h174l275 -297h-254l-64 64q-16 16 -26 31.5t-12 22.5l-3 7h-8q-6 -24 -41 -61l-61 -64h-256z" />
    <glyph glyph-name="Edieresis" unicode="&#xcb;" horiz-adv-x="1069" 
d="M967 242v-242h-809v1206h809v-241h-531v-240h467v-231h-467v-252h531zM180 1481q0 73 43.5 113t108.5 40q70 0 112.5 -39.5t42.5 -113.5q0 -72 -43 -113t-112 -41q-64 0 -108 41.5t-44 112.5zM627 1481q0 73 43 113t108 40q69 0 112.5 -39.5t43.5 -113.5
q0 -73 -44 -113.5t-112 -40.5q-64 0 -107.5 41t-43.5 113z" />
    <glyph glyph-name="Igrave" unicode="&#xcc;" horiz-adv-x="593" 
d="M158 1206h278v-1206h-278v1206zM432 1325h-250l-225 293h344z" />
    <glyph glyph-name="Iacute" unicode="&#xcd;" horiz-adv-x="593" 
d="M158 1206h278v-1206h-278v1206zM412 1325h-252l131 293h344z" />
    <glyph glyph-name="Icircumflex" unicode="&#xce;" horiz-adv-x="593" 
d="M158 1206h278v-1206h-278v1206zM211 1622h174l274 -297h-253l-64 64q-16 16 -26 31.5t-12 22.5l-3 7h-8q-6 -24 -41 -61l-62 -64h-256z" />
    <glyph glyph-name="Idieresis" unicode="&#xcf;" horiz-adv-x="593" 
d="M158 1206h278v-1206h-278v1206zM-86 1481q0 73 43.5 113t108.5 40q70 0 112.5 -39.5t42.5 -113.5q0 -72 -43 -113t-112 -41q-64 0 -108 41.5t-44 112.5zM360 1481q0 73 43.5 113t108.5 40q69 0 112.5 -39.5t43.5 -113.5q0 -73 -44 -113.5t-112 -40.5q-65 0 -108.5 41
t-43.5 113z" />
    <glyph glyph-name="Eth" unicode="&#xd0;" horiz-adv-x="1273" 
d="M584 0h-426v496h-133v225h133v485h444q129 0 233.5 -33.5t185 -102t125 -184t44.5 -270.5q0 -163 -45.5 -284t-128.5 -192t-190.5 -105.5t-241.5 -34.5zM436 236h121q170 0 256 83.5t86 280.5q0 105 -22.5 178.5t-66.5 115t-101.5 59.5t-135.5 18h-137v-250h191v-225
h-191v-260z" />
    <glyph glyph-name="Ntilde" unicode="&#xd1;" horiz-adv-x="1384" 
d="M420 1206l426 -583q30 -41 55 -81.5t35 -60.5l10 -20h8q-6 102 -6 256v489h279v-1206h-254l-426 573q-35 45 -63.5 90t-39.5 67l-12 22h-8q12 -99 12 -273v-479h-278v1206h262zM848 1329q-49 0 -79.5 10t-72.5 35q-37 22 -51.5 30t-32.5 14.5t-34 6.5q-33 0 -52 -25
t-12 -75h-152q-30 59 -27 117t27 103.5t72 73.5t107 28q65 0 139 -43q9 -5 27 -16t25 -14.5l20 -10t20 -9t16.5 -4.5t18.5 -2q32 0 46 21t7 73h160q54 -124 2.5 -218.5t-174.5 -94.5z" />
    <glyph glyph-name="Ograve" unicode="&#xd2;" horiz-adv-x="1312" 
d="M655 -25q-269 0 -420 163.5t-151 463.5q0 302 151 465.5t420 163.5q270 0 422 -163.5t152 -465.5q0 -300 -152.5 -463.5t-421.5 -163.5zM655 983q-139 0 -210.5 -101t-71.5 -284q0 -182 71 -282.5t211 -100.5t212.5 100.5t72.5 282.5q0 183 -72.5 284t-212.5 101z
M797 1325h-250l-225 293h344z" />
    <glyph glyph-name="Oacute" unicode="&#xd3;" horiz-adv-x="1312" 
d="M655 -25q-269 0 -420 163.5t-151 463.5q0 302 151 465.5t420 163.5q270 0 422 -163.5t152 -465.5q0 -300 -152.5 -463.5t-421.5 -163.5zM655 983q-139 0 -210.5 -101t-71.5 -284q0 -182 71 -282.5t211 -100.5t212.5 100.5t72.5 282.5q0 183 -72.5 284t-212.5 101z
M766 1325h-252l131 293h344z" />
    <glyph glyph-name="Ocircumflex" unicode="&#xd4;" horiz-adv-x="1312" 
d="M655 -25q-269 0 -420 163.5t-151 463.5q0 302 151 465.5t420 163.5q270 0 422 -163.5t152 -465.5q0 -300 -152.5 -463.5t-421.5 -163.5zM655 983q-139 0 -210.5 -101t-71.5 -284q0 -182 71 -282.5t211 -100.5t212.5 100.5t72.5 282.5q0 183 -72.5 284t-212.5 101z
M571 1622h174l275 -297h-254l-64 64q-16 16 -26 31.5t-12 22.5l-2 7h-9q-6 -24 -41 -61l-61 -64h-256z" />
    <glyph glyph-name="Otilde" unicode="&#xd5;" horiz-adv-x="1312" 
d="M655 -25q-269 0 -420 163.5t-151 463.5q0 302 151 465.5t420 163.5q270 0 422 -163.5t152 -465.5q0 -300 -152.5 -463.5t-421.5 -163.5zM655 983q-139 0 -210.5 -101t-71.5 -284q0 -182 71 -282.5t211 -100.5t212.5 100.5t72.5 282.5q0 183 -72.5 284t-212.5 101z
M813 1329q-49 0 -79 9.5t-72 35.5q-51 30 -73.5 40.5t-45.5 10.5q-33 0 -52 -25t-12 -75h-151q-30 59 -27 117t27 103.5t71.5 73.5t106.5 28q65 0 139 -43q9 -5 27 -16t25 -14.5l20 -10t20 -9t16.5 -4.5t18.5 -2q32 0 46 21t7 73h160q54 -124 2.5 -218.5t-174.5 -94.5z" />
    <glyph glyph-name="Odieresis" unicode="&#xd6;" horiz-adv-x="1312" 
d="M655 -25q-269 0 -420 163.5t-151 463.5q0 302 151 465.5t420 163.5q270 0 422 -163.5t152 -465.5q0 -300 -152.5 -463.5t-421.5 -163.5zM655 983q-139 0 -210.5 -101t-71.5 -284q0 -182 71 -282.5t211 -100.5t212.5 100.5t72.5 282.5q0 183 -72.5 284t-212.5 101z
M274 1481q0 73 43.5 113t108.5 40q70 0 113 -39.5t43 -113.5q0 -72 -43.5 -113t-112.5 -41q-64 0 -108 41.5t-44 112.5zM721 1481q0 73 43 113t108 40q69 0 112.5 -39.5t43.5 -113.5q0 -73 -44 -113.5t-112 -40.5q-64 0 -107.5 41t-43.5 113z" />
    <glyph glyph-name="multiply" unicode="&#xd7;" horiz-adv-x="942" 
d="M92 246l264 264l-256 258l107 106l258 -253l268 268l111 -109l-273 -270l279 -277l-109 -108l-276 278l-264 -266z" />
    <glyph glyph-name="Oslash" unicode="&#xd8;" horiz-adv-x="1312" 
d="M186 -25l-94 82l109 123q-117 157 -117 422q0 302 151 465.5t420 163.5q227 0 373 -119l96 111l99 -82l-109 -121q115 -162 115 -418q0 -300 -152.5 -463.5t-421.5 -163.5q-226 0 -368 115zM938 598q0 104 -27 193l-446 -502q71 -74 190 -74q140 0 211.5 100.5
t71.5 282.5zM655 983q-139 0 -209.5 -101t-70.5 -284q0 -109 24 -192l447 501q-73 76 -191 76z" />
    <glyph glyph-name="Ugrave" unicode="&#xd9;" horiz-adv-x="1245" 
d="M844 1206h276v-803q0 -118 -39 -203.5t-110 -133.5t-156.5 -69.5t-191.5 -21.5q-83 0 -154 13t-135.5 44t-110 79t-72 122.5t-26.5 169.5v803h278v-725q0 -138 48 -206t172 -68q125 0 173 68t48 208v723zM762 1325h-250l-225 293h344z" />
    <glyph glyph-name="Uacute" unicode="&#xda;" horiz-adv-x="1245" 
d="M844 1206h276v-803q0 -118 -39 -203.5t-110 -133.5t-156.5 -69.5t-191.5 -21.5q-83 0 -154 13t-135.5 44t-110 79t-72 122.5t-26.5 169.5v803h278v-725q0 -138 48 -206t172 -68q125 0 173 68t48 208v723zM731 1325h-252l131 293h344z" />
    <glyph glyph-name="Ucircumflex" unicode="&#xdb;" horiz-adv-x="1245" 
d="M844 1206h276v-803q0 -118 -39 -203.5t-110 -133.5t-156.5 -69.5t-191.5 -21.5q-83 0 -154 13t-135.5 44t-110 79t-72 122.5t-26.5 169.5v803h278v-725q0 -138 48 -206t172 -68q125 0 173 68t48 208v723zM537 1622h174l274 -297h-254l-63 64q-16 16 -26 31.5t-12 22.5
l-3 7h-9q-5 -24 -40 -61l-62 -64h-256z" />
    <glyph glyph-name="Udieresis" unicode="&#xdc;" horiz-adv-x="1245" 
d="M844 1206h276v-803q0 -118 -39 -203.5t-110 -133.5t-156.5 -69.5t-191.5 -21.5q-83 0 -154 13t-135.5 44t-110 79t-72 122.5t-26.5 169.5v803h278v-725q0 -138 48 -206t172 -68q125 0 173 68t48 208v723zM240 1481q0 73 43 113t108 40q70 0 113 -39.5t43 -113.5
q0 -72 -43.5 -113t-112.5 -41q-64 0 -107.5 41.5t-43.5 112.5zM686 1481q0 73 43.5 113t108.5 40q69 0 112 -39.5t43 -113.5q0 -73 -43.5 -113.5t-111.5 -40.5q-65 0 -108.5 41t-43.5 113z" />
    <glyph glyph-name="Yacute" unicode="&#xdd;" horiz-adv-x="1116" 
d="M336 1206l141 -286q34 -72 56.5 -138t28.5 -96l5 -29h8q13 105 89 261l139 288h293l-385 -805v-401h-279v401l-412 805h316zM666 1325h-252l131 293h344z" />
    <glyph glyph-name="Thorn" unicode="&#xde;" horiz-adv-x="1071" 
d="M436 793v-338h144q90 0 130 38t40 123q0 94 -40.5 135.5t-129.5 41.5h-144zM436 0h-278v1206h278v-182h152q229 0 333.5 -97.5t104.5 -299.5q0 -191 -108 -295.5t-304 -104.5h-178v-227z" />
    <glyph glyph-name="germandbls" unicode="&#xdf;" horiz-adv-x="1187" 
d="M129 0v848q0 536 506 536q196 0 302.5 -93.5t106.5 -246.5q0 -245 -233 -280v-8q151 -12 231 -107t80 -264q0 -192 -102 -301t-293 -109q-179 0 -258 115l68 207q73 -104 178 -104q70 0 104.5 47.5t34.5 158.5q0 116 -60.5 177t-179.5 61h-110v219h121q161 0 161 150
q0 74 -44 113.5t-130 39.5q-104 0 -156.5 -72t-52.5 -229v-858h-274z" />
    <glyph glyph-name="agrave" unicode="&#xe0;" horiz-adv-x="1026" 
d="M592 297v96q-139 4 -199.5 -29t-60.5 -100q0 -42 27.5 -68t76.5 -26q62 0 109 31.5t47 95.5zM862 655v-368q0 -86 70 -86q28 0 59 14v-199q-53 -34 -155 -34q-181 0 -226 149q-57 -156 -274 -156q-127 0 -203 70t-76 191q0 161 133 240.5t402 64.5v90q0 131 -111 131
q-113 0 -119 -139l-272 51q10 145 120.5 220t281.5 75q179 0 274.5 -79t95.5 -235zM639 1077h-248l-239 314h344z" />
    <glyph glyph-name="aacute" unicode="&#xe1;" horiz-adv-x="1026" 
d="M592 297v96q-139 4 -199.5 -29t-60.5 -100q0 -42 27.5 -68t76.5 -26q62 0 109 31.5t47 95.5zM862 655v-368q0 -86 70 -86q28 0 59 14v-199q-53 -34 -155 -34q-181 0 -226 149q-57 -156 -274 -156q-127 0 -203 70t-76 191q0 161 133 240.5t402 64.5v90q0 131 -111 131
q-113 0 -119 -139l-272 51q10 145 120.5 220t281.5 75q179 0 274.5 -79t95.5 -235zM604 1077h-250l144 314h344z" />
    <glyph glyph-name="acircumflex" unicode="&#xe2;" horiz-adv-x="1026" 
d="M592 297v96q-139 4 -199.5 -29t-60.5 -100q0 -42 27.5 -68t76.5 -26q62 0 109 31.5t47 95.5zM862 655v-368q0 -86 70 -86q28 0 59 14v-199q-53 -34 -155 -34q-181 0 -226 149q-57 -156 -274 -156q-127 0 -203 70t-76 191q0 161 133 240.5t402 64.5v90q0 131 -111 131
q-113 0 -119 -139l-272 51q10 145 120.5 220t281.5 75q179 0 274.5 -79t95.5 -235zM399 1399h172l277 -326h-252l-66 70q-17 19 -27.5 36t-12.5 24l-1 7h-8q-2 -24 -41 -67l-65 -70h-252z" />
    <glyph glyph-name="atilde" unicode="&#xe3;" horiz-adv-x="1026" 
d="M592 297v96q-139 4 -199.5 -29t-60.5 -100q0 -42 27.5 -68t76.5 -26q62 0 109 31.5t47 95.5zM862 655v-368q0 -86 70 -86q28 0 59 14v-199q-53 -34 -155 -34q-181 0 -226 149q-57 -156 -274 -156q-127 0 -203 70t-76 191q0 161 133 240.5t402 64.5v90q0 131 -111 131
q-113 0 -119 -139l-272 51q10 145 120.5 220t281.5 75q179 0 274.5 -79t95.5 -235zM641 1067q-49 0 -79 10.5t-73 36.5q-8 5 -26 15t-24 13t-18 9.5t-18.5 8t-15 3.5t-16.5 2q-33 0 -52 -25t-12 -75h-151q-30 59 -27 116t27 102t71.5 73t106.5 28q68 0 139 -41
q6 -3 17.5 -10.5t16 -10t14 -8t13.5 -7.5t11.5 -6t11.5 -5.5t10.5 -4t11 -3.5t10 -1.5t11.5 -0.5q66 0 53 94h160q54 -124 2.5 -218.5t-174.5 -94.5z" />
    <glyph glyph-name="adieresis" unicode="&#xe4;" horiz-adv-x="1026" 
d="M592 297v96q-139 4 -199.5 -29t-60.5 -100q0 -42 27.5 -68t76.5 -26q62 0 109 31.5t47 95.5zM862 655v-368q0 -86 70 -86q28 0 59 14v-199q-53 -34 -155 -34q-181 0 -226 149q-57 -156 -274 -156q-127 0 -203 70t-76 191q0 161 133 240.5t402 64.5v90q0 131 -111 131
q-113 0 -119 -139l-272 51q10 145 120.5 220t281.5 75q179 0 274.5 -79t95.5 -235zM115 1221q0 73 43 113t108 40q70 0 113 -39.5t43 -113.5q0 -72 -43.5 -113t-112.5 -41q-64 0 -107.5 41.5t-43.5 112.5zM561 1221q0 73 43.5 113t108.5 40q69 0 112 -39.5t43 -113.5
q0 -73 -43.5 -113.5t-111.5 -40.5q-65 0 -108.5 41t-43.5 113z" />
    <glyph glyph-name="aring" unicode="&#xe5;" horiz-adv-x="1026" 
d="M592 297v96q-139 4 -199.5 -29t-60.5 -100q0 -42 27.5 -68t76.5 -26q62 0 109 31.5t47 95.5zM862 655v-368q0 -86 70 -86q28 0 59 14v-199q-53 -34 -155 -34q-181 0 -226 149q-57 -156 -274 -156q-127 0 -203 70t-76 191q0 161 133 240.5t402 64.5v90q0 131 -111 131
q-113 0 -119 -139l-272 51q10 145 120.5 220t281.5 75q179 0 274.5 -79t95.5 -235zM489 1036q-110 0 -172.5 65.5t-62.5 164.5q0 92 65.5 157.5t169.5 65.5t170 -65.5t66 -157.5q0 -99 -63 -164.5t-173 -65.5zM489 1366q-46 0 -73 -28.5t-27 -73.5q0 -41 26.5 -70t73.5 -29
t74 29t27 70q0 45 -27.5 73.5t-73.5 28.5z" />
    <glyph glyph-name="ae" unicode="&#xe6;" horiz-adv-x="1517" 
d="M1051 186q60 0 100.5 29t62.5 100l236 -79q-24 -92 -87.5 -152.5t-142.5 -84.5t-176 -24q-222 0 -344 150q-78 -150 -323 -150q-145 0 -232.5 71t-87.5 200q0 316 541 319q4 31 16 80q-4 58 -39.5 87.5t-91.5 29.5q-55 0 -86.5 -36.5t-34.5 -102.5l-272 51
q10 144 118.5 219.5t270.5 75.5q188 0 273 -97q118 97 297 97q192 0 295.5 -120.5t103.5 -311.5q0 -57 -14 -125h-582q3 -108 54 -167t145 -59zM858 565h326q2 10 2 31q0 71 -39 120.5t-109 49.5q-84 0 -128 -55t-52 -146zM436 170q66 0 113.5 29t64.5 86q-17 68 -20 127
q-262 -3 -262 -148q0 -42 27.5 -68t76.5 -26z" />
    <glyph glyph-name="ccedilla" unicode="&#xe7;" horiz-adv-x="962" 
d="M758 -242q0 -93 -66 -141.5t-170 -48.5q-70 0 -127.5 20.5t-87.5 53.5l51 131q63 -72 134 -72q61 0 61 53q0 71 -104 82l16 144q-184 18 -290.5 145t-106.5 344q0 234 124.5 367t333.5 133q168 0 270 -84.5t113 -227.5l-231 -63q-22 160 -154 160q-91 0 -140.5 -75
t-49.5 -206q0 -135 51 -211t143 -76q121 0 154 146l242 -78q-24 -125 -115 -195t-227 -82l-4 -51q180 -12 180 -168z" />
    <glyph glyph-name="egrave" unicode="&#xe8;" horiz-adv-x="999" 
d="M530 186q126 0 166 129l234 -79q-35 -136 -144.5 -198.5t-261.5 -62.5q-206 0 -331 129.5t-125 354.5q0 243 122.5 376.5t337.5 133.5q195 0 297.5 -115t102.5 -305q0 -60 -13 -123h-583q5 -111 55.5 -175.5t142.5 -64.5zM340 578h326q2 12 2 32q0 69 -39.5 112.5
t-110.5 43.5q-75 0 -122.5 -51.5t-55.5 -136.5zM647 1077h-248l-239 314h344z" />
    <glyph glyph-name="eacute" unicode="&#xe9;" horiz-adv-x="999" 
d="M530 186q126 0 166 129l234 -79q-35 -136 -144.5 -198.5t-261.5 -62.5q-206 0 -331 129.5t-125 354.5q0 243 122.5 376.5t337.5 133.5q195 0 297.5 -115t102.5 -305q0 -60 -13 -123h-583q5 -111 55.5 -175.5t142.5 -64.5zM340 578h326q2 12 2 32q0 69 -39.5 112.5
t-110.5 43.5q-75 0 -122.5 -51.5t-55.5 -136.5zM610 1077h-250l144 314h344z" />
    <glyph glyph-name="ecircumflex" unicode="&#xea;" horiz-adv-x="999" 
d="M530 186q126 0 166 129l234 -79q-35 -136 -144.5 -198.5t-261.5 -62.5q-206 0 -331 129.5t-125 354.5q0 243 122.5 376.5t337.5 133.5q195 0 297.5 -115t102.5 -305q0 -60 -13 -123h-583q5 -111 55.5 -175.5t142.5 -64.5zM340 578h326q2 12 2 32q0 69 -39.5 112.5
t-110.5 43.5q-75 0 -122.5 -51.5t-55.5 -136.5zM432 1399h172l277 -326h-252l-66 70q-17 19 -27.5 36t-11.5 24l-2 7h-8q-2 -24 -41 -67l-65 -70h-252z" />
    <glyph glyph-name="edieresis" unicode="&#xeb;" horiz-adv-x="999" 
d="M530 186q126 0 166 129l234 -79q-35 -136 -144.5 -198.5t-261.5 -62.5q-206 0 -331 129.5t-125 354.5q0 243 122.5 376.5t337.5 133.5q195 0 297.5 -115t102.5 -305q0 -60 -13 -123h-583q5 -111 55.5 -175.5t142.5 -64.5zM340 578h326q2 12 2 32q0 69 -39.5 112.5
t-110.5 43.5q-75 0 -122.5 -51.5t-55.5 -136.5zM145 1221q0 73 43.5 113t108.5 40q70 0 113 -39.5t43 -113.5q0 -72 -43.5 -113t-112.5 -41q-64 0 -108 41.5t-44 112.5zM592 1221q0 73 43 113t108 40q69 0 112.5 -39.5t43.5 -113.5q0 -73 -44 -113.5t-112 -40.5
q-64 0 -107.5 41t-43.5 113z" />
    <glyph glyph-name="igrave" unicode="&#xec;" horiz-adv-x="532" 
d="M401 1077h-247l-240 314h344zM129 946h274v-946h-274v946z" />
    <glyph glyph-name="iacute" unicode="&#xed;" horiz-adv-x="532" 
d="M379 1077h-250l143 314h344zM129 946h274v-946h-274v946z" />
    <glyph glyph-name="icircumflex" unicode="&#xee;" horiz-adv-x="532" 
d="M129 946h274v-946h-274v946zM180 1399h172l277 -326h-252l-66 70q-17 19 -27.5 36t-11.5 24l-2 7h-8q-2 -24 -41 -67l-65 -70h-252z" />
    <glyph glyph-name="idieresis" unicode="&#xef;" horiz-adv-x="532" 
d="M-117 1221q0 73 43.5 113t108.5 40q70 0 112.5 -39.5t42.5 -113.5q0 -72 -43 -113t-112 -41q-64 0 -108 41.5t-44 112.5zM330 1221q0 73 43 113t108 40q69 0 112.5 -39.5t43.5 -113.5q0 -73 -44 -113.5t-112 -40.5q-64 0 -107.5 41t-43.5 113zM129 946h274v-946h-274v946
z" />
    <glyph glyph-name="eth" unicode="&#xf0;" horiz-adv-x="1060" 
d="M229 991l-24 105l241 49q-40 33 -106.5 76t-116.5 69l273 101q141 -82 223 -162l217 51l35 -104l-172 -39q194 -253 194 -590q0 -285 -124 -424t-343 -139q-214 0 -336 122t-122 365q0 121 34.5 215t92 149t125.5 83t141 28q89 0 145 -30.5t101 -92.5h8q-33 77 -72 130
t-100 108zM719 463q0 137 -49 206.5t-142 69.5q-188 0 -188 -276q0 -270 190 -270q189 0 189 270z" />
    <glyph glyph-name="ntilde" unicode="&#xf1;" horiz-adv-x="1095" 
d="M362 946l33 -182q74 205 303 205q119 0 199 -74.5t80 -224.5v-670h-275v567q0 84 -28.5 128t-98.5 44q-75 0 -123.5 -50.5t-48.5 -168.5v-520h-274v946h233zM711 1067q-49 0 -79 10.5t-73 36.5q-7 4 -23 13t-21 12t-16.5 9t-17 7.5t-13.5 4.5t-14.5 4t-13.5 1
q-33 0 -51.5 -25t-11.5 -75h-152q-30 59 -27 116t27 102t71.5 73t106.5 28q69 0 140 -41q6 -3 17.5 -10.5t16 -10t14 -8t13.5 -7.5t11.5 -6t11.5 -5.5t10.5 -4t11 -3.5t10 -1.5t11.5 -0.5q66 0 53 94h160q54 -124 2.5 -218.5t-174.5 -94.5z" />
    <glyph glyph-name="ograve" unicode="&#xf2;" horiz-adv-x="1050" 
d="M526 -25q-210 0 -334 132t-124 368q0 237 123.5 365.5t334.5 128.5q210 0 333.5 -128.5t123.5 -365.5q0 -236 -124 -368t-333 -132zM526 750q-95 0 -141.5 -68t-46.5 -207q0 -148 45.5 -217.5t142.5 -69.5q96 0 141.5 70t45.5 217q0 275 -187 275zM668 1077h-248
l-240 314h344z" />
    <glyph glyph-name="oacute" unicode="&#xf3;" horiz-adv-x="1050" 
d="M526 -25q-210 0 -334 132t-124 368q0 237 123.5 365.5t334.5 128.5q210 0 333.5 -128.5t123.5 -365.5q0 -236 -124 -368t-333 -132zM526 750q-95 0 -141.5 -68t-46.5 -207q0 -148 45.5 -217.5t142.5 -69.5q96 0 141.5 70t45.5 217q0 275 -187 275zM633 1077h-250l143 314
h344z" />
    <glyph glyph-name="ocircumflex" unicode="&#xf4;" horiz-adv-x="1050" 
d="M526 -25q-210 0 -334 132t-124 368q0 237 123.5 365.5t334.5 128.5q210 0 333.5 -128.5t123.5 -365.5q0 -236 -124 -368t-333 -132zM526 750q-95 0 -141.5 -68t-46.5 -207q0 -148 45.5 -217.5t142.5 -69.5q96 0 141.5 70t45.5 217q0 275 -187 275zM440 1399h172l277 -326
h-252l-66 70q-17 19 -27.5 36t-11.5 24l-2 7h-8q-2 -24 -41 -67l-65 -70h-252z" />
    <glyph glyph-name="otilde" unicode="&#xf5;" horiz-adv-x="1050" 
d="M526 -25q-210 0 -334 132t-124 368q0 237 123.5 365.5t334.5 128.5q210 0 333.5 -128.5t123.5 -365.5q0 -236 -124 -368t-333 -132zM526 750q-95 0 -141.5 -68t-46.5 -207q0 -148 45.5 -217.5t142.5 -69.5q96 0 141.5 70t45.5 217q0 275 -187 275zM684 1067
q-49 0 -79 10.5t-73 36.5q-8 5 -26 15t-24 13t-18 9.5t-18.5 8t-15 3.5t-16.5 2q-33 0 -52 -25t-12 -75h-151q-30 59 -27 116t27 102t71.5 73t106.5 28q68 0 139 -41q6 -3 17.5 -10.5t16 -10t14 -8t13.5 -7.5t11.5 -6t11.5 -5.5t10.5 -4t11 -3.5t10 -1.5t11.5 -0.5
q66 0 53 94h160q54 -124 2.5 -218.5t-174.5 -94.5z" />
    <glyph glyph-name="odieresis" unicode="&#xf6;" horiz-adv-x="1050" 
d="M526 -25q-210 0 -334 132t-124 368q0 237 123.5 365.5t334.5 128.5q210 0 333.5 -128.5t123.5 -365.5q0 -236 -124 -368t-333 -132zM526 750q-95 0 -141.5 -68t-46.5 -207q0 -148 45.5 -217.5t142.5 -69.5q96 0 141.5 70t45.5 217q0 275 -187 275zM143 1221
q0 73 43.5 113t108.5 40q70 0 113 -39.5t43 -113.5q0 -72 -43.5 -113t-112.5 -41q-64 0 -108 41.5t-44 112.5zM590 1221q0 73 43 113t108 40q69 0 112.5 -39.5t43.5 -113.5q0 -73 -44 -113.5t-112 -40.5q-64 0 -107.5 41t-43.5 113z" />
    <glyph glyph-name="divide" unicode="&#xf7;" horiz-adv-x="1019" 
d="M928 432h-836v152h836v-152zM387 174q0 48 33 82.5t80 34.5t81.5 -35t34.5 -82q0 -46 -34.5 -79.5t-81.5 -33.5t-80 33.5t-33 79.5zM387 829q0 49 33 83t80 34q48 0 82 -34t34 -83q0 -47 -34 -79.5t-82 -32.5q-47 0 -80 32.5t-33 79.5z" />
    <glyph glyph-name="oslash" unicode="&#xf8;" horiz-adv-x="1050" 
d="M150 -31l-91 84l95 101q-86 128 -86 321q0 237 123.5 365.5t334.5 128.5q174 0 295 -95l88 97l97 -84l-101 -107q78 -127 78 -305q0 -236 -124 -368t-333 -132q-171 0 -288 88zM526 750q-95 0 -141.5 -68t-46.5 -207q0 -69 8 -113l309 334q-48 54 -129 54zM713 475
q0 49 -6 90l-308 -327q47 -50 127 -50q96 0 141.5 70t45.5 217z" />
    <glyph glyph-name="ugrave" unicode="&#xf9;" horiz-adv-x="1087" 
d="M721 0l-33 176q-26 -100 -96 -150.5t-197 -50.5q-133 0 -208.5 74t-75.5 232v665h274v-588q0 -88 30.5 -132t98.5 -44q76 0 123 63t47 193v508h274v-946h-237zM676 1077h-248l-240 314h344z" />
    <glyph glyph-name="uacute" unicode="&#xfa;" horiz-adv-x="1087" 
d="M721 0l-33 176q-26 -100 -96 -150.5t-197 -50.5q-133 0 -208.5 74t-75.5 232v665h274v-588q0 -88 30.5 -132t98.5 -44q76 0 123 63t47 193v508h274v-946h-237zM641 1077h-250l144 314h344z" />
    <glyph glyph-name="ucircumflex" unicode="&#xfb;" horiz-adv-x="1087" 
d="M721 0l-33 176q-26 -100 -96 -150.5t-197 -50.5q-133 0 -208.5 74t-75.5 232v665h274v-588q0 -88 30.5 -132t98.5 -44q76 0 123 63t47 193v508h274v-946h-237zM449 1399h172l276 -326h-252l-65 70q-17 19 -27.5 36t-12.5 24l-1 7h-9q-2 -24 -41 -67l-65 -70h-252z" />
    <glyph glyph-name="udieresis" unicode="&#xfc;" horiz-adv-x="1087" 
d="M721 0l-33 176q-26 -100 -96 -150.5t-197 -50.5q-133 0 -208.5 74t-75.5 232v665h274v-588q0 -88 30.5 -132t98.5 -44q76 0 123 63t47 193v508h274v-946h-237zM152 1221q0 73 43 113t108 40q70 0 113 -39.5t43 -113.5q0 -72 -43.5 -113t-112.5 -41q-64 0 -107.5 41.5
t-43.5 112.5zM598 1221q0 73 43.5 113t108.5 40q69 0 112 -39.5t43 -113.5q0 -73 -43.5 -113.5t-111.5 -40.5q-65 0 -108.5 41t-43.5 113z" />
    <glyph glyph-name="yacute" unicode="&#xfd;" horiz-adv-x="991" 
d="M303 946l123 -430q24 -83 40.5 -159t21.5 -111l4 -35h8q12 121 67 303l131 432h289l-375 -1030q-31 -87 -67.5 -148t-74 -99t-85.5 -59t-95 -28.5t-110 -7.5q-72 0 -170 23l41 241q58 -33 125 -33q66 0 107.5 32.5t70.5 109.5l-350 999h299zM604 1077h-250l144 314h344z
" />
    <glyph glyph-name="thorn" unicode="&#xfe;" 
d="M401 518v-131q0 -58 16.5 -101.5t44 -67t58 -35t62.5 -11.5q93 0 154 77.5t61 221.5q0 279 -197 279q-81 0 -140 -62t-59 -170zM403 125v-541h-274v1784h274v-600q36 104 117 152.5t189 48.5q173 0 268.5 -123.5t95.5 -349.5q0 -237 -108 -379t-297 -142
q-104 0 -173.5 43t-91.5 107z" />
    <glyph glyph-name="ydieresis" unicode="&#xff;" horiz-adv-x="991" 
d="M303 946l123 -430q24 -83 40.5 -159t21.5 -111l4 -35h8q12 121 67 303l131 432h289l-375 -1030q-31 -87 -67.5 -148t-74 -99t-85.5 -59t-95 -28.5t-110 -7.5q-72 0 -170 23l41 241q58 -33 125 -33q66 0 107.5 32.5t70.5 109.5l-350 999h299zM117 1221q0 73 43 113t108 40
q70 0 113 -39.5t43 -113.5q0 -72 -43.5 -113t-112.5 -41q-64 0 -107.5 41.5t-43.5 112.5zM563 1221q0 73 43.5 113t108.5 40q69 0 112 -39.5t43 -113.5q0 -73 -43.5 -113.5t-111.5 -40.5q-65 0 -108.5 41t-43.5 113z" />
    <glyph glyph-name="Amacron" unicode="&#x100;" horiz-adv-x="1261" 
d="M942 0l-88 252h-457l-86 -252h-291l437 1206h344l440 -1206h-299zM522 621l-47 -138h297l-49 135q-31 88 -54.5 174.5t-31.5 128.5l-8 42h-8q-31 -147 -99 -342zM934 1360h-617v221h617v-221z" />
    <glyph glyph-name="amacron" unicode="&#x101;" horiz-adv-x="1026" 
d="M592 297v96q-139 4 -199.5 -29t-60.5 -100q0 -42 27.5 -68t76.5 -26q62 0 109 31.5t47 95.5zM862 655v-368q0 -86 70 -86q28 0 59 14v-199q-53 -34 -155 -34q-181 0 -226 149q-57 -156 -274 -156q-127 0 -203 70t-76 191q0 161 133 240.5t402 64.5v90q0 131 -111 131
q-113 0 -119 -139l-272 51q10 145 120.5 220t281.5 75q179 0 274.5 -79t95.5 -235zM793 1104h-603v221h603v-221z" />
    <glyph glyph-name="Abreve" unicode="&#x102;" horiz-adv-x="1261" 
d="M942 0l-88 252h-457l-86 -252h-291l437 1206h344l440 -1206h-299zM522 621l-47 -138h297l-49 135q-31 88 -54.5 174.5t-31.5 128.5l-8 42h-8q-31 -147 -99 -342zM625 1315q-156 0 -232 80.5t-76 224.5h203q2 -58 25.5 -85.5t79.5 -27.5q57 0 79.5 27t24.5 86h203
q0 -144 -75.5 -224.5t-231.5 -80.5z" />
    <glyph glyph-name="abreve" unicode="&#x103;" horiz-adv-x="1026" 
d="M592 297v96q-139 4 -199.5 -29t-60.5 -100q0 -42 27.5 -68t76.5 -26q62 0 109 31.5t47 95.5zM862 655v-368q0 -86 70 -86q28 0 59 14v-199q-53 -34 -155 -34q-181 0 -226 149q-57 -156 -274 -156q-127 0 -203 70t-76 191q0 161 133 240.5t402 64.5v90q0 131 -111 131
q-113 0 -119 -139l-272 51q10 145 120.5 220t281.5 75q179 0 274.5 -79t95.5 -235zM494 1065q-154 0 -231 90t-77 234h203q2 -65 23.5 -96t81.5 -31q61 0 81.5 30.5t22.5 96.5h203q0 -144 -76.5 -234t-230.5 -90z" />
    <glyph glyph-name="Aogonek" unicode="&#x104;" horiz-adv-x="1261" 
d="M662 -203q0 62 23 112.5t62.5 83.5t79.5 53.5t86 33.5l-59 172h-457l-86 -252h-291l437 1206h344l440 -1206h-168q-82 0 -136 -39.5t-54 -110.5q0 -50 27.5 -77t74.5 -27q71 0 133 59l60 -137q-90 -100 -254 -100q-111 0 -186.5 56.5t-75.5 172.5zM522 621l-47 -138h297
l-49 135q-31 88 -54.5 174.5t-31.5 128.5l-8 42h-8q-31 -147 -99 -342z" />
    <glyph glyph-name="aogonek" unicode="&#x105;" horiz-adv-x="1026" 
d="M508 -203q0 86 46.5 146.5t117.5 93.5q-38 20 -62 94q-57 -156 -274 -156q-127 0 -203 70t-76 191q0 161 133 240.5t402 64.5v90q0 131 -111 131q-113 0 -119 -139l-272 51q10 145 120.5 220t281.5 75q179 0 274.5 -79t95.5 -235v-368q0 -86 70 -86q28 0 59 14v-199
q-127 -25 -176 -50q-84 -42 -84 -116q0 -50 26.5 -77t73.5 -27q75 0 134 59l59 -137q-87 -100 -254 -100q-111 0 -186.5 56.5t-75.5 172.5zM592 297v96q-139 4 -199.5 -29t-60.5 -100q0 -42 27.5 -68t76.5 -26q62 0 109 31.5t47 95.5z" />
    <glyph glyph-name="Cacute" unicode="&#x106;" horiz-adv-x="1200" 
d="M920 393l235 -141q-84 -144 -203 -210.5t-315 -66.5q-251 0 -402 166.5t-151 462.5q0 299 156 463t434 164q352 0 491 -305l-268 -131q-29 94 -84 142t-149 48q-137 0 -215 -103t-78 -284t75 -279t222 -98q174 0 252 172zM776 1325h-252l131 293h344z" />
    <glyph glyph-name="cacute" unicode="&#x107;" horiz-adv-x="962" 
d="M682 332l242 -78q-25 -137 -133.5 -208t-266.5 -71q-209 0 -332.5 130.5t-123.5 363.5q0 234 124.5 367t333.5 133q168 0 270 -84.5t113 -227.5l-231 -63q-22 160 -154 160q-91 0 -140.5 -75t-49.5 -206q0 -135 51 -211t143 -76q121 0 154 146zM645 1077h-250l144 314
h344z" />
    <glyph glyph-name="Ccircumflex" unicode="&#x108;" horiz-adv-x="1200" 
d="M920 393l235 -141q-84 -144 -203 -210.5t-315 -66.5q-251 0 -402 166.5t-151 462.5q0 299 156 463t434 164q352 0 491 -305l-268 -131q-29 94 -84 142t-149 48q-137 0 -215 -103t-78 -284t75 -279t222 -98q174 0 252 172zM578 1622h174l274 -297h-254l-63 64
q-16 16 -26 31.5t-13 22.5l-2 7h-9q-6 -24 -41 -61l-61 -64h-256z" />
    <glyph glyph-name="ccircumflex" unicode="&#x109;" horiz-adv-x="962" 
d="M682 332l242 -78q-25 -137 -133.5 -208t-266.5 -71q-209 0 -332.5 130.5t-123.5 363.5q0 234 124.5 367t333.5 133q168 0 270 -84.5t113 -227.5l-231 -63q-22 160 -154 160q-91 0 -140.5 -75t-49.5 -206q0 -135 51 -211t143 -76q121 0 154 146zM436 1399h172l277 -326
h-252l-66 70q-17 19 -27.5 36t-11.5 24l-2 7h-8q-2 -24 -41 -67l-65 -70h-252z" />
    <glyph glyph-name="Cdotaccent" unicode="&#x10a;" horiz-adv-x="1200" 
d="M920 393l235 -141q-84 -144 -203 -210.5t-315 -66.5q-251 0 -402 166.5t-151 462.5q0 299 156 463t434 164q352 0 491 -305l-268 -131q-29 94 -84 142t-149 48q-137 0 -215 -103t-78 -284t75 -279t222 -98q174 0 252 172zM481 1481q0 75 47 117t119 42q76 0 124 -41.5
t48 -117.5q0 -73 -48 -114.5t-124 -41.5q-72 0 -119 41.5t-47 114.5z" />
    <glyph glyph-name="cdotaccent" unicode="&#x10b;" horiz-adv-x="962" 
d="M682 332l242 -78q-25 -137 -133.5 -208t-266.5 -71q-209 0 -332.5 130.5t-123.5 363.5q0 234 124.5 367t333.5 133q168 0 270 -84.5t113 -227.5l-231 -63q-22 160 -154 160q-91 0 -140.5 -75t-49.5 -206q0 -135 51 -211t143 -76q121 0 154 146zM354 1217q0 75 47.5 117
t118.5 42q77 0 124.5 -41.5t47.5 -117.5q0 -73 -47.5 -114.5t-124.5 -41.5q-71 0 -118.5 42t-47.5 114z" />
    <glyph glyph-name="Ccaron" unicode="&#x10c;" horiz-adv-x="1200" 
d="M920 393l235 -141q-84 -144 -203 -210.5t-315 -66.5q-251 0 -402 166.5t-151 462.5q0 299 156 463t434 164q352 0 491 -305l-268 -131q-29 94 -84 142t-149 48q-137 0 -215 -103t-78 -284t75 -279t222 -98q174 0 252 172zM731 1323h-174l-276 297h256l61 -64
q16 -16 26 -31.5t12 -22.5l3 -7h8q6 24 41 61l64 64h254z" />
    <glyph glyph-name="ccaron" unicode="&#x10d;" horiz-adv-x="962" 
d="M682 332l242 -78q-25 -137 -133.5 -208t-266.5 -71q-209 0 -332.5 130.5t-123.5 363.5q0 234 124.5 367t333.5 133q168 0 270 -84.5t113 -227.5l-231 -63q-22 160 -154 160q-91 0 -140.5 -75t-49.5 -206q0 -135 51 -211t143 -76q121 0 154 146zM614 1073h-172l-276 326
h252l65 -72q17 -19 27.5 -36t11.5 -24l2 -7h8q2 24 41 67l66 72h252z" />
    <glyph glyph-name="Dcaron" unicode="&#x10e;" horiz-adv-x="1273" 
d="M436 236h121q170 0 256 83.5t86 280.5q0 105 -22.5 178.5t-66.5 115t-101.5 59.5t-135.5 18h-137v-735zM584 0h-426v1206h444q129 0 233.5 -33.5t185 -102t125 -184t44.5 -270.5q0 -163 -45.5 -284t-128.5 -192t-190.5 -105.5t-241.5 -34.5zM678 1323h-174l-277 297h256
l62 -64q16 -16 26 -31.5t13 -22.5l2 -7h8q6 24 41 61l63 64h254z" />
    <glyph glyph-name="dcaron" unicode="&#x10f;" 
d="M1440 1417l-119 -364h-195l31 364h283zM739 393v176q0 98 -53.5 147.5t-130.5 49.5q-91 0 -152 -72.5t-61 -228.5q0 -132 55.5 -205.5t153.5 -73.5q76 0 132 55t56 152zM737 821v547h275v-1368h-238l-35 164q-46 -189 -295 -189q-163 0 -269.5 126.5t-106.5 351.5
q0 244 110 380t311 136q92 0 160.5 -40.5t87.5 -107.5z" />
    <glyph glyph-name="Dcroat" unicode="&#x110;" horiz-adv-x="1273" 
d="M584 0h-426v496h-133v225h133v485h444q129 0 233.5 -33.5t185 -102t125 -184t44.5 -270.5q0 -163 -45.5 -284t-128.5 -192t-190.5 -105.5t-241.5 -34.5zM436 236h121q170 0 256 83.5t86 280.5q0 105 -22.5 178.5t-66.5 115t-101.5 59.5t-135.5 18h-137v-250h191v-225
h-191v-260z" />
    <glyph glyph-name="dcroat" unicode="&#x111;" 
d="M449 1063v166h288v139h275v-139h143v-166h-143v-1063h-238l-35 164q-46 -189 -295 -189q-163 0 -269.5 126.5t-106.5 351.5q0 244 110 380t311 136q92 0 160.5 -40.5t87.5 -107.5v242h-288zM739 393v176q0 98 -53.5 147.5t-130.5 49.5q-91 0 -152 -72.5t-61 -228.5
q0 -132 55.5 -205.5t153.5 -73.5q76 0 132 55t56 152z" />
    <glyph glyph-name="Emacron" unicode="&#x112;" horiz-adv-x="1069" 
d="M967 242v-242h-809v1206h809v-241h-531v-240h467v-231h-467v-252h531zM870 1360h-616v221h616v-221z" />
    <glyph glyph-name="emacron" unicode="&#x113;" horiz-adv-x="999" 
d="M530 186q126 0 166 129l234 -79q-35 -136 -144.5 -198.5t-261.5 -62.5q-206 0 -331 129.5t-125 354.5q0 243 122.5 376.5t337.5 133.5q195 0 297.5 -115t102.5 -305q0 -60 -13 -123h-583q5 -111 55.5 -175.5t142.5 -64.5zM340 578h326q2 12 2 32q0 69 -39.5 112.5
t-110.5 43.5q-75 0 -122.5 -51.5t-55.5 -136.5zM811 1104h-602v221h602v-221z" />
    <glyph glyph-name="Ebreve" unicode="&#x114;" horiz-adv-x="1069" 
d="M967 242v-242h-809v1206h809v-241h-531v-240h467v-231h-467v-252h531zM545 1315q-156 0 -231.5 80.5t-75.5 224.5h202q2 -58 25.5 -85.5t79.5 -27.5q57 0 79.5 27t24.5 86h203q0 -144 -75.5 -224.5t-231.5 -80.5z" />
    <glyph glyph-name="ebreve" unicode="&#x115;" horiz-adv-x="999" 
d="M530 186q126 0 166 129l234 -79q-35 -136 -144.5 -198.5t-261.5 -62.5q-206 0 -331 129.5t-125 354.5q0 243 122.5 376.5t337.5 133.5q195 0 297.5 -115t102.5 -305q0 -60 -13 -123h-583q5 -111 55.5 -175.5t142.5 -64.5zM340 578h326q2 12 2 32q0 69 -39.5 112.5
t-110.5 43.5q-75 0 -122.5 -51.5t-55.5 -136.5zM516 1065q-154 0 -230.5 90t-76.5 234h203q2 -65 23 -96t81 -31q61 0 82 30.5t23 96.5h202q0 -144 -76.5 -234t-230.5 -90z" />
    <glyph glyph-name="Edotaccent" unicode="&#x116;" horiz-adv-x="1069" 
d="M967 242v-242h-809v1206h809v-241h-531v-240h467v-231h-467v-252h531zM393 1479q0 75 47 117t119 42q76 0 124 -41.5t48 -117.5q0 -73 -48 -114.5t-124 -41.5q-72 0 -119 41.5t-47 114.5z" />
    <glyph glyph-name="edotaccent" unicode="&#x117;" horiz-adv-x="999" 
d="M530 186q126 0 166 129l234 -79q-35 -136 -144.5 -198.5t-261.5 -62.5q-206 0 -331 129.5t-125 354.5q0 243 122.5 376.5t337.5 133.5q195 0 297.5 -115t102.5 -305q0 -60 -13 -123h-583q5 -111 55.5 -175.5t142.5 -64.5zM340 578h326q2 12 2 32q0 69 -39.5 112.5
t-110.5 43.5q-75 0 -122.5 -51.5t-55.5 -136.5zM336 1217q0 75 47.5 117t118.5 42q77 0 124.5 -41.5t47.5 -117.5q0 -73 -47.5 -114.5t-124.5 -41.5q-71 0 -118.5 42t-47.5 114z" />
    <glyph glyph-name="Eogonek" unicode="&#x118;" horiz-adv-x="1069" 
d="M967 242v-242h-72q-89 0 -133.5 -37t-44.5 -106q0 -54 27.5 -82.5t74.5 -28.5q71 0 133 59l60 -137q-90 -100 -254 -100q-111 0 -186.5 56.5t-75.5 172.5q0 133 129 203h-467v1206h809v-241h-531v-240h467v-231h-467v-252h531z" />
    <glyph glyph-name="eogonek" unicode="&#x119;" horiz-adv-x="999" 
d="M362 -203q0 111 74 185q-169 27 -268.5 152t-99.5 325q0 243 122.5 376.5t337.5 133.5q195 0 297.5 -115t102.5 -305q0 -60 -13 -123h-583q5 -111 55.5 -175.5t142.5 -64.5q126 0 166 129l234 -79q-43 -168 -221 -232q-67 -24 -96 -59t-29 -86q0 -55 27.5 -84t74.5 -29
q71 0 133 59l60 -137q-90 -100 -254 -100q-111 0 -187 56.5t-76 172.5zM340 578h326q2 12 2 32q0 69 -39.5 112.5t-110.5 43.5q-75 0 -122.5 -51.5t-55.5 -136.5z" />
    <glyph glyph-name="Ecaron" unicode="&#x11a;" horiz-adv-x="1069" 
d="M967 242v-242h-809v1206h809v-241h-531v-240h467v-231h-467v-252h531zM635 1323h-174l-277 297h256l62 -64q16 -16 26 -31.5t12 -22.5l3 -7h8q6 24 41 61l63 64h254z" />
    <glyph glyph-name="ecaron" unicode="&#x11b;" horiz-adv-x="999" 
d="M530 186q126 0 166 129l234 -79q-35 -136 -144.5 -198.5t-261.5 -62.5q-206 0 -331 129.5t-125 354.5q0 243 122.5 376.5t337.5 133.5q195 0 297.5 -115t102.5 -305q0 -60 -13 -123h-583q5 -111 55.5 -175.5t142.5 -64.5zM340 578h326q2 12 2 32q0 69 -39.5 112.5
t-110.5 43.5q-75 0 -122.5 -51.5t-55.5 -136.5zM602 1073h-172l-276 326h252l65 -72q17 -19 27.5 -36t11.5 -24l2 -7h8q2 24 41 67l66 72h252z" />
    <glyph glyph-name="Gcircumflex" unicode="&#x11c;" horiz-adv-x="1288" 
d="M651 643h520v-643h-172l-45 135q-45 -80 -131 -120t-200 -40q-119 0 -216.5 38.5t-170 113.5t-112.5 195t-40 276q0 301 156 467t434 166q179 0 304.5 -79t186.5 -226l-268 -131q-58 190 -233 190q-41 0 -80 -11t-78.5 -39.5t-68.5 -71.5t-47.5 -112.5t-18.5 -156.5
q0 -84 16.5 -153t50.5 -123.5t92.5 -84.5t137.5 -30q117 0 177 49t60 129v41h-254v221zM592 1622h174l274 -297h-254l-63 64q-16 16 -26 31.5t-13 22.5l-2 7h-8q-6 -24 -41 -61l-62 -64h-256z" />
    <glyph glyph-name="gcircumflex" unicode="&#x11d;" horiz-adv-x="1028" 
d="M492 969q160 0 268 -60q29 29 42 56.5t29 87.5l216 -72q-7 -64 -57.5 -111.5t-115.5 -66.5q44 -68 44 -168q0 -106 -59 -181t-155.5 -110t-220.5 -35q-77 0 -114 13q-45 -27 -45 -78q0 -26 19.5 -42t55.5 -16h271q157 0 245.5 -76.5t88.5 -201.5q0 -78 -31.5 -138.5
t-83.5 -98t-125 -61.5t-148 -33t-161 -9q-93 0 -168.5 12t-139.5 38t-99.5 73.5t-35.5 113.5q0 173 250 191q-68 4 -110.5 53.5t-42.5 114.5q0 60 40 112t119 74q-100 39 -148 106.5t-48 178.5q0 161 113.5 247.5t306.5 86.5zM264 -141q0 -109 221 -109q141 0 202 26.5
t61 84.5q0 43 -27.5 61.5t-89.5 18.5h-234q-61 0 -97 -21t-36 -61zM348 635q0 -65 37 -105.5t107 -40.5t107.5 37.5t37.5 108.5q0 147 -145 147q-144 -3 -144 -147zM444 1415h172l277 -325h-252l-66 69q-17 19 -27 36t-12 25l-1 7h-9q-2 -25 -41 -68l-65 -69h-252z" />
    <glyph glyph-name="Gbreve" unicode="&#x11e;" horiz-adv-x="1288" 
d="M651 643h520v-643h-172l-45 135q-45 -80 -131 -120t-200 -40q-119 0 -216.5 38.5t-170 113.5t-112.5 195t-40 276q0 301 156 467t434 166q179 0 304.5 -79t186.5 -226l-268 -131q-58 190 -233 190q-41 0 -80 -11t-78.5 -39.5t-68.5 -71.5t-47.5 -112.5t-18.5 -156.5
q0 -84 16.5 -153t50.5 -123.5t92.5 -84.5t137.5 -30q117 0 177 49t60 129v41h-254v221zM676 1315q-156 0 -231.5 80.5t-75.5 224.5h202q2 -58 25.5 -85.5t79.5 -27.5q57 0 79.5 27t24.5 86h203q0 -144 -75.5 -224.5t-231.5 -80.5z" />
    <glyph glyph-name="gbreve" unicode="&#x11f;" horiz-adv-x="1028" 
d="M492 969q160 0 268 -60q29 29 42 56.5t29 87.5l216 -72q-7 -64 -57.5 -111.5t-115.5 -66.5q44 -68 44 -168q0 -106 -59 -181t-155.5 -110t-220.5 -35q-77 0 -114 13q-45 -27 -45 -78q0 -26 19.5 -42t55.5 -16h271q157 0 245.5 -76.5t88.5 -201.5q0 -78 -31.5 -138.5
t-83.5 -98t-125 -61.5t-148 -33t-161 -9q-93 0 -168.5 12t-139.5 38t-99.5 73.5t-35.5 113.5q0 173 250 191q-68 4 -110.5 53.5t-42.5 114.5q0 60 40 112t119 74q-100 39 -148 106.5t-48 178.5q0 161 113.5 247.5t306.5 86.5zM264 -141q0 -109 221 -109q141 0 202 26.5
t61 84.5q0 43 -27.5 61.5t-89.5 18.5h-234q-61 0 -97 -21t-36 -61zM348 635q0 -65 37 -105.5t107 -40.5t107.5 37.5t37.5 108.5q0 147 -145 147q-144 -3 -144 -147zM500 1065q-154 0 -230.5 90t-76.5 234h202q2 -65 23.5 -96t81.5 -31q61 0 81.5 30.5t22.5 96.5h203
q0 -144 -76.5 -234t-230.5 -90z" />
    <glyph glyph-name="Gdotaccent" unicode="&#x120;" horiz-adv-x="1288" 
d="M651 643h520v-643h-172l-45 135q-45 -80 -131 -120t-200 -40q-119 0 -216.5 38.5t-170 113.5t-112.5 195t-40 276q0 301 156 467t434 166q179 0 304.5 -79t186.5 -226l-268 -131q-58 190 -233 190q-41 0 -80 -11t-78.5 -39.5t-68.5 -71.5t-47.5 -112.5t-18.5 -156.5
q0 -84 16.5 -153t50.5 -123.5t92.5 -84.5t137.5 -30q117 0 177 49t60 129v41h-254v221zM508 1489q0 75 47 117.5t119 42.5q76 0 124 -42t48 -118q0 -73 -48 -114.5t-124 -41.5q-72 0 -119 41.5t-47 114.5z" />
    <glyph glyph-name="gdotaccent" unicode="&#x121;" horiz-adv-x="1028" 
d="M492 969q160 0 268 -60q29 29 42 56.5t29 87.5l216 -72q-7 -64 -57.5 -111.5t-115.5 -66.5q44 -68 44 -168q0 -106 -59 -181t-155.5 -110t-220.5 -35q-77 0 -114 13q-45 -27 -45 -78q0 -26 19.5 -42t55.5 -16h271q157 0 245.5 -76.5t88.5 -201.5q0 -78 -31.5 -138.5
t-83.5 -98t-125 -61.5t-148 -33t-161 -9q-93 0 -168.5 12t-139.5 38t-99.5 73.5t-35.5 113.5q0 173 250 191q-68 4 -110.5 53.5t-42.5 114.5q0 60 40 112t119 74q-100 39 -148 106.5t-48 178.5q0 161 113.5 247.5t306.5 86.5zM264 -141q0 -109 221 -109q141 0 202 26.5
t61 84.5q0 43 -27.5 61.5t-89.5 18.5h-234q-61 0 -97 -21t-36 -61zM348 635q0 -65 37 -105.5t107 -40.5t107.5 37.5t37.5 108.5q0 147 -145 147q-144 -3 -144 -147zM324 1221q0 75 47 117t118 42q77 0 125 -41.5t48 -117.5q0 -73 -48 -114.5t-125 -41.5q-70 0 -117.5 42
t-47.5 114z" />
    <glyph glyph-name="Gcommaaccent" unicode="&#x122;" horiz-adv-x="1288" 
d="M651 643h520v-643h-172l-45 135q-45 -80 -131 -120t-200 -40q-119 0 -216.5 38.5t-170 113.5t-112.5 195t-40 276q0 301 156 467t434 166q179 0 304.5 -79t186.5 -226l-268 -131q-58 190 -233 190q-41 0 -80 -11t-78.5 -39.5t-68.5 -71.5t-47.5 -112.5t-18.5 -156.5
q0 -84 16.5 -153t50.5 -123.5t92.5 -84.5t137.5 -30q117 0 177 49t60 129v41h-254v221zM850 -289q0 -233 -293 -233v92q69 2 102 19.5t33 60.5q-60 -11 -103.5 19t-43.5 93q0 65 40.5 99.5t102.5 34.5q71 0 116.5 -51t45.5 -134z" />
    <glyph glyph-name="gcommaaccent" unicode="&#x123;" horiz-adv-x="1028" 
d="M492 969q160 0 268 -60q29 29 42 56.5t29 87.5l216 -72q-7 -64 -57.5 -111.5t-115.5 -66.5q44 -68 44 -168q0 -106 -59 -181t-155.5 -110t-220.5 -35q-77 0 -114 13q-45 -27 -45 -78q0 -26 19.5 -42t55.5 -16h271q157 0 245.5 -76.5t88.5 -201.5q0 -78 -31.5 -138.5
t-83.5 -98t-125 -61.5t-148 -33t-161 -9q-93 0 -168.5 12t-139.5 38t-99.5 73.5t-35.5 113.5q0 173 250 191q-68 4 -110.5 53.5t-42.5 114.5q0 60 40 112t119 74q-100 39 -148 106.5t-48 178.5q0 161 113.5 247.5t306.5 86.5zM264 -141q0 -109 221 -109q141 0 202 26.5
t61 84.5q0 43 -27.5 61.5t-89.5 18.5h-234q-61 0 -97 -21t-36 -61zM348 635q0 -65 37 -105.5t107 -40.5t107.5 37.5t37.5 108.5q0 147 -145 147q-144 -3 -144 -147zM346 1251q0 234 293 234v-92q-69 -2 -102 -19.5t-33 -60.5q60 11 103.5 -19.5t43.5 -93.5q0 -65 -40 -99
t-103 -34q-71 0 -116.5 50.5t-45.5 133.5z" />
    <glyph glyph-name="Hcircumflex" unicode="&#x124;" horiz-adv-x="1335" 
d="M436 0h-278v1206h278v-473h463v473h279v-1206h-279v492h-463v-492zM582 1622h174l274 -297h-254l-63 64q-16 16 -26 31.5t-13 22.5l-2 7h-8q-6 -24 -41 -61l-62 -64h-256z" />
    <glyph glyph-name="hcircumflex" unicode="&#x125;" horiz-adv-x="1095" 
d="M403 1368v-602q72 203 295 203q119 0 199 -74.5t80 -224.5v-670h-275v567q0 84 -28.5 128t-98.5 44q-75 0 -123.5 -50.5t-48.5 -166.5v-522h-274v1368h274zM190 1749h175l274 -297h-254l-63 64q-16 16 -26 31.5t-12 22.5l-3 7h-9q-6 -24 -41 -61l-61 -64h-256z" />
    <glyph glyph-name="Hbar" unicode="&#x126;" horiz-adv-x="1357" 
d="M14 844v213h154v149h278v-149h465v149h277v-149h155v-213h-155v-844h-277v475h-465v-475h-278v844h-154zM446 698h465v146h-465v-146z" />
    <glyph glyph-name="hbar" unicode="&#x127;" horiz-adv-x="1095" 
d="M403 1368v-139h285v-166h-285v-297q72 203 295 203q119 0 199 -74.5t80 -224.5v-670h-275v567q0 84 -28.5 128t-98.5 44q-75 0 -123.5 -50.5t-48.5 -166.5v-522h-274v1063h-147v166h147v139h274z" />
    <glyph glyph-name="Itilde" unicode="&#x128;" horiz-adv-x="593" 
d="M158 1206h278v-1206h-278v1206zM455 1329q-49 0 -79.5 10t-72.5 35q-51 30 -73.5 40.5t-45.5 10.5q-33 0 -51.5 -25t-11.5 -75h-152q-30 59 -27 117t27 103.5t71.5 73.5t106.5 28q66 0 140 -43q9 -5 27 -16t25 -14.5l20 -10t20 -9t16.5 -4.5t18.5 -2q32 0 46 21t7 73h160
q54 -124 2.5 -218.5t-174.5 -94.5z" />
    <glyph glyph-name="itilde" unicode="&#x129;" horiz-adv-x="532" 
d="M424 1067q-49 0 -79 10.5t-73 36.5q-8 5 -26 15t-24 13t-18 9.5t-18.5 8t-15 3.5t-16.5 2q-33 0 -52 -25t-12 -75h-151q-30 59 -27 116t27 102t71.5 73t106.5 28q68 0 139 -41q6 -3 17.5 -10.5t16 -10t14 -8t13.5 -7.5t11.5 -6t11.5 -5.5t10.5 -4t11 -3.5t10 -1.5
t11.5 -0.5q66 0 53 94h160q54 -124 2.5 -218.5t-174.5 -94.5zM129 946h274v-946h-274v946z" />
    <glyph glyph-name="Imacron" unicode="&#x12a;" horiz-adv-x="593" 
d="M158 1206h278v-1206h-278v1206zM604 1360h-616v221h616v-221z" />
    <glyph glyph-name="imacron" unicode="&#x12b;" horiz-adv-x="532" 
d="M530 1104h-530v221h530v-221zM129 946h274v-946h-274v946z" />
    <glyph glyph-name="Ibreve" unicode="&#x12c;" horiz-adv-x="593" 
d="M158 1206h278v-1206h-278v1206zM297 1315q-156 0 -231.5 80.5t-75.5 224.5h203q2 -58 25 -85.5t79 -27.5q57 0 79.5 27t24.5 86h203q0 -144 -75.5 -224.5t-231.5 -80.5z" />
    <glyph glyph-name="Iogonek" unicode="&#x12e;" horiz-adv-x="593" 
d="M23 -203q0 149 135 230v1179h278v-1206q-83 0 -136.5 -39.5t-53.5 -110.5q0 -50 26.5 -77t73.5 -27q71 0 133 59l60 -137q-87 -100 -254 -100q-111 0 -186.5 56.5t-75.5 172.5z" />
    <glyph glyph-name="iogonek" unicode="&#x12f;" horiz-adv-x="532" 
d="M-10 -203q0 151 139 232v917h274v-946q-83 0 -136.5 -39.5t-53.5 -110.5q0 -50 26.5 -77t73.5 -27q71 0 133 59l60 -137q-87 -100 -254 -100q-111 0 -186.5 56.5t-75.5 172.5zM100 1235q0 75 47 117.5t119 42.5q75 0 122.5 -42t47.5 -118q0 -73 -48 -114.5t-122 -41.5
q-72 0 -119 41.5t-47 114.5z" />
    <glyph glyph-name="Idotaccent" unicode="&#x130;" horiz-adv-x="593" 
d="M158 1206h278v-1206h-278v1206zM129 1483q0 75 47 117t119 42q76 0 124 -41.5t48 -117.5q0 -73 -48 -114.5t-124 -41.5q-72 0 -119 41.5t-47 114.5z" />
    <glyph glyph-name="dotlessi" unicode="&#x131;" horiz-adv-x="532" 
d="M129 946h274v-946h-274v946z" />
    <glyph glyph-name="IJ" unicode="&#x132;" horiz-adv-x="1523" 
d="M158 1206h278v-1206h-278v1206zM1120 1206h277v-856q0 -100 -33 -174t-92 -117t-133 -63.5t-164 -20.5q-295 0 -414 232l205 184q38 -95 86 -140.5t119 -45.5q82 0 115.5 47t33.5 147v807z" />
    <glyph glyph-name="ij" unicode="&#x133;" horiz-adv-x="1060" 
d="M100 1235q0 75 47 117.5t119 42.5q75 0 122.5 -42t47.5 -118q0 -73 -48 -114.5t-122 -41.5q-72 0 -119 41.5t-47 114.5zM129 946h274v-946h-274v946zM659 946h275v-936q0 -153 -69.5 -253.5t-189 -141.5t-280.5 -29v232q138 -20 201 29t63 206v893zM627 1235
q0 75 47 117.5t119 42.5q76 0 124 -42t48 -118q0 -73 -48 -114.5t-124 -41.5q-72 0 -119 41.5t-47 114.5z" />
    <glyph glyph-name="Jcircumflex" unicode="&#x134;" horiz-adv-x="960" 
d="M559 1206h277v-856q0 -100 -33 -174t-92 -117t-133 -63.5t-164 -20.5q-295 0 -414 232l205 184q38 -95 86 -140.5t119 -45.5q82 0 115.5 47t33.5 147v807zM604 1622h174l275 -297h-254l-64 64q-16 16 -26 31.5t-13 22.5l-2 7h-8q-6 -24 -41 -61l-61 -64h-256z" />
    <glyph glyph-name="jcircumflex" unicode="&#x135;" horiz-adv-x="530" 
d="M129 946h272v-936q0 -153 -69 -253.5t-188.5 -141.5t-280.5 -29v232q139 -20 202.5 29t63.5 206v893zM174 1399h172l277 -326h-252l-66 70q-17 19 -27.5 36t-11.5 24l-2 7h-8q-2 -24 -41 -67l-65 -70h-252z" />
    <glyph glyph-name="Kcommaaccent" unicode="&#x136;" horiz-adv-x="1189" 
d="M1165 0h-331l-326 492h-72v-492h-278v1206h278v-473h74l299 473h319l-380 -583zM758 -289q0 -233 -293 -233v92q69 2 102 19.5t33 60.5q-60 -11 -103.5 19t-43.5 93q0 65 40.5 99.5t102.5 34.5q71 0 116.5 -51t45.5 -134z" />
    <glyph glyph-name="kcommaaccent" unicode="&#x137;" horiz-adv-x="1062" 
d="M686 506l358 -506h-319l-266 389h-56v-389h-274v1368h274v-766h52l241 344h318zM700 -289q0 -233 -292 -233v92q69 2 102 19.5t33 60.5q-60 -11 -104 19t-44 93q0 65 41 99.5t103 34.5q71 0 116 -51t45 -134z" />
    <glyph glyph-name="kgreenlandic" unicode="&#x138;" horiz-adv-x="1062" 
d="M686 506l358 -506h-319l-266 389h-56v-389h-274v946h272v-344h54l241 344h318z" />
    <glyph glyph-name="Lacute" unicode="&#x139;" horiz-adv-x="964" 
d="M158 1206h278v-964h471v-242h-749v1206zM414 1325h-252l131 293h344z" />
    <glyph glyph-name="lacute" unicode="&#x13a;" horiz-adv-x="591" 
d="M545 236l-15 -230q-91 -24 -157 -24q-73 0 -129.5 22t-94.5 78t-38 141v1145h274v-1065q0 -82 86 -82q37 0 74 15zM373 1483h-252l131 293h344z" />
    <glyph glyph-name="Lcommaaccent" unicode="&#x13b;" horiz-adv-x="964" 
d="M158 1206h278v-964h471v-242h-749v1206zM705 -289q0 -233 -293 -233v92q69 2 102 19.5t33 60.5q-60 -11 -104 19t-44 93q0 65 41 99.5t103 34.5q71 0 116.5 -51t45.5 -134z" />
    <glyph glyph-name="lcommaaccent" unicode="&#x13c;" horiz-adv-x="591" 
d="M545 236l-15 -230q-91 -24 -157 -24q-73 0 -129.5 22t-94.5 78t-38 141v1145h274v-1065q0 -82 86 -82q37 0 74 15zM492 -289q0 -233 -293 -233v92q69 2 102 19.5t33 60.5q-60 -11 -104 19t-44 93q0 65 41 99.5t103 34.5q71 0 116.5 -51t45.5 -134z" />
    <glyph glyph-name="Lcaron" unicode="&#x13d;" horiz-adv-x="964" 
d="M158 1206h278v-964h471v-242h-749v1206zM944 1270l-119 -398h-194l31 398h282z" />
    <glyph glyph-name="lcaron" unicode="&#x13e;" horiz-adv-x="591" 
d="M813 1417l-117 -364h-196l30 364h283zM545 236l-15 -230q-91 -24 -157 -24q-73 0 -129.5 22t-94.5 78t-38 141v1145h274v-1065q0 -82 86 -82q37 0 74 15z" />
    <glyph glyph-name="Ldot" unicode="&#x13f;" horiz-adv-x="964" 
d="M158 1206h278v-964h471v-242h-749v1206zM547 692q0 76 50 128t122 52q78 0 129 -51.5t51 -128.5q0 -73 -51.5 -122.5t-128.5 -49.5q-72 0 -122 50t-50 122z" />
    <glyph glyph-name="ldot" unicode="&#x140;" horiz-adv-x="776" 
d="M545 236l-15 -230q-91 -24 -157 -24q-73 0 -129.5 22t-94.5 78t-38 141v1145h274v-1065q0 -82 86 -82q37 0 74 15zM473 670q0 76 50 128t122 52q78 0 129 -51.5t51 -128.5q0 -73 -51.5 -122.5t-128.5 -49.5q-72 0 -122 50t-50 122z" />
    <glyph glyph-name="Lslash" unicode="&#x141;" horiz-adv-x="991" 
d="M61 436v180l123 43v547h279v-448l274 98v-184l-274 -97v-333h471v-242h-750v479z" />
    <glyph glyph-name="lslash" unicode="&#x142;" horiz-adv-x="628" 
d="M8 489v199l129 64v616h275v-481l170 84v-197l-170 -84v-387q0 -82 86 -82q36 0 73 15l-14 -230q-91 -24 -158 -24q-73 0 -129.5 22t-94.5 78t-38 141v330z" />
    <glyph glyph-name="Nacute" unicode="&#x143;" horiz-adv-x="1384" 
d="M420 1206l426 -583q30 -41 55 -81.5t35 -60.5l10 -20h8q-6 102 -6 256v489h279v-1206h-254l-426 573q-35 45 -63.5 90t-39.5 67l-12 22h-8q12 -99 12 -273v-479h-278v1206h262zM801 1325h-252l131 293h344z" />
    <glyph glyph-name="nacute" unicode="&#x144;" horiz-adv-x="1095" 
d="M362 946l33 -182q74 205 303 205q119 0 199 -74.5t80 -224.5v-670h-275v567q0 84 -28.5 128t-98.5 44q-75 0 -123.5 -50.5t-48.5 -168.5v-520h-274v946h233zM662 1077h-250l143 314h344z" />
    <glyph glyph-name="Ncommaaccent" unicode="&#x145;" horiz-adv-x="1384" 
d="M420 1206l426 -583q30 -41 55 -81.5t35 -60.5l10 -20h8q-6 102 -6 256v489h279v-1206h-254l-426 573q-35 45 -63.5 90t-39.5 67l-12 22h-8q12 -99 12 -273v-479h-278v1206h262zM864 -289q0 -233 -293 -233v92q69 2 102.5 19.5t33.5 60.5q-60 -11 -104 19t-44 93
q0 65 40.5 99.5t102.5 34.5q71 0 116.5 -51t45.5 -134z" />
    <glyph glyph-name="ncommaaccent" unicode="&#x146;" horiz-adv-x="1095" 
d="M362 946l33 -182q74 205 303 205q119 0 199 -74.5t80 -224.5v-670h-275v567q0 84 -28.5 128t-98.5 44q-75 0 -123.5 -50.5t-48.5 -168.5v-520h-274v946h233zM709 -289q0 -233 -293 -233v92q69 2 102 19.5t33 60.5q-60 -11 -104 19t-44 93q0 65 41 99.5t103 34.5
q71 0 116.5 -51t45.5 -134z" />
    <glyph glyph-name="Ncaron" unicode="&#x147;" horiz-adv-x="1384" 
d="M420 1206l426 -583q30 -41 55 -81.5t35 -60.5l10 -20h8q-6 102 -6 256v489h279v-1206h-254l-426 573q-35 45 -63.5 90t-39.5 67l-12 22h-8q12 -99 12 -273v-479h-278v1206h262zM780 1323h-174l-276 297h256l61 -64q16 -16 26 -31.5t13 -22.5l2 -7h8q6 24 41 61l64 64h254
z" />
    <glyph glyph-name="ncaron" unicode="&#x148;" horiz-adv-x="1095" 
d="M362 946l33 -182q74 205 303 205q119 0 199 -74.5t80 -224.5v-670h-275v567q0 84 -28.5 128t-98.5 44q-75 0 -123.5 -50.5t-48.5 -168.5v-520h-274v946h233zM641 1073h-172l-276 326h251l66 -72q17 -19 27.5 -36t12.5 -24l1 -7h8q2 24 41 67l66 72h252z" />
    <glyph glyph-name="Eng" unicode="&#x14a;" horiz-adv-x="1384" 
d="M1227 1206v-1263q0 -83 -23.5 -148.5t-63 -107t-95 -69t-114.5 -39t-126 -11.5q-243 0 -381 145l151 226q35 -65 95.5 -102.5t120.5 -37.5q87 0 122 46.5t35 146.5v41l-401 540q-35 45 -63.5 90t-39.5 67l-12 22h-8q12 -99 12 -273v-479h-278v1206h262l426 -583
q30 -41 55 -81.5t35 -60.5l10 -20h8q-6 102 -6 256v489h279z" />
    <glyph glyph-name="eng" unicode="&#x14b;" horiz-adv-x="1095" 
d="M403 0h-274v946h233l33 -182q74 205 303 205q119 0 199 -74.5t80 -224.5v-660q0 -153 -69.5 -253.5t-189 -141.5t-280.5 -29v232q138 -20 201 29t63 206v514q0 84 -28.5 128t-98.5 44q-75 0 -123.5 -50.5t-48.5 -168.5v-520z" />
    <glyph glyph-name="Omacron" unicode="&#x14c;" horiz-adv-x="1312" 
d="M655 -25q-269 0 -420 163.5t-151 463.5q0 302 151 465.5t420 163.5q270 0 422 -163.5t152 -465.5q0 -300 -152.5 -463.5t-421.5 -163.5zM655 983q-139 0 -210.5 -101t-71.5 -284q0 -182 71 -282.5t211 -100.5t212.5 100.5t72.5 282.5q0 183 -72.5 284t-212.5 101z
M965 1360h-617v221h617v-221z" />
    <glyph glyph-name="omacron" unicode="&#x14d;" horiz-adv-x="1050" 
d="M526 -25q-210 0 -334 132t-124 368q0 237 123.5 365.5t334.5 128.5q210 0 333.5 -128.5t123.5 -365.5q0 -236 -124 -368t-333 -132zM526 750q-95 0 -141.5 -68t-46.5 -207q0 -148 45.5 -217.5t142.5 -69.5q96 0 141.5 70t45.5 217q0 275 -187 275zM827 1104h-602v221h602
v-221z" />
    <glyph glyph-name="Obreve" unicode="&#x14e;" horiz-adv-x="1312" 
d="M655 -25q-269 0 -420 163.5t-151 463.5q0 302 151 465.5t420 163.5q270 0 422 -163.5t152 -465.5q0 -300 -152.5 -463.5t-421.5 -163.5zM655 983q-139 0 -210.5 -101t-71.5 -284q0 -182 71 -282.5t211 -100.5t212.5 100.5t72.5 282.5q0 183 -72.5 284t-212.5 101z
M655 1315q-156 0 -231.5 80.5t-75.5 224.5h203q2 -58 25 -85.5t79 -27.5q58 0 80.5 27t24.5 86h203q0 -144 -76 -224.5t-232 -80.5z" />
    <glyph glyph-name="obreve" unicode="&#x14f;" horiz-adv-x="1050" 
d="M526 -25q-210 0 -334 132t-124 368q0 237 123.5 365.5t334.5 128.5q210 0 333.5 -128.5t123.5 -365.5q0 -236 -124 -368t-333 -132zM526 750q-95 0 -141.5 -68t-46.5 -207q0 -148 45.5 -217.5t142.5 -69.5q96 0 141.5 70t45.5 217q0 275 -187 275zM524 1065
q-154 0 -230.5 90t-76.5 234h203q2 -65 23 -96t81 -31q61 0 82 30.5t23 96.5h202q0 -144 -76.5 -234t-230.5 -90z" />
    <glyph glyph-name="Ohungarumlaut" unicode="&#x150;" horiz-adv-x="1312" 
d="M655 -25q-269 0 -420 163.5t-151 463.5q0 302 151 465.5t420 163.5q270 0 422 -163.5t152 -465.5q0 -300 -152.5 -463.5t-421.5 -163.5zM655 983q-139 0 -210.5 -101t-71.5 -284q0 -182 71 -282.5t211 -100.5t212.5 100.5t72.5 282.5q0 183 -72.5 284t-212.5 101z
M578 1325h-195l106 293h289zM936 1325h-213l143 293h308z" />
    <glyph glyph-name="ohungarumlaut" unicode="&#x151;" horiz-adv-x="1050" 
d="M526 -25q-210 0 -334 132t-124 368q0 237 123.5 365.5t334.5 128.5q210 0 333.5 -128.5t123.5 -365.5q0 -236 -124 -368t-333 -132zM526 750q-95 0 -141.5 -68t-46.5 -207q0 -148 45.5 -217.5t142.5 -69.5q96 0 141.5 70t45.5 217q0 275 -187 275zM440 1077h-194l106 314
h289zM799 1077h-213l143 314h307z" />
    <glyph glyph-name="OE" unicode="&#x152;" horiz-adv-x="1783" 
d="M655 -25q-269 0 -420 163.5t-151 463.5q0 302 151 465.5t420 163.5q100 0 189 -25h837v-241h-536q59 -100 74 -240h399v-231h-395q-14 -140 -78 -252h536v-242h-837q-89 -25 -189 -25zM655 983q-139 0 -209.5 -101t-70.5 -284t70 -283t210 -100t211.5 100.5t71.5 282.5
q0 183 -71.5 284t-211.5 101z" />
    <glyph glyph-name="oe" unicode="&#x153;" horiz-adv-x="1646" 
d="M1178 186q125 0 165 129l234 -79q-35 -136 -143.5 -198.5t-259.5 -62.5q-106 0 -191.5 38t-136.5 110q-92 -148 -320 -148q-210 0 -334 132t-124 368q0 237 123.5 365.5t334.5 128.5q227 0 324 -160q99 160 328 160q193 0 296 -115t103 -305q0 -55 -14 -123h-584
q5 -111 56 -175.5t143 -64.5zM526 750q-95 0 -141.5 -68t-46.5 -207q0 -148 45.5 -217.5t142.5 -69.5q96 0 141.5 70t45.5 217q0 275 -187 275zM987 578h326q2 12 2 32q0 68 -39 112t-109 44q-77 0 -124.5 -51.5t-55.5 -136.5z" />
    <glyph glyph-name="Racute" unicode="&#x154;" horiz-adv-x="1191" 
d="M1137 0h-310q-41 32 -63 125l-45 180q-18 73 -54 97t-110 24h-119v-426h-278v1206h475q213 0 325.5 -86.5t112.5 -281.5q0 -135 -71.5 -213t-192.5 -90v-5q85 -14 131.5 -54t69.5 -122l61 -225q20 -79 68 -129zM436 971v-316h178q86 0 129 37t43 121q0 158 -172 158h-178
zM678 1325h-252l131 293h344z" />
    <glyph glyph-name="racute" unicode="&#x155;" horiz-adv-x="806" 
d="M782 967l-30 -303q-47 16 -107 16q-45 0 -84.5 -12t-76.5 -38.5t-59 -77t-22 -120.5v-432h-274v946h238l32 -260q17 66 43 115.5t69.5 91t111.5 60.5t159 14zM561 1077h-250l144 314h344z" />
    <glyph glyph-name="Rcommaaccent" unicode="&#x156;" horiz-adv-x="1191" 
d="M1137 0h-310q-41 32 -63 125l-45 180q-18 73 -54 97t-110 24h-119v-426h-278v1206h475q213 0 325.5 -86.5t112.5 -281.5q0 -135 -71.5 -213t-192.5 -90v-5q85 -14 131.5 -54t69.5 -122l61 -225q20 -79 68 -129zM436 971v-316h178q86 0 129 37t43 121q0 158 -172 158h-178
zM741 -289q0 -233 -292 -233v92q69 2 102 19.5t33 60.5q-60 -11 -104 19t-44 93q0 65 41 99.5t103 34.5q71 0 116 -51t45 -134z" />
    <glyph glyph-name="rcommaaccent" unicode="&#x157;" horiz-adv-x="806" 
d="M782 967l-30 -303q-47 16 -107 16q-45 0 -84.5 -12t-76.5 -38.5t-59 -77t-22 -120.5v-432h-274v946h238l32 -260q17 66 43 115.5t69.5 91t111.5 60.5t159 14zM416 -289q0 -233 -293 -233v92q69 2 102 19.5t33 60.5q-60 -11 -103.5 19t-43.5 93q0 65 40.5 99.5t102.5 34.5
q71 0 116.5 -51t45.5 -134z" />
    <glyph glyph-name="Rcaron" unicode="&#x158;" horiz-adv-x="1191" 
d="M1137 0h-310q-41 32 -63 125l-45 180q-18 73 -54 97t-110 24h-119v-426h-278v1206h475q213 0 325.5 -86.5t112.5 -281.5q0 -135 -71.5 -213t-192.5 -90v-5q85 -14 131.5 -54t69.5 -122l61 -225q20 -79 68 -129zM436 971v-316h178q86 0 129 37t43 121q0 158 -172 158h-178
zM657 1323h-174l-276 297h256l61 -64q16 -16 26 -31.5t12 -22.5l3 -7h8q6 24 41 61l64 64h254z" />
    <glyph glyph-name="rcaron" unicode="&#x159;" horiz-adv-x="806" 
d="M782 967l-30 -303q-47 16 -107 16q-45 0 -84.5 -12t-76.5 -38.5t-59 -77t-22 -120.5v-432h-274v946h238l32 -260q17 66 43 115.5t69.5 91t111.5 60.5t159 14zM526 1073h-172l-276 326h252l65 -72q17 -19 27.5 -36t11.5 -24l2 -7h8q2 24 41 67l66 72h252z" />
    <glyph glyph-name="Sacute" unicode="&#x15a;" horiz-adv-x="1054" 
d="M45 270l254 113q17 -89 78 -142t147 -53q72 0 116 30t44 89t-41.5 93t-159.5 71q-211 67 -301 156.5t-90 242.5q0 79 24 142t64 103.5t95.5 67.5t115 38.5t125.5 11.5q423 0 457 -313l-277 -70q-7 75 -56.5 114.5t-117.5 39.5q-62 0 -100.5 -28.5t-38.5 -84.5
q0 -60 46.5 -92.5t160.5 -67.5q102 -32 168 -64t117.5 -77.5t74.5 -108t23 -147.5q0 -95 -36.5 -166t-102.5 -112t-148 -61t-182 -20q-186 0 -300.5 69t-158.5 226zM643 1325h-252l131 293h344z" />
    <glyph glyph-name="sacute" unicode="&#x15b;" horiz-adv-x="911" 
d="M37 219l225 90q28 -141 184 -141q59 0 94 21t35 61q0 39 -27.5 61t-92.5 37l-140 33q-241 62 -241 281q0 86 32 148.5t88.5 95.5t121.5 48t143 15q355 0 375 -267l-256 -36q-7 55 -39 77.5t-93 22.5q-48 0 -77 -21t-29 -57q0 -68 92 -86l133 -29q283 -60 283 -305
q0 -77 -30.5 -134.5t-86.5 -91.5t-128 -50.5t-161 -16.5q-180 0 -279 57t-126 187zM582 1077h-250l143 314h344z" />
    <glyph glyph-name="Scircumflex" unicode="&#x15c;" horiz-adv-x="1054" 
d="M45 270l254 113q17 -89 78 -142t147 -53q72 0 116 30t44 89t-41.5 93t-159.5 71q-211 67 -301 156.5t-90 242.5q0 79 24 142t64 103.5t95.5 67.5t115 38.5t125.5 11.5q423 0 457 -313l-277 -70q-7 75 -56.5 114.5t-117.5 39.5q-62 0 -100.5 -28.5t-38.5 -84.5
q0 -60 46.5 -92.5t160.5 -67.5q102 -32 168 -64t117.5 -77.5t74.5 -108t23 -147.5q0 -95 -36.5 -166t-102.5 -112t-148 -61t-182 -20q-186 0 -300.5 69t-158.5 226zM449 1622h174l274 -297h-254l-63 64q-16 16 -26 31.5t-12 22.5l-3 7h-9q-6 -24 -41 -61l-61 -64h-256z" />
    <glyph glyph-name="scircumflex" unicode="&#x15d;" horiz-adv-x="911" 
d="M37 219l225 90q28 -141 184 -141q59 0 94 21t35 61q0 39 -27.5 61t-92.5 37l-140 33q-241 62 -241 281q0 86 32 148.5t88.5 95.5t121.5 48t143 15q355 0 375 -267l-256 -36q-7 55 -39 77.5t-93 22.5q-48 0 -77 -21t-29 -57q0 -68 92 -86l133 -29q283 -60 283 -305
q0 -77 -30.5 -134.5t-86.5 -91.5t-128 -50.5t-161 -16.5q-180 0 -279 57t-126 187zM391 1399h172l277 -326h-252l-66 70q-17 19 -27.5 36t-12.5 24l-1 7h-8q-2 -24 -41 -67l-65 -70h-252z" />
    <glyph glyph-name="Scedilla" unicode="&#x15e;" horiz-adv-x="1054" 
d="M752 -242q0 -93 -66 -141.5t-170 -48.5q-70 0 -127.5 20.5t-87.5 53.5l51 131q63 -72 133 -72q62 0 62 53q0 71 -105 82l15 141q-165 8 -268 77t-144 216l254 113q17 -89 78 -142t147 -53q72 0 116 30t44 89t-41.5 93t-159.5 71q-211 67 -301 156.5t-90 242.5
q0 79 24 142t64 103.5t95.5 67.5t115 38.5t125.5 11.5q423 0 457 -313l-277 -70q-7 75 -56.5 114.5t-117.5 39.5q-62 0 -100.5 -28.5t-38.5 -84.5q0 -60 46.5 -92.5t160.5 -67.5q102 -32 168 -64t117.5 -77.5t74.5 -108t23 -147.5q0 -87 -30.5 -153t-85.5 -107.5t-125 -64.5
t-157 -29l-4 -54q181 -12 181 -168z" />
    <glyph glyph-name="scedilla" unicode="&#x15f;" horiz-adv-x="911" 
d="M672 -242q0 -93 -66 -141.5t-170 -48.5q-70 0 -127.5 20.5t-87.5 53.5l51 131q63 -72 134 -72q61 0 61 53q0 71 -105 82l15 141q-150 9 -233 66t-107 176l225 90q28 -141 184 -141q59 0 94 21t35 61q0 39 -27.5 61t-92.5 37l-140 33q-241 62 -241 281q0 86 32 148.5
t88.5 95.5t121.5 48t143 15q355 0 375 -267l-256 -36q-7 55 -39 77.5t-93 22.5q-48 0 -77 -21t-29 -57q0 -68 92 -86l133 -29q283 -60 283 -305q0 -140 -94.5 -210.5t-257.5 -80.5l-4 -51q180 -12 180 -168z" />
    <glyph glyph-name="Scaron" unicode="&#x160;" horiz-adv-x="1054" 
d="M45 270l254 113q17 -89 78 -142t147 -53q72 0 116 30t44 89t-41.5 93t-159.5 71q-211 67 -301 156.5t-90 242.5q0 79 24 142t64 103.5t95.5 67.5t115 38.5t125.5 11.5q423 0 457 -313l-277 -70q-7 75 -56.5 114.5t-117.5 39.5q-62 0 -100.5 -28.5t-38.5 -84.5
q0 -60 46.5 -92.5t160.5 -67.5q102 -32 168 -64t117.5 -77.5t74.5 -108t23 -147.5q0 -95 -36.5 -166t-102.5 -112t-148 -61t-182 -20q-186 0 -300.5 69t-158.5 226zM623 1323h-174l-277 297h256l61 -64q16 -16 26 -31.5t13 -22.5l2 -7h9q6 24 41 61l63 64h254z" />
    <glyph glyph-name="scaron" unicode="&#x161;" horiz-adv-x="911" 
d="M37 219l225 90q28 -141 184 -141q59 0 94 21t35 61q0 39 -27.5 61t-92.5 37l-140 33q-241 62 -241 281q0 86 32 148.5t88.5 95.5t121.5 48t143 15q355 0 375 -267l-256 -36q-7 55 -39 77.5t-93 22.5q-48 0 -77 -21t-29 -57q0 -68 92 -86l133 -29q283 -60 283 -305
q0 -77 -30.5 -134.5t-86.5 -91.5t-128 -50.5t-161 -16.5q-180 0 -279 57t-126 187zM543 1073h-172l-277 326h252l66 -72q17 -19 27.5 -36t12.5 -24l1 -7h8q2 24 41 67l65 72h252z" />
    <glyph glyph-name="Tcommaaccent" unicode="&#x162;" horiz-adv-x="980" 
d="M625 0h-275v965h-330v241h941v-241h-336v-965zM635 -289q0 -233 -293 -233v92q69 2 102 19.5t33 60.5q-60 -11 -103.5 19t-43.5 93q0 65 40.5 99.5t102.5 34.5q71 0 116.5 -51t45.5 -134z" />
    <glyph glyph-name="tcommaaccent" unicode="&#x163;" horiz-adv-x="790" 
d="M713 268l47 -231q-121 -62 -291 -62q-147 0 -229 74.5t-82 231.5v454h-138v211h140v201l274 33v-234h281v-211h-283v-393q0 -73 28 -103t87 -30q83 0 166 59zM569 -289q0 -233 -293 -233v92q69 2 102.5 19.5t33.5 60.5q-60 -11 -104 19t-44 93q0 65 41 99.5t103 34.5
q71 0 116 -51t45 -134z" />
    <glyph glyph-name="Tcaron" unicode="&#x164;" horiz-adv-x="980" 
d="M625 0h-275v965h-330v241h941v-241h-336v-965zM578 1323h-175l-276 297h256l61 -64q16 -16 26 -31.5t12 -22.5l3 -7h9q6 24 41 61l63 64h254z" />
    <glyph glyph-name="tcaron" unicode="&#x165;" horiz-adv-x="790" 
d="M713 268l47 -231q-121 -62 -291 -62q-147 0 -229 74.5t-82 231.5v454h-138v211h140v201l274 33v-234h281v-211h-283v-393q0 -73 28 -103t87 -30q83 0 166 59zM840 1454l-119 -397h-195l31 397h283z" />
    <glyph glyph-name="Tbar" unicode="&#x166;" horiz-adv-x="980" 
d="M625 0h-275v453h-207v223h207v289h-330v241h941v-241h-336v-289h215v-223h-215v-453z" />
    <glyph glyph-name="tbar" unicode="&#x167;" horiz-adv-x="790" 
d="M20 416v200h138v119h-138v211h140v201l274 33v-234h281v-211h-283v-119h283v-200h-283v-74q0 -73 28 -103t87 -30q83 0 166 59l47 -231q-121 -62 -291 -62q-147 0 -229 74.5t-82 231.5v135h-138z" />
    <glyph glyph-name="Utilde" unicode="&#x168;" horiz-adv-x="1245" 
d="M844 1206h276v-803q0 -118 -39 -203.5t-110 -133.5t-156.5 -69.5t-191.5 -21.5q-83 0 -154 13t-135.5 44t-110 79t-72 122.5t-26.5 169.5v803h278v-725q0 -138 48 -206t172 -68q125 0 173 68t48 208v723zM778 1329q-49 0 -79 9.5t-72 35.5q-51 30 -73.5 40.5t-45.5 10.5
q-33 0 -52 -25t-12 -75h-151q-30 59 -27 117t27 103.5t71.5 73.5t106.5 28q65 0 139 -43q9 -5 27 -16t25 -14.5l20 -10t20 -9t16.5 -4.5t18.5 -2q67 0 54 94h159q54 -124 2.5 -218.5t-174.5 -94.5z" />
    <glyph glyph-name="utilde" unicode="&#x169;" horiz-adv-x="1087" 
d="M721 0l-33 176q-26 -100 -96 -150.5t-197 -50.5q-133 0 -208.5 74t-75.5 232v665h274v-588q0 -88 30.5 -132t98.5 -44q76 0 123 63t47 193v508h274v-946h-237zM690 1067q-49 0 -78 10t-73 37q-7 4 -23 13t-21 12t-16.5 9t-17 7.5t-13.5 4.5t-14.5 4t-13.5 1
q-33 0 -52 -25t-12 -75h-151q-30 59 -27 116t27 102t71.5 73t106.5 28q68 0 139 -41q6 -3 17.5 -10.5t16 -10t14 -8t13.5 -7.5t11.5 -6t11.5 -5.5t10.5 -4t11 -3.5t10 -1.5t11.5 -0.5q66 0 53 94h160q54 -124 2.5 -218.5t-174.5 -94.5z" />
    <glyph glyph-name="Umacron" unicode="&#x16a;" horiz-adv-x="1245" 
d="M844 1206h276v-803q0 -118 -39 -203.5t-110 -133.5t-156.5 -69.5t-191.5 -21.5q-83 0 -154 13t-135.5 44t-110 79t-72 122.5t-26.5 169.5v803h278v-725q0 -138 48 -206t172 -68q125 0 173 68t48 208v723zM930 1360h-617v221h617v-221z" />
    <glyph glyph-name="umacron" unicode="&#x16b;" horiz-adv-x="1087" 
d="M721 0l-33 176q-26 -100 -96 -150.5t-197 -50.5q-133 0 -208.5 74t-75.5 232v665h274v-588q0 -88 30.5 -132t98.5 -44q76 0 123 63t47 193v508h274v-946h-237zM836 1104h-603v221h603v-221z" />
    <glyph glyph-name="Ubreve" unicode="&#x16c;" horiz-adv-x="1245" 
d="M844 1206h276v-803q0 -118 -39 -203.5t-110 -133.5t-156.5 -69.5t-191.5 -21.5q-83 0 -154 13t-135.5 44t-110 79t-72 122.5t-26.5 169.5v803h278v-725q0 -138 48 -206t172 -68q125 0 173 68t48 208v723zM623 1315q-156 0 -232 80.5t-76 224.5h203q2 -58 25.5 -85.5
t79.5 -27.5q57 0 79.5 27t24.5 86h203q0 -144 -75.5 -224.5t-231.5 -80.5z" />
    <glyph glyph-name="ubreve" unicode="&#x16d;" horiz-adv-x="1087" 
d="M721 0l-33 176q-26 -100 -96 -150.5t-197 -50.5q-133 0 -208.5 74t-75.5 232v665h274v-588q0 -88 30.5 -132t98.5 -44q76 0 123 63t47 193v508h274v-946h-237zM535 1065q-154 0 -231 90t-77 234h203q2 -65 23.5 -96t81.5 -31q61 0 81.5 30.5t22.5 96.5h203
q0 -144 -76.5 -234t-230.5 -90z" />
    <glyph glyph-name="Uring" unicode="&#x16e;" horiz-adv-x="1245" 
d="M844 1206h276v-803q0 -118 -39 -203.5t-110 -133.5t-156.5 -69.5t-191.5 -21.5q-83 0 -154 13t-135.5 44t-110 79t-72 122.5t-26.5 169.5v803h278v-725q0 -138 48 -206t172 -68q125 0 173 68t48 208v723zM635 1290q-110 0 -173 65.5t-63 164.5q0 92 65.5 156.5
t170.5 64.5q104 0 169.5 -64.5t65.5 -156.5q0 -99 -62.5 -164.5t-172.5 -65.5zM635 1618q-47 0 -73.5 -27.5t-26.5 -72.5q0 -42 26.5 -70.5t73.5 -28.5t73.5 28.5t26.5 70.5q0 45 -26.5 72.5t-73.5 27.5z" />
    <glyph glyph-name="uring" unicode="&#x16f;" horiz-adv-x="1087" 
d="M721 0l-33 176q-26 -100 -96 -150.5t-197 -50.5q-133 0 -208.5 74t-75.5 232v665h274v-588q0 -88 30.5 -132t98.5 -44q76 0 123 63t47 193v508h274v-946h-237zM535 1036q-110 0 -173 65.5t-63 164.5q0 92 66 157.5t170 65.5t169.5 -65.5t65.5 -157.5q0 -99 -62.5 -164.5
t-172.5 -65.5zM535 1366q-46 0 -73.5 -28.5t-27.5 -73.5q0 -41 27 -70t74 -29t73.5 29t26.5 70q0 45 -27 73.5t-73 28.5z" />
    <glyph glyph-name="Uhungarumlaut" unicode="&#x170;" horiz-adv-x="1245" 
d="M844 1206h276v-803q0 -118 -39 -203.5t-110 -133.5t-156.5 -69.5t-191.5 -21.5q-83 0 -154 13t-135.5 44t-110 79t-72 122.5t-26.5 169.5v803h278v-725q0 -138 48 -206t172 -68q125 0 173 68t48 208v723zM545 1325h-195l107 293h288zM903 1325h-213l144 293h307z" />
    <glyph glyph-name="uhungarumlaut" unicode="&#x171;" horiz-adv-x="1087" 
d="M721 0l-33 176q-26 -100 -96 -150.5t-197 -50.5q-133 0 -208.5 74t-75.5 232v665h274v-588q0 -88 30.5 -132t98.5 -44q76 0 123 63t47 193v508h274v-946h-237zM451 1077h-195l106 314h289zM809 1077h-213l143 314h308z" />
    <glyph glyph-name="Uogonek" unicode="&#x172;" horiz-adv-x="1245" 
d="M406 -203q0 117 77 191q-358 58 -358 415v803h278v-725q0 -138 48 -206t172 -68q125 0 173 68t48 208v723h276v-803q0 -105 -31 -184t-88 -127.5t-128 -75.5t-160 -36q-39 -18 -62.5 -51.5t-23.5 -78.5q0 -50 27.5 -77t74.5 -27q71 0 133 59l60 -137q-90 -100 -254 -100
q-111 0 -186.5 56.5t-75.5 172.5z" />
    <glyph glyph-name="uogonek" unicode="&#x173;" horiz-adv-x="1087" 
d="M547 -203q0 83 47 142.5t121 93.5l-27 145q-53 -203 -293 -203q-133 0 -208.5 74t-75.5 232v665h274v-588q0 -88 30.5 -132t98.5 -44q76 0 123 64t47 194v506h274v-946q-87 -3 -137.5 -42.5t-50.5 -109.5q0 -47 26 -74.5t72 -27.5q71 0 133 59l60 -137
q-87 -100 -254 -100q-111 0 -185.5 56.5t-74.5 172.5z" />
    <glyph glyph-name="Wcircumflex" unicode="&#x174;" horiz-adv-x="1787" 
d="M1067 1206l150 -663q16 -76 30.5 -161.5t20.5 -133.5l6 -47h8q16 172 51 340l135 665h283l-264 -1206h-406l-137 596q-17 76 -29 160.5t-15 131.5l-3 46h-8q-10 -168 -51 -340l-144 -594h-391l-266 1206h295l139 -663q16 -76 30 -161.5t19 -133.5l6 -47h9q18 172 53 340
l147 665h332zM807 1622h174l274 -297h-254l-63 64q-16 16 -26 31.5t-12 22.5l-3 7h-8q-6 -24 -41 -61l-62 -64h-256z" />
    <glyph glyph-name="wcircumflex" unicode="&#x175;" horiz-adv-x="1476" 
d="M866 946l105 -375q24 -84 39.5 -176t19.5 -142l4 -50h8q9 174 54 364l88 379h272l-246 -946h-325l-92 338q-17 68 -29.5 144t-16.5 118l-4 43h-8q-10 -151 -49 -307l-82 -336h-323l-261 946h279l98 -377q22 -84 37 -175.5t19 -141.5l4 -49h8q10 178 55 368l96 375h250z
M653 1399h172l277 -326h-252l-66 70q-17 19 -27.5 36t-12.5 24l-1 7h-8q-2 -24 -41 -67l-65 -70h-252z" />
    <glyph glyph-name="Ycircumflex" unicode="&#x176;" horiz-adv-x="1116" 
d="M336 1206l141 -286q34 -72 56.5 -138t28.5 -96l5 -29h8q13 105 89 261l139 288h293l-385 -805v-401h-279v401l-412 805h316zM471 1622h174l275 -297h-254l-64 64q-16 16 -26 31.5t-12 22.5l-3 7h-8q-6 -24 -41 -61l-61 -64h-256z" />
    <glyph glyph-name="ycircumflex" unicode="&#x177;" horiz-adv-x="991" 
d="M303 946l123 -430q24 -83 40.5 -159t21.5 -111l4 -35h8q12 121 67 303l131 432h289l-375 -1030q-31 -87 -67.5 -148t-74 -99t-85.5 -59t-95 -28.5t-110 -7.5q-72 0 -170 23l41 241q58 -33 125 -33q66 0 107.5 32.5t70.5 109.5l-350 999h299zM414 1399h172l276 -326h-252
l-65 70q-17 19 -27.5 36t-11.5 24l-2 7h-8q-2 -24 -41 -67l-66 -70h-252z" />
    <glyph glyph-name="Ydieresis" unicode="&#x178;" horiz-adv-x="1116" 
d="M336 1206l141 -286q34 -72 56.5 -138t28.5 -96l5 -29h8q13 105 89 261l139 288h293l-385 -805v-401h-279v401l-412 805h316zM174 1481q0 73 43.5 113t108.5 40q70 0 112.5 -39.5t42.5 -113.5q0 -72 -43 -113t-112 -41q-64 0 -108 41.5t-44 112.5zM621 1481q0 73 43 113
t108 40q69 0 112.5 -39.5t43.5 -113.5q0 -73 -44 -113.5t-112 -40.5q-64 0 -107.5 41t-43.5 113z" />
    <glyph glyph-name="Zacute" unicode="&#x179;" horiz-adv-x="1050" 
d="M975 1012l-455 -623q-33 -44 -65 -81.5t-48 -52.5l-16 -15v-9q60 11 164 11h438v-242h-936v201l441 616q33 44 65 81.5t48 53.5l16 15v8q-58 -10 -164 -10h-391v241h903v-194zM635 1325h-252l131 293h344z" />
    <glyph glyph-name="zacute" unicode="&#x17a;" horiz-adv-x="874" 
d="M799 774l-305 -414q-33 -44 -65 -81.5t-48 -52.5l-16 -15v-8q59 10 163 10h289v-213h-760v166l293 416q33 44 65 81.5t48 52.5l16 15v8q-58 -10 -164 -10h-241v217h725v-172zM547 1077h-250l143 314h344z" />
    <glyph glyph-name="Zdotaccent" unicode="&#x17b;" horiz-adv-x="1050" 
d="M975 1012l-455 -623q-33 -44 -65 -81.5t-48 -52.5l-16 -15v-9q60 11 164 11h438v-242h-936v201l441 616q33 44 65 81.5t48 53.5l16 15v8q-58 -10 -164 -10h-391v241h903v-194zM358 1497q0 75 47 117.5t119 42.5q76 0 124 -42t48 -118q0 -73 -48 -114.5t-124 -41.5
q-72 0 -119 41.5t-47 114.5z" />
    <glyph glyph-name="zdotaccent" unicode="&#x17c;" horiz-adv-x="874" 
d="M799 774l-305 -414q-33 -44 -65 -81.5t-48 -52.5l-16 -15v-8q59 10 163 10h289v-213h-760v166l293 416q33 44 65 81.5t48 52.5l16 15v8q-58 -10 -164 -10h-241v217h725v-172zM272 1225q0 75 47.5 117t118.5 42q77 0 124.5 -41.5t47.5 -117.5q0 -73 -47.5 -114.5
t-124.5 -41.5q-71 0 -118.5 42t-47.5 114z" />
    <glyph glyph-name="Zcaron" unicode="&#x17d;" horiz-adv-x="1050" 
d="M975 1012l-455 -623q-33 -44 -65 -81.5t-48 -52.5l-16 -15v-9q60 11 164 11h438v-242h-936v201l441 616q33 44 65 81.5t48 53.5l16 15v8q-58 -10 -164 -10h-391v241h903v-194zM614 1323h-174l-276 297h256l61 -64q16 -16 26 -31.5t13 -22.5l2 -7h8q6 24 41 61l64 64h254z
" />
    <glyph glyph-name="zcaron" unicode="&#x17e;" horiz-adv-x="874" 
d="M799 774l-305 -414q-33 -44 -65 -81.5t-48 -52.5l-16 -15v-8q59 10 163 10h289v-213h-760v166l293 416q33 44 65 81.5t48 52.5l16 15v8q-58 -10 -164 -10h-241v217h725v-172zM541 1073h-172l-277 326h252l66 -72q17 -19 27.5 -36t12.5 -24l1 -7h8q2 24 41 67l65 72h252z
" />
    <glyph glyph-name="Schwa" unicode="&#x18f;" horiz-adv-x="1212" 
d="M88 901q28 115 102.5 191t169.5 107.5t211 31.5q254 0 405.5 -161t151.5 -452q0 -310 -147.5 -476.5t-411.5 -166.5q-236 0 -360.5 142.5t-124.5 382.5q0 114 22 182h736q-8 131 -81 215t-198 84q-84 0 -145 -44t-88 -128zM840 473h-473q-5 -17 -5 -45q3 -97 60.5 -158
t157.5 -61q117 0 183.5 74t76.5 190z" />
    <glyph glyph-name="florin" unicode="&#x192;" horiz-adv-x="1015" 
d="M63 -248l115 514h-137l37 207h139l37 184q18 93 62 163.5t104.5 110.5t128.5 59.5t143 19.5q83 0 165.5 -30.5t137.5 -98.5l-161 -207q-27 45 -68 71.5t-86 26.5q-113 0 -148 -137l-36 -162h241l-35 -207h-245l-117 -514h-277z" />
    <glyph glyph-name="Khook" unicode="&#x198;" horiz-adv-x="1189" 
d="M844 864l-103 -248l424 -616h-331l-324 475h-74v-475h-278v1206h278v-481h76l94 248q48 127 124 192.5t192 65.5q176 0 254 -160l-154 -186q-31 61 -84 61q-30 0 -52 -17t-42 -65z" />
    <glyph glyph-name="khook" unicode="&#x199;" horiz-adv-x="1062" 
d="M403 389v-389h-274v1026q0 104 38.5 179.5t100.5 113.5t142.5 52.5t163.5 5t163 -37.5l-41 -247q-54 34 -104.5 48t-94 5t-70 -56t-26.5 -128v-359h54l241 344h318l-328 -440l358 -506h-319l-266 389h-56z" />
    <glyph glyph-name="Ezh" unicode="&#x1b7;" horiz-adv-x="1028" 
d="M305 559l176 258q31 45 63.5 82.5t49.5 52.5l16 15v8q-58 -10 -164 -10h-366v241h864v-194l-364 -482v-6q198 -13 297.5 -136t99.5 -306q0 -207 -130.5 -328t-357.5 -121q-215 0 -347.5 95t-164.5 274l234 119q18 -134 89.5 -204.5t182.5 -70.5q108 0 167 60.5t59 167.5
q0 130 -99 210.5t-305 86.5v188z" />
    <glyph glyph-name="Acaron" unicode="&#x1cd;" horiz-adv-x="1261" 
d="M942 0l-88 252h-457l-86 -252h-291l437 1206h344l440 -1206h-299zM522 621l-47 -138h297l-49 135q-31 88 -54.5 174.5t-31.5 128.5l-8 42h-8q-31 -147 -99 -342zM713 1323h-174l-277 297h256l62 -64q16 -16 26 -31.5t12 -22.5l3 -7h8q6 24 41 61l63 64h254z" />
    <glyph glyph-name="acaron" unicode="&#x1ce;" horiz-adv-x="1026" 
d="M592 297v96q-139 4 -199.5 -29t-60.5 -100q0 -42 27.5 -68t76.5 -26q62 0 109 31.5t47 95.5zM862 655v-368q0 -86 70 -86q28 0 59 14v-199q-53 -34 -155 -34q-181 0 -226 149q-57 -156 -274 -156q-127 0 -203 70t-76 191q0 161 133 240.5t402 64.5v90q0 131 -111 131
q-113 0 -119 -139l-272 51q10 145 120.5 220t281.5 75q179 0 274.5 -79t95.5 -235zM584 1073h-172l-277 326h252l66 -72q17 -19 27.5 -36t11.5 -24l2 -7h8q2 24 41 67l65 72h252z" />
    <glyph glyph-name="Icaron" unicode="&#x1cf;" horiz-adv-x="593" 
d="M158 1206h278v-1206h-278v1206zM385 1323h-174l-277 297h256l62 -64q16 -16 26 -31.5t12 -22.5l3 -7h8q6 24 41 61l64 64h253z" />
    <glyph glyph-name="icaron" unicode="&#x1d0;" horiz-adv-x="532" 
d="M352 1073h-172l-276 326h252l65 -72q17 -19 27.5 -36t11.5 -24l2 -7h8q2 24 41 67l66 72h252zM129 946h274v-946h-274v946z" />
    <glyph glyph-name="Ocaron" unicode="&#x1d1;" horiz-adv-x="1312" 
d="M655 -25q-269 0 -420 163.5t-151 463.5q0 302 151 465.5t420 163.5q270 0 422 -163.5t152 -465.5q0 -300 -152.5 -463.5t-421.5 -163.5zM655 983q-139 0 -210.5 -101t-71.5 -284q0 -182 71 -282.5t211 -100.5t212.5 100.5t72.5 282.5q0 183 -72.5 284t-212.5 101z
M745 1323h-174l-276 297h256l61 -64q16 -16 26 -31.5t12 -22.5l3 -7h9q5 24 40 61l64 64h254z" />
    <glyph glyph-name="ocaron" unicode="&#x1d2;" horiz-adv-x="1050" 
d="M526 -25q-210 0 -334 132t-124 368q0 237 123.5 365.5t334.5 128.5q210 0 333.5 -128.5t123.5 -365.5q0 -236 -124 -368t-333 -132zM526 750q-95 0 -141.5 -68t-46.5 -207q0 -148 45.5 -217.5t142.5 -69.5q96 0 141.5 70t45.5 217q0 275 -187 275zM612 1073h-172
l-276 326h252l65 -72q17 -19 27.5 -36t11.5 -24l2 -7h8q2 24 41 67l66 72h252z" />
    <glyph glyph-name="Ucaron" unicode="&#x1d3;" horiz-adv-x="1245" 
d="M844 1206h276v-803q0 -118 -39 -203.5t-110 -133.5t-156.5 -69.5t-191.5 -21.5q-83 0 -154 13t-135.5 44t-110 79t-72 122.5t-26.5 169.5v803h278v-725q0 -138 48 -206t172 -68q125 0 173 68t48 208v723zM711 1323h-174l-277 297h256l62 -64q16 -16 26 -31.5t12 -22.5
l2 -7h9q6 24 41 61l63 64h254z" />
    <glyph glyph-name="ucaron" unicode="&#x1d4;" horiz-adv-x="1087" 
d="M721 0l-33 176q-26 -100 -96 -150.5t-197 -50.5q-133 0 -208.5 74t-75.5 232v665h274v-588q0 -88 30.5 -132t98.5 -44q76 0 123 63t47 193v508h274v-946h-237zM621 1073h-172l-277 326h252l65 -72q17 -19 27.5 -36t11.5 -24l2 -7h9q2 24 41 67l65 72h252z" />
    <glyph glyph-name="uni01D9" unicode="&#x1d9;" horiz-adv-x="1245" 
d="M844 1206h276v-803q0 -118 -39 -203.5t-110 -133.5t-156.5 -69.5t-191.5 -21.5q-83 0 -154 13t-135.5 44t-110 79t-72 122.5t-26.5 169.5v803h278v-725q0 -138 48 -206t172 -68q125 0 173 68t48 208v723zM240 1419q0 73 43 113.5t108 40.5q70 0 113 -40t43 -114
q0 -72 -43.5 -112.5t-112.5 -40.5q-64 0 -107.5 41t-43.5 112zM686 1419q0 73 43.5 113.5t108.5 40.5q69 0 112 -40t43 -114q0 -73 -43.5 -113t-111.5 -40q-65 0 -108.5 40.5t-43.5 112.5zM705 1587h-175l-276 297h256l61 -63q16 -16 26.5 -31.5t12.5 -23.5l2 -7h11
q4 25 41 62l61 63h256z" />
    <glyph glyph-name="uni01DA" unicode="&#x1da;" horiz-adv-x="1087" 
d="M721 0l-33 176q-26 -100 -96 -150.5t-197 -50.5q-133 0 -208.5 74t-75.5 232v665h274v-588q0 -88 30.5 -132t98.5 -44q76 0 123 63t47 193v508h274v-946h-237zM152 1157q0 74 43 115t108 41q70 0 114 -41t44 -115q0 -72 -44 -112.5t-114 -40.5q-64 0 -107.5 41t-43.5 112
zM598 1157q0 73 43.5 113.5t108.5 40.5q70 0 113.5 -40t43.5 -114q0 -72 -44 -112.5t-113 -40.5q-64 0 -108 41t-44 112zM618 1325h-176l-274 297h254l63 -63q16 -16 26 -31.5t13 -23.5l2 -7h9q5 25 40 62l64 63h254z" />
    <glyph glyph-name="uni004100A800AF" unicode="&#x1de;" horiz-adv-x="1261" 
d="M942 0l-88 252h-457l-86 -252h-291l437 1206h344l440 -1206h-299zM522 621l-47 -138h297l-49 135q-31 88 -54.5 174.5t-31.5 128.5l-8 42h-8q-31 -147 -99 -342zM932 1702h-617v221h617v-221zM248 1450q0 73 43 113.5t108 40.5q70 0 113 -40t43 -114q0 -72 -43.5 -113
t-112.5 -41q-64 0 -107.5 41.5t-43.5 112.5zM694 1450q0 73 43.5 113.5t108.5 40.5q69 0 112 -40t43 -114q0 -73 -43.5 -113.5t-111.5 -40.5q-65 0 -108.5 41t-43.5 113z" />
    <glyph glyph-name="adieresismacron" unicode="&#x1df;" horiz-adv-x="1026" 
d="M592 297v96q-139 4 -199.5 -29t-60.5 -100q0 -42 27.5 -68t76.5 -26q62 0 109 31.5t47 95.5zM862 655v-368q0 -86 70 -86q28 0 59 14v-199q-53 -34 -155 -34q-181 0 -226 149q-57 -156 -274 -156q-127 0 -203 70t-76 191q0 161 133 240.5t402 64.5v90q0 131 -111 131
q-113 0 -119 -139l-272 51q10 145 120.5 220t281.5 75q179 0 274.5 -79t95.5 -235zM799 1419h-602v221h602v-221zM115 1180q0 73 43 113t108 40q70 0 113 -39.5t43 -113.5q0 -72 -43.5 -113t-112.5 -41q-64 0 -107.5 41.5t-43.5 112.5zM561 1180q0 73 43.5 113t108.5 40
q69 0 112 -39.5t43 -113.5q0 -73 -43.5 -113.5t-111.5 -40.5q-65 0 -108.5 41t-43.5 113z" />
    <glyph glyph-name="AEmacron" unicode="&#x1e2;" horiz-adv-x="1794" 
d="M1692 0h-809v252h-416l-158 -252h-305l719 1206h969v-241h-531v-240h469v-231h-469v-252h531v-242zM887 1004l-299 -521h295v193q0 93 3 175t6 117l3 36h-8zM1458 1360h-616v221h616v-221z" />
    <glyph glyph-name="aemacron" unicode="&#x1e3;" horiz-adv-x="1513" 
d="M1044 197q114 0 166 120l234 -81q-35 -136 -145 -198.5t-261 -62.5q-225 0 -348 148q-42 -69 -126.5 -108.5t-203.5 -39.5q-140 0 -221.5 69t-81.5 192q0 155 131.5 240.5t399.5 86.5q6 48 18 88q-7 54 -39.5 82.5t-83.5 28.5q-110 0 -116 -139l-275 51q7 97 64 165
t145 99t199 31q169 0 262 -84q113 84 280 84q97 0 174.5 -33t126 -90t74 -132t25.5 -161q0 -79 -12 -141h-570q2 -95 47.5 -155t136.5 -60zM862 563h312q2 12 2 47q0 69 -36 112.5t-104 43.5q-76 0 -122.5 -59.5t-51.5 -143.5zM451 174q50 0 94.5 26.5t60.5 73.5
q-19 69 -22 138q-236 -6 -236 -136q0 -48 27 -75t76 -27zM1044 1104h-602v221h602v-221z" />
    <glyph glyph-name="Gstroke" unicode="&#x1e4;" horiz-adv-x="1347" 
d="M651 682h520v-240h117v-147h-117v-295h-172l-45 135q-45 -80 -131 -120t-200 -40q-119 0 -216.5 38.5t-170 113.5t-112.5 195t-40 276q0 301 156 467t434 166q179 0 304.5 -79t186.5 -226l-268 -131q-58 190 -233 190q-41 0 -80 -11t-78.5 -39.5t-68.5 -71.5
t-47.5 -112.5t-18.5 -156.5q0 -84 16.5 -154t50.5 -126t92.5 -87.5t137.5 -31.5q178 0 235 100h-252v147h254v84h-254v156z" />
    <glyph glyph-name="gstroke" unicode="&#x1e5;" horiz-adv-x="1173" 
d="M563 969q160 0 268 -60q30 30 43 57.5t29 86.5l215 -72q-7 -64 -57 -111.5t-113 -66.5q41 -68 41 -168q0 -106 -59 -181t-155 -110t-220 -35q-78 0 -115 13q-43 -26 -43 -78q0 -26 19 -42t55 -16h270q158 0 247 -76t89 -202q0 -5 -1 -15.5t-1 -15.5h99v-72h-113
q-23 -67 -76.5 -115t-129 -73.5t-156 -37t-173.5 -11.5t-168.5 12t-139 38t-99 73.5t-35.5 113.5h-84v72h98q46 107 236 119q-68 4 -110 53t-42 115q0 60 40 112t118 74q-99 40 -148 107.5t-49 177.5q0 161 113.5 247.5t306.5 86.5zM420 635q0 -66 36.5 -106t106.5 -40
q71 0 108.5 37.5t37.5 108.5q0 147 -146 147q-143 -3 -143 -147zM471 -53q-119 0 -137 -70h495q-4 37 -32 53.5t-84 16.5h-242zM561 -264q213 0 256 69h-473q43 -69 217 -69z" />
    <glyph glyph-name="Gcaron" unicode="&#x1e6;" horiz-adv-x="1288" 
d="M651 643h520v-643h-172l-45 135q-45 -80 -131 -120t-200 -40q-119 0 -216.5 38.5t-170 113.5t-112.5 195t-40 276q0 301 156 467t434 166q179 0 304.5 -79t186.5 -226l-268 -131q-58 190 -233 190q-41 0 -80 -11t-78.5 -39.5t-68.5 -71.5t-47.5 -112.5t-18.5 -156.5
q0 -84 16.5 -153t50.5 -123.5t92.5 -84.5t137.5 -30q117 0 177 49t60 129v41h-254v221zM766 1323h-174l-277 297h256l62 -64q16 -16 26 -31.5t13 -22.5l2 -7h8q6 24 41 61l63 64h254z" />
    <glyph glyph-name="gcaron" unicode="&#x1e7;" horiz-adv-x="1028" 
d="M492 969q160 0 268 -60q29 29 42 56.5t29 87.5l216 -72q-7 -64 -57.5 -111.5t-115.5 -66.5q44 -68 44 -168q0 -106 -59 -181t-155.5 -110t-220.5 -35q-77 0 -114 13q-45 -27 -45 -78q0 -26 19.5 -42t55.5 -16h271q157 0 245.5 -76.5t88.5 -201.5q0 -78 -31.5 -138.5
t-83.5 -98t-125 -61.5t-148 -33t-161 -9q-93 0 -168.5 12t-139.5 38t-99.5 73.5t-35.5 113.5q0 173 250 191q-68 4 -110.5 53.5t-42.5 114.5q0 60 40 112t119 74q-100 39 -148 106.5t-48 178.5q0 161 113.5 247.5t306.5 86.5zM264 -141q0 -109 221 -109q141 0 202 26.5
t61 84.5q0 43 -27.5 61.5t-89.5 18.5h-234q-61 0 -97 -21t-36 -61zM348 635q0 -65 37 -105.5t107 -40.5t107.5 37.5t37.5 108.5q0 147 -145 147q-144 -3 -144 -147zM590 1073h-172l-277 326h252l66 -72q17 -19 27.5 -36t11.5 -24l2 -7h8q2 24 41 67l65 72h252z" />
    <glyph glyph-name="Kcaron" unicode="&#x1e8;" horiz-adv-x="1189" 
d="M1165 0h-331l-326 492h-72v-492h-278v1206h278v-473h74l299 473h319l-380 -583zM674 1323h-174l-277 297h256l62 -64q16 -16 26 -31.5t13 -22.5l2 -7h8q6 24 41 61l63 64h254z" />
    <glyph glyph-name="kcaron" unicode="&#x1e9;" horiz-adv-x="1062" 
d="M686 506l358 -506h-319l-266 389h-56v-389h-274v1368h274v-766h52l241 344h318zM358 1456h-174l-276 297h256l61 -63q16 -16 26 -31.5t13 -22.5l2 -8h8q6 25 41 62l64 63h254z" />
    <glyph glyph-name="Oogonek" unicode="&#x1ea;" horiz-adv-x="1312" 
d="M428 -203q0 114 82 193q-203 40 -314.5 197.5t-111.5 414.5q0 302 151 465.5t420 163.5q270 0 422 -163.5t152 -465.5q0 -277 -130.5 -437.5t-363.5 -182.5q-84 -41 -84 -132q0 -50 27 -77t74 -27q71 0 133 59l59 -137q-87 -100 -254 -100q-111 0 -186.5 56.5
t-75.5 172.5zM655 983q-139 0 -210.5 -101t-71.5 -284q0 -182 71 -282.5t211 -100.5t212.5 100.5t72.5 282.5q0 183 -72.5 284t-212.5 101z" />
    <glyph glyph-name="oogonek" unicode="&#x1eb;" horiz-adv-x="1050" 
d="M276 -203q0 121 91 201q-141 44 -220 167t-79 310q0 237 123.5 365.5t334.5 128.5q210 0 333.5 -128.5t123.5 -365.5q0 -221 -108.5 -350.5t-294.5 -144.5q-82 -42 -82 -130q0 -50 27.5 -77t72.5 -27q73 0 135 59l60 -137q-90 -100 -254 -100q-111 0 -187 56.5t-76 172.5
zM526 750q-95 0 -141.5 -68t-46.5 -207q0 -148 45.5 -217.5t142.5 -69.5q96 0 141.5 70t45.5 217q0 275 -187 275z" />
    <glyph glyph-name="uni004F02DB00AF" unicode="&#x1ec;" horiz-adv-x="1312" 
d="M965 1360h-617v221h617v-221zM428 -203q0 114 82 193q-203 40 -314.5 197.5t-111.5 414.5q0 302 151 465.5t420 163.5q270 0 422 -163.5t152 -465.5q0 -277 -130.5 -437.5t-363.5 -182.5q-84 -41 -84 -132q0 -50 27 -77t74 -27q71 0 133 59l59 -137q-87 -100 -254 -100
q-111 0 -186.5 56.5t-75.5 172.5zM655 983q-139 0 -210.5 -101t-71.5 -284q0 -182 71 -282.5t211 -100.5t212.5 100.5t72.5 282.5q0 183 -72.5 284t-212.5 101z" />
    <glyph glyph-name="oogonekmacron" unicode="&#x1ed;" horiz-adv-x="1050" 
d="M827 1104h-602v221h602v-221zM276 -203q0 121 91 201q-141 44 -220 167t-79 310q0 237 123.5 365.5t334.5 128.5q210 0 333.5 -128.5t123.5 -365.5q0 -221 -108.5 -350.5t-294.5 -144.5q-82 -42 -82 -130q0 -50 27.5 -77t72.5 -27q73 0 135 59l60 -137
q-90 -100 -254 -100q-111 0 -187 56.5t-76 172.5zM526 750q-95 0 -141.5 -68t-46.5 -207q0 -148 45.5 -217.5t142.5 -69.5q96 0 141.5 70t45.5 217q0 275 -187 275z" />
    <glyph glyph-name="Ezhcaron" unicode="&#x1ee;" horiz-adv-x="1028" 
d="M305 559l176 258q31 45 63.5 82.5t49.5 52.5l16 15v8q-58 -10 -164 -10h-366v241h864v-194l-364 -482v-6q198 -13 297.5 -136t99.5 -306q0 -207 -130.5 -328t-357.5 -121q-215 0 -347.5 95t-164.5 274l234 119q18 -134 89.5 -204.5t182.5 -70.5q108 0 167 60.5t59 167.5
q0 130 -99 210.5t-305 86.5v188zM623 1323h-174l-277 297h256l61 -64q16 -16 26 -31.5t13 -22.5l2 -7h9q6 24 41 61l63 64h254z" />
    <glyph glyph-name="ezhcaron" unicode="&#x1ef;" horiz-adv-x="878" 
d="M240 459l94 123q33 44 66 81t50 53l17 15v8q-62 -10 -168 -10h-240v217h727v-172l-299 -354v-6q158 -12 243 -111.5t85 -251.5q0 -174 -116.5 -269t-323.5 -95q-163 0 -270.5 74.5t-133.5 211.5l254 97q6 -83 54 -126.5t120 -43.5q65 0 107.5 40t42.5 103q0 214 -309 248
v168zM526 1073h-172l-276 326h252l65 -72q17 -19 27.5 -36t11.5 -24l2 -7h8q2 24 41 67l66 72h252z" />
    <glyph glyph-name="jcaron" unicode="&#x1f0;" horiz-adv-x="530" 
d="M346 1073h-172l-276 326h252l65 -72q17 -19 27.5 -36t11.5 -24l2 -7h8q2 24 41 67l66 72h252zM129 946h272v-936q0 -153 -69 -253.5t-188.5 -141.5t-280.5 -29v232q139 -20 202.5 29t63.5 206v893z" />
    <glyph glyph-name="jcaron" unicode="&#xe10c;" horiz-adv-x="530" 
d="M346 1073h-172l-276 326h252l65 -72q17 -19 27.5 -36t11.5 -24l2 -7h8q2 24 41 67l66 72h252zM129 946h272v-936q0 -153 -69 -253.5t-188.5 -141.5t-280.5 -29v232q139 -20 202.5 29t63.5 206v893z" />
    <glyph glyph-name="Gacute" unicode="&#x1f4;" horiz-adv-x="1288" 
d="M651 643h520v-643h-172l-45 135q-45 -80 -131 -120t-200 -40q-119 0 -216.5 38.5t-170 113.5t-112.5 195t-40 276q0 301 156 467t434 166q179 0 304.5 -79t186.5 -226l-268 -131q-58 190 -233 190q-41 0 -80 -11t-78.5 -39.5t-68.5 -71.5t-47.5 -112.5t-18.5 -156.5
q0 -84 16.5 -153t50.5 -123.5t92.5 -84.5t137.5 -30q117 0 177 49t60 129v41h-254v221zM786 1325h-251l131 293h344z" />
    <glyph glyph-name="gacute" unicode="&#x1f5;" horiz-adv-x="1028" 
d="M492 969q160 0 268 -60q29 29 42 56.5t29 87.5l216 -72q-7 -64 -57.5 -111.5t-115.5 -66.5q44 -68 44 -168q0 -106 -59 -181t-155.5 -110t-220.5 -35q-77 0 -114 13q-45 -27 -45 -78q0 -26 19.5 -42t55.5 -16h271q157 0 245.5 -76.5t88.5 -201.5q0 -78 -31.5 -138.5
t-83.5 -98t-125 -61.5t-148 -33t-161 -9q-93 0 -168.5 12t-139.5 38t-99.5 73.5t-35.5 113.5q0 173 250 191q-68 4 -110.5 53.5t-42.5 114.5q0 60 40 112t119 74q-100 39 -148 106.5t-48 178.5q0 161 113.5 247.5t306.5 86.5zM264 -141q0 -109 221 -109q141 0 202 26.5
t61 84.5q0 43 -27.5 61.5t-89.5 18.5h-234q-61 0 -97 -21t-36 -61zM348 635q0 -65 37 -105.5t107 -40.5t107.5 37.5t37.5 108.5q0 147 -145 147q-144 -3 -144 -147zM637 1077h-250l143 314h344z" />
    <glyph glyph-name="Ngrave" unicode="&#x1f8;" horiz-adv-x="1384" 
d="M420 1206l426 -583q30 -41 55 -81.5t35 -60.5l10 -20h8q-6 102 -6 256v489h279v-1206h-254l-426 573q-35 45 -63.5 90t-39.5 67l-12 22h-8q12 -99 12 -273v-479h-278v1206h262zM834 1325h-250l-226 293h344z" />
    <glyph glyph-name="ngrave" unicode="&#x1f9;" horiz-adv-x="1095" 
d="M362 946l33 -182q74 205 303 205q119 0 199 -74.5t80 -224.5v-670h-275v567q0 84 -28.5 128t-98.5 44q-75 0 -123.5 -50.5t-48.5 -168.5v-520h-274v946h233zM696 1077h-247l-240 314h344z" />
    <glyph glyph-name="uni004102DA00B4" unicode="&#x1fa;" horiz-adv-x="1261" 
d="M942 0l-88 252h-457l-86 -252h-291l437 1206h344l440 -1206h-299zM522 621l-47 -138h297l-49 135q-31 88 -54.5 174.5t-31.5 128.5l-8 42h-8q-31 -147 -99 -342zM625 1268q-110 0 -173 65t-63 164q0 92 65.5 156.5t170.5 64.5q104 0 169.5 -64.5t65.5 -156.5
q0 -99 -62.5 -164t-172.5 -65zM625 1595q-47 0 -74 -27.5t-27 -72.5q0 -42 26.5 -70t74.5 -28q47 0 73.5 28t26.5 70q0 45 -26.5 72.5t-73.5 27.5zM752 1784h-252l131 293h344z" />
    <glyph glyph-name="aringacute" unicode="&#x1fb;" horiz-adv-x="1026" 
d="M592 297v96q-139 4 -199.5 -29t-60.5 -100q0 -42 27.5 -68t76.5 -26q62 0 109 31.5t47 95.5zM862 655v-368q0 -86 70 -86q28 0 59 14v-199q-53 -34 -155 -34q-181 0 -226 149q-57 -156 -274 -156q-127 0 -203 70t-76 191q0 161 133 240.5t402 64.5v90q0 131 -111 131
q-113 0 -119 -139l-272 51q10 145 120.5 220t281.5 75q179 0 274.5 -79t95.5 -235zM496 1026q-110 0 -173 65t-63 164q0 92 66 158t170 66t169.5 -66t65.5 -158q0 -99 -62.5 -164t-172.5 -65zM496 1356q-46 0 -73.5 -29t-27.5 -74q0 -41 27 -69.5t74 -28.5t73.5 28.5
t26.5 69.5q0 45 -27 74t-73 29zM606 1540h-252l131 293h344z" />
    <glyph glyph-name="AEacute" unicode="&#x1fc;" horiz-adv-x="1794" 
d="M1692 0h-809v252h-416l-158 -252h-305l719 1206h969v-241h-531v-240h469v-231h-469v-252h531v-242zM887 1004l-299 -521h295v193q0 93 3 175t6 117l3 36h-8zM1260 1325h-252l131 293h344z" />
    <glyph glyph-name="aeacute" unicode="&#x1fd;" horiz-adv-x="1513" 
d="M1044 197q114 0 166 120l234 -81q-35 -136 -145 -198.5t-261 -62.5q-225 0 -348 148q-42 -69 -126.5 -108.5t-203.5 -39.5q-140 0 -221.5 69t-81.5 192q0 155 131.5 240.5t399.5 86.5q6 48 18 88q-7 54 -39.5 82.5t-83.5 28.5q-110 0 -116 -139l-275 51q7 97 64 165
t145 99t199 31q169 0 262 -84q113 84 280 84q97 0 174.5 -33t126 -90t74 -132t25.5 -161q0 -79 -12 -141h-570q2 -95 47.5 -155t136.5 -60zM862 563h312q2 12 2 47q0 69 -36 112.5t-104 43.5q-76 0 -122.5 -59.5t-51.5 -143.5zM451 174q50 0 94.5 26.5t60.5 73.5
q-19 69 -22 138q-236 -6 -236 -136q0 -48 27 -75t76 -27zM850 1077h-250l143 314h344z" />
    <glyph glyph-name="Oslashacute" unicode="&#x1fe;" horiz-adv-x="1312" 
d="M186 -25l-94 82l109 123q-117 157 -117 422q0 302 151 465.5t420 163.5q227 0 373 -119l96 111l99 -82l-109 -121q115 -162 115 -418q0 -300 -152.5 -463.5t-421.5 -163.5q-226 0 -368 115zM938 598q0 104 -27 193l-446 -502q71 -74 190 -74q140 0 211.5 100.5
t71.5 282.5zM655 983q-139 0 -209.5 -101t-70.5 -284q0 -109 24 -192l447 501q-73 76 -191 76zM766 1325h-252l131 293h344z" />
    <glyph glyph-name="oslashacute" unicode="&#x1ff;" horiz-adv-x="1050" 
d="M150 -31l-91 84l95 101q-86 128 -86 321q0 237 123.5 365.5t334.5 128.5q174 0 295 -95l88 97l97 -84l-101 -107q78 -127 78 -305q0 -236 -124 -368t-333 -132q-171 0 -288 88zM637 1077h-250l143 314h344zM526 750q-95 0 -141.5 -68t-46.5 -207q0 -69 8 -113l309 334
q-48 54 -129 54zM713 475q0 49 -6 90l-308 -327q47 -50 127 -50q96 0 141.5 70t45.5 217z" />
    <glyph glyph-name="Adoublegrave" unicode="&#x200;" horiz-adv-x="1261" 
d="M942 0l-88 252h-457l-86 -252h-291l437 1206h344l440 -1206h-299zM522 621l-47 -138h297l-49 135q-31 88 -54.5 174.5t-31.5 128.5l-8 42h-8q-31 -147 -99 -342zM909 1325h-194l-201 293h289zM571 1325h-213l-239 293h307z" />
    <glyph glyph-name="edoublegrave" unicode="&#x201;" horiz-adv-x="999" 
d="M530 186q126 0 166 129l234 -79q-35 -136 -144.5 -198.5t-261.5 -62.5q-206 0 -331 129.5t-125 354.5q0 243 122.5 376.5t337.5 133.5q195 0 297.5 -115t102.5 -305q0 -60 -13 -123h-583q5 -111 55.5 -175.5t142.5 -64.5zM340 578h326q2 12 2 32q0 69 -39.5 112.5
t-110.5 43.5q-75 0 -122.5 -51.5t-55.5 -136.5zM807 1077h-195l-200 314h288zM469 1077h-213l-240 314h308z" />
    <glyph glyph-name="edoublegrave" unicode="&#x205;" horiz-adv-x="999" 
d="M530 186q126 0 166 129l234 -79q-35 -136 -144.5 -198.5t-261.5 -62.5q-206 0 -331 129.5t-125 354.5q0 243 122.5 376.5t337.5 133.5q195 0 297.5 -115t102.5 -305q0 -60 -13 -123h-583q5 -111 55.5 -175.5t142.5 -64.5zM340 578h326q2 12 2 32q0 69 -39.5 112.5
t-110.5 43.5q-75 0 -122.5 -51.5t-55.5 -136.5zM807 1077h-195l-200 314h288zM469 1077h-213l-240 314h308z" />
    <glyph glyph-name="Ainvertedbreve" unicode="&#x202;" horiz-adv-x="1261" 
d="M942 0l-88 252h-457l-86 -252h-291l437 1206h344l440 -1206h-299zM522 621l-47 -138h297l-49 135q-31 88 -54.5 174.5t-31.5 128.5l-8 42h-8q-31 -147 -99 -342zM625 1634q156 0 231.5 -80t75.5 -223h-203q-2 58 -24 84.5t-80 26.5q-57 0 -80 -26.5t-25 -84.5h-203
q0 143 76 223t232 80z" />
    <glyph glyph-name="ainvertedbreve" unicode="&#x203;" horiz-adv-x="1026" 
d="M592 297v96q-139 4 -199.5 -29t-60.5 -100q0 -42 27.5 -68t76.5 -26q62 0 109 31.5t47 95.5zM862 655v-368q0 -86 70 -86q28 0 59 14v-199q-53 -34 -155 -34q-181 0 -226 149q-57 -156 -274 -156q-127 0 -203 70t-76 191q0 161 133 240.5t402 64.5v90q0 131 -111 131
q-113 0 -119 -139l-272 51q10 145 120.5 220t281.5 75q179 0 274.5 -79t95.5 -235zM485 1405q154 0 231 -90t77 -234h-203q-2 66 -23 96.5t-82 30.5q-60 0 -81 -31t-23 -96h-203q0 144 76.5 234t230.5 90z" />
    <glyph glyph-name="Edoublegrave" unicode="&#x204;" horiz-adv-x="1069" 
d="M967 242v-242h-809v1206h809v-241h-531v-240h467v-231h-467v-252h531zM842 1325h-195l-201 293h289zM504 1325h-213l-240 293h307z" />
    <glyph glyph-name="Einvertedbreve" unicode="&#x206;" horiz-adv-x="1069" 
d="M967 242v-242h-809v1206h809v-241h-531v-240h467v-231h-467v-252h531zM553 1634q156 0 231.5 -80t75.5 -223h-203q-2 58 -24 84.5t-80 26.5q-57 0 -79.5 -26.5t-24.5 -84.5h-203q0 143 75.5 223t231.5 80z" />
    <glyph glyph-name="einvertedbreve" unicode="&#x207;" horiz-adv-x="999" 
d="M530 186q126 0 166 129l234 -79q-35 -136 -144.5 -198.5t-261.5 -62.5q-206 0 -331 129.5t-125 354.5q0 243 122.5 376.5t337.5 133.5q195 0 297.5 -115t102.5 -305q0 -60 -13 -123h-583q5 -111 55.5 -175.5t142.5 -64.5zM340 578h326q2 12 2 32q0 69 -39.5 112.5
t-110.5 43.5q-75 0 -122.5 -51.5t-55.5 -136.5zM520 1405q154 0 230.5 -90t76.5 -234h-202q-2 66 -23 96.5t-82 30.5q-60 0 -81 -31t-23 -96h-203q0 144 76.5 234t230.5 90z" />
    <glyph glyph-name="Idoublegrave" unicode="&#x208;" horiz-adv-x="593" 
d="M158 1206h278v-1206h-278v1206zM575 1325h-194l-201 293h289zM238 1325h-213l-240 293h307z" />
    <glyph glyph-name="idoublegrave" unicode="&#x209;" horiz-adv-x="532" 
d="M129 946h274v-946h-274v946zM551 1077h-195l-200 314h288zM213 1077h-213l-240 314h308z" />
    <glyph glyph-name="Iinvertedbreve" unicode="&#x20a;" horiz-adv-x="593" 
d="M158 1206h278v-1206h-278v1206zM297 1634q156 0 231.5 -80t75.5 -223h-203q-2 58 -24 84.5t-80 26.5q-57 0 -79.5 -26.5t-24.5 -84.5h-203q0 143 75.5 223t231.5 80z" />
    <glyph glyph-name="iinvertedbreve" unicode="&#x20b;" horiz-adv-x="532" 
d="M129 946h274v-946h-274v946zM266 1405q154 0 230.5 -90t76.5 -234h-202q-2 66 -23 96.5t-82 30.5q-60 0 -81 -31t-23 -96h-203q0 144 76.5 234t230.5 90z" />
    <glyph glyph-name="Odoublegrave" unicode="&#x20c;" horiz-adv-x="1312" 
d="M655 -25q-269 0 -420 163.5t-151 463.5q0 302 151 465.5t420 163.5q270 0 422 -163.5t152 -465.5q0 -300 -152.5 -463.5t-421.5 -163.5zM655 983q-139 0 -210.5 -101t-71.5 -284q0 -182 71 -282.5t211 -100.5t212.5 100.5t72.5 282.5q0 183 -72.5 284t-212.5 101z
M936 1325h-195l-200 293h288zM598 1325h-213l-240 293h308z" />
    <glyph glyph-name="odoublegrave" unicode="&#x20d;" horiz-adv-x="1050" 
d="M526 -25q-210 0 -334 132t-124 368q0 237 123.5 365.5t334.5 128.5q210 0 333.5 -128.5t123.5 -365.5q0 -236 -124 -368t-333 -132zM526 750q-95 0 -141.5 -68t-46.5 -207q0 -148 45.5 -217.5t142.5 -69.5q96 0 141.5 70t45.5 217q0 275 -187 275zM811 1077h-195
l-200 314h289zM473 1077h-213l-240 314h308z" />
    <glyph glyph-name="Oinvertedbreve" unicode="&#x20e;" horiz-adv-x="1312" 
d="M655 -25q-269 0 -420 163.5t-151 463.5q0 302 151 465.5t420 163.5q270 0 422 -163.5t152 -465.5q0 -300 -152.5 -463.5t-421.5 -163.5zM655 983q-139 0 -210.5 -101t-71.5 -284q0 -182 71 -282.5t211 -100.5t212.5 100.5t72.5 282.5q0 183 -72.5 284t-212.5 101z
M655 1634q156 0 232 -80t76 -223h-203q-2 58 -24.5 84.5t-80.5 26.5q-57 0 -79.5 -26.5t-24.5 -84.5h-203q0 143 75.5 223t231.5 80z" />
    <glyph glyph-name="oinvertedbreve" unicode="&#x20f;" horiz-adv-x="1050" 
d="M526 -25q-210 0 -334 132t-124 368q0 237 123.5 365.5t334.5 128.5q210 0 333.5 -128.5t123.5 -365.5q0 -236 -124 -368t-333 -132zM526 750q-95 0 -141.5 -68t-46.5 -207q0 -148 45.5 -217.5t142.5 -69.5q96 0 141.5 70t45.5 217q0 275 -187 275zM524 1405
q154 0 230.5 -90t76.5 -234h-202q-2 66 -23 96.5t-82 30.5q-60 0 -81 -31t-23 -96h-203q0 144 76.5 234t230.5 90z" />
    <glyph glyph-name="Rinvertedbreve" unicode="&#x212;" horiz-adv-x="1191" 
d="M1137 0h-310q-41 32 -63 125l-45 180q-18 73 -54 97t-110 24h-119v-426h-278v1206h475q213 0 325.5 -86.5t112.5 -281.5q0 -135 -71.5 -213t-192.5 -90v-5q85 -14 131.5 -54t69.5 -122l61 -225q20 -79 68 -129zM436 971v-316h178q86 0 129 37t43 121q0 158 -172 158h-178
zM569 1634q156 0 232 -80t76 -223h-203q-2 58 -24.5 84.5t-80.5 26.5q-57 0 -79.5 -26.5t-24.5 -84.5h-203q0 143 75.5 223t231.5 80z" />
    <glyph glyph-name="rinvertedbreve" unicode="&#x213;" horiz-adv-x="806" 
d="M782 967l-30 -303q-47 16 -107 16q-45 0 -84.5 -12t-76.5 -38.5t-59 -77t-22 -120.5v-432h-274v946h238l32 -260q17 66 43 115.5t69.5 91t111.5 60.5t159 14zM455 1405q154 0 230.5 -90t76.5 -234h-203q-2 66 -22.5 96.5t-81.5 30.5q-60 0 -81.5 -31t-23.5 -96h-203
q0 144 77 234t231 90z" />
    <glyph glyph-name="Udoublegrave" unicode="&#x214;" horiz-adv-x="1245" 
d="M844 1206h276v-803q0 -118 -39 -203.5t-110 -133.5t-156.5 -69.5t-191.5 -21.5q-83 0 -154 13t-135.5 44t-110 79t-72 122.5t-26.5 169.5v803h278v-725q0 -138 48 -206t172 -68q125 0 173 68t48 208v723zM901 1325h-194l-201 293h289zM563 1325h-213l-239 293h307z" />
    <glyph glyph-name="udoublegrave" unicode="&#x215;" horiz-adv-x="1087" 
d="M721 0l-33 176q-26 -100 -96 -150.5t-197 -50.5q-133 0 -208.5 74t-75.5 232v665h274v-588q0 -88 30.5 -132t98.5 -44q76 0 123 63t47 193v508h274v-946h-237zM819 1077h-194l-201 314h289zM481 1077h-213l-239 314h307z" />
    <glyph glyph-name="Uinvertedbreve" unicode="&#x216;" horiz-adv-x="1245" 
d="M844 1206h276v-803q0 -118 -39 -203.5t-110 -133.5t-156.5 -69.5t-191.5 -21.5q-83 0 -154 13t-135.5 44t-110 79t-72 122.5t-26.5 169.5v803h278v-725q0 -138 48 -206t172 -68q125 0 173 68t48 208v723zM623 1634q156 0 231.5 -80t75.5 -223h-203q-2 58 -24 84.5
t-80 26.5q-57 0 -80 -26.5t-25 -84.5h-203q0 143 76 223t232 80z" />
    <glyph glyph-name="uinvertedbreve" unicode="&#x217;" horiz-adv-x="1087" 
d="M721 0l-33 176q-26 -100 -96 -150.5t-197 -50.5q-133 0 -208.5 74t-75.5 232v665h274v-588q0 -88 30.5 -132t98.5 -44q76 0 123 63t47 193v508h274v-946h-237zM535 1405q154 0 230.5 -90t76.5 -234h-203q-2 66 -22.5 96.5t-81.5 30.5q-60 0 -81.5 -31t-23.5 -96h-203
q0 144 77 234t231 90z" />
    <glyph glyph-name="Scommaaccent" unicode="&#x218;" horiz-adv-x="1054" 
d="M45 270l254 113q17 -89 78 -142t147 -53q72 0 116 30t44 89t-41.5 93t-159.5 71q-211 67 -301 156.5t-90 242.5q0 79 24 142t64 103.5t95.5 67.5t115 38.5t125.5 11.5q423 0 457 -313l-277 -70q-7 75 -56.5 114.5t-117.5 39.5q-62 0 -100.5 -28.5t-38.5 -84.5
q0 -60 46.5 -92.5t160.5 -67.5q102 -32 168 -64t117.5 -77.5t74.5 -108t23 -147.5q0 -95 -36.5 -166t-102.5 -112t-148 -61t-182 -20q-186 0 -300.5 69t-158.5 226zM707 -289q0 -233 -293 -233v92q69 2 102 19.5t33 60.5q-60 -11 -104 19t-44 93q0 65 41 99.5t103 34.5
q71 0 116.5 -51t45.5 -134z" />
    <glyph glyph-name="scommaaccent" unicode="&#x219;" horiz-adv-x="911" 
d="M37 219l225 90q28 -141 184 -141q59 0 94 21t35 61q0 39 -27.5 61t-92.5 37l-140 33q-241 62 -241 281q0 86 32 148.5t88.5 95.5t121.5 48t143 15q355 0 375 -267l-256 -36q-7 55 -39 77.5t-93 22.5q-48 0 -77 -21t-29 -57q0 -68 92 -86l133 -29q283 -60 283 -305
q0 -77 -30.5 -134.5t-86.5 -91.5t-128 -50.5t-161 -16.5q-180 0 -279 57t-126 187zM612 -289q0 -233 -293 -233v92q69 2 102.5 19.5t33.5 60.5q-60 -11 -104 19t-44 93q0 65 41 99.5t103 34.5q71 0 116 -51t45 -134z" />
    <glyph glyph-name="Hcaron" unicode="&#x21e;" horiz-adv-x="1335" 
d="M436 0h-278v1206h278v-473h463v473h279v-1206h-279v492h-463v-492zM756 1323h-174l-277 297h256l62 -64q16 -16 26 -31.5t13 -22.5l2 -7h8q6 24 41 61l63 64h254z" />
    <glyph glyph-name="hcaron" unicode="&#x21f;" horiz-adv-x="1095" 
d="M403 1368v-602q72 203 295 203q119 0 199 -74.5t80 -224.5v-670h-275v567q0 84 -28.5 128t-98.5 44q-75 0 -123.5 -50.5t-48.5 -166.5v-522h-274v1368h274zM358 1456h-174l-276 297h256l61 -63q16 -16 26 -31.5t13 -22.5l2 -8h8q6 25 41 62l64 63h254z" />
    <glyph glyph-name="Adotabove" unicode="&#x226;" horiz-adv-x="1261" 
d="M942 0l-88 252h-457l-86 -252h-291l437 1206h344l440 -1206h-299zM522 621l-47 -138h297l-49 135q-31 88 -54.5 174.5t-31.5 128.5l-8 42h-8q-31 -147 -99 -342zM459 1477q0 75 47 117t119 42q76 0 124 -41.5t48 -117.5q0 -73 -48 -114.5t-124 -41.5q-72 0 -119 41.5
t-47 114.5z" />
    <glyph glyph-name="adotabove" unicode="&#x227;" horiz-adv-x="1026" 
d="M592 297v96q-139 4 -199.5 -29t-60.5 -100q0 -42 27.5 -68t76.5 -26q62 0 109 31.5t47 95.5zM862 655v-368q0 -86 70 -86q28 0 59 14v-199q-53 -34 -155 -34q-181 0 -226 149q-57 -156 -274 -156q-127 0 -203 70t-76 191q0 161 133 240.5t402 64.5v90q0 131 -111 131
q-113 0 -119 -139l-272 51q10 145 120.5 220t281.5 75q179 0 274.5 -79t95.5 -235zM313 1219q0 75 47.5 117t118.5 42q77 0 124.5 -41.5t47.5 -117.5q0 -73 -47.5 -114.5t-124.5 -41.5q-71 0 -118.5 42t-47.5 114z" />
    <glyph glyph-name="Otildemacron" unicode="&#x22c;" horiz-adv-x="1312" 
d="M655 -25q-269 0 -420 163.5t-151 463.5q0 302 151 465.5t420 163.5q270 0 422 -163.5t152 -465.5q0 -300 -152.5 -463.5t-421.5 -163.5zM655 983q-139 0 -210.5 -101t-71.5 -284q0 -182 71 -282.5t211 -100.5t212.5 100.5t72.5 282.5q0 183 -72.5 284t-212.5 101z
M813 1300q-49 0 -78.5 10t-72.5 36q-51 30 -73.5 40.5t-45.5 10.5q-33 0 -52 -25.5t-12 -75.5h-151q-30 59 -27 117t27 103.5t71.5 73.5t106.5 28q65 0 139 -43q8 -4 24 -13.5t22 -13t17.5 -9.5t17.5 -8.5t15 -5.5t16 -4t15 -1q32 0 46 21t7 73h160q54 -124 2.5 -219
t-174.5 -95zM965 1708h-617v221h617v-221z" />
    <glyph glyph-name="otildemacron" unicode="&#x22d;" horiz-adv-x="1050" 
d="M526 -25q-210 0 -334 132t-124 368q0 237 123.5 365.5t334.5 128.5q210 0 333.5 -128.5t123.5 -365.5q0 -236 -124 -368t-333 -132zM526 750q-95 0 -141.5 -68t-46.5 -207q0 -148 45.5 -217.5t142.5 -69.5q96 0 141.5 70t45.5 217q0 275 -187 275zM684 1036
q-49 0 -79 10.5t-73 36.5q-10 6 -31 17.5t-27.5 15.5t-19.5 10t-21.5 7.5t-18.5 1.5q-33 0 -52 -25.5t-12 -75.5h-151q-30 58 -27 115.5t27 103t71.5 73.5t106.5 28q68 0 139 -41q7 -4 24 -14.5t22 -13.5t17.5 -10t18 -9t14.5 -5.5t16 -4.5t15 -1q66 0 53 95h160
q54 -124 2.5 -219t-174.5 -95zM827 1434h-602v221h602v-221z" />
    <glyph glyph-name="Odotabove" unicode="&#x22e;" horiz-adv-x="1312" 
d="M655 -25q-269 0 -420 163.5t-151 463.5q0 302 151 465.5t420 163.5q270 0 422 -163.5t152 -465.5q0 -300 -152.5 -463.5t-421.5 -163.5zM655 983q-139 0 -210.5 -101t-71.5 -284q0 -182 71 -282.5t211 -100.5t212.5 100.5t72.5 282.5q0 183 -72.5 284t-212.5 101z
M487 1479q0 75 47 117t119 42q76 0 124 -41.5t48 -117.5q0 -73 -48 -114.5t-124 -41.5q-72 0 -119 41.5t-47 114.5z" />
    <glyph glyph-name="odotabove" unicode="&#x22f;" horiz-adv-x="1050" 
d="M526 -25q-210 0 -334 132t-124 368q0 237 123.5 365.5t334.5 128.5q210 0 333.5 -128.5t123.5 -365.5q0 -236 -124 -368t-333 -132zM526 750q-95 0 -141.5 -68t-46.5 -207q0 -148 45.5 -217.5t142.5 -69.5q96 0 141.5 70t45.5 217q0 275 -187 275zM358 1219
q0 75 47.5 117t118.5 42q77 0 124.5 -41.5t47.5 -117.5q0 -73 -47.5 -114.5t-124.5 -41.5q-71 0 -118.5 42t-47.5 114z" />
    <glyph glyph-name="odotabovemacron" unicode="&#x231;" horiz-adv-x="1050" 
d="M526 -25q-210 0 -334 132t-124 368q0 237 123.5 365.5t334.5 128.5q210 0 333.5 -128.5t123.5 -365.5q0 -236 -124 -368t-333 -132zM526 750q-95 0 -141.5 -68t-46.5 -207q0 -148 45.5 -217.5t142.5 -69.5q96 0 141.5 70t45.5 217q0 275 -187 275zM827 1434h-602v221h602
v-221zM358 1208q0 75 47.5 117.5t118.5 42.5q77 0 124.5 -42t47.5 -118q0 -73 -47.5 -114t-124.5 -41q-71 0 -118.5 41.5t-47.5 113.5z" />
    <glyph glyph-name="odotabovemacron" unicode="&#xe11e;" horiz-adv-x="1050" 
d="M526 -25q-210 0 -334 132t-124 368q0 237 123.5 365.5t334.5 128.5q210 0 333.5 -128.5t123.5 -365.5q0 -236 -124 -368t-333 -132zM526 750q-95 0 -141.5 -68t-46.5 -207q0 -148 45.5 -217.5t142.5 -69.5q96 0 141.5 70t45.5 217q0 275 -187 275zM827 1434h-602v221h602
v-221zM358 1208q0 75 47.5 117.5t118.5 42.5q77 0 124.5 -42t47.5 -118q0 -73 -47.5 -114t-124.5 -41q-71 0 -118.5 41.5t-47.5 113.5z" />
    <glyph glyph-name="Ymacron" unicode="&#x232;" horiz-adv-x="1116" 
d="M336 1206l141 -286q34 -72 56.5 -138t28.5 -96l5 -29h8q13 105 89 261l139 288h293l-385 -805v-401h-279v401l-412 805h316zM864 1360h-616v221h616v-221z" />
    <glyph glyph-name="ymacron" unicode="&#x233;" horiz-adv-x="991" 
d="M303 946l123 -430q24 -83 40.5 -159t21.5 -111l4 -35h8q12 121 67 303l131 432h289l-375 -1030q-31 -87 -67.5 -148t-74 -99t-85.5 -59t-95 -28.5t-110 -7.5q-72 0 -170 23l41 241q58 -33 125 -33q66 0 107.5 32.5t70.5 109.5l-350 999h299zM801 1104h-602v221h602v-221z
" />
    <glyph glyph-name="dotlessj" unicode="&#x237;" horiz-adv-x="530" 
d="M129 946h272v-936q0 -153 -69 -253.5t-188.5 -141.5t-280.5 -29v232q139 -20 202.5 29t63.5 206v893z" />
    <glyph glyph-name="schwa" unicode="&#x259;" horiz-adv-x="999" 
d="M471 748q-116 0 -168 -127l-233 75q24 93 86 156t142 90t177 27q206 0 331.5 -129.5t125.5 -354.5q0 -243 -122 -376.5t-339 -133.5q-193 0 -296 115t-103 305q0 61 12 123h569q-2 105 -48 167.5t-134 62.5zM651 362h-313q-2 -10 -2 -30q0 -69 36.5 -112.5t104.5 -43.5
q77 0 122.5 51.5t51.5 134.5z" />
    <glyph glyph-name="ezh" unicode="&#x292;" horiz-adv-x="878" 
d="M240 459l94 123q33 44 66 81t50 53l17 15v8q-62 -10 -168 -10h-240v217h727v-172l-299 -354v-6q158 -12 243 -111.5t85 -251.5q0 -174 -116.5 -269t-323.5 -95q-163 0 -270.5 74.5t-133.5 211.5l254 97q6 -83 54 -126.5t120 -43.5q65 0 107.5 40t42.5 103q0 214 -309 248
v168z" />
    <glyph glyph-name="circumflex" unicode="&#x2c6;" horiz-adv-x="1052" 
d="M440 1399h172l277 -326h-252l-66 70q-17 19 -27.5 36t-11.5 24l-2 7h-8q-2 -24 -41 -67l-65 -70h-252z" />
    <glyph glyph-name="caron" unicode="&#x2c7;" horiz-adv-x="1052" 
d="M612 1073h-172l-276 326h252l65 -72q17 -19 27.5 -36t11.5 -24l2 -7h8q2 24 41 67l66 72h252z" />
    <glyph glyph-name="breve" unicode="&#x2d8;" horiz-adv-x="942" 
d="M471 1065q-154 0 -230.5 90t-76.5 234h203q2 -65 23 -96t81 -31q61 0 81.5 30.5t22.5 96.5h203q0 -144 -76.5 -234t-230.5 -90z" />
    <glyph glyph-name="dotaccent" unicode="&#x2d9;" horiz-adv-x="665" 
d="M164 1225q0 75 47.5 117t118.5 42q77 0 124.5 -41.5t47.5 -117.5q0 -73 -47.5 -114.5t-124.5 -41.5q-71 0 -118.5 42t-47.5 114z" />
    <glyph glyph-name="ring" unicode="&#x2da;" horiz-adv-x="798" 
d="M399 1036q-110 0 -172.5 65.5t-62.5 164.5q0 92 65.5 157.5t169.5 65.5t170 -65.5t66 -157.5q0 -99 -63 -164.5t-173 -65.5zM399 1366q-46 0 -73 -28.5t-27 -73.5q0 -41 26.5 -70t73.5 -29t74 29t27 70q0 45 -27.5 73.5t-73.5 28.5z" />
    <glyph glyph-name="ogonek" unicode="&#x2db;" horiz-adv-x="839" 
d="M139 -203q0 65 27 118t66.5 84.5t88.5 53.5t88.5 31t71.5 10l70 -94q-82 0 -136.5 -39.5t-54.5 -110.5q0 -50 28 -77t75 -27q71 0 133 59l59 -137q-90 -100 -254 -100q-111 0 -186.5 56.5t-75.5 172.5z" />
    <glyph glyph-name="tilde" unicode="&#x2dc;" horiz-adv-x="1042" 
d="M678 1067q-49 0 -79 10.5t-73 36.5q-8 5 -26 15t-24 13t-18 9.5t-18.5 8t-15 3.5t-16.5 2q-33 0 -52 -25t-12 -75h-151q-30 59 -27 116t27 102t71.5 73t106.5 28q68 0 139 -41q6 -3 17.5 -10.5t16 -10t14 -8t13.5 -7.5t11.5 -6t11.5 -5.5t10.5 -4t11 -3.5t10 -1.5
t11.5 -0.5q66 0 53 94h160q54 -124 2.5 -218.5t-174.5 -94.5z" />
    <glyph glyph-name="hungarumlaut" unicode="&#x2dd;" horiz-adv-x="1118" 
d="M358 1077h-194l106 314h289zM717 1077h-213l143 314h307z" />
    <glyph glyph-name="uni0312" unicode="&#x312;" horiz-adv-x="632" 
d="M164 1505q0 234 293 234v-92q-69 -2 -102 -19.5t-33 -60.5q60 11 103.5 -19.5t43.5 -93.5q0 -65 -40 -99t-103 -34q-71 0 -116.5 50.5t-45.5 133.5z" />
    <glyph glyph-name="uni0320" unicode="&#x320;" horiz-adv-x="929" 
d="M766 -393h-602v219h602v-219z" />
    <glyph glyph-name="uni0323" unicode="&#x323;" horiz-adv-x="665" 
d="M164 -260q0 75 47 117.5t119 42.5q76 0 124 -42t48 -118q0 -73 -48 -114.5t-124 -41.5q-72 0 -119 41.5t-47 114.5z" />
    <glyph glyph-name="uni0329" unicode="&#x329;" horiz-adv-x="595" 
d="M164 -438v350h268v-330z" />
    <glyph glyph-name="pi" unicode="&#x3c0;" horiz-adv-x="1445" 
d="M326 985h960v-205h-201v-473q0 -54 18.5 -79t59.5 -25q75 0 131 94l90 -164q-70 -158 -288 -158q-142 0 -214.5 70t-72.5 242v493h-176l-98 -780h-277l102 780h-24q-98 0 -109 -133h-207q0 338 306 338z" />
    <glyph glyph-name="uni0E3F" unicode="&#xe3f;" horiz-adv-x="1167" 
d="M553 -217v217h-385v985h385v191h102v-191h60q152 0 237.5 -63t85.5 -185q0 -196 -198 -229v-8q115 -12 178 -72.5t63 -159.5q0 -137 -91.5 -202.5t-274.5 -65.5h-60v-217h-102zM666 412h-11v-224h7q76 0 111.5 25t35.5 90q0 52 -32.5 80.5t-110.5 28.5zM444 578h109v225
h-109v-225zM444 412v-224h109v224h-109zM776 690q0 107 -121 113v-225q121 0 121 112z" />
    <glyph glyph-name="Ddotbelow" unicode="&#x1e0c;" horiz-adv-x="1273" 
d="M436 236h121q170 0 256 83.5t86 280.5q0 105 -22.5 178.5t-66.5 115t-101.5 59.5t-135.5 18h-137v-735zM584 0h-426v1206h444q129 0 233.5 -33.5t185 -102t125 -184t44.5 -270.5q0 -163 -45.5 -284t-128.5 -192t-190.5 -105.5t-241.5 -34.5zM420 -270q0 75 47 117t119 42
q76 0 124 -41.5t48 -117.5q0 -73 -48 -114.5t-124 -41.5q-72 0 -119 41.5t-47 114.5z" />
    <glyph glyph-name="ddotbelow" unicode="&#x1e0d;" 
d="M739 393v176q0 98 -53.5 147.5t-130.5 49.5q-91 0 -152 -72.5t-61 -228.5q0 -132 55.5 -205.5t153.5 -73.5q76 0 132 55t56 152zM737 821v547h275v-1368h-238l-35 164q-46 -189 -295 -189q-163 0 -269.5 126.5t-106.5 351.5q0 244 110 380t311 136q92 0 160.5 -40.5
t87.5 -107.5zM371 -270q0 75 47 117t119 42q76 0 124 -41.5t48 -117.5q0 -73 -48 -114.5t-124 -41.5q-72 0 -119 41.5t-47 114.5z" />
    <glyph glyph-name="Dcedilla" unicode="&#x1e10;" horiz-adv-x="1273" 
d="M807 -242q0 -93 -66 -141.5t-170 -48.5q-70 0 -127.5 20.5t-87.5 53.5l52 131q63 -72 133 -72q61 0 61 53q0 71 -104 82l18 164h-358v1206h444q129 0 233.5 -33.5t185 -102t125 -184t44.5 -270.5q0 -156 -41 -273t-117 -189.5t-175.5 -110t-223.5 -43.5l-6 -74
q180 -12 180 -168zM436 236h121q170 0 256 83.5t86 280.5q0 105 -22.5 178.5t-66.5 115t-101.5 59.5t-135.5 18h-137v-735z" />
    <glyph glyph-name="dcedilla" unicode="&#x1e11;" 
d="M758 -242q0 -93 -66 -141.5t-170 -48.5q-70 0 -127.5 20.5t-87.5 53.5l51 131q63 -72 134 -72q61 0 61 53q0 71 -104 82l14 139h-19q-163 0 -269.5 126.5t-106.5 351.5q0 244 110 380t311 136q92 0 160.5 -40.5t87.5 -107.5v547h275v-1368h-238l-35 164
q-33 -131 -155 -168l-6 -70q180 -12 180 -168zM739 393v176q0 98 -53.5 147.5t-130.5 49.5q-91 0 -152 -72.5t-61 -228.5q0 -132 55.5 -205.5t153.5 -73.5q76 0 132 55t56 152z" />
    <glyph glyph-name="Hdotbelow" unicode="&#x1e24;" horiz-adv-x="1335" 
d="M436 0h-278v1206h278v-473h463v473h279v-1206h-279v492h-463v-492zM500 -270q0 75 47 117t119 42q76 0 124 -41.5t48 -117.5q0 -73 -48 -114.5t-124 -41.5q-72 0 -119 41.5t-47 114.5z" />
    <glyph glyph-name="hdotbelow" unicode="&#x1e25;" horiz-adv-x="1095" 
d="M403 1368v-602q72 203 295 203q119 0 199 -74.5t80 -224.5v-670h-275v567q0 84 -28.5 128t-98.5 44q-75 0 -123.5 -50.5t-48.5 -166.5v-522h-274v1368h274zM385 -270q0 75 47 117t119 42q76 0 124 -41.5t48 -117.5q0 -73 -48 -114.5t-124 -41.5q-72 0 -119 41.5
t-47 114.5z" />
    <glyph glyph-name="Ldotbelow" unicode="&#x1e36;" horiz-adv-x="964" 
d="M158 1206h278v-964h471v-242h-749v1206zM365 -270q0 75 46.5 117t118.5 42q76 0 124 -41.5t48 -117.5q0 -73 -48 -114.5t-124 -41.5q-72 0 -118.5 41.5t-46.5 114.5z" />
    <glyph glyph-name="ldotbelow" unicode="&#x1e37;" horiz-adv-x="591" 
d="M545 236l-15 -230q-91 -24 -157 -24q-73 0 -129.5 22t-94.5 78t-38 141v1145h274v-1065q0 -82 86 -82q37 0 74 15zM160 -270q0 75 47 117t119 42q76 0 124 -41.5t48 -117.5q0 -73 -48 -114.5t-124 -41.5q-72 0 -119 41.5t-47 114.5z" />
    <glyph glyph-name="uni004C032300AF" unicode="&#x1e38;" horiz-adv-x="964" 
d="M158 1206h278v-964h471v-242h-749v1206zM365 -270q0 75 46.5 117t118.5 42q76 0 124 -41.5t48 -117.5q0 -73 -48 -114.5t-124 -41.5q-72 0 -118.5 41.5t-46.5 114.5zM647 1360h-616v221h616v-221z" />
    <glyph glyph-name="ldotbelowmacron" unicode="&#x1e39;" horiz-adv-x="591" 
d="M545 236l-15 -230q-91 -24 -157 -24q-73 0 -129.5 22t-94.5 78t-38 141v1145h274v-1065q0 -82 86 -82q37 0 74 15zM160 -270q0 75 47 117t119 42q76 0 124 -41.5t48 -117.5q0 -73 -48 -114.5t-124 -41.5q-72 0 -119 41.5t-47 114.5zM565 1499h-616v221h616v-221z" />
    <glyph glyph-name="Mdotbelow" unicode="&#x1e42;" horiz-adv-x="1513" 
d="M823 279h-133l-166 276q-28 44 -51 90t-32 70l-9 24h-8q12 -67 12 -204v-535h-278v1206h282l228 -407q31 -53 52.5 -97t27.5 -62l6 -17h8q18 57 86 176l229 407h279v-1206h-277v535q0 61 2.5 112t5.5 71l3 21h-9q-29 -84 -90 -184zM590 -270q0 75 47 117t119 42
q76 0 124 -41.5t48 -117.5q0 -73 -48 -114.5t-124 -41.5q-72 0 -119 41.5t-47 114.5z" />
    <glyph glyph-name="mdotbelow" unicode="&#x1e43;" horiz-adv-x="1632" 
d="M936 762q37 103 117.5 155t189.5 52q123 0 196.5 -73t73.5 -224v-672h-274v567q0 84 -28.5 128t-96.5 44q-70 0 -113 -51t-43 -166v-522h-274v567q0 84 -28 128t-97 44q-156 0 -156 -219v-520h-274v946h233l33 -182q73 205 291 205q217 0 250 -207zM653 -270q0 75 47 117
t119 42q76 0 124 -41.5t48 -117.5q0 -73 -48 -114.5t-124 -41.5q-72 0 -119 41.5t-47 114.5z" />
    <glyph glyph-name="Ndotaccent" unicode="&#x1e44;" horiz-adv-x="1384" 
d="M420 1206l426 -583q30 -41 55 -81.5t35 -60.5l10 -20h8q-6 102 -6 256v489h279v-1206h-254l-426 573q-35 45 -63.5 90t-39.5 67l-12 22h-8q12 -99 12 -273v-479h-278v1206h262zM524 1479q0 75 47 117t119 42q76 0 124 -41.5t48 -117.5q0 -73 -48 -114.5t-124 -41.5
q-72 0 -119 41.5t-47 114.5z" />
    <glyph glyph-name="ndotaccent" unicode="&#x1e45;" horiz-adv-x="1095" 
d="M362 946l33 -182q74 205 303 205q119 0 199 -74.5t80 -224.5v-670h-275v567q0 84 -28.5 128t-98.5 44q-75 0 -123.5 -50.5t-48.5 -168.5v-520h-274v946h233zM387 1219q0 75 47.5 117t118.5 42q77 0 124.5 -41.5t47.5 -117.5q0 -73 -47.5 -114.5t-124.5 -41.5
q-71 0 -118.5 42t-47.5 114z" />
    <glyph glyph-name="Ndotbelow" unicode="&#x1e46;" horiz-adv-x="1384" 
d="M420 1206l426 -583q30 -41 55 -81.5t35 -60.5l10 -20h8q-6 102 -6 256v489h279v-1206h-254l-426 573q-35 45 -63.5 90t-39.5 67l-12 22h-8q12 -99 12 -273v-479h-278v1206h262zM524 -270q0 75 47 117t119 42q76 0 124 -41.5t48 -117.5q0 -73 -48 -114.5t-124 -41.5
q-72 0 -119 41.5t-47 114.5z" />
    <glyph glyph-name="ndotbelow" unicode="&#x1e47;" horiz-adv-x="1095" 
d="M362 946l33 -182q74 205 303 205q119 0 199 -74.5t80 -224.5v-670h-275v567q0 84 -28.5 128t-98.5 44q-75 0 -123.5 -50.5t-48.5 -168.5v-520h-274v946h233zM387 -270q0 75 47 117t119 42q76 0 124 -41.5t48 -117.5q0 -73 -48 -114.5t-124 -41.5q-72 0 -119 41.5
t-47 114.5z" />
    <glyph glyph-name="Rdotbelow" unicode="&#x1e5a;" horiz-adv-x="1191" 
d="M1137 0h-310q-41 32 -63 125l-45 180q-18 73 -54 97t-110 24h-119v-426h-278v1206h475q213 0 325.5 -86.5t112.5 -281.5q0 -135 -71.5 -213t-192.5 -90v-5q85 -14 131.5 -54t69.5 -122l61 -225q20 -79 68 -129zM436 971v-316h178q86 0 129 37t43 121q0 158 -172 158h-178
zM401 -270q0 75 47 117t119 42q76 0 124 -41.5t48 -117.5q0 -73 -48 -114.5t-124 -41.5q-72 0 -119 41.5t-47 114.5z" />
    <glyph glyph-name="rdotbelow" unicode="&#x1e5b;" horiz-adv-x="806" 
d="M782 967l-30 -303q-47 16 -107 16q-45 0 -84.5 -12t-76.5 -38.5t-59 -77t-22 -120.5v-432h-274v946h238l32 -260q17 66 43 115.5t69.5 91t111.5 60.5t159 14zM96 -270q0 75 47 117t119 42q76 0 124 -41.5t48 -117.5q0 -73 -48 -114.5t-124 -41.5q-72 0 -119 41.5
t-47 114.5z" />
    <glyph glyph-name="Rdotbelowmacron" unicode="&#x1e5c;" horiz-adv-x="1191" 
d="M1137 0h-310q-41 32 -63 125l-45 180q-18 73 -54 97t-110 24h-119v-426h-278v1206h475q213 0 325.5 -86.5t112.5 -281.5q0 -135 -71.5 -213t-192.5 -90v-5q85 -14 131.5 -54t69.5 -122l61 -225q20 -79 68 -129zM436 971v-316h178q86 0 129 37t43 121q0 158 -172 158h-178
zM401 -270q0 75 47 117t119 42q76 0 124 -41.5t48 -117.5q0 -73 -48 -114.5t-124 -41.5q-72 0 -119 41.5t-47 114.5zM877 1360h-617v221h617v-221z" />
    <glyph glyph-name="rdotbelowmacron" unicode="&#x1e5d;" horiz-adv-x="806" 
d="M782 967l-30 -303q-47 16 -107 16q-45 0 -84.5 -12t-76.5 -38.5t-59 -77t-22 -120.5v-432h-274v946h238l32 -260q17 66 43 115.5t69.5 91t111.5 60.5t159 14zM758 1104h-602v221h602v-221zM98 -270q0 75 47 117t119 42q76 0 124 -41.5t48 -117.5q0 -73 -48 -114.5
t-124 -41.5q-72 0 -119 41.5t-47 114.5z" />
    <glyph glyph-name="Sdotbelow" unicode="&#x1e62;" horiz-adv-x="1054" 
d="M45 270l254 113q17 -89 78 -142t147 -53q72 0 116 30t44 89t-41.5 93t-159.5 71q-211 67 -301 156.5t-90 242.5q0 79 24 142t64 103.5t95.5 67.5t115 38.5t125.5 11.5q423 0 457 -313l-277 -70q-7 75 -56.5 114.5t-117.5 39.5q-62 0 -100.5 -28.5t-38.5 -84.5
q0 -60 46.5 -92.5t160.5 -67.5q102 -32 168 -64t117.5 -77.5t74.5 -108t23 -147.5q0 -95 -36.5 -166t-102.5 -112t-148 -61t-182 -20q-186 0 -300.5 69t-158.5 226zM367 -270q0 75 46.5 117t118.5 42q76 0 124.5 -41.5t48.5 -117.5q0 -73 -48.5 -114.5t-124.5 -41.5
q-72 0 -118.5 41.5t-46.5 114.5z" />
    <glyph glyph-name="sdotbelow" unicode="&#x1e63;" horiz-adv-x="911" 
d="M37 219l225 90q28 -141 184 -141q59 0 94 21t35 61q0 39 -27.5 61t-92.5 37l-140 33q-241 62 -241 281q0 86 32 148.5t88.5 95.5t121.5 48t143 15q355 0 375 -267l-256 -36q-7 55 -39 77.5t-93 22.5q-48 0 -77 -21t-29 -57q0 -68 92 -86l133 -29q283 -60 283 -305
q0 -77 -30.5 -134.5t-86.5 -91.5t-128 -50.5t-161 -16.5q-180 0 -279 57t-126 187zM289 -270q0 75 47 117t119 42q76 0 124 -41.5t48 -117.5q0 -73 -48 -114.5t-124 -41.5q-72 0 -119 41.5t-47 114.5z" />
    <glyph glyph-name="Tdotbelow" unicode="&#x1e6c;" horiz-adv-x="980" 
d="M625 0h-275v965h-330v241h941v-241h-336v-965zM322 -270q0 75 46.5 117t118.5 42q76 0 124 -41.5t48 -117.5q0 -73 -48 -114.5t-124 -41.5q-72 0 -118.5 41.5t-46.5 114.5z" />
    <glyph glyph-name="tdotbelow" unicode="&#x1e6d;" horiz-adv-x="790" 
d="M713 268l47 -231q-121 -62 -291 -62q-147 0 -229 74.5t-82 231.5v454h-138v211h140v201l274 33v-234h281v-211h-283v-393q0 -73 28 -103t87 -30q83 0 166 59zM233 -270q0 75 47 117t119 42q76 0 124 -41.5t48 -117.5q0 -73 -48 -114.5t-124 -41.5q-72 0 -119 41.5
t-47 114.5z" />
    <glyph glyph-name="Wgrave" unicode="&#x1e80;" horiz-adv-x="1787" 
d="M1067 1206l150 -663q16 -76 30.5 -161.5t20.5 -133.5l6 -47h8q16 172 51 340l135 665h283l-264 -1206h-406l-137 596q-17 76 -29 160.5t-15 131.5l-3 46h-8q-10 -168 -51 -340l-144 -594h-391l-266 1206h295l139 -663q16 -76 30 -161.5t19 -133.5l6 -47h9q18 172 53 340
l147 665h332zM1034 1325h-250l-225 293h344z" />
    <glyph glyph-name="wgrave" unicode="&#x1e81;" horiz-adv-x="1476" 
d="M866 946l105 -375q24 -84 39.5 -176t19.5 -142l4 -50h8q9 174 54 364l88 379h272l-246 -946h-325l-92 338q-17 68 -29.5 144t-16.5 118l-4 43h-8q-10 -151 -49 -307l-82 -336h-323l-261 946h279l98 -377q22 -84 37 -175.5t19 -141.5l4 -49h8q10 178 55 368l96 375h250z
M881 1077h-248l-240 314h344z" />
    <glyph glyph-name="Wacute" unicode="&#x1e82;" horiz-adv-x="1787" 
d="M1067 1206l150 -663q16 -76 30.5 -161.5t20.5 -133.5l6 -47h8q16 172 51 340l135 665h283l-264 -1206h-406l-137 596q-17 76 -29 160.5t-15 131.5l-3 46h-8q-10 -168 -51 -340l-144 -594h-391l-266 1206h295l139 -663q16 -76 30 -161.5t19 -133.5l6 -47h9q18 172 53 340
l147 665h332zM1004 1325h-252l131 293h344z" />
    <glyph glyph-name="wacute" unicode="&#x1e83;" horiz-adv-x="1476" 
d="M866 946l105 -375q24 -84 39.5 -176t19.5 -142l4 -50h8q9 174 54 364l88 379h272l-246 -946h-325l-92 338q-17 68 -29.5 144t-16.5 118l-4 43h-8q-10 -151 -49 -307l-82 -336h-323l-261 946h279l98 -377q22 -84 37 -175.5t19 -141.5l4 -49h8q10 178 55 368l96 375h250z
M846 1077h-250l143 314h344z" />
    <glyph glyph-name="Wdieresis" unicode="&#x1e84;" horiz-adv-x="1787" 
d="M1067 1206l150 -663q16 -76 30.5 -161.5t20.5 -133.5l6 -47h8q16 172 51 340l135 665h283l-264 -1206h-406l-137 596q-17 76 -29 160.5t-15 131.5l-3 46h-8q-10 -168 -51 -340l-144 -594h-391l-266 1206h295l139 -663q16 -76 30 -161.5t19 -133.5l6 -47h9q18 172 53 340
l147 665h332zM512 1481q0 73 43.5 113t108.5 40q70 0 112.5 -39.5t42.5 -113.5q0 -72 -43 -113t-112 -41q-64 0 -108 41.5t-44 112.5zM958 1481q0 73 43.5 113t108.5 40q69 0 112.5 -39.5t43.5 -113.5q0 -73 -44 -113.5t-112 -40.5q-65 0 -108.5 41t-43.5 113z" />
    <glyph glyph-name="wdieresis" unicode="&#x1e85;" horiz-adv-x="1476" 
d="M866 946l105 -375q24 -84 39.5 -176t19.5 -142l4 -50h8q9 174 54 364l88 379h272l-246 -946h-325l-92 338q-17 68 -29.5 144t-16.5 118l-4 43h-8q-10 -151 -49 -307l-82 -336h-323l-261 946h279l98 -377q22 -84 37 -175.5t19 -141.5l4 -49h8q10 178 55 368l96 375h250z
M356 1221q0 73 43.5 113t108.5 40q70 0 113 -39.5t43 -113.5q0 -72 -43.5 -113t-112.5 -41q-64 0 -108 41.5t-44 112.5zM803 1221q0 73 43 113t108 40q69 0 112.5 -39.5t43.5 -113.5q0 -73 -44 -113.5t-112 -40.5q-64 0 -107.5 41t-43.5 113z" />
    <glyph glyph-name="Idotbelow" unicode="&#x1eca;" horiz-adv-x="593" 
d="M158 1206h278v-1206h-278v1206zM129 -270q0 75 47 117t119 42q76 0 124 -41.5t48 -117.5q0 -73 -48 -114.5t-124 -41.5q-72 0 -119 41.5t-47 114.5z" />
    <glyph glyph-name="idotbelow" unicode="&#x1ecb;" horiz-adv-x="532" 
d="M100 1235q0 75 47 117.5t119 42.5q75 0 122.5 -42t47.5 -118q0 -73 -48 -114.5t-122 -41.5q-72 0 -119 41.5t-47 114.5zM129 946h274v-946h-274v946zM100 -270q0 75 47 117t119 42q76 0 124 -41.5t48 -117.5q0 -73 -48 -114.5t-124 -41.5q-72 0 -119 41.5t-47 114.5z" />
    <glyph glyph-name="Odotbelow" unicode="&#x1ecc;" horiz-adv-x="1312" 
d="M655 -25q-269 0 -420 163.5t-151 463.5q0 302 151 465.5t420 163.5q270 0 422 -163.5t152 -465.5q0 -300 -152.5 -463.5t-421.5 -163.5zM655 983q-139 0 -210.5 -101t-71.5 -284q0 -182 71 -282.5t211 -100.5t212.5 100.5t72.5 282.5q0 183 -72.5 284t-212.5 101z
M487 -270q0 75 47 117t119 42q76 0 124 -41.5t48 -117.5q0 -73 -48 -114.5t-124 -41.5q-72 0 -119 41.5t-47 114.5z" />
    <glyph glyph-name="odotbelow" unicode="&#x1ecd;" horiz-adv-x="1050" 
d="M526 -25q-210 0 -334 132t-124 368q0 237 123.5 365.5t334.5 128.5q210 0 333.5 -128.5t123.5 -365.5q0 -236 -124 -368t-333 -132zM526 750q-95 0 -141.5 -68t-46.5 -207q0 -148 45.5 -217.5t142.5 -69.5q96 0 141.5 70t45.5 217q0 275 -187 275zM358 -270q0 75 47 117
t119 42q76 0 124 -41.5t48 -117.5q0 -73 -48 -114.5t-124 -41.5q-72 0 -119 41.5t-47 114.5z" />
    <glyph glyph-name="Udotbelow" unicode="&#x1ee4;" horiz-adv-x="1245" 
d="M844 1206h276v-803q0 -118 -39 -203.5t-110 -133.5t-156.5 -69.5t-191.5 -21.5q-83 0 -154 13t-135.5 44t-110 79t-72 122.5t-26.5 169.5v803h278v-725q0 -138 48 -206t172 -68q125 0 173 68t48 208v723zM455 -270q0 75 47 117t119 42q76 0 124 -41.5t48 -117.5
q0 -73 -48 -114.5t-124 -41.5q-72 0 -119 41.5t-47 114.5z" />
    <glyph glyph-name="udotbelow" unicode="&#x1ee5;" horiz-adv-x="1087" 
d="M721 0l-33 176q-26 -100 -96 -150.5t-197 -50.5q-133 0 -208.5 74t-75.5 232v665h274v-588q0 -88 30.5 -132t98.5 -44q76 0 123 63t47 193v508h274v-946h-237zM367 -270q0 75 46.5 117t118.5 42q76 0 124.5 -41.5t48.5 -117.5q0 -73 -48.5 -114.5t-124.5 -41.5
q-72 0 -118.5 41.5t-46.5 114.5z" />
    <glyph glyph-name="Ygrave" unicode="&#x1ef2;" horiz-adv-x="1116" 
d="M336 1206l141 -286q34 -72 56.5 -138t28.5 -96l5 -29h8q13 105 89 261l139 288h293l-385 -805v-401h-279v401l-412 805h316zM698 1325h-249l-226 293h344z" />
    <glyph glyph-name="ygrave" unicode="&#x1ef3;" horiz-adv-x="991" 
d="M303 946l123 -430q24 -83 40.5 -159t21.5 -111l4 -35h8q12 121 67 303l131 432h289l-375 -1030q-31 -87 -67.5 -148t-74 -99t-85.5 -59t-95 -28.5t-110 -7.5q-72 0 -170 23l41 241q58 -33 125 -33q66 0 107.5 32.5t70.5 109.5l-350 999h299zM639 1077h-248l-239 314h344z
" />
    <glyph glyph-name="Ytilde" unicode="&#x1ef8;" horiz-adv-x="1116" 
d="M336 1206l141 -286q34 -72 56.5 -138t28.5 -96l5 -29h8q13 105 89 261l139 288h293l-385 -805v-401h-279v401l-412 805h316zM713 1329q-49 0 -79.5 10t-72.5 35q-51 30 -73.5 40.5t-45.5 10.5q-33 0 -51.5 -25t-11.5 -75h-152q-30 59 -27 117t27 103.5t72 73.5t107 28
q65 0 139 -43q9 -5 27 -16t25 -14.5l20 -10t20 -9t16.5 -4.5t18.5 -2q32 0 46 21t7 73h160q54 -124 2.5 -218.5t-174.5 -94.5z" />
    <glyph glyph-name="ytilde" unicode="&#x1ef9;" horiz-adv-x="991" 
d="M303 946l123 -430q24 -83 40.5 -159t21.5 -111l4 -35h8q12 121 67 303l131 432h289l-375 -1030q-31 -87 -67.5 -148t-74 -99t-85.5 -59t-95 -28.5t-110 -7.5q-72 0 -170 23l41 241q58 -33 125 -33q66 0 107.5 32.5t70.5 109.5l-350 999h299zM655 1067q-49 0 -78 10
t-73 37q-7 4 -23 13t-21 12t-16.5 9t-17 7.5t-13.5 4.5t-14.5 4t-13.5 1q-33 0 -51.5 -25t-11.5 -75h-152q-30 59 -27 116t27 102t71.5 73t106.5 28q68 0 139 -41q6 -3 17.5 -10.5t16 -10t14 -8t13.5 -7.5t11.5 -6t11.5 -5.5t10.5 -4t11 -3.5t10 -1.5t11.5 -0.5q67 0 54 94
h159q54 -124 2.5 -218.5t-174.5 -94.5z" />
    <glyph glyph-name="enspace" unicode="&#x2002;" horiz-adv-x="921" 
 />
    <glyph glyph-name="emspace" unicode="&#x2003;" horiz-adv-x="1843" 
 />
    <glyph glyph-name="threeperemspace" unicode="&#x2004;" horiz-adv-x="614" 
 />
    <glyph glyph-name="fourperemspace" unicode="&#x2005;" horiz-adv-x="460" 
 />
    <glyph glyph-name="sixperemspace" unicode="&#x2006;" horiz-adv-x="307" 
 />
    <glyph glyph-name="figurespace" unicode="&#x2007;" horiz-adv-x="1050" 
 />
    <glyph glyph-name="punctuationspace" unicode="&#x2008;" horiz-adv-x="350" 
 />
    <glyph glyph-name="thinspace" unicode="&#x2009;" horiz-adv-x="184" 
 />
    <glyph glyph-name="hairspace" unicode="&#x200a;" horiz-adv-x="92" 
 />
    <glyph glyph-name="zerowidthspace" unicode="&#x200b;" horiz-adv-x="0" 
 />
    <glyph glyph-name="figuredash" unicode="&#x2012;" horiz-adv-x="1193" 
d="M127 430v182h940v-182h-940z" />
    <glyph glyph-name="endash" unicode="&#x2013;" horiz-adv-x="1024" 
d="M127 430v182h770v-182h-770z" />
    <glyph glyph-name="emdash" unicode="&#x2014;" horiz-adv-x="2048" 
d="M127 430v182h1794v-182h-1794z" />
    <glyph glyph-name="uni2015" unicode="&#x2015;" horiz-adv-x="2560" 
d="M127 430v182h2306v-182h-2306z" />
    <glyph glyph-name="doublebar" unicode="&#x2016;" horiz-adv-x="1040" 
d="M424 -416h-219v1784h219v-1784zM836 -416h-220v1784h220v-1784z" />
    <glyph glyph-name="quoteleft" unicode="&#x2018;" horiz-adv-x="512" 
d="M66 1042q0 181 101.5 266t278.5 87v-113q-194 -17 -194 -154q74 11 129 -29.5t55 -119.5q0 -78 -49 -119t-125 -41q-87 0 -141.5 61t-54.5 162z" />
    <glyph glyph-name="quoteright" unicode="&#x2019;" horiz-adv-x="512" 
d="M446 1171q0 -181 -101.5 -265.5t-278.5 -86.5v113q194 17 194 153q-74 -11 -129 29.5t-55 120.5q0 76 49 118t125 42q86 0 141 -62.5t55 -161.5z" />
    <glyph glyph-name="quotesinglbase" unicode="&#x201a;" horiz-adv-x="512" 
d="M446 88q0 -181 -101.5 -265.5t-278.5 -86.5v112q194 17 194 154q-74 -11 -129 29.5t-55 120.5q0 76 49 117.5t125 41.5q87 0 141.5 -62t54.5 -161z" />
    <glyph glyph-name="reversequoteleft" unicode="&#x201b;" horiz-adv-x="512" 
d="M66 1171q0 99 55 161.5t141 62.5q76 0 125 -42t49 -118q0 -80 -55 -120.5t-129 -29.5q0 -136 194 -153v-113q-177 2 -278.5 86.5t-101.5 265.5z" />
    <glyph glyph-name="quotedblleft" unicode="&#x201c;" horiz-adv-x="987" 
d="M66 1042q0 181 101.5 266t278.5 87v-113q-194 -17 -194 -154q74 11 129 -29.5t55 -119.5q0 -78 -49 -119t-125 -41q-87 0 -141.5 61t-54.5 162zM541 1042q0 181 102 266t279 87v-113q-195 -17 -195 -154q74 11 129 -29.5t55 -119.5q0 -78 -49 -119t-125 -41
q-87 0 -141.5 61t-54.5 162z" />
    <glyph glyph-name="quotedblright" unicode="&#x201d;" horiz-adv-x="987" 
d="M446 1171q0 -181 -101.5 -265.5t-278.5 -86.5v113q194 17 194 153q-74 -11 -129 30t-55 120q0 78 49 119t125 41q87 0 141.5 -61.5t54.5 -162.5zM922 1171q0 -92 -28 -160.5t-79.5 -109.5t-119.5 -61t-154 -21v113q194 17 194 153q-74 -11 -129 30t-55 120q0 78 49 119
t125 41q87 0 142 -61.5t55 -162.5z" />
    <glyph glyph-name="quotedblbase" unicode="&#x201e;" horiz-adv-x="987" 
d="M446 88q0 -181 -101.5 -265.5t-278.5 -86.5v112q194 17 194 154q-74 -11 -129 30t-55 120q0 78 49 118.5t125 40.5q87 0 141.5 -61t54.5 -162zM922 88q0 -92 -28 -160.5t-79.5 -109.5t-119.5 -61t-154 -21v112q194 17 194 154q-74 -11 -129 30t-55 120q0 78 49 118.5
t125 40.5q87 0 142 -61.5t55 -161.5z" />
    <glyph glyph-name="reversequotedblleft" unicode="&#x201f;" horiz-adv-x="987" 
d="M66 1171q0 101 54.5 162.5t141.5 61.5q76 0 125 -41t49 -119q0 -79 -55 -120t-129 -30q0 -136 194 -153v-113q-177 2 -278.5 86.5t-101.5 265.5zM541 1171q0 101 54.5 162.5t141.5 61.5q76 0 125 -41t49 -119q0 -79 -55 -120t-129 -30q0 -136 195 -153v-113
q-86 1 -154 21t-119.5 61t-79.5 109.5t-28 160.5z" />
    <glyph glyph-name="dagger" unicode="&#x2020;" horiz-adv-x="1134" 
d="M453 520l-367 -22v250l365 -21l-21 479h272l-20 -479l367 21v-250l-365 22l21 -827h-273z" />
    <glyph glyph-name="daggerdbl" unicode="&#x2021;" horiz-adv-x="1134" 
d="M682 606v-282l367 20v-248l-367 23l23 -426h-271l23 426l-371 -23v248l367 -20v282l-367 -22v252l367 -23l-21 393h273l-23 -393l367 23v-252z" />
    <glyph glyph-name="bullet" unicode="&#x2022;" horiz-adv-x="735" 
d="M125 526q0 100 72 172t170 72q100 0 171.5 -72t71.5 -172t-71.5 -171.5t-171.5 -71.5q-99 0 -170.5 71.5t-71.5 171.5z" />
    <glyph glyph-name="ellipsis" unicode="&#x2026;" horiz-adv-x="1794" 
d="M123 162q0 76 50 128t122 52q78 0 129 -51.5t51 -128.5q0 -73 -51.5 -122.5t-128.5 -49.5q-72 0 -122 50t-50 122zM721 162q0 76 50 128t122 52q78 0 129 -51.5t51 -128.5q0 -73 -51.5 -122.5t-128.5 -49.5q-72 0 -122 50t-50 122zM1319 162q0 76 50 128t122 52
q78 0 129 -51.5t51 -128.5q0 -73 -51.5 -122.5t-128.5 -49.5q-72 0 -122 50t-50 122z" />
    <glyph glyph-name="perthousand" unicode="&#x2030;" horiz-adv-x="2525" 
d="M367 469q-104 0 -175.5 50.5t-104 133.5t-32.5 193q0 165 83 271t229 106q148 0 230.5 -105.5t82.5 -271.5q0 -169 -78.5 -273t-234.5 -104zM367 1049q-52 0 -82.5 -56t-30.5 -151q0 -91 31 -148t82 -57q53 0 83.5 56.5t30.5 148.5q0 97 -29.5 152t-84.5 55zM504 0
l624 1206h166l-628 -1206h-162zM1440 -14q-79 0 -139.5 28.5t-97.5 80t-56 119t-19 148.5q0 165 83 271t229 106q148 0 230.5 -105.5t82.5 -271.5q0 -169 -78.5 -272.5t-234.5 -103.5zM1440 565q-52 0 -82.5 -56t-30.5 -151q0 -91 31 -147.5t82 -56.5q53 0 83.5 56t30.5 148
q0 97 -29.5 152t-84.5 55zM2157 -14q-79 0 -139.5 28.5t-97.5 80t-56 119t-19 148.5q0 165 83 271t229 106q148 0 230.5 -105.5t82.5 -271.5q0 -169 -78.5 -272.5t-234.5 -103.5zM2157 565q-52 0 -82.5 -56t-30.5 -151q0 -91 31 -147.5t82 -56.5q53 0 83.5 56t30.5 148
q0 97 -29.5 152t-84.5 55z" />
    <glyph glyph-name="tripleprime" unicode="&#x2034;" horiz-adv-x="1210" 
d="M131 844v524h268l-104 -524h-164zM492 844v524h268l-105 -524h-163zM852 844v524h268l-104 -524h-164z" />
    <glyph glyph-name="guilsinglleft" unicode="&#x2039;" horiz-adv-x="667" 
d="M309 485v-8q44 -14 107 -82l188 -213l-135 -133l-408 434l408 435l135 -138l-190 -211q-28 -30 -54 -51t-38 -27z" />
    <glyph glyph-name="guilsinglright" unicode="&#x203a;" horiz-adv-x="667" 
d="M358 477v8q-43 16 -104 84l-191 211l136 138l407 -435l-407 -434l-138 133l191 213q27 30 53.5 50.5t39.5 26.5z" />
    <glyph glyph-name="fraction" unicode="&#x2044;" horiz-adv-x="348" 
d="M-221 0l624 1206h166l-628 -1206h-162z" />
    <glyph glyph-name="uni2070" unicode="&#x2070;" horiz-adv-x="735" 
d="M367 469q-104 0 -175.5 50.5t-104 133.5t-32.5 193q0 165 83 271t229 106q148 0 230.5 -105.5t82.5 -271.5q0 -169 -78.5 -273t-234.5 -104zM367 1049q-52 0 -82.5 -56t-30.5 -151q0 -91 31 -148t82 -57q53 0 83.5 56.5t30.5 148.5q0 97 -29.5 152t-84.5 55z" />
    <glyph glyph-name="uni2074" unicode="&#x2074;" horiz-adv-x="724" 
d="M379 483v144h-356v137l362 442h197v-434h102v-145h-102v-144h-203zM383 768v133q0 32 2.5 68.5t4.5 56.5l3 21h-8q-18 -52 -59 -105l-66 -82q-20 -24 -44 -48t-38 -36l-14 -12v-8q43 12 115 12h104z" />
    <glyph glyph-name="uni2075" unicode="&#x2075;" horiz-adv-x="671" 
d="M86 784l18 422h474v-166h-318l-8 -137q43 49 145 49q98 0 159.5 -61.5t61.5 -167.5q0 -125 -85.5 -189.5t-221.5 -64.5q-122 0 -195.5 44t-90.5 128l174 80q6 -45 36.5 -74t79.5 -29q50 0 80.5 26.5t30.5 76.5q0 45 -25 71.5t-65 26.5q-54 0 -82 -35h-168z" />
    <glyph glyph-name="uni2076" unicode="&#x2076;" horiz-adv-x="700" 
d="M635 1104l-137 -113q-31 70 -111 70q-143 0 -143 -234h8q17 54 63 83.5t115 29.5q99 0 159 -62.5t60 -162.5q0 -113 -77 -179.5t-212 -66.5q-147 0 -226 91.5t-79 268.5q0 190 96.5 292t241.5 102q162 0 242 -119zM276 713q0 -42 28.5 -68.5t70.5 -26.5t70 26.5t28 68.5
q0 43 -27.5 70.5t-68.5 27.5q-43 0 -72 -27t-29 -71z" />
    <glyph glyph-name="uni2077" unicode="&#x2077;" horiz-adv-x="657" 
d="M412 1040h-211v-112h-168v278h596v-145l-273 -578h-217z" />
    <glyph glyph-name="uni2078" unicode="&#x2078;" horiz-adv-x="704" 
d="M352 780q-41 0 -67.5 -20.5t-26.5 -63.5q0 -37 25.5 -59.5t68.5 -22.5t68.5 22.5t25.5 59.5q0 43 -27.5 63.5t-66.5 20.5zM352 469q-136 0 -215.5 52.5t-79.5 152.5q0 68 43 114t125 58v8q-72 7 -109.5 53t-37.5 105q0 99 72 155t202 56q129 0 202 -56.5t73 -154.5
q0 -59 -38 -105t-110 -53v-8q82 -12 125 -58t43 -114q0 -100 -80 -152.5t-215 -52.5zM352 1081q-42 0 -65 -21t-23 -56t26 -54.5t62 -19.5t62 19.5t26 54.5t-23 56t-65 21z" />
    <glyph glyph-name="uni2079" unicode="&#x2079;" horiz-adv-x="700" 
d="M66 588l137 112q31 -69 110 -69q144 0 144 233h-8q-36 -112 -179 -112q-98 0 -158.5 62.5t-60.5 162.5q0 113 77 179.5t212 66.5q147 0 226 -92t79 -269q0 -190 -95.5 -291.5t-240.5 -101.5q-163 0 -243 119zM424 977q0 42 -27.5 68t-70.5 26q-42 0 -69.5 -26t-27.5 -68
q0 -45 27.5 -71.5t69.5 -26.5q43 0 70.5 26.5t27.5 71.5z" />
    <glyph glyph-name="uni207A" unicode="&#x207a;" horiz-adv-x="907" 
d="M92 924h291v282h135v-282h297v-133h-297v-308h-135v308h-291v133z" />
    <glyph glyph-name="uni207B" unicode="&#x207b;" horiz-adv-x="909" 
d="M817 788h-725v136h725v-136z" />
    <glyph glyph-name="uni207C" unicode="&#x207c;" horiz-adv-x="909" 
d="M817 666h-725v133h725v-133zM817 936h-725v133h725v-133z" />
    <glyph glyph-name="uni207D" unicode="&#x207d;" horiz-adv-x="475" 
d="M240 836q0 -73 12 -136.5t40.5 -124.5t50.5 -98t65 -104h-156q-34 46 -57 85.5t-48.5 97t-39 128.5t-13.5 152q0 153 43 260.5t115 206.5h156q-41 -64 -64.5 -104.5t-51 -101t-40 -124.5t-12.5 -137z" />
    <glyph glyph-name="uni207E" unicode="&#x207e;" horiz-adv-x="475" 
d="M262 836q0 73 -12.5 137t-40 124.5t-51 101t-64.5 104.5h158q33 -47 55.5 -86t48.5 -97.5t39 -130t13 -153.5q0 -81 -13 -151.5t-39 -129t-48.5 -97t-55.5 -85.5h-158q43 67 65 104t50.5 98t40.5 124.5t12 136.5z" />
    <glyph glyph-name="n.superior" unicode="&#x207f;" horiz-adv-x="847" 
d="M301 1214l27 -120q47 137 207 137q91 0 149.5 -52.5t58.5 -162.5v-428h-215v366q0 57 -18.5 86t-65.5 29q-114 0 -114 -147v-334h-215v626h186z" />
    <glyph glyph-name="uni2080" unicode="&#x2080;" horiz-adv-x="735" 
d="M367 -14q-79 0 -139.5 28.5t-97.5 80t-56 119t-19 148.5q0 165 83 271t229 106q148 0 230.5 -105.5t82.5 -271.5q0 -169 -78.5 -272.5t-234.5 -103.5zM367 565q-52 0 -82.5 -56t-30.5 -151q0 -91 31 -147.5t82 -56.5q53 0 83.5 56t30.5 148q0 97 -29.5 152t-84.5 55z" />
    <glyph glyph-name="uni2081" unicode="&#x2081;" horiz-adv-x="645" 
d="M608 0h-532v150h174v389l-193 -17v158l394 43v-573h157v-150z" />
    <glyph glyph-name="uni2082" unicode="&#x2082;" horiz-adv-x="681" 
d="M629 158v-158h-570v131q195 140 265.5 209t70.5 139q0 84 -82 84q-42 0 -71 -31.5t-29 -93.5l-170 66q5 99 79 167t212 68q122 0 197 -60t75 -173q0 -205 -287 -340v-8h310z" />
    <glyph glyph-name="uni2083" unicode="&#x2083;" horiz-adv-x="665" 
d="M406 369v-4q202 -15 202 -183q0 -94 -79.5 -145t-221.5 -51q-116 0 -193 43.5t-94 122.5l166 67q22 -88 123 -88q86 0 86 68q0 43 -38 69t-144 29v115q99 4 134.5 30.5t35.5 67.5q0 34 -19.5 52t-50.5 18q-39 0 -65.5 -20.5t-30.5 -59.5l-164 61q15 84 90.5 131t186.5 47
q114 0 183 -48.5t69 -141.5q0 -150 -176 -180z" />
    <glyph glyph-name="uni2084" unicode="&#x2084;" horiz-adv-x="724" 
d="M379 0v143h-356v138l362 442h197v-434h102v-146h-102v-143h-203zM383 285v133q0 32 2.5 68.5t4.5 56.5l3 20h-8q-18 -51 -59 -104l-66 -82q-20 -24 -44 -48t-38 -36l-14 -12v-9q43 13 115 13h104z" />
    <glyph glyph-name="uni2085" unicode="&#x2085;" horiz-adv-x="671" 
d="M86 301l18 422h474v-166h-318l-8 -137q43 49 145 49q98 0 159.5 -61.5t61.5 -167.5q0 -125 -85.5 -189.5t-221.5 -64.5q-122 0 -195.5 44t-90.5 128l174 80q6 -45 36.5 -74t79.5 -29q50 0 80.5 26.5t30.5 76.5q0 45 -25 71.5t-65 26.5q-54 0 -82 -35h-168z" />
    <glyph glyph-name="uni2086" unicode="&#x2086;" horiz-adv-x="700" 
d="M635 621l-137 -113q-31 70 -111 70q-143 0 -143 -234h8q17 54 63 83.5t115 29.5q99 0 159 -62.5t60 -163.5q0 -113 -76.5 -179t-212.5 -66q-147 0 -226 91.5t-79 268.5q0 190 96.5 291.5t241.5 101.5q163 0 242 -118zM276 229q0 -42 28.5 -68t70.5 -26t70 26t28 68
q0 43 -27.5 71t-68.5 28q-43 0 -72 -27.5t-29 -71.5z" />
    <glyph glyph-name="uni2087" unicode="&#x2087;" horiz-adv-x="657" 
d="M412 557h-211v-113h-168v279h596v-145l-273 -578h-217z" />
    <glyph glyph-name="uni2088" unicode="&#x2088;" horiz-adv-x="704" 
d="M352 297q-41 0 -67.5 -20.5t-26.5 -63.5q0 -37 25.5 -59.5t68.5 -22.5t68.5 22.5t25.5 59.5q0 43 -27.5 63.5t-66.5 20.5zM352 -14q-136 0 -215.5 52t-79.5 152q0 68 43 114t125 58v9q-72 7 -109.5 52.5t-37.5 104.5q0 99 72 155t202 56q129 0 202 -56.5t73 -154.5
q0 -59 -38 -104.5t-110 -52.5v-9q82 -12 125 -58t43 -114q0 -100 -80 -152t-215 -52zM352 598q-42 0 -65 -21.5t-23 -56.5t26 -54.5t62 -19.5t62 19.5t26 54.5t-23 56.5t-65 21.5z" />
    <glyph glyph-name="uni2089" unicode="&#x2089;" horiz-adv-x="700" 
d="M66 104l137 113q31 -70 110 -70q68 0 106 57t38 177h-8q-36 -113 -179 -113q-98 0 -158.5 63t-60.5 163q0 113 76.5 179t212.5 66q147 0 226 -91.5t79 -268.5q0 -190 -95.5 -291.5t-240.5 -101.5q-164 0 -243 118zM424 494q0 42 -27.5 68t-70.5 26q-42 0 -69.5 -26
t-27.5 -68q0 -45 27.5 -72t69.5 -27q43 0 70.5 27t27.5 72z" />
    <glyph glyph-name="uni208A" unicode="&#x208a;" horiz-adv-x="907" 
d="M92 440h291v283h135v-283h297v-133h-297v-307h-135v307h-291v133z" />
    <glyph glyph-name="uni208B" unicode="&#x208b;" horiz-adv-x="909" 
d="M817 307h-725v133h725v-133z" />
    <glyph glyph-name="uni208C" unicode="&#x208c;" horiz-adv-x="909" 
d="M817 184h-725v133h725v-133zM817 453h-725v135h725v-135z" />
    <glyph glyph-name="uni208D" unicode="&#x208d;" horiz-adv-x="475" 
d="M240 352q0 -73 12 -136.5t40.5 -124.5t50.5 -98t65 -104h-156q-47 66 -76 117.5t-55.5 145.5t-26.5 200q0 153 43 260.5t115 206.5h156q-41 -62 -64.5 -103t-51 -101t-40 -124.5t-12.5 -138.5z" />
    <glyph glyph-name="uni208E" unicode="&#x208e;" horiz-adv-x="475" 
d="M262 352q0 74 -12.5 138.5t-40 124.5t-51 101t-64.5 103h158q33 -47 55.5 -86t48.5 -97.5t39 -130t13 -153.5q0 -81 -13 -151t-39 -129t-48 -96.5t-56 -86.5h-158q43 67 65 104t50.5 98t40.5 124.5t12 136.5z" />
    <glyph glyph-name="uni20A1" unicode="&#x20a1;" horiz-adv-x="1058" 
d="M227 -137l66 182q-207 128 -207 444q0 250 133.5 385.5t372.5 135.5q35 0 51 -2l59 166l97 -37l-54 -146q46 -15 72 -26l57 153l97 -35l-66 -180q64 -64 103 -155l-195 -99l-168 -459q97 21 148 146l215 -133q-66 -120 -169.5 -174t-269.5 -54h-2l-71 -200l-99 32l64 179
q-49 7 -74 16l-63 -174zM356 494q0 -117 33 -187l180 498q-100 -2 -156.5 -79t-56.5 -232zM463 213q27 -19 72 -29l198 545q-24 35 -63 55z" />
    <glyph glyph-name="uni20A2" unicode="&#x20a2;" horiz-adv-x="1064" 
d="M817 322l193 -119q-66 -120 -169.5 -174t-269.5 -54q-222 0 -352.5 131.5t-130.5 382.5q0 250 133.5 385.5t372.5 135.5q159 0 259.5 -64t156.5 -198l-232 -117q-24 84 -70 129t-135 45q-101 0 -158 -77.5t-57 -233.5q0 -119 36.5 -199t103.5 -111v383h157l19 -137
q19 74 66.5 113t142.5 39l-23 -199q-21 8 -55 8q-16 0 -31 -2t-33.5 -9.5t-32 -19.5t-23 -34t-9.5 -52v-92q97 31 141 140z" />
    <glyph glyph-name="franc" unicode="&#x20a3;" horiz-adv-x="958" 
d="M770 291h-291v-291h-274v291h-127v108h127v97h-127v108h127v381h721v-223h-447v-158h291v-108h-291v-97h291v-108z" />
    <glyph glyph-name="lira" unicode="&#x20a4;" horiz-adv-x="1056" 
d="M698 324h-206q-19 -74 -72 -101h256q54 0 92 19t59 77l191 -110q-17 -100 -96.5 -154.5t-196.5 -54.5h-627v225h66q88 0 100 99h-184v108h168q-4 10 -15 31.5t-16 32.5h-137v108h96q-10 45 -10 96q0 139 109.5 224.5t261.5 85.5q74 0 135.5 -14.5t114 -46.5t86.5 -87.5
t45 -132.5l-242 -61q-12 61 -47 94t-88 33q-65 0 -97 -32.5t-32 -90.5q0 -33 14 -68h272v-108h-213q13 -38 15 -64h198v-108z" />
    <glyph glyph-name="uni20A6" unicode="&#x20a6;" horiz-adv-x="1421" 
d="M1364 311h-154v-311h-252l-350 436q-36 46 -66 90.5t-42 65.5l-11 22h-8q13 -104 13 -276v-338h-275v311h-162v109h162v108h-160v109h160v348h295l320 -412q33 -42 58.5 -81.5t34.5 -58.5l9 -19h8q-8 108 -8 262v309h274v-348h152v-109h-152v-108h154v-109z" />
    <glyph glyph-name="peseta" unicode="&#x20a7;" horiz-adv-x="2570" 
d="M428 0h-276v985h403q312 0 397 -184h713q18 57 57 99t92.5 65t112.5 34t127 11q180 0 282.5 -70.5t108.5 -206.5l-266 -31q-8 111 -137 111q-57 0 -89 -24.5t-32 -67.5q0 -41 25 -65.5t79 -34.5l142 -29q145 -28 219 -111t74 -202q0 -106 -56.5 -175.5t-147.5 -99
t-214 -29.5q-377 0 -424 250l215 90q38 -143 221 -143q137 0 137 84q0 42 -25.5 60t-101.5 38l-149 35q-195 41 -248 189h-219v-578h-277v578h-186q-9 -164 -114 -249t-293 -85h-150v-244zM428 766v-303h115q89 0 129.5 34t40.5 117t-40.5 117.5t-127.5 34.5h-117z" />
    <glyph glyph-name="uni20A8" unicode="&#x20a8;" horiz-adv-x="1798" 
d="M428 766v-252h143q74 0 109 30t35 95q0 127 -144 127h-143zM596 985q401 0 401 -319q0 -121 -70.5 -184.5t-187.5 -73.5v-7q30 -2 53.5 -7t45 -14.5t33.5 -16t37 -22.5t38 -24l170 -98q110 -69 244 -69q94 0 94 47q0 24 -18 38.5t-64 24.5l-123 29q-186 41 -186 219
q0 66 26.5 114t72.5 74t98.5 37.5t115.5 11.5q142 0 221.5 -51.5t83.5 -154.5l-213 -23q-8 76 -100 76q-36 0 -55 -15t-19 -40q0 -26 16.5 -40.5t63.5 -23.5l86 -18q121 -23 176.5 -85.5t55.5 -168.5q0 -115 -94 -170.5t-257 -55.5q-172 0 -293 33.5t-225 108.5l-131 92
q-46 34 -71 50t-63 31t-75 15h-55v-305h-276v985h444z" />
    <glyph glyph-name="uni20A9" unicode="&#x20a9;" horiz-adv-x="1830" 
d="M1749 334h-252l-80 -334h-342l-114 432q-16 60 -27 133t-14 117l-2 43h-9q-8 -154 -45 -295l-110 -430h-340l-82 334h-250v106h225l-26 111h-197v106h170l-78 328h287l112 -500q14 -63 23 -134.5t12 -111.5l2 -40h6q13 147 44 284l116 502h283l123 -498q16 -63 26 -134
t12 -111l3 -39h6q2 145 35 282l114 500h275l-80 -328h172v-106h-197l-26 -111h225v-106z" />
    <glyph glyph-name="uni20AA" unicode="&#x20aa;" horiz-adv-x="1691" 
d="M1149 309h-234v355q0 58 -28.5 88t-98.5 30h-344v-782h-276v985h657q174 0 249 -81.5t75 -229.5v-365zM1268 985h276v-674q0 -149 -74.5 -230t-248.5 -81h-654v674h232v-471h348q59 0 90 31t31 83v668z" />
    <glyph glyph-name="Euro" unicode="&#x20ac;" horiz-adv-x="1144" 
d="M698 336h-219q23 -67 71 -103t116 -36q76 0 122 34.5t78 108.5l217 -137q-65 -120 -166 -174t-262 -54q-181 0 -300.5 91.5t-155.5 269.5h-154v106h139v97h-139v108h154q38 177 161.5 270t317.5 93q155 0 252.5 -64t150.5 -198l-231 -123q-25 81 -67 123.5t-124 42.5
q-135 0 -182 -144h277l-21 -108h-276v-45q0 -36 2 -52h260z" />
    <glyph glyph-name="uni20AE" unicode="&#x20ae;" horiz-adv-x="983" 
d="M627 0h-277v236l-207 -35v106l207 35v98l-207 -34v106l207 35v215h-309v223h901v-223h-315v-168l209 37v-107l-209 -37v-98l209 37v-107l-209 -36v-283z" />
    <glyph glyph-name="uni20B1" unicode="&#x20b1;" horiz-adv-x="1222" 
d="M1182 555h-146q-17 -154 -121 -232.5t-284 -78.5h-152v-244h-274v555h-144v107h144v323h403q205 0 311 -78t119 -245h144v-107zM479 778v-116h283q-10 63 -50 89.5t-114 26.5h-119zM596 446q74 0 114 25t50 84h-281v-109h117z" />
    <glyph glyph-name="afii61289" unicode="&#x2113;" horiz-adv-x="806" 
d="M80 248l-62 112l164 113v477q0 224 80 322t238 98q270 0 270 -262q0 -115 -25.5 -216.5t-73.5 -183.5t-104 -145.5t-129 -124.5v-71q0 -90 30 -124t95 -34q62 0 131 31l-16 -232q-104 -33 -205 -33q-61 0 -111 13.5t-91.5 42.5t-65 81.5t-23.5 123.5v79zM438 1004v-400
q91 91 139 205.5t48 296.5q0 113 -90 113q-50 0 -73.5 -51.5t-23.5 -163.5z" />
    <glyph glyph-name="afii61352" unicode="&#x2116;" horiz-adv-x="2136" 
d="M1399 0v197h633v-197h-633zM438 442v-125q0 -191 -86.5 -271t-259.5 -91l-47 258q61 3 89 35.5t28 109.5v848h262l393 -551q29 -41 54.5 -81t36.5 -60l10 -20h8q-6 102 -6 256v118q0 191 86.5 271.5t259.5 91.5l47 -258q-60 -3 -88.5 -36t-28.5 -110v-827h-252l-395 541
q-34 45 -62.5 89.5t-40.5 66.5l-12 22h-8q12 -105 12 -277zM1710 311q-147 0 -235.5 87.5t-88.5 244.5t88 242.5t236 85.5q149 0 237.5 -85.5t88.5 -242.5t-88.5 -244.5t-237.5 -87.5zM1710 811q-96 0 -96 -172q0 -170 96 -170t96 170q0 172 -96 172z" />
    <glyph glyph-name="published" unicode="&#x2117;" horiz-adv-x="1439" 
d="M776 451h-96v-222h-225v764h327q150 0 227.5 -67.5t77.5 -196.5q0 -278 -311 -278zM680 811v-190h76q55 0 81.5 22.5t26.5 73.5q0 94 -110 94h-74zM92 602q0 179 84.5 323.5t227.5 225t315 80.5q128 0 244 -47.5t200.5 -129.5t134.5 -200t50 -252t-50 -251.5
t-134.5 -199.5t-200.5 -129t-244 -47t-243.5 47t-200 129t-134 199.5t-49.5 251.5zM156 602q0 -163 77 -294t206 -202t284 -71q115 0 218 42t179.5 115.5t121 180t44.5 229.5q0 122 -44.5 228.5t-120.5 181t-179.5 117t-218.5 42.5t-219.5 -42.5t-181 -117t-121.5 -181
t-45 -228.5z" />
    <glyph glyph-name="servicemark" unicode="&#x2120;" horiz-adv-x="1273" 
d="M41 823l127 47q24 -73 102 -73q64 0 64 41q0 34 -64 49l-80 18q-64 15 -97.5 54.5t-33.5 95.5q0 88 62 126t158 38q97 0 153.5 -36.5t59.5 -105.5l-150 -20q-2 51 -68 51q-53 0 -53 -39q0 -19 11 -30t42 -17l66 -12q79 -14 119.5 -58.5t40.5 -105.5q0 -82 -62 -119
t-166 -37q-208 0 -231 133zM1188 698h-154v283h-8l-84 -162h-92l-82 162h-10v-283h-154v508h168l123 -217h2l121 217h170v-508z" />
    <glyph glyph-name="trademark" unicode="&#x2122;" horiz-adv-x="1253" 
d="M334 698h-154v383h-139v125h434v-125h-141v-383zM1167 698h-153v283h-8l-84 -162h-93l-81 162h-11v-283h-153v508h168l122 -217h3l120 217h170v-508z" />
    <glyph glyph-name="ohm" unicode="&#x2126;" horiz-adv-x="1392" 
d="M694 985q-137 0 -208.5 -97t-71.5 -259q0 -143 52 -240.5t128 -138.5v-250h-485v250h243q-94 42 -161.5 152t-67.5 260q0 261 153 415t418 154q266 0 421 -154t155 -415q0 -150 -68.5 -260t-163.5 -152h246v-250h-489v250q78 41 131 138t53 241q0 162 -73.5 259
t-211.5 97z" />
    <glyph glyph-name="estimated" unicode="&#x212e;" horiz-adv-x="1325" 
d="M662 1231q145 0 257.5 -53t179.5 -143t100.5 -199.5t33.5 -233.5v-53h-883v-346q119 -119 312 -119q266 0 376 213h136q-62 -149 -190.5 -235.5t-321.5 -86.5q-116 0 -211.5 35t-161 94.5t-111 140t-66 170.5t-20.5 187q0 98 21 188t66 171t110.5 140.5t161 94.5
t211.5 35zM662 1122q-197 0 -312 -118v-349h625v349q-115 118 -313 118z" />
    <glyph glyph-name="uni2153" unicode="&#x2153;" horiz-adv-x="1781" 
d="M631 483h-533v150h174v389l-192 -16v157l393 43v-573h158v-150zM496 0l624 1206h166l-629 -1206h-161zM1470 369v-4q203 -15 203 -183q0 -94 -79.5 -145t-221.5 -51q-116 0 -193 43.5t-94 122.5l166 67q22 -88 123 -88q86 0 86 68q0 43 -38 69t-144 29v115
q99 4 134.5 30.5t35.5 67.5q0 34 -19.5 52t-50.5 18q-39 0 -65.5 -20.5t-30.5 -59.5l-164 61q15 84 90.5 131t186.5 47q114 0 183 -48.5t69 -141.5q0 -150 -177 -180z" />
    <glyph glyph-name="uni2154" unicode="&#x2154;" horiz-adv-x="1781" 
d="M657 641v-158h-569v131q194 140 265 209.5t71 139.5q0 84 -82 84q-42 0 -71 -31.5t-29 -93.5l-170 65q5 99 79 167.5t211 68.5q122 0 197.5 -60.5t75.5 -173.5q0 -205 -287 -340v-8h309zM496 0l624 1206h166l-629 -1206h-161zM1470 369v-4q203 -15 203 -183
q0 -94 -79.5 -145t-221.5 -51q-116 0 -193 43.5t-94 122.5l166 67q22 -88 123 -88q86 0 86 68q0 43 -38 69t-144 29v115q99 4 134.5 30.5t35.5 67.5q0 34 -19.5 52t-50.5 18q-39 0 -65.5 -20.5t-30.5 -59.5l-164 61q15 84 90.5 131t186.5 47q114 0 183 -48.5t69 -141.5
q0 -150 -177 -180z" />
    <glyph glyph-name="uni215B" unicode="&#x215b;" horiz-adv-x="1781" 
d="M631 483h-533v150h174v389l-192 -16v157l393 43v-573h158v-150zM496 0l624 1206h166l-629 -1206h-161zM1417 297q-41 0 -67.5 -20.5t-26.5 -63.5q0 -37 25.5 -59.5t68.5 -22.5t68.5 22.5t25.5 59.5q0 43 -27.5 63.5t-66.5 20.5zM1417 -14q-136 0 -215.5 52t-79.5 152
q0 68 43 114t125 58v9q-72 7 -109.5 52.5t-37.5 104.5q0 99 72 155t202 56q129 0 202 -56.5t73 -154.5q0 -59 -38 -104.5t-110 -52.5v-9q82 -12 125 -58t43 -114q0 -100 -80 -152t-215 -52zM1417 598q-42 0 -65 -21.5t-23 -56.5t26 -54.5t62 -19.5t62 19.5t26 54.5t-23 56.5
t-65 21.5z" />
    <glyph glyph-name="uni215C" unicode="&#x215c;" horiz-adv-x="1781" 
d="M451 852v-4q202 -15 202 -182q0 -95 -79.5 -146t-221.5 -51q-115 0 -192 43.5t-94 122.5l165 67q22 -88 123 -88q86 0 86 68q0 43 -38 69t-144 29v115q99 4 134.5 30.5t35.5 67.5q0 34 -19.5 52t-50.5 18q-39 0 -65.5 -20.5t-30.5 -59.5l-164 61q15 85 90.5 132t186.5 47
q114 0 183 -49t69 -142q0 -150 -176 -180zM496 0l624 1206h166l-629 -1206h-161zM1417 297q-41 0 -67.5 -20.5t-26.5 -63.5q0 -37 25.5 -59.5t68.5 -22.5t68.5 22.5t25.5 59.5q0 43 -27.5 63.5t-66.5 20.5zM1417 -14q-136 0 -215.5 52t-79.5 152q0 68 43 114t125 58v9
q-72 7 -109.5 52.5t-37.5 104.5q0 99 72 155t202 56q129 0 202 -56.5t73 -154.5q0 -59 -38 -104.5t-110 -52.5v-9q82 -12 125 -58t43 -114q0 -100 -80 -152t-215 -52zM1417 598q-42 0 -65 -21.5t-23 -56.5t26 -54.5t62 -19.5t62 19.5t26 54.5t-23 56.5t-65 21.5z" />
    <glyph glyph-name="uni215D" unicode="&#x215d;" horiz-adv-x="1781" 
d="M123 784l18 422h473v-166h-317l-8 -137q43 49 145 49q98 0 159.5 -61.5t61.5 -167.5q0 -125 -85.5 -189.5t-221.5 -64.5q-122 0 -196 44t-91 128l175 80q6 -45 36.5 -74t79.5 -29q50 0 80.5 26.5t30.5 76.5q0 45 -25 71.5t-65 26.5q-54 0 -82 -35h-168zM496 0l624 1206
h166l-629 -1206h-161zM1417 297q-41 0 -67.5 -20.5t-26.5 -63.5q0 -37 25.5 -59.5t68.5 -22.5t68.5 22.5t25.5 59.5q0 43 -27.5 63.5t-66.5 20.5zM1417 -14q-136 0 -215.5 52t-79.5 152q0 68 43 114t125 58v9q-72 7 -109.5 52.5t-37.5 104.5q0 99 72 155t202 56
q129 0 202 -56.5t73 -154.5q0 -59 -38 -104.5t-110 -52.5v-9q82 -12 125 -58t43 -114q0 -100 -80 -152t-215 -52zM1417 598q-42 0 -65 -21.5t-23 -56.5t26 -54.5t62 -19.5t62 19.5t26 54.5t-23 56.5t-65 21.5z" />
    <glyph glyph-name="uni215E" unicode="&#x215e;" horiz-adv-x="1689" 
d="M440 1040h-211v-112h-168v278h596v-145l-272 -578h-217zM416 0l624 1206h166l-628 -1206h-162zM1337 297q-41 0 -67.5 -20.5t-26.5 -63.5q0 -37 25.5 -59.5t68.5 -22.5t69 22.5t26 59.5q0 43 -27.5 63.5t-67.5 20.5zM1337 -14q-136 0 -215.5 52t-79.5 152q0 68 43 114
t125 58v9q-72 7 -109.5 52.5t-37.5 104.5q0 99 72 155t202 56q129 0 202 -56.5t73 -154.5q0 -59 -38 -104.5t-110 -52.5v-9q82 -12 125 -58t43 -114q0 -100 -80 -152t-215 -52zM1337 598q-42 0 -65 -21.5t-23 -56.5t26 -54.5t62 -19.5t62 19.5t26 54.5t-23 56.5t-65 21.5z
" />
    <glyph glyph-name="arrowleft" unicode="&#x2190;" horiz-adv-x="1445" 
d="M473 723h881v-238h-881l344 -344l-168 -166l-598 629l596 627l168 -168z" />
    <glyph glyph-name="arrowup" unicode="&#x2191;" horiz-adv-x="1402" 
d="M821 809v-809h-237v809l-344 -342l-166 168l628 596l627 -596l-168 -168z" />
    <glyph glyph-name="arrowright" unicode="&#x2192;" horiz-adv-x="1445" 
d="M51 723h881l-340 340l168 168l594 -627l-596 -629l-168 166l342 344h-881v238z" />
    <glyph glyph-name="arrowdown" unicode="&#x2193;" horiz-adv-x="1402" 
d="M582 397v809h237v-809l344 344l166 -168l-629 -598l-626 596l168 168z" />
    <glyph glyph-name="uni2196" unicode="&#x2196;" horiz-adv-x="1400" 
d="M1198 0l-817 817v-618h-229v1007h974v-221h-579l817 -819z" />
    <glyph glyph-name="uni2197" unicode="&#x2197;" horiz-adv-x="1400" 
d="M1020 817l-817 -817l-166 166l817 819h-582v221h977v-1007h-229v618z" />
    <glyph glyph-name="uni2198" unicode="&#x2198;" horiz-adv-x="1400" 
d="M203 1206l817 -815v617h229v-1008h-977v223h582l-817 817z" />
    <glyph glyph-name="uni2199" unicode="&#x2199;" horiz-adv-x="1400" 
d="M381 391l817 815l166 -166l-817 -817h579v-223h-974v1008h229v-617z" />
    <glyph glyph-name="partialdiff" unicode="&#x2202;" horiz-adv-x="1091" 
d="M279 1264l227 135q239 -132 369.5 -347t130.5 -503q0 -286 -121 -424.5t-340 -138.5q-211 0 -335 128t-124 359q0 114 34.5 205t91.5 146t125 83.5t140 28.5q92 0 150 -34.5t104 -96.5q-68 149 -177.5 258.5t-274.5 200.5zM737 457q0 124 -49.5 190t-142.5 66t-140 -66
t-47 -190t48.5 -192t142.5 -68q95 0 141.5 67.5t46.5 192.5z" />
    <glyph glyph-name="increment" unicode="&#x2206;" horiz-adv-x="1261" 
d="M1241 0h-1221l437 1206h344zM860 231l-137 387q-31 88 -54.5 174t-31.5 128l-8 41h-8q-33 -145 -99 -340l-131 -390h469z" />
    <glyph glyph-name="product" unicode="&#x220f;" horiz-adv-x="1329" 
d="M432 -416h-276v1622h1018v-1622h-275v1372h-467v-1372z" />
    <glyph glyph-name="summation" unicode="&#x2211;" horiz-adv-x="972" 
d="M858 965h-303q-46 0 -82.5 2t-49.5 4l-13 2v-8q34 -21 102 -127l152 -234l-154 -235q-30 -47 -55 -79t-35 -40l-10 -8v-9q39 9 145 9h303v-242h-858l367 606l-367 600h858v-241z" />
    <glyph glyph-name="minus" unicode="&#x2212;" horiz-adv-x="1019" 
d="M928 432h-836v152h836v-152z" />
    <glyph glyph-name="radical" unicode="&#x221a;" horiz-adv-x="1294" 
d="M453 958l262 -682h8l299 1108l252 -32l-422 -1352h-256l-287 649l-188 -90l-96 199z" />
    <glyph glyph-name="infinity" unicode="&#x221e;" horiz-adv-x="1767" 
d="M299 496q0 -96 48.5 -145.5t121.5 -49.5q102 0 190 88l105 107l-105 106q-84 88 -190 88q-73 0 -121.5 -49t-48.5 -145zM885 360l-94 -92q-96 -94 -164.5 -133t-175.5 -39q-71 0 -134.5 25t-113.5 72.5t-79.5 125.5t-29.5 177t29.5 176.5t79.5 125.5t113.5 72.5
t134.5 24.5q75 0 136 -23t101.5 -55t102.5 -94l92 -92l94 92q50 48 79 72.5t71.5 51t87.5 37.5t102 11q150 0 253 -103t103 -296t-103 -296.5t-253 -103.5q-75 0 -136 23t-101.5 55t-102.5 94zM1468 496q0 96 -48.5 145t-121.5 49q-106 0 -190 -88l-104 -106l104 -107
q84 -88 190 -88q73 0 121.5 49.5t48.5 145.5z" />
    <glyph glyph-name="integral" unicode="&#x222b;" horiz-adv-x="630" 
d="M160 -25v1080q0 87 31 151.5t86 101.5t121 55t143 19q125 0 229 -36l-43 -254q-70 49 -154 49q-141 0 -141 -152v-1077q0 -87 -31 -152t-85.5 -102.5t-120.5 -55.5t-144 -18q-117 0 -227 35l41 254q73 -49 155 -49q140 0 140 151z" />
    <glyph glyph-name="approxequal" unicode="&#x2248;" horiz-adv-x="1019" 
d="M735 502q-65 0 -221 43t-209 43q-118 0 -213 -86v151q53 48 104.5 68t116.5 20t210 -41t204 -41q58 0 104.5 17t96.5 59v-160q-68 -73 -193 -73zM735 233q-65 0 -221 43t-209 43q-121 0 -213 -83v149q52 49 103.5 68.5t117.5 19.5t210.5 -40t203.5 -40t105.5 16.5
t95.5 59.5v-162q-71 -74 -193 -74z" />
    <glyph glyph-name="notequal" unicode="&#x2260;" horiz-adv-x="1019" 
d="M928 580h-256l-111 -152h367v-154h-477l-179 -243l-122 90l114 153h-172v154h281l110 152h-391v153h502l164 225l125 -88l-101 -137h146v-153z" />
    <glyph glyph-name="lessequal" unicode="&#x2264;" horiz-adv-x="886" 
d="M743 842l-358 -230l356 -235l-106 -137l-531 370l539 363zM795 39h-703v154h703v-154z" />
    <glyph glyph-name="greaterequal" unicode="&#x2265;" horiz-adv-x="886" 
d="M500 612l-357 230l99 131l540 -363l-532 -370l-105 137zM795 39h-703v154h703v-154z" />
    <glyph glyph-name="blacksquare" unicode="&#x25a0;" horiz-adv-x="1521" 
d="M158 0v1206h1206v-1206h-1206z" />
    <glyph glyph-name="whitesquare" unicode="&#x25a1;" horiz-adv-x="1521" 
d="M158 0v1206h1206v-1206h-1206zM246 1118v-1030h1032v1030h-1032z" />
    <glyph glyph-name="blacksmallsquare" unicode="&#x25aa;" horiz-adv-x="978" 
d="M158 285v665h663v-665h-663z" />
    <glyph glyph-name="whitesmallsquare" unicode="&#x25ab;" horiz-adv-x="983" 
d="M158 285v665h667v-665h-667zM246 862v-489h491v489h-491z" />
    <glyph glyph-name="triagup" unicode="&#x25b2;" horiz-adv-x="1167" 
d="M82 0l502 1231l501 -1231h-1003z" />
    <glyph glyph-name="triagrt" unicode="&#x25ba;" horiz-adv-x="1388" 
d="M158 1098l1231 -502l-1231 -502v1004z" />
    <glyph glyph-name="triagdn" unicode="&#x25bc;" horiz-adv-x="1167" 
d="M584 -25l-502 1231h1003z" />
    <glyph glyph-name="triaglf" unicode="&#x25c4;" horiz-adv-x="1388" 
d="M0 596l1231 502v-1004z" />
    <glyph glyph-name="lozenge" unicode="&#x25ca;" horiz-adv-x="1062" 
d="M977 618l-346 -688h-201l-344 688l344 672h201zM762 616l-227 463l-226 -463l226 -475z" />
    <glyph glyph-name="circle" unicode="&#x25cb;" horiz-adv-x="1058" 
d="M84 604q0 121 59.5 224t162 163t224.5 60q183 0 314 -131.5t131 -315.5t-131 -315t-314 -131q-122 0 -224.5 60t-162 162.5t-59.5 223.5zM180 602q0 -148 101.5 -252t248.5 -104q143 0 247 104.5t104 251.5q0 148 -104 253.5t-247 105.5q-147 0 -248.5 -104.5
t-101.5 -254.5z" />
    <glyph glyph-name="blackcircle" unicode="&#x25cf;" horiz-adv-x="1423" 
d="M84 602q0 170 84 315t228.5 229.5t314.5 84.5q127 0 243.5 -50t200.5 -134.5t134 -201t50 -243.5t-50 -243.5t-134 -200.5t-200.5 -133.5t-243.5 -49.5q-170 0 -314.5 84t-228.5 228.5t-84 314.5z" />
    <glyph glyph-name="whitecircle" unicode="&#x25ef;" horiz-adv-x="1423" 
d="M84 602q0 170 84 315t228.5 229.5t314.5 84.5q127 0 243.5 -50t200.5 -134.5t134 -201t50 -243.5t-50 -243.5t-134 -200.5t-200.5 -133.5t-243.5 -49.5q-170 0 -314.5 84t-228.5 228.5t-84 314.5zM174 602q0 -148 72 -273.5t195.5 -198.5t269.5 -73q145 0 268.5 73
t195.5 198.5t72 273.5q0 147 -72 272.5t-195.5 199t-268.5 73.5q-146 0 -270 -73.5t-195.5 -199t-71.5 -272.5z" />
    <glyph glyph-name="anglebracketleft" unicode="&#x3008;" horiz-adv-x="704" 
d="M653 -416h-276l-314 899l314 885h276l-309 -889z" />
    <glyph glyph-name="anglebracketright" unicode="&#x3009;" horiz-adv-x="704" 
d="M328 -416h-277l309 895l-309 889h277l313 -885z" />
    <glyph glyph-name="lcedilla" unicode="&#xe100;" horiz-adv-x="591" 
d="M549 -242q0 -93 -66 -141.5t-170 -48.5q-70 0 -127.5 20.5t-87.5 53.5l52 131q63 -72 133 -72q61 0 61 53q0 71 -104 82l18 164q-147 50 -147 223v1145h274v-1065q0 -82 86 -82q37 0 74 15l-15 -230q-91 -24 -157 -24l-4 -56q180 -12 180 -168z" />
    <glyph glyph-name="uni004500600323" unicode="&#xe101;" horiz-adv-x="1069" 
d="M967 242v-242h-809v1206h809v-241h-531v-240h467v-231h-467v-252h531zM395 -270q0 75 47 117t119 42q76 0 124 -41.5t48 -117.5q0 -73 -48 -114.5t-124 -41.5q-72 0 -119 41.5t-47 114.5zM672 1325h-252l131 293h344z" />
    <glyph glyph-name="uni006500600323" unicode="&#xe102;" horiz-adv-x="999" 
d="M530 186q126 0 166 129l234 -79q-35 -136 -144.5 -198.5t-261.5 -62.5q-206 0 -331 129.5t-125 354.5q0 243 122.5 376.5t337.5 133.5q195 0 297.5 -115t102.5 -305q0 -60 -13 -123h-583q5 -111 55.5 -175.5t142.5 -64.5zM340 578h326q2 12 2 32q0 69 -39.5 112.5
t-110.5 43.5q-75 0 -122.5 -51.5t-55.5 -136.5zM610 1077h-250l144 314h344zM336 -270q0 75 47 117t119 42q76 0 124 -41.5t48 -117.5q0 -73 -48 -114.5t-124 -41.5q-72 0 -119 41.5t-47 114.5z" />
    <glyph glyph-name="uni004500B40323" unicode="&#xe103;" horiz-adv-x="1069" 
d="M967 242v-242h-809v1206h809v-241h-531v-240h467v-231h-467v-252h531zM395 -270q0 75 47 117t119 42q76 0 124 -41.5t48 -117.5q0 -73 -48 -114.5t-124 -41.5q-72 0 -119 41.5t-47 114.5zM702 1325h-249l-226 293h344z" />
    <glyph glyph-name="uni006500B40323" unicode="&#xe104;" horiz-adv-x="999" 
d="M530 186q126 0 166 129l234 -79q-35 -136 -144.5 -198.5t-261.5 -62.5q-206 0 -331 129.5t-125 354.5q0 243 122.5 376.5t337.5 133.5q195 0 297.5 -115t102.5 -305q0 -60 -13 -123h-583q5 -111 55.5 -175.5t142.5 -64.5zM340 578h326q2 12 2 32q0 69 -39.5 112.5
t-110.5 43.5q-75 0 -122.5 -51.5t-55.5 -136.5zM647 1077h-248l-239 314h344zM336 -270q0 75 47 117t119 42q76 0 124 -41.5t48 -117.5q0 -73 -48 -114.5t-124 -41.5q-72 0 -119 41.5t-47 114.5z" />
    <glyph glyph-name="Gtilde" unicode="&#xe105;" horiz-adv-x="1288" 
d="M651 643h520v-643h-172l-45 135q-45 -80 -131 -120t-200 -40q-119 0 -216.5 38.5t-170 113.5t-112.5 195t-40 276q0 301 156 467t434 166q179 0 304.5 -79t186.5 -226l-268 -131q-58 190 -233 190q-41 0 -80 -11t-78.5 -39.5t-68.5 -71.5t-47.5 -112.5t-18.5 -156.5
q0 -84 16.5 -153t50.5 -123.5t92.5 -84.5t137.5 -30q117 0 177 49t60 129v41h-254v221zM834 1329q-49 0 -79.5 10t-72.5 35q-51 30 -73.5 40.5t-45.5 10.5q-33 0 -51.5 -25t-11.5 -75h-152q-30 59 -27 117t27 103.5t71.5 73.5t106.5 28q66 0 140 -43q9 -5 27 -16t25 -14.5
l20 -10t20 -9t16.5 -4.5t18.5 -2q32 0 46 21t7 73h160q54 -124 2.5 -218.5t-174.5 -94.5z" />
    <glyph glyph-name="gtilde" unicode="&#xe106;" horiz-adv-x="1028" 
d="M492 969q160 0 268 -60q29 29 42 56.5t29 87.5l216 -72q-7 -64 -57.5 -111.5t-115.5 -66.5q44 -68 44 -168q0 -106 -59 -181t-155.5 -110t-220.5 -35q-77 0 -114 13q-45 -27 -45 -78q0 -26 19.5 -42t55.5 -16h271q157 0 245.5 -76.5t88.5 -201.5q0 -78 -31.5 -138.5
t-83.5 -98t-125 -61.5t-148 -33t-161 -9q-93 0 -168.5 12t-139.5 38t-99.5 73.5t-35.5 113.5q0 173 250 191q-68 4 -110.5 53.5t-42.5 114.5q0 60 40 112t119 74q-100 39 -148 106.5t-48 178.5q0 161 113.5 247.5t306.5 86.5zM264 -141q0 -109 221 -109q141 0 202 26.5
t61 84.5q0 43 -27.5 61.5t-89.5 18.5h-234q-61 0 -97 -21t-36 -61zM348 635q0 -65 37 -105.5t107 -40.5t107.5 37.5t37.5 108.5q0 147 -145 147q-144 -3 -144 -147zM653 1067q-49 0 -78 10t-73 37q-7 4 -23 13t-21 12t-16.5 9t-17 7.5t-13.5 4.5t-14.5 4t-13.5 1
q-33 0 -52 -25t-12 -75h-151q-30 59 -27 116t27 102t71.5 73t106.5 28q68 0 139 -41q6 -3 17.5 -10.5t16 -10t14 -8t13.5 -7.5t11.5 -6t11.5 -5.5t10.5 -4t11 -3.5t10 -1.5t11.5 -0.5q67 0 54 94h159q54 -124 2.5 -218.5t-174.5 -94.5z" />
    <glyph glyph-name="Gcommaturnedabove" unicode="&#xe107;" horiz-adv-x="1288" 
d="M651 643h520v-643h-172l-45 135q-45 -80 -131 -120t-200 -40q-119 0 -216.5 38.5t-170 113.5t-112.5 195t-40 276q0 301 156 467t434 166q179 0 304.5 -79t186.5 -226l-268 -131q-58 190 -233 190q-41 0 -80 -11t-78.5 -39.5t-68.5 -71.5t-47.5 -112.5t-18.5 -156.5
q0 -84 16.5 -153t50.5 -123.5t92.5 -84.5t137.5 -30q117 0 177 49t60 129v41h-254v221zM494 1505q0 234 292 234v-92q-69 -2 -102 -19.5t-33 -60.5q60 11 104 -19.5t44 -93.5q0 -65 -40.5 -99t-103.5 -34q-71 0 -116 50.5t-45 133.5z" />
    <glyph glyph-name="gcommaturnedabove" unicode="&#xe108;" horiz-adv-x="1028" 
d="M492 969q160 0 268 -60q29 29 42 56.5t29 87.5l216 -72q-7 -64 -57.5 -111.5t-115.5 -66.5q44 -68 44 -168q0 -106 -59 -181t-155.5 -110t-220.5 -35q-77 0 -114 13q-45 -27 -45 -78q0 -26 19.5 -42t55.5 -16h271q157 0 245.5 -76.5t88.5 -201.5q0 -78 -31.5 -138.5
t-83.5 -98t-125 -61.5t-148 -33t-161 -9q-93 0 -168.5 12t-139.5 38t-99.5 73.5t-35.5 113.5q0 173 250 191q-68 4 -110.5 53.5t-42.5 114.5q0 60 40 112t119 74q-100 39 -148 106.5t-48 178.5q0 161 113.5 247.5t306.5 86.5zM264 -141q0 -109 221 -109q141 0 202 26.5
t61 84.5q0 43 -27.5 61.5t-89.5 18.5h-234q-61 0 -97 -21t-36 -61zM348 635q0 -65 37 -105.5t107 -40.5t107.5 37.5t37.5 108.5q0 147 -145 147q-144 -3 -144 -147zM346 1251q0 234 293 234v-92q-69 -2 -102 -19.5t-33 -60.5q60 11 103.5 -19.5t43.5 -93.5q0 -65 -40 -99
t-103 -34q-71 0 -116.5 50.5t-45.5 133.5z" />
    <glyph glyph-name="Hmacronbelow" unicode="&#xe109;" horiz-adv-x="1335" 
d="M436 0h-278v1206h278v-473h463v473h279v-1206h-279v492h-463v-492zM969 -393h-602v219h602v-219z" />
    <glyph glyph-name="hmacronbelow" unicode="&#xe10a;" horiz-adv-x="1095" 
d="M403 1368v-602q72 203 295 203q119 0 199 -74.5t80 -224.5v-670h-275v567q0 84 -28.5 128t-98.5 44q-75 0 -123.5 -50.5t-48.5 -166.5v-522h-274v1368h274zM854 -393h-602v219h602v-219z" />
    <glyph glyph-name="Jcaron" unicode="&#xe10b;" horiz-adv-x="960" 
d="M559 1206h277v-856q0 -100 -33 -174t-92 -117t-133 -63.5t-164 -20.5q-295 0 -414 232l205 184q38 -95 86 -140.5t119 -45.5q82 0 115.5 47t33.5 147v807zM780 1323h-174l-276 297h256l61 -64q16 -16 26 -31.5t13 -22.5l2 -7h8q6 24 41 61l64 64h254z" />
    <glyph glyph-name="Kcedilla" unicode="&#xe10d;" horiz-adv-x="1189" 
d="M1165 0h-331l-326 492h-72v-492h-278v1206h278v-473h74l299 473h319l-380 -583zM803 -242q0 -93 -66 -141.5t-170 -48.5q-70 0 -127.5 20.5t-87.5 53.5l51 131q63 -72 134 -72q61 0 61 53q0 71 -104 82l22 201h117l-10 -111q180 -12 180 -168z" />
    <glyph glyph-name="kcedilla" unicode="&#xe10e;" horiz-adv-x="1062" 
d="M686 506l358 -506h-319l-266 389h-56v-389h-274v1368h274v-766h52l241 344h318zM762 -242q0 -93 -66 -141.5t-170 -48.5q-70 0 -127.5 20.5t-87.5 53.5l51 131q63 -72 134 -72q61 0 61 53q0 71 -104 82l22 201h117l-10 -111q180 -12 180 -168z" />
    <glyph glyph-name="Lcedilla" unicode="&#xe10f;" horiz-adv-x="964" 
d="M752 -242q0 -93 -66 -141.5t-170 -48.5q-70 0 -127.5 20.5t-87.5 53.5l51 131q63 -72 133 -72q62 0 62 53q0 71 -105 82l19 164h-303v1206h278v-964h471v-242h-329l-7 -74q181 -12 181 -168z" />
    </font>
</defs>
</svg>
