<?xml version="1.0" standalone="no"?>
<!DOCTYPE svg PUBLIC "-//W3C//DTD SVG 1.1//EN" "http://www.w3.org/Graphics/SVG/1.1/DTD/svg11.dtd" >
<svg xmlns="http://www.w3.org/2000/svg" xmlns:xlink="http://www.w3.org/1999/xlink" version="1.1">
<metadata>
Created by FontForge 20170731 at Fri Sep 17 22:21:25 2021
 By Aleksey,,,
Copyright (c) 2004-9 by Kris Sowersby. All rights reserved.
</metadata>
<defs>
<font id="National-BoldItalic" horiz-adv-x="1146" >
  <font-face 
    font-family="National Bold Italic"
    font-weight="810"
    font-style="italic"
    font-stretch="normal"
    units-per-em="2048"
    panose-1="2 0 5 3 0 0 0 2 0 4"
    ascent="1638"
    descent="-410"
    x-height="946"
    cap-height="1206"
    bbox="-332 -526 2552 2036"
    underline-thickness="116"
    underline-position="-173"
    unicode-range="U+0020-F778"
  />
<missing-glyph horiz-adv-x="1546" 
d="M170 0v1206h1206v-1206h-1206zM772 541l-453 -453h908zM319 1118l453 -454l455 454h-908zM834 602l454 -452v907zM711 602l-453 455v-907z" />
    <glyph glyph-name="f_b" unicode="fb" horiz-adv-x="1777" 
d="M1057 518l-25 -129q-16 -92 21 -157.5t118 -65.5q75 0 131.5 55t83.5 140.5t27 185.5q0 101 -42.5 155t-115.5 54q-71 0 -124.5 -61.5t-73.5 -176.5zM686 0l201 1137q-72 43 -152 43q-154 0 -186 -156l-14 -78h174l-37 -211h-174l-158 -893q-26 -152 -97 -213t-214 -61
q-119 0 -197 47l51 197q50 -37 97 -37q39 0 59 19.5t27 64.5l153 876h-141l37 211h141l16 86q17 93 58.5 162.5t100 110t126.5 60t145 19.5q135 0 238 -47l266 31l-108 -604q85 205 297 205q145 0 231 -100t86 -296q0 -169 -55.5 -303.5t-165.5 -214.5t-258 -80
q-98 0 -168.5 44t-83.5 124l-80 -143h-215z" />
    <glyph glyph-name="f_f_b" unicode="ffb" horiz-adv-x="2375" 
d="M1653 518l-23 -129q-16 -93 20 -158t117 -65q75 0 131.5 55t83.5 140.5t27 185.5q0 101 -42.5 155t-115.5 54q-71 0 -124.5 -61.5t-73.5 -176.5zM1282 0l201 1137q-72 43 -152 43q-154 0 -186 -156l-15 -78h175l-37 -211h-174l-154 -866q-28 -152 -98.5 -213.5
t-214.5 -61.5q-117 0 -197 48l53 196q50 -37 97 -37q37 0 57 19.5t29 64.5l149 850h-317l-158 -893q-26 -152 -97 -213t-214 -61q-119 0 -197 47l51 197q50 -37 97 -37q39 0 59 19.5t27 64.5l153 876h-141l37 211h141l12 76q57 346 359 346q69 0 116.5 -11.5t100.5 -43.5
l-84 -226q-49 52 -101 52q-44 0 -69 -25.5t-37 -81.5l-18 -86h317l16 86q17 93 58.5 162.5t100 110t126.5 60t145 19.5q135 0 238 -47l266 31l-108 -604q42 102 114.5 153.5t184.5 51.5q144 0 230.5 -100.5t86.5 -295.5q0 -169 -56 -303.5t-166.5 -214.5t-258.5 -80
q-98 0 -168 44t-84 124l-78 -143h-217z" />
    <glyph glyph-name="f_f_h" unicode="ffh" horiz-adv-x="2365" 
d="M1282 0l201 1137q-72 43 -152 43q-154 0 -186 -156l-15 -78h175l-37 -211h-174l-154 -866q-28 -152 -98.5 -213.5t-214.5 -61.5q-117 0 -197 48l53 196q50 -37 97 -37q37 0 57 19.5t29 64.5l149 850h-317l-158 -893q-26 -152 -97 -213t-214 -61q-119 0 -197 47l51 197
q50 -37 97 -37q39 0 59 19.5t27 64.5l153 876h-141l37 211h141l12 76q57 346 359 346q69 0 116.5 -11.5t100.5 -43.5l-84 -226q-49 52 -101 52q-44 0 -69 -25.5t-37 -81.5l-18 -86h317l16 86q17 93 58.5 162.5t100 110t126.5 60t145 19.5q135 0 238 -47l266 31l-108 -614
q48 109 118 162t183 53q110 0 175.5 -64.5t65.5 -173.5q0 -53 -6 -84l-57 -350q-7 -39 3.5 -61.5t51.5 -22.5q29 0 62 8l-43 -207q-81 -24 -150 -24q-258 0 -213 262l58 328q28 161 -103 161q-65 0 -116.5 -58t-73.5 -177l-88 -506h-279z" />
    <glyph glyph-name="f_f_j" unicode="ffj" horiz-adv-x="1753" 
d="M1411 735h-317l-154 -866q-28 -152 -98.5 -213.5t-214.5 -61.5q-117 0 -197 48l53 196q50 -37 97 -37q37 0 57 19.5t29 64.5l149 850h-317l-158 -893q-26 -152 -97 -213t-214 -61q-119 0 -197 47l51 197q50 -37 97 -37q39 0 59 19.5t27 64.5l153 876h-141l37 211h141
l12 76q57 346 359 346q69 0 116.5 -11.5t100.5 -43.5l-84 -226q-49 52 -101 52q-44 0 -69 -25.5t-37 -81.5l-18 -86h317l18 84q74 354 418 354q170 0 291 -71l-86 -232q-97 76 -184 76q-69 0 -109 -35.5t-55 -111.5l-15 -64h596l-190 -1077q-26 -152 -97.5 -213.5
t-215.5 -61.5q-118 0 -195 48l51 196q50 -37 97 -37q38 0 57.5 19t28.5 65z" />
    <glyph glyph-name="f_f_k" unicode="ffk" horiz-adv-x="2291" 
d="M1282 0l201 1137q-72 43 -152 43q-154 0 -186 -156l-15 -78h175l-37 -211h-174l-154 -866q-28 -152 -98.5 -213.5t-214.5 -61.5q-117 0 -197 48l53 196q50 -37 97 -37q37 0 57 19.5t29 64.5l149 850h-317l-158 -893q-26 -152 -97 -213t-214 -61q-119 0 -197 47l51 197
q50 -37 97 -37q39 0 59 19.5t27 64.5l153 876h-141l37 211h141l12 76q57 346 359 346q69 0 116.5 -11.5t100.5 -43.5l-84 -226q-49 52 -101 52q-44 0 -69 -25.5t-37 -81.5l-18 -86h317l16 86q17 93 58.5 162.5t100 110t126.5 60t145 19.5q135 0 238 -47l266 31l-133 -752h47
l295 330h336l-410 -436l119 -234q27 -52 66 -62t102 11l-43 -215q-68 -20 -145 -20q-75 0 -128 31.5t-89 111.5l-123 275h-64l-71 -408h-279z" />
    <glyph glyph-name="f_h" unicode="fh" horiz-adv-x="1769" 
d="M686 0l201 1137q-72 43 -152 43q-154 0 -186 -156l-14 -78h174l-37 -211h-174l-158 -893q-26 -152 -97 -213t-214 -61q-119 0 -197 47l51 197q50 -37 97 -37q39 0 59 19.5t27 64.5l153 876h-141l37 211h141l16 86q17 93 58.5 162.5t100 110t126.5 60t145 19.5
q135 0 238 -47l266 31l-108 -614q48 109 118 162t181 53q112 0 177.5 -64.5t65.5 -173.5q0 -37 -6 -84l-57 -350q-7 -40 3 -62t52 -22q29 0 62 8l-43 -207q-81 -24 -150 -24q-258 0 -213 262l58 328q24 161 -103 161q-65 0 -116.5 -58t-73.5 -177l-88 -506h-279z" />
    <glyph glyph-name="f_j" unicode="fj" horiz-adv-x="1157" 
d="M1130 946l-190 -1077q-26 -152 -97.5 -213.5t-215.5 -61.5q-117 0 -197 48l53 196q50 -37 97 -37q37 0 57 19.5t29 64.5l149 850h-317l-158 -893q-26 -152 -97 -213t-214 -61q-119 0 -197 47l51 197q50 -37 97 -37q39 0 59 19.5t27 64.5l153 876h-141l37 211h141l16 84
q74 354 418 354q173 0 291 -71l-84 -232q-97 76 -184 76q-69 0 -109 -35.5t-57 -111.5l-12 -64h595z" />
    <glyph glyph-name="f_k" unicode="fk" horiz-adv-x="1695" 
d="M686 0l201 1137q-72 43 -152 43q-154 0 -186 -156l-14 -78h174l-37 -211h-174l-158 -893q-26 -152 -97 -213t-214 -61q-119 0 -197 47l51 197q50 -37 97 -37q39 0 59 19.5t27 64.5l153 876h-141l37 211h141l16 86q17 93 58.5 162.5t100 110t126.5 60t145 19.5
q135 0 238 -47l266 31l-133 -752h47l295 330h336l-412 -436l121 -234q27 -52 66 -62t102 11l-43 -215q-68 -20 -145 -20q-75 0 -128 31.5t-89 111.5l-123 275h-64l-71 -408h-279z" />
    <glyph glyph-name="ff" unicode="ff" horiz-adv-x="1302" 
d="M1094 735l-154 -866q-28 -152 -98.5 -213.5t-214.5 -61.5q-117 0 -197 48l53 196q50 -37 97 -37q37 0 57 19.5t29 64.5l149 850h-317l-158 -893q-26 -152 -97 -213t-214 -61q-119 0 -197 47l51 197q50 -37 97 -37q39 0 59 19.5t27 64.5l153 876h-141l37 211h141l12 76
q57 346 359 346q69 0 116.5 -11.5t100.5 -43.5l-84 -226q-49 52 -101 52q-44 0 -69 -25.5t-37 -81.5l-18 -86h317l14 86q31 180 141 266t271 86q138 0 254 -55l-86 -225q-73 51 -160 51q-61 0 -93.5 -30.5t-43.5 -92.5l-19 -86h242l-39 -211h-239z" />
    <glyph glyph-name="ffi" unicode="ffi" horiz-adv-x="1820" 
d="M1726 946l-112 -649q-7 -39 4 -61.5t53 -22.5q29 0 62 8l-45 -207q-77 -24 -148 -24q-260 0 -215 262l84 483h-315l-154 -866q-28 -152 -98.5 -213.5t-214.5 -61.5q-117 0 -197 48l53 196q50 -37 97 -37q37 0 57 19.5t29 64.5l149 850h-317l-158 -893q-26 -152 -97 -213
t-214 -61q-119 0 -197 47l51 197q50 -37 97 -37q39 0 59 19.5t27 64.5l153 876h-141l37 211h141l12 76q57 346 359 346q69 0 116.5 -11.5t100.5 -43.5l-84 -226q-49 52 -101 52q-44 0 -69 -25.5t-37 -81.5l-18 -86h317l18 84q74 354 418 354q170 0 291 -71l-86 -232
q-97 76 -184 76q-69 0 -109 -35.5t-55 -111.5l-15 -64h596z" />
    <glyph glyph-name="ffl" unicode="ffl" horiz-adv-x="1822" 
d="M1094 735l-154 -866q-28 -152 -98.5 -213.5t-214.5 -61.5q-117 0 -197 48l53 196q50 -37 97 -37q37 0 57 19.5t29 64.5l149 850h-317l-158 -893q-26 -152 -97 -213t-214 -61q-119 0 -197 47l51 197q50 -37 97 -37q39 0 59 19.5t27 64.5l153 876h-141l37 211h141l12 76
q57 346 359 346q69 0 116.5 -11.5t100.5 -43.5l-84 -226q-49 52 -101 52q-44 0 -69 -25.5t-37 -81.5l-18 -86h317l16 86q17 93 58.5 162.5t100 110t126.5 60t145 19.5q135 0 238 -47l266 31l-188 -1071q-7 -39 4 -61.5t53 -22.5q29 0 62 8l-45 -207q-77 -24 -148 -24
q-260 0 -215 262l158 885q-72 43 -152 43q-154 0 -186 -156l-15 -78h177l-39 -211h-174z" />
    <glyph glyph-name="fi" unicode="fi" horiz-adv-x="1222" 
d="M1130 946l-112 -649q-7 -39 4 -61.5t53 -22.5q27 0 60 8l-43 -207q-81 -24 -150 -24q-258 0 -213 262l84 483h-315l-158 -893q-26 -152 -97 -213t-214 -61q-119 0 -197 47l51 197q50 -37 97 -37q39 0 59 19.5t27 64.5l153 876h-141l37 211h141l16 84q74 354 418 354
q173 0 291 -71l-84 -232q-97 76 -184 76q-69 0 -109 -35.5t-57 -111.5l-12 -64h595z" />
    <glyph glyph-name="fl" unicode="fl" horiz-adv-x="1226" 
d="M498 735l-158 -893q-26 -152 -97 -213t-214 -61q-119 0 -197 47l51 197q50 -37 97 -37q39 0 59 19.5t27 64.5l153 876h-141l37 211h141l16 86q17 93 58.5 162.5t100 110t126.5 60t145 19.5q135 0 238 -47l266 31l-188 -1071q-7 -39 4 -61.5t53 -22.5q27 0 60 8l-43 -207
q-81 -24 -150 -24q-258 0 -213 262l158 885q-72 43 -152 43q-154 0 -186 -156l-14 -78h174l-37 -211h-174z" />
    <glyph glyph-name=".notdef" horiz-adv-x="1546" 
d="M170 0v1206h1206v-1206h-1206zM772 541l-453 -453h908zM319 1118l453 -454l455 454h-908zM834 602l454 -452v907zM711 602l-453 455v-907z" />
    <glyph glyph-name=".null" horiz-adv-x="0" 
 />
    <glyph glyph-name="nonmarkingreturn" horiz-adv-x="682" 
 />
    <glyph glyph-name="space" unicode=" " horiz-adv-x="454" 
 />
    <glyph glyph-name="exclam" unicode="!" horiz-adv-x="544" 
d="M238 1206h337l-235 -800h-182zM33 147q0 71 48 115.5t120 44.5q74 0 123 -44.5t49 -115.5t-48.5 -114t-123.5 -43q-72 0 -120 43t-48 114z" />
    <glyph glyph-name="quotedbl" unicode="&#x22;" horiz-adv-x="774" 
d="M162 844l92 524h268l-196 -524h-164zM522 844l92 524h269l-197 -524h-164z" />
    <glyph glyph-name="numbersign" unicode="#" horiz-adv-x="1384" 
d="M1206 248h-334l-118 -248h-219l118 248h-180l-119 -248h-219l119 248h-188l32 188h246l74 152h-252l33 188h311l100 209h221l-102 -209h180l101 209h223l-103 -209h209l-30 -188h-271l-73 -152h274zM637 588l-72 -152h178l74 152h-180z" />
    <glyph glyph-name="dollar" unicode="$" horiz-adv-x="980" 
d="M23 248l221 71q6 -64 43.5 -106.5t95.5 -58.5l41 229q-16 4 -25 10q-144 44 -203 110.5t-59 178.5q0 85 34 149t92.5 101t126.5 55.5t145 20.5l28 168h103l-31 -172q149 -13 231 -85t82 -186l-237 -57q0 53 -27.5 91.5t-79.5 53.5l-41 -229l21 -4q155 -43 217.5 -112.5
t62.5 -182.5q0 -104 -55.5 -175.5t-145.5 -105t-210 -37.5l-33 -192h-103l35 197q-149 12 -236 81t-93 187zM610 252q0 35 -20 56t-70 42l-35 -203q62 6 93.5 30.5t31.5 74.5zM381 725q0 -33 17.5 -55t68.5 -43l37 202q-123 -11 -123 -104z" />
    <glyph glyph-name="percent" unicode="%" horiz-adv-x="1841" 
d="M369 469q-137 0 -204 82t-67 221q0 115 40.5 216t125 168t195.5 67q131 0 201.5 -86t70.5 -226q0 -88 -24 -167.5t-68 -141t-114 -97.5t-156 -36zM440 1049q-39 0 -68.5 -29.5t-45 -74.5t-22.5 -88.5t-7 -82.5q2 -62 25.5 -99.5t68.5 -37.5q37 0 66.5 29.5t45.5 74t24 88
t8 80.5q0 140 -95 140zM418 0l835 1206h177l-842 -1206h-170zM1380 -14q-137 0 -203.5 82t-66.5 221q0 85 24 164.5t68 144t114 103t154 38.5q131 0 202 -85.5t71 -225.5q0 -119 -40.5 -218t-124.5 -161.5t-198 -62.5zM1452 565q-39 0 -68.5 -29t-45 -74t-22.5 -88.5
t-7 -82.5q2 -62 25.5 -99.5t68.5 -37.5q37 0 66.5 29.5t45 74t23.5 88t8 80.5q0 139 -94 139z" />
    <glyph glyph-name="ampersand" unicode="&#x26;" horiz-adv-x="1187" 
d="M1120 147l-213 -174l-114 133q-94 -69 -192 -100t-222 -31q-166 0 -264.5 77t-98.5 224q0 254 336 340l-57 66q-88 103 -88 229q0 80 34.5 142.5t94 100.5t133.5 57.5t158 19.5q159 0 253.5 -70.5t94.5 -197.5q0 -56 -18.5 -102.5t-47.5 -79t-71 -58t-84 -40.5t-90 -26
l188 -213q54 69 78 191l225 -90q-21 -65 -71 -136t-99 -118zM291 309q0 -58 40 -95.5t109 -37.5q128 0 226 76l-230 268q-73 -44 -109 -91.5t-36 -119.5zM604 1049q-56 0 -91.5 -31.5t-35.5 -79.5q0 -50 49 -113l62 -75q61 32 97 83t36 101q0 56 -30 85.5t-87 29.5z" />
    <glyph glyph-name="quotesingle" unicode="'" horiz-adv-x="413" 
d="M162 844l92 524h268l-196 -524h-164z" />
    <glyph glyph-name="parenleft" unicode="(" horiz-adv-x="753" 
d="M391 283q0 -193 45.5 -356.5t155.5 -340.5h-277q-188 294 -188 682q0 345 131.5 626.5t353.5 473.5h306q-96 -94 -165.5 -172.5t-142 -184t-117.5 -210t-73.5 -238t-28.5 -280.5z" />
    <glyph glyph-name="parenright" unicode=")" horiz-adv-x="753" 
d="M365 672q0 192 -45.5 355t-153.5 341h274q191 -294 191 -682q0 -345 -132 -626t-354 -474h-305q95 93 165 172t142 184.5t116.5 210.5t73 238.5t28.5 280.5z" />
    <glyph glyph-name="asterisk" unicode="*" horiz-adv-x="825" 
d="M645 1194l-88 -201l217 49l12 -194l-221 16l119 -192l-190 -78l-48 217l-143 -172l-129 156l188 116l-204 88l104 164l168 -141l16 221z" />
    <glyph glyph-name="plus" unicode="+" horiz-adv-x="1026" 
d="M109 584h331l60 327h164l-60 -327h340l-26 -152h-340l-62 -356h-164l64 356h-334z" />
    <glyph glyph-name="comma" unicode="," horiz-adv-x="598" 
d="M430 104q0 -74 -23.5 -133.5t-63.5 -99.5t-95 -67t-116.5 -39t-129.5 -13v113q103 5 176.5 48.5t73.5 113.5q-74 -11 -129 25.5t-55 115.5q0 76 50 118t124 42q86 0 137 -62t51 -162z" />
    <glyph glyph-name="hyphen" unicode="-" horiz-adv-x="802" 
d="M127 414l41 231h508l-41 -231h-508z" />
    <glyph glyph-name="period" unicode="." horiz-adv-x="598" 
d="M70 162q0 76 50 128t122 52q78 0 129 -51.5t51 -128.5q0 -73 -51.5 -122.5t-128.5 -49.5q-72 0 -122 50t-50 122z" />
    <glyph glyph-name="slash" unicode="/" horiz-adv-x="825" 
d="M-174 -416l870 1784h240l-877 -1784h-233z" />
    <glyph glyph-name="zero" unicode="0" horiz-adv-x="1193" 
d="M549 -25q-94 0 -172 25.5t-131 68.5t-90 102t-53.5 124t-16.5 135q0 137 44.5 248t121 182.5t176.5 109.5t215 38q95 0 172.5 -25t131.5 -68t90.5 -102.5t53.5 -127.5t17 -144q0 -174 -76 -304.5t-201.5 -196t-281.5 -65.5zM346 453q0 -108 57 -177t160 -69q117 0 197 87
t80 230q0 107 -57 175.5t-156 68.5q-122 0 -201.5 -86.5t-79.5 -228.5z" />
    <glyph glyph-name="one" unicode="1" horiz-adv-x="757" 
d="M487 0h-278l129 737l-262 -32l39 223l549 73z" />
    <glyph glyph-name="two" unicode="2" horiz-adv-x="978" 
d="M844 227l-41 -227h-799l33 205q298 137 433.5 240t135.5 214t-108 111q-58 0 -95.5 -39t-46.5 -121l-250 86q21 106 84.5 177.5t149.5 103t192 31.5q180 0 270.5 -82t90.5 -221q0 -78 -31.5 -146.5t-84.5 -120t-126.5 -92.5t-153.5 -67.5t-169 -42.5v-9h516z" />
    <glyph glyph-name="three" unicode="3" horiz-adv-x="983" 
d="M520 381v-6q164 -10 240 -90t76 -199q0 -169 -135 -269t-351 -100q-191 0 -294.5 74.5t-114.5 212.5l260 94q0 -85 47 -129.5t125 -44.5q80 0 130 42.5t50 121.5q0 177 -287 195l33 184q100 12 166.5 31.5t102 47t49.5 58t14 72.5q0 55 -34 83.5t-89 28.5
q-66 0 -106.5 -40.5t-47.5 -118.5l-260 73q38 150 153.5 228t299.5 78q173 0 272 -75t99 -214q0 -157 -103 -243.5t-295 -94.5z" />
    <glyph glyph-name="four" unicode="4" horiz-adv-x="1171" 
d="M532 -268l58 321h-586l31 183l737 749h260l-129 -729h199l-37 -203h-197l-57 -321h-279zM432 256h195l39 225q7 43 18.5 91.5t19.5 75.5l7 28h-9q-43 -62 -102 -125l-166 -178q-31 -35 -65 -64t-52 -41l-18 -12v-8q47 8 133 8z" />
    <glyph glyph-name="five" unicode="5" horiz-adv-x="997" 
d="M133 270l154 715h661l-43 -244h-436l-61 -280q56 41 159 41q141 0 220 -90t79 -236q-1 -115 -44 -205t-117 -145t-167.5 -83t-201.5 -28q-175 0 -282 76.5t-107 210.5l243 92q4 -85 54.5 -123.5t128.5 -38.5q96 0 156.5 55.5t60.5 159.5q0 79 -43.5 124.5t-110.5 45.5
q-70 0 -114 -47h-189z" />
    <glyph glyph-name="six" unicode="6" horiz-adv-x="1077" 
d="M1081 1032l-178 -162q-26 66 -77.5 102t-118.5 36q-154 0 -250.5 -126.5t-114.5 -328.5h8q27 105 104.5 159t194.5 54q153 0 246.5 -94.5t93.5 -249.5q0 -200 -125 -323.5t-334 -123.5q-220 0 -332 130t-112 366q0 123 27 236t81 208t129 166t177.5 110.5t220.5 39.5
q267 0 360 -199zM559 559q-82 0 -140.5 -56t-58.5 -155q0 -75 43 -118.5t119 -43.5q84 0 142.5 57.5t58.5 157.5q0 75 -43 116.5t-121 41.5z" />
    <glyph glyph-name="seven" unicode="7" horiz-adv-x="1067" 
d="M598 741h-266l-27 -147h-225l70 391h911l-33 -194l-668 -1059h-297l560 878q30 47 58 81t41 44l13 10v9q-37 -13 -137 -13z" />
    <glyph glyph-name="eight" unicode="8" horiz-adv-x="1073" 
d="M481 -25q-203 0 -311.5 89.5t-108.5 224.5q0 134 84 221t217 108v9q-88 25 -139 88t-51 149q0 76 25 138t68.5 104t103.5 70.5t127 41.5t141 13q179 0 287 -85t108 -220q0 -126 -74 -210.5t-194 -105.5l-2 -8q96 -27 154.5 -97t58.5 -169q-1 -79 -30 -142.5t-76.5 -103.5
t-112.5 -66.5t-133 -37.5t-142 -11zM616 1036q-82 0 -130 -53t-48 -129q0 -65 39.5 -101t97.5 -36q83 0 135 52.5t52 131.5q0 58 -38.5 96.5t-107.5 38.5zM547 510q-89 0 -149 -51t-60 -133q0 -63 43.5 -104.5t116.5 -41.5q97 0 153 50.5t56 136.5q0 65 -45.5 104t-114.5 39
z" />
    <glyph glyph-name="nine" unicode="9" horiz-adv-x="1077" 
d="M-6 -84l168 158q28 -66 83.5 -103t131.5 -37q153 0 246 126.5t112 369.5h-8q-29 -104 -104 -158.5t-183 -54.5q-159 0 -255.5 93.5t-96.5 244.5q0 205 126.5 329t344.5 124q211 0 321.5 -132t110.5 -372q0 -169 -42.5 -313t-122 -249.5t-200 -165t-268.5 -59.5
q-268 0 -364 199zM512 422q82 0 140.5 57t58.5 156q0 75 -44 118.5t-122 43.5q-81 0 -139 -57.5t-58 -155.5q0 -77 43 -119.5t121 -42.5z" />
    <glyph glyph-name="colon" unicode=":" horiz-adv-x="598" 
d="M70 162q0 76 50 128t122 52q78 0 129 -51.5t51 -128.5q0 -73 -51.5 -122.5t-128.5 -49.5q-72 0 -122 50t-50 122zM188 819q0 77 49.5 128.5t122.5 51.5q77 0 129 -51t52 -129q0 -72 -52.5 -122t-128.5 -50q-72 0 -122 50t-50 122z" />
    <glyph glyph-name="semicolon" unicode=";" horiz-adv-x="598" 
d="M430 104q0 -74 -23.5 -133.5t-63.5 -99.5t-95 -67t-116.5 -39t-129.5 -13v113q103 5 176.5 48.5t73.5 113.5q-74 -11 -129 25.5t-55 115.5q0 76 50 118t124 42q86 0 137 -62t51 -162zM180 819q0 77 50.5 128.5t123.5 51.5q77 0 127.5 -51t50.5 -129q0 -72 -51 -122
t-127 -50q-72 0 -123 50t-51 122z" />
    <glyph glyph-name="less" unicode="&#x3c;" horiz-adv-x="862" 
d="M801 803l-441 -314l310 -299l-131 -127l-433 443l596 434z" />
    <glyph glyph-name="equal" unicode="=" horiz-adv-x="1081" 
d="M918 274h-836l29 154h835zM971 580h-836l29 153h835z" />
    <glyph glyph-name="greater" unicode="&#x3e;" horiz-adv-x="862" 
d="M78 201l438 315l-307 297l131 127l432 -442l-596 -435z" />
    <glyph glyph-name="question" unicode="?" horiz-adv-x="940" 
d="M334 807l-248 88q41 165 156 250.5t297 85.5q201 0 307 -92.5t106 -259.5q0 -94 -38 -167.5t-100.5 -116t-135.5 -64t-152 -21.5l-24 -125h-238l49 274h88q271 0 271 183q0 71 -39 110t-115 39q-80 0 -125.5 -43.5t-58.5 -140.5zM180 147q0 71 49 115.5t121 44.5
q74 0 123 -44.5t49 -115.5t-48.5 -114t-123.5 -43q-72 0 -121 43.5t-49 113.5z" />
    <glyph glyph-name="at" unicode="@" horiz-adv-x="1822" 
d="M1022 360l18 89q15 79 -17.5 127.5t-100.5 48.5q-87 0 -140 -76.5t-53 -194.5q0 -168 123 -168q63 0 107.5 41.5t62.5 132.5zM1268 -25q-120 0 -181 46.5t-67 144.5q-57 -191 -272 -191q-135 0 -213 94t-78 265q0 224 116.5 363t282.5 139q90 0 153 -46t76 -128l84 161
h203l-112 -585q-23 -117 90 -117q90 0 156.5 110t66.5 291q0 141 -49 252t-135.5 180t-200 104.5t-246.5 35.5q-109 0 -210 -28.5t-188 -87t-151.5 -141t-101.5 -196.5t-37 -248q0 -322 195.5 -498t531.5 -176q112 0 199.5 15t203.5 53l33 -137q-199 -64 -438 -64
q-214 0 -382 57.5t-278.5 163t-168.5 254t-58 332.5q0 182 64 337.5t176.5 263.5t270.5 168.5t341 60.5q188 0 339 -53.5t248 -147t148.5 -216.5t51.5 -265q0 -87 -14.5 -166t-49 -153.5t-86 -128t-132 -86t-181.5 -32.5z" />
    <glyph glyph-name="A" unicode="A" horiz-adv-x="1294" 
d="M883 0l-47 252h-457l-129 -252h-299l647 1206h344l229 -1206h-288zM571 621l-73 -138h297q-23 114 -39 237.5t-21 193t-2 69.5h-8q-54 -167 -154 -362z" />
    <glyph glyph-name="B" unicode="B" horiz-adv-x="1134" 
d="M813 623l-2 -9q120 -16 179 -83t59 -164q0 -183 -129.5 -275t-354.5 -92h-499l210 1206h472q176 0 259 -71.5t83 -198.5q0 -132 -79.5 -215.5t-197.5 -97.5zM471 702h154q79 0 128.5 36.5t49.5 117.5q0 62 -34 88.5t-105 26.5h-146zM434 500l-47 -264h199q188 0 188 151
q0 113 -141 113h-199z" />
    <glyph glyph-name="C" unicode="C" horiz-adv-x="1202" 
d="M879 395l237 -125q-76 -152 -202 -223.5t-312 -71.5q-241 0 -369.5 132.5t-128.5 369.5q0 173 50.5 316.5t137.5 238.5t202 147t245 52q207 0 320 -93.5t141 -256.5l-291 -97q-11 101 -54 152t-136 51q-101 0 -176.5 -68t-113.5 -180.5t-38 -251.5q0 -130 60 -202
t165 -72q87 0 148.5 39.5t114.5 142.5z" />
    <glyph glyph-name="D" unicode="D" horiz-adv-x="1277" 
d="M387 236h127q179 0 289 121t110 348q0 266 -288 266h-107zM485 0h-419l210 1206h400q530 0 530 -475q0 -155 -38 -279t-104 -207.5t-158.5 -139.5t-197 -80.5t-223.5 -24.5z" />
    <glyph glyph-name="E" unicode="E" horiz-adv-x="1062" 
d="M915 242l-41 -242h-808l210 1206h809l-43 -241h-526l-43 -240h465l-41 -231h-465l-45 -252h528z" />
    <glyph glyph-name="F" unicode="F" horiz-adv-x="995" 
d="M348 0h-282l210 1206h787l-41 -241h-506l-51 -289h442l-41 -232h-442z" />
    <glyph glyph-name="G" unicode="G" horiz-adv-x="1300" 
d="M688 643h520l-112 -643h-170l-25 147q-88 -172 -323 -172q-224 0 -349 133.5t-125 368.5q0 173 50.5 316.5t137.5 238.5t202 147t245 52q208 0 321.5 -94t139.5 -256l-291 -97q-10 97 -53.5 149t-136.5 52q-101 0 -176.5 -67t-113.5 -177.5t-38 -246.5
q0 -138 64.5 -215.5t189.5 -77.5q101 0 166 48t80 138l6 35h-248z" />
    <glyph glyph-name="H" unicode="H" horiz-adv-x="1323" 
d="M348 0h-282l210 1206h283l-84 -473h461l82 473h282l-210 -1206h-283l86 492h-459z" />
    <glyph glyph-name="I" unicode="I" horiz-adv-x="581" 
d="M276 1206h283l-211 -1206h-282z" />
    <glyph glyph-name="J" unicode="J" horiz-adv-x="952" 
d="M657 1206h283l-152 -862q-35 -201 -145 -285t-303 -84q-304 0 -387 252l227 150q21 -85 62 -127.5t110 -42.5q75 0 107.5 37t50.5 133z" />
    <glyph glyph-name="K" unicode="K" horiz-adv-x="1175" 
d="M1077 0h-321l-240 492h-82l-86 -492h-282l210 1206h283l-84 -475h72l366 475h328l-477 -598z" />
    <glyph glyph-name="L" unicode="L" horiz-adv-x="960" 
d="M276 1206h283l-172 -964h469l-41 -242h-749z" />
    <glyph glyph-name="M" unicode="M" horiz-adv-x="1492" 
d="M782 279h-133l-112 272q-19 45 -35 96t-22 79l-7 28h-8q0 -82 -25 -219l-92 -535h-282l210 1206h281l152 -401q21 -55 35 -103t18 -69l4 -21h8q27 68 119 193l297 401h280l-210 -1206h-281l92 535q11 61 23.5 115.5t19.5 79.5l6 24h-8q-43 -99 -121 -201z" />
    <glyph glyph-name="N" unicode="N" horiz-adv-x="1331" 
d="M539 1206l278 -571q23 -44 42 -93.5t27 -76.5l7 -27h8q10 115 37 269l88 499h283l-211 -1206h-254l-285 559q-25 49 -46.5 102.5t-30.5 82.5l-9 28h-8q-2 -111 -35 -285l-82 -487h-282l210 1206h263z" />
    <glyph glyph-name="O" unicode="O" horiz-adv-x="1306" 
d="M602 -25q-239 0 -368.5 134.5t-129.5 367.5q0 173 50.5 316.5t137.5 238.5t202 147t245 52q240 0 368 -134.5t128 -369.5q0 -173 -50.5 -316.5t-137 -238t-201.5 -146t-244 -51.5zM719 987q-100 0 -176 -67.5t-114 -178t-38 -245.5t60 -209t165 -74q97 0 172 67.5
t114.5 180.5t39.5 250q0 128 -59 202t-164 74z" />
    <glyph glyph-name="P" unicode="P" horiz-adv-x="1087" 
d="M518 973l-63 -357h110q113 0 170.5 53t57.5 169q0 70 -39.5 102.5t-124.5 32.5h-111zM348 0h-282l210 1206h406q212 0 301.5 -88t89.5 -258q0 -115 -38.5 -206.5t-105.5 -148.5t-153.5 -86.5t-185.5 -29.5h-176z" />
    <glyph glyph-name="Q" unicode="Q" horiz-adv-x="1316" 
d="M1245 727q0 -160 -43.5 -295t-119 -228t-176 -150t-216.5 -72q52 -60 132 -75.5t186 -6.5l-76 -238q-229 -2 -357 81t-163 263q-145 45 -221 166.5t-76 304.5q0 173 50.5 316.5t137.5 238.5t202 147t245 52q241 0 368 -132.5t127 -371.5zM729 987q-100 0 -176 -67.5
t-114 -178t-38 -245.5t60.5 -209t165.5 -74q97 0 172 67.5t114 180.5t39 250q0 128 -59 202t-164 74z" />
    <glyph glyph-name="R" unicode="R" horiz-adv-x="1196" 
d="M1067 0h-305q-36 32 -51 125l-29 180q-12 73 -42 97t-103 24h-115l-74 -426h-282l210 1206h459q201 0 296 -74t95 -239q0 -86 -27 -154t-73 -109.5t-100.5 -65t-116.5 -29.5v-9q81 -12 118 -49.5t52 -122.5l37 -225q15 -84 51 -129zM518 971l-57 -316h174
q92 0 147.5 45.5t55.5 143.5q0 127 -152 127h-168z" />
    <glyph glyph-name="S" unicode="S" horiz-adv-x="1060" 
d="M25 283l254 96q2 -90 53.5 -143.5t140.5 -53.5q178 0 178 137q0 60 -37 95.5t-133 66.5q-166 54 -237.5 138.5t-71.5 222.5q0 104 40.5 182t108 121.5t144.5 64.5t162 21q196 0 300 -79.5t111 -252.5l-272 -53q4 77 -41 118.5t-121 41.5q-75 0 -116.5 -34.5t-41.5 -99.5
q0 -55 37.5 -84t141.5 -65q168 -57 239.5 -138.5t71.5 -226.5q0 -84 -26.5 -150t-71.5 -109t-108.5 -71.5t-133.5 -40.5t-150 -12q-186 0 -296.5 75.5t-124.5 232.5z" />
    <glyph glyph-name="T" unicode="T" horiz-adv-x="1030" 
d="M567 0h-280l170 965h-330l43 241h942l-41 -241h-336z" />
    <glyph glyph-name="U" unicode="U" horiz-adv-x="1251" 
d="M967 1206h282l-139 -788q-22 -125 -70.5 -213t-123 -137.5t-163 -71t-202.5 -21.5q-108 0 -193 26t-149.5 82t-89 155t-0.5 233l131 735h280l-129 -725q-24 -136 18.5 -205t170.5 -69q64 0 108 17.5t71.5 55.5t43 84t27.5 117z" />
    <glyph glyph-name="V" unicode="V" horiz-adv-x="1185" 
d="M430 1206l90 -649q10 -76 15.5 -156t5.5 -123v-42h8q37 153 115 319l311 651h303l-608 -1206h-336l-187 1206h283z" />
    <glyph glyph-name="W" unicode="W" horiz-adv-x="1771" 
d="M1176 1206l32 -663q3 -89 2 -165t-4 -126l-4 -51h8q44 172 107 340l248 665h293l-472 -1206h-399l-41 596q-5 73 -5 153.5t3 124.5l2 44h-8q-28 -152 -98 -324l-240 -594h-385l-43 1206h287l16 -663q2 -89 1 -165t-4 -126l-3 -51h8q39 172 105 340l260 665h334z" />
    <glyph glyph-name="X" unicode="X" horiz-adv-x="1177" 
d="M774 0l-133 254q-28 55 -43.5 96t-16.5 54l-1 14h-9q0 -5 -3 -15t-29 -52t-72 -97l-213 -254h-328l527 614l-299 592h309l104 -221q29 -63 46.5 -108.5t20.5 -59.5l3 -14h10q7 45 113 182l174 221h319l-481 -594l307 -612h-305z" />
    <glyph glyph-name="Y" unicode="Y" horiz-adv-x="1112" 
d="M436 1206l90 -286q23 -72 36.5 -145.5t15.5 -111.5l2 -38h8q4 15 13 42t45.5 104.5t82.5 146.5l189 288h299l-525 -805l-67 -401h-283l70 401l-271 805h295z" />
    <glyph glyph-name="Z" unicode="Z" horiz-adv-x="1116" 
d="M45 201l557 633q38 43 76.5 77.5t57.5 48.5l20 13v8q-72 -16 -178 -16h-383l41 241h911l-41 -194l-574 -639q-38 -43 -76.5 -78t-57.5 -49l-19 -13v-8q72 17 178 17h432l-41 -242h-940z" />
    <glyph glyph-name="bracketleft" unicode="[" horiz-adv-x="768" 
d="M573 1163l-241 -1376h293l-35 -203h-574l314 1784h573l-37 -205h-293z" />
    <glyph glyph-name="backslash" unicode="\" horiz-adv-x="757" 
d="M393 1368l246 -1784h-217l-250 1784h221z" />
    <glyph glyph-name="bracketright" unicode="]" horiz-adv-x="768" 
d="M184 -211l244 1376h-293l35 203h573l-313 -1784h-573l34 205h293z" />
    <glyph glyph-name="asciicircum" unicode="^" horiz-adv-x="1087" 
d="M868 657l-69 240q-24 84 -36 154.5t-11 98.5v28h-9q-3 -11 -10 -32t-44.5 -93.5t-92.5 -153.5l-162 -242h-258l488 711h241l236 -711h-273z" />
    <glyph glyph-name="underscore" unicode="_" horiz-adv-x="983" 
d="M-25 -250l35 205h781l-37 -205h-779z" />
    <glyph glyph-name="grave" unicode="`" horiz-adv-x="815" 
d="M651 1077h-248l-239 314h344z" />
    <glyph glyph-name="a" unicode="a" 
d="M676 393l31 158q15 88 -12 148.5t-101 60.5q-111 0 -175.5 -112.5t-64.5 -268.5q0 -87 35.5 -142t102.5 -55q76 0 122 57.5t62 153.5zM1053 946l-113 -649q-7 -39 4 -61.5t53 -22.5q27 0 60 8l-43 -207q-81 -24 -150 -24q-103 0 -155.5 40t-61.5 130q-32 -95 -102.5 -140
t-165.5 -45q-150 0 -231.5 103t-81.5 284q0 164 52.5 301t156 221.5t239.5 84.5q217 0 234 -181l57 158h248z" />
    <glyph glyph-name="b" unicode="b" horiz-adv-x="1157" 
d="M434 518l-22 -125q-16 -92 21 -157.5t118 -65.5q75 0 131.5 55t83.5 140t27 184q0 100 -42.5 153.5t-115.5 53.5q-71 0 -125.5 -61.5t-75.5 -176.5zM360 143l-79 -143h-215l241 1368h279l-109 -604q82 205 297 205q145 0 231.5 -100t86.5 -296q0 -169 -56 -303.5
t-166 -214.5t-258 -80q-98 0 -168.5 44t-83.5 124z" />
    <glyph glyph-name="c" unicode="c" horiz-adv-x="985" 
d="M653 336l271 -43q-93 -318 -441 -318q-191 0 -304 106t-113 296q0 118 33 222.5t96.5 188t167.5 132.5t235 49q92 0 163 -27.5t114 -75.5t64.5 -110t21.5 -135l-273 -48q2 44 -7 82t-37.5 66.5t-72.5 28.5q-94 0 -152.5 -104.5t-58.5 -254.5q0 -104 38 -154.5t106 -50.5
q114 0 149 150z" />
    <glyph glyph-name="d" unicode="d" horiz-adv-x="1157" 
d="M688 393l29 158q7 55 2 101.5t-37 77t-88 30.5q-111 0 -175.5 -112.5t-64.5 -268.5q0 -87 35.5 -142t102.5 -55q157 0 196 211zM1137 1368l-185 -1071q-7 -40 3.5 -62t52.5 -22q28 0 61 8l-43 -207q-81 -24 -149 -24q-104 0 -157.5 40.5t-60.5 129.5q-32 -95 -107.5 -140
t-172.5 -45q-150 0 -231.5 103t-81.5 284q0 164 52.5 300.5t158.5 221.5t247 85q99 0 162 -45t72 -136l100 580h279z" />
    <glyph glyph-name="e" unicode="e" horiz-adv-x="1009" 
d="M502 186q64 0 101.5 29.5t55.5 97.5l261 -61q-43 -145 -148 -211t-293 -66q-195 0 -304 110.5t-109 299.5q0 137 42.5 249.5t114 184.5t163 111t192.5 39q97 0 173 -28.5t121.5 -77t69 -108.5t23.5 -128q0 -126 -41 -201h-570q-18 -102 22.5 -171t125.5 -69zM385 578h297
q4 28 4 49q0 62 -29 100.5t-92 38.5q-68 0 -114 -53t-66 -135z" />
    <glyph glyph-name="f" unicode="f" horiz-adv-x="704" 
d="M66 -141l153 876h-141l37 211h141l14 86q15 92 53 161t93 110t121 61t143 20q141 0 254 -55l-84 -225q-73 51 -160 51q-61 0 -94 -30.5t-45 -92.5l-16 -86h239l-37 -211h-239l-158 -893q-26 -152 -97 -213t-214 -61q-119 0 -197 47l51 197q50 -37 97 -37q39 0 59 19.5
t27 64.5z" />
    <glyph glyph-name="g" unicode="g" horiz-adv-x="1095" 
d="M690 410l27 141q7 55 2 101.5t-37 77t-88 30.5q-76 0 -130.5 -51.5t-80 -132.5t-25.5 -181q0 -86 35 -141t101 -55q161 0 196 211zM1063 946l-168 -950q-37 -219 -169.5 -323.5t-371.5 -104.5q-349 0 -432 229l209 146q17 -73 80.5 -118.5t148.5 -45.5q117 0 179.5 65
t85.5 185l26 141q-60 -178 -268 -178q-150 0 -231.5 103t-81.5 284q0 164 52 296.5t156.5 213t245.5 80.5q99 0 162 -45t70 -136l59 158h248z" />
    <glyph glyph-name="h" unicode="h" horiz-adv-x="1148" 
d="M1014 647l-58 -350q-7 -40 3.5 -62t52.5 -22q28 0 61 8l-43 -207q-81 -24 -149 -24q-258 0 -213 262l57 328q25 161 -102 161q-65 0 -117 -58t-74 -177l-88 -506h-278l239 1368h281l-109 -614q48 109 118 162t181 53q112 0 178 -64.5t66 -173.5q0 -37 -6 -84z" />
    <glyph glyph-name="i" unicode="i" horiz-adv-x="579" 
d="M487 946l-112 -649q-7 -40 3 -62t52 -22q29 0 62 8l-43 -207q-81 -24 -150 -24q-258 0 -213 262l123 694h278zM221 1235q0 75 47.5 117.5t118.5 42.5q76 0 124 -42t48 -118q0 -73 -48 -114.5t-124 -41.5q-71 0 -118.5 42t-47.5 114z" />
    <glyph glyph-name="j" unicode="j" horiz-adv-x="514" 
d="M487 946l-188 -1071q-30 -169 -120.5 -238t-252.5 -69q-142 0 -237 57l75 203q67 -53 138 -53q54 0 83.5 31t43.5 118l180 1022h278zM221 1235q0 75 47.5 117.5t118.5 42.5q76 0 124 -42t48 -118q0 -73 -48 -114.5t-124 -41.5q-71 0 -118.5 42t-47.5 114z" />
    <glyph glyph-name="k" unicode="k" horiz-adv-x="1075" 
d="M602 133l-125 275h-61l-72 -408h-278l239 1368h281l-133 -752h47l295 330h335l-411 -436l121 -234q27 -52 66 -62t102 11l-43 -215q-68 -20 -146 -20q-75 0 -128.5 31.5t-88.5 111.5z" />
    <glyph glyph-name="l" unicode="l" horiz-adv-x="583" 
d="M563 1368l-188 -1071q-7 -40 3 -62t52 -22q29 0 62 8l-43 -207q-81 -24 -150 -24q-258 0 -213 262l199 1116h278z" />
    <glyph glyph-name="m" unicode="m" horiz-adv-x="1656" 
d="M881 0h-281l100 580q28 161 -92 161q-67 0 -110 -55.5t-66 -179.5l-88 -506h-278l165 946h244v-192q43 110 108 162.5t175 52.5q113 0 175 -59t62 -167q37 115 109 170.5t186 55.5q113 0 176.5 -64t63.5 -174q0 -43 -8 -84l-58 -350q-7 -39 4.5 -61.5t53.5 -22.5
q26 0 59 8l-43 -207q-81 -24 -149 -24q-258 0 -213 262l57 328q28 161 -92 161q-68 0 -111.5 -56t-64.5 -179z" />
    <glyph glyph-name="n" unicode="n" horiz-adv-x="1148" 
d="M1014 647l-58 -350q-7 -40 3.5 -62t52.5 -22q28 0 61 8l-43 -207q-81 -24 -149 -24q-258 0 -213 262l57 328q25 161 -102 161q-65 0 -117 -58t-74 -177l-88 -506h-278l165 946h244v-192q48 108 118.5 161.5t182.5 53.5t178 -64.5t66 -173.5q0 -37 -6 -84z" />
    <glyph glyph-name="o" unicode="o" horiz-adv-x="1081" 
d="M594 969q197 0 309.5 -110t112.5 -308q0 -92 -20.5 -176.5t-63.5 -157.5t-104 -126.5t-147.5 -84.5t-188.5 -31q-190 0 -308 104.5t-118 297.5q0 95 20.5 181.5t63.5 162t104 130.5t148.5 86.5t191.5 31.5zM573 750q-97 0 -155 -104.5t-58 -262.5q0 -97 38.5 -147
t107.5 -50q100 0 158.5 104t58.5 265q0 94 -39.5 144.5t-110.5 50.5z" />
    <glyph glyph-name="p" unicode="p" horiz-adv-x="1157" 
d="M434 518l-22 -127q-16 -91 21 -156t118 -65q75 0 131.5 55t83.5 140t27 184q0 100 -42.5 153.5t-115.5 53.5q-71 0 -125.5 -61.5t-75.5 -176.5zM369 143l-97 -559h-280l239 1362h246v-182q82 205 297 205q145 0 231.5 -100t86.5 -296q0 -169 -56 -303.5t-166 -214.5
t-258 -80q-97 0 -163.5 43.5t-79.5 124.5z" />
    <glyph glyph-name="q" unicode="q" horiz-adv-x="1097" 
d="M688 393l31 158q14 90 -15 149.5t-110 59.5q-111 0 -175.5 -112.5t-64.5 -268.5q0 -87 35.5 -142t102.5 -55q157 0 196 211zM827 -416h-282l100 568q-31 -89 -101.5 -133t-164.5 -44q-150 0 -231.5 103t-81.5 284q0 164 52.5 300.5t158.5 221.5t247 85q99 0 163 -45
t71 -136l57 158h250z" />
    <glyph glyph-name="r" unicode="r" horiz-adv-x="796" 
d="M846 961l-66 -322q-53 23 -108.5 26.5t-106 -13t-88 -63t-49.5 -116.5l-84 -473h-278l165 946h244l-8 -252q48 142 154.5 219.5t224.5 47.5z" />
    <glyph glyph-name="s" unicode="s" horiz-adv-x="897" 
d="M8 242l228 82q6 -78 49 -120t112 -42q121 0 121 88q0 45 -29.5 72t-109.5 49q-127 35 -187.5 104.5t-60.5 179.5q0 106 53.5 178t139.5 104t198 32q175 0 265 -69t90 -195l-234 -54q0 62 -35.5 96.5t-103.5 34.5q-50 0 -80.5 -23.5t-30.5 -62.5q0 -37 29.5 -58.5
t126.5 -55.5q137 -46 191.5 -113t54.5 -190q0 -154 -111.5 -229t-300.5 -75q-164 0 -263 65.5t-112 201.5z" />
    <glyph glyph-name="t" unicode="t" horiz-adv-x="735" 
d="M629 264v-231q-44 -26 -113 -42t-139 -16q-327 0 -266 349l73 411h-135l37 211h137l35 201l283 33l-39 -234h246l-37 -211h-246l-74 -409q-19 -109 78 -109q81 0 160 47z" />
    <glyph glyph-name="u" unicode="u" horiz-adv-x="1138" 
d="M668 182q-44 -108 -119.5 -157.5t-194.5 -49.5q-151 0 -220 96t-40 265l109 610h278l-108 -622q-10 -72 15.5 -109t84.5 -37q73 0 126 53.5t71 167.5l98 547h279l-113 -649q-7 -39 3.5 -61.5t49.5 -22.5q29 0 62 8l-43 -207q-81 -24 -150 -24q-102 0 -148 47.5t-40 144.5
z" />
    <glyph glyph-name="v" unicode="v" horiz-adv-x="946" 
d="M211 0l-145 946h280l47 -430q8 -79 8.5 -156t-3.5 -114l-3 -37h8q33 151 115 305l232 432h290l-530 -946h-299z" />
    <glyph glyph-name="w" unicode="w" horiz-adv-x="1447" 
d="M922 946l30 -391q9 -98 8 -177t-6 -129l-6 -50h8q33 162 111 352l162 395h293l-412 -946h-326l-41 338q-5 79 -4 146.5t5 113.5l4 45h-9q-32 -151 -100 -307l-135 -336h-324l-94 946h281l30 -393q6 -84 6.5 -172.5t-1.5 -134.5l-3 -47h9q30 166 110 356l162 391h242z" />
    <glyph glyph-name="x" unicode="x" horiz-adv-x="1007" 
d="M637 0l-88 174q-24 55 -36 98.5t-13 59.5v16h-8q-11 -53 -105 -176l-137 -172h-309l387 473l-203 473h295l61 -149q22 -52 34.5 -97t14.5 -64l2 -20h9q28 79 106 179l115 151h311l-375 -465l224 -481h-285z" />
    <glyph glyph-name="y" unicode="y" horiz-adv-x="962" 
d="M367 946l41 -477q7 -75 7.5 -144.5t-2.5 -102.5l-3 -32h8q30 148 102 287l246 469h291l-574 -1038q-58 -106 -114 -175.5t-114.5 -104.5t-111.5 -47.5t-123 -12.5q-106 0 -186 39l78 225q64 -39 119 -39q64 0 113 37.5t92 116.5l-156 999h287z" />
    <glyph glyph-name="z" unicode="z" horiz-adv-x="937" 
d="M37 152l383 446q38 44 77 78.5t59 47.5l19 13v8q-74 -16 -180 -16h-239l47 217h731l-21 -166l-395 -436q-38 -43 -76.5 -77.5t-57.5 -48.5l-19 -13v-8q72 16 178 16h274l-39 -213h-766z" />
    <glyph glyph-name="braceleft" unicode="{" horiz-adv-x="854" 
d="M342 473l-2 -8q35 -3 62 -11t52.5 -24t38 -40.5t18.5 -62t-5 -87.5l-55 -320q-11 -73 3.5 -105t71.5 -32q39 0 64 7t69 28l13 -189q-104 -59 -258 -59q-292 0 -236 301l60 336q16 90 -15 124t-98 34h-84l35 206h84q67 0 111 34.5t61 123.5l57 338q26 140 106 220.5
t236 80.5q154 0 236 -59l-78 -191q-37 22 -59.5 29.5t-61.5 7.5q-57 0 -84.5 -33.5t-40.5 -103.5l-55 -320q-11 -64 -35 -108.5t-59 -68t-70.5 -34.5t-81.5 -14z" />
    <glyph glyph-name="bar" unicode="|" horiz-adv-x="518" 
d="M213 -416h-219l313 1784h219z" />
    <glyph glyph-name="braceright" unicode="}" horiz-adv-x="854" 
d="M510 465l2 8q-35 3 -62 11t-52.5 24t-38 40.5t-18.5 62t5 87.5l55 320q11 71 -3.5 104t-71.5 33q-39 0 -64.5 -7.5t-68.5 -29.5l-13 191q104 59 258 59q292 0 236 -301l-60 -338q-16 -89 15 -123.5t98 -34.5h84l-35 -206h-84q-67 0 -111 -34t-61 -124l-57 -336
q-26 -140 -106 -220.5t-236 -80.5q-154 0 -236 59l78 189q37 -21 59.5 -28t61.5 -7q57 0 84.5 33t40.5 104l55 320q11 64 35 108.5t59 67.5t70 34t82 15z" />
    <glyph glyph-name="asciitilde" unicode="~" horiz-adv-x="819" 
d="M455 410l-111 53q-29 18 -61 18q-77 0 -90 -82l-109 47q-10 42 -10 72q0 82 53 142.5t137 60.5q55 0 119 -31l80 -39q27 -18 69 -18q69 0 91 82l116 -53q6 -54 6 -58q0 -89 -53.5 -153t-134.5 -64q-52 0 -102 23z" />
    <glyph glyph-name="nbspace" unicode="&#xa0;" horiz-adv-x="313" 
 />
    <glyph glyph-name="exclamdown" unicode="&#xa1;" horiz-adv-x="544" 
d="M297 -260h-338l236 801h182zM504 799q0 -71 -49 -115.5t-121 -44.5q-74 0 -123 44.5t-49 115.5t48.5 114t123.5 43q72 0 121 -43.5t49 -113.5z" />
    <glyph glyph-name="cent" unicode="&#xa2;" horiz-adv-x="1042" 
d="M748 358l223 -133q-70 -123 -174 -184.5t-260 -65.5l-33 -192h-103l35 197q-162 21 -256 127.5t-94 289.5q0 121 34 228t98.5 191.5t167 135t230.5 54.5l31 170h103l-31 -172q144 -16 218 -89t101 -194l-264 -92q-5 50 -28.5 88.5t-65.5 56.5l-102 -573q59 8 97.5 47
t72.5 110zM365 414q0 -76 28.5 -130t83.5 -75l101 577q-98 -15 -155.5 -117t-57.5 -255z" />
    <glyph glyph-name="sterling" unicode="&#xa3;" horiz-adv-x="1026" 
d="M750 403h-238q-2 -23 -18 -63q-12 -42 -40.5 -73.5t-64.5 -43.5h270q54 0 95 19t73 77l170 -110q-34 -100 -122.5 -154.5t-204.5 -54.5h-650l39 225h88q59 0 95.5 43.5t36.5 102.5q0 17 -3 32h-180l25 140h127q-19 66 -19 145t33 141t90 100.5t129 58.5t154 20
q76 0 137 -14.5t110.5 -46t77 -87.5t27.5 -133l-254 -61q0 133 -129 133q-60 0 -95.5 -34.5t-35.5 -94.5q0 -24 3.5 -44t11 -46t10.5 -37h276z" />
    <glyph glyph-name="currency" unicode="&#xa4;" horiz-adv-x="948" 
d="M25 272l157 136q-35 56 -35 137q0 162 95 274l-95 117l78 68l97 -119q80 53 206 53q131 0 207 -61l154 131l59 -72l-151 -131q34 -58 34 -143q0 -172 -100 -275l100 -119l-77 -67l-103 125q-80 -47 -194 -47q-131 0 -211 59l-162 -137zM514 788q-69 0 -110.5 -68.5
t-41.5 -170.5q0 -62 28.5 -94.5t76.5 -32.5q70 0 109.5 68t39.5 174q0 124 -102 124z" />
    <glyph glyph-name="yen" unicode="&#xa5;" horiz-adv-x="1114" 
d="M1006 492h-230l-71 -97h292l-8 -108h-344l-49 -287h-281l50 287h-308l9 108h272l-39 97h-225l10 108h172l-156 385h295l90 -256q22 -58 34.5 -111t14.5 -76l1 -24h8q18 78 108 209l176 258h303l-278 -385h164z" />
    <glyph glyph-name="brokenbar" unicode="&#xa6;" horiz-adv-x="518" 
d="M387 569h-219l139 799h219zM213 -414h-219l139 797h219z" />
    <glyph glyph-name="section" unicode="&#xa7;" horiz-adv-x="911" 
d="M43 477q0 105 55.5 169t149.5 91q-55 69 -55 178q0 85 34.5 148.5t93 98.5t125 51t140.5 16q180 0 268 -68t88 -196l-235 -54q1 61 -38.5 96t-101.5 35q-48 0 -78 -23.5t-30 -62.5t32 -64.5t134 -60.5q142 -48 199 -115.5t57 -172.5q0 -101 -54.5 -167t-150.5 -93
q53 -67 53 -172q0 -103 -54 -172t-143 -99t-210 -30q-184 0 -274.5 64t-98.5 194l227 65q7 -73 51 -111t107 -38q121 0 121 86q0 41 -28.5 64t-119.5 54q-143 43 -203.5 112.5t-60.5 176.5zM475 406q24 -11 55 -21q34 12 57 42.5t23 66.5q0 41 -31 66t-122 56q-35 7 -76 25
q-36 -15 -58 -46.5t-22 -64.5q0 -37 35 -62.5t139 -61.5z" />
    <glyph glyph-name="dieresis" unicode="&#xa8;" horiz-adv-x="1081" 
d="M164 1221q0 73 43 113t108 40q70 0 113 -39.5t43 -113.5q0 -72 -43.5 -113t-112.5 -41q-64 0 -107.5 41.5t-43.5 112.5zM610 1221q0 73 43.5 113t108.5 40q69 0 112.5 -39.5t43.5 -113.5q0 -73 -44 -113.5t-112 -40.5q-65 0 -108.5 41t-43.5 113z" />
    <glyph glyph-name="copyright" unicode="&#xa9;" horiz-adv-x="1429" 
d="M877 506l182 -109q-58 -99 -143.5 -147.5t-213.5 -48.5q-154 0 -245.5 85t-91.5 244q0 96 27.5 181t80 151.5t136.5 105t190 38.5q146 0 218.5 -60.5t94.5 -167.5l-215 -73q-7 110 -117 110q-86 0 -137 -78.5t-51 -191.5q0 -73 35 -117.5t100 -44.5q56 0 90 31.5t60 91.5
zM113 602q0 179 84 323.5t227 225t315 80.5q128 0 244 -47.5t200.5 -129.5t134.5 -200t50 -252t-50 -251.5t-134.5 -199.5t-200.5 -129t-244 -47t-243.5 47t-199.5 129t-133.5 199.5t-49.5 251.5zM176 602q0 -163 77 -294t206 -202t284 -71q115 0 218.5 42t179.5 115.5
t121 180t45 229.5q0 162 -76.5 293.5t-205 203.5t-282.5 72q-115 0 -219.5 -42.5t-181 -117t-121.5 -181t-45 -228.5z" />
    <glyph glyph-name="ordfeminine" unicode="&#xaa;" horiz-adv-x="874" 
d="M526 848l23 104q13 58 -8.5 98t-81.5 40q-82 0 -129 -73.5t-47 -176.5q0 -59 25 -94t75 -35q116 0 143 137zM813 1214l-86 -428q-11 -53 41 -53q26 0 49 6l-33 -141q-59 -16 -112 -16q-77 0 -118 26t-50 82q-24 -60 -79 -89.5t-126 -29.5q-114 0 -176 68t-62 188
q0 110 40.5 201t120.5 147t186 56q72 0 118.5 -30t53.5 -89l43 102h190z" />
    <glyph glyph-name="guillemotleft" unicode="&#xab;" horiz-adv-x="1171" 
d="M762 483v-8q35 -18 86 -86l160 -211l-164 -129l-330 434l483 435l121 -136l-235 -217q-32 -29 -62.5 -49.5t-44.5 -26.5zM301 483v-8q35 -18 86 -86l158 -211l-162 -129l-330 434l484 435l120 -136l-235 -217q-32 -29 -62 -49.5t-44 -26.5z" />
    <glyph glyph-name="logicalnot" unicode="&#xac;" horiz-adv-x="1026" 
d="M741 492h-659l27 153h835l-70 -395h-176z" />
    <glyph glyph-name="uni00AD" unicode="&#xad;" horiz-adv-x="753" 
d="M127 414l41 231h459l-41 -231h-459z" />
    <glyph glyph-name="registered" unicode="&#xae;" horiz-adv-x="1429" 
d="M1065 246h-225q-21 23 -31 82l-10 65q-6 43 -25 61.5t-65 18.5h-82l-39 -227h-209l129 739h330q260 0 260 -209q0 -106 -62 -161.5t-162 -63.5v-4q113 -9 132 -103l22 -110q13 -60 37 -88zM688 819l-33 -188h113q123 0 123 112q0 76 -88 76h-115zM113 602q0 179 84 323.5
t227 225t315 80.5q128 0 244 -47.5t200.5 -129.5t134.5 -200t50 -252t-50 -251.5t-134.5 -199.5t-200.5 -129t-244 -47t-243.5 47t-199.5 129t-133.5 199.5t-49.5 251.5zM176 602q0 -163 77 -294t206 -202t284 -71q115 0 218.5 42t179.5 115.5t121 180t45 229.5
q0 162 -76.5 293.5t-205 203.5t-282.5 72q-115 0 -219.5 -42.5t-181 -117t-121.5 -181t-45 -228.5z" />
    <glyph glyph-name="macron" unicode="&#xaf;" horiz-adv-x="970" 
d="M766 1104h-602l41 221h602z" />
    <glyph glyph-name="degree" unicode="&#xb0;" horiz-adv-x="618" 
d="M96 954q0 117 78 197t203 80q105 0 170 -67t65 -163q0 -119 -77.5 -198.5t-198.5 -79.5q-117 0 -178.5 64t-61.5 167zM369 1102q-56 0 -91.5 -40.5t-35.5 -98.5q0 -51 26.5 -81t75.5 -30q59 0 93 41t34 100q0 48 -27 78.5t-75 30.5z" />
    <glyph glyph-name="plusminus" unicode="&#xb1;" horiz-adv-x="1120" 
d="M184 735h332l43 254h166l-45 -254h340l-27 -151h-340l-49 -283h-166l51 283h-331zM899 49h-836l27 154h836z" />
    <glyph glyph-name="twosuperior" unicode="&#xb2;" horiz-adv-x="673" 
d="M590 641l-27 -158h-571l22 131q114 66 178 107t123.5 87t84 84.5t24.5 78.5q0 84 -88 84q-94 0 -117 -127l-164 59q14 103 92.5 169.5t212.5 66.5q124 0 196.5 -58.5t72.5 -165.5q0 -60 -27 -112.5t-65 -87.5t-94.5 -66.5t-100 -49t-96.5 -34.5v-8h344z" />
    <glyph glyph-name="threesuperior" unicode="&#xb3;" horiz-adv-x="651" 
d="M406 852l-3 -4q172 -22 172 -166q0 -103 -85.5 -158t-223.5 -55q-117 0 -187 49.5t-79 138.5l174 56q3 -48 24 -73.5t68 -25.5q44 0 71.5 19t27.5 55q0 20 -5.5 35t-21.5 29.5t-50.5 22t-86.5 7.5l20 117q180 5 180 96q0 32 -19 50t-48 18q-79 0 -98 -82l-154 61
q61 181 280 181q112 0 179 -48t67 -141q0 -75 -52.5 -121.5t-149.5 -60.5z" />
    <glyph glyph-name="acute" unicode="&#xb4;" horiz-adv-x="815" 
d="M414 1077h-250l143 314h344z" />
    <glyph glyph-name="mu" unicode="&#xb5;" horiz-adv-x="1138" 
d="M666 152q-42 -102 -100.5 -139.5t-149.5 -37.5q-35 0 -63 11.5t-36 27.5l-75 -430h-279l240 1362h278l-108 -622q-10 -72 15.5 -109t84.5 -37q73 0 126 53.5t71 167.5l98 547h279l-113 -649q-7 -39 3.5 -61.5t49.5 -22.5q29 0 62 8l-43 -207q-81 -24 -150 -24
q-100 0 -142 38t-48 124z" />
    <glyph glyph-name="mu" unicode="&#x3bc;" horiz-adv-x="1138" 
d="M666 152q-42 -102 -100.5 -139.5t-149.5 -37.5q-35 0 -63 11.5t-36 27.5l-75 -430h-279l240 1362h278l-108 -622q-10 -72 15.5 -109t84.5 -37q73 0 126 53.5t71 167.5l98 547h279l-113 -649q-7 -39 3.5 -61.5t49.5 -22.5q29 0 62 8l-43 -207q-81 -24 -150 -24
q-100 0 -142 38t-48 124z" />
    <glyph glyph-name="paragraph" unicode="&#xb6;" 
d="M1083 983l-178 -1003q-29 -163 -134 -238.5t-255 -75.5q-70 0 -119 12t-100 43l90 238q59 -59 148 -59q47 0 75 27t39 93l60 336h-101q-218 0 -325 103.5t-70 308.5q77 438 596 438h473l-37 -223h-162z" />
    <glyph glyph-name="periodcentered" unicode="&#xb7;" horiz-adv-x="598" 
d="M115 541q0 77 49.5 128.5t122.5 51.5q78 0 129 -51t51 -129q0 -73 -51.5 -122.5t-128.5 -49.5q-72 0 -122 50t-50 122z" />
    <glyph glyph-name="cedilla" unicode="&#xb8;" horiz-adv-x="780" 
d="M616 -242q0 -93 -66.5 -141.5t-170.5 -48.5q-70 0 -127.5 20.5t-87.5 53.5l51 131q63 -72 129 -72q68 0 68 53q0 34 -23 53.5t-74 28.5l80 201h107l-47 -111q84 -14 122.5 -53t38.5 -115z" />
    <glyph glyph-name="onesuperior" unicode="&#xb9;" horiz-adv-x="641" 
d="M571 483h-559l27 150h186l68 389l-211 -16l29 159l415 41l-102 -573h174z" />
    <glyph glyph-name="ordmasculine" unicode="&#xba;" horiz-adv-x="806" 
d="M440 1231q142 0 223.5 -73.5t81.5 -203.5q0 -105 -40.5 -190t-127.5 -139t-208 -54q-137 0 -222.5 69.5t-85.5 197.5q0 79 24 149t70 125t119.5 87t165.5 32zM428 1081q-69 0 -110.5 -68.5t-41.5 -170.5q0 -62 28.5 -94.5t76.5 -32.5q70 0 109.5 67.5t39.5 173.5
q0 61 -27 93t-75 32z" />
    <glyph glyph-name="guillemotright" unicode="&#xbb;" horiz-adv-x="1171" 
d="M412 483v9q-35 18 -86 88l-160 208l162 130l329 -435l-483 -434l-121 135l236 219q32 28 62.5 48t45.5 26zM872 483v9q-35 18 -86 88l-159 208l164 130l327 -435l-481 -434l-123 135l236 219q32 28 62.5 48t45.5 26z" />
    <glyph glyph-name="onequarter" unicode="&#xbc;" horiz-adv-x="1822" 
d="M594 483h-559l26 150h187l67 389l-211 -16l29 159l416 41l-103 -573h175zM406 0l835 1206h176l-842 -1206h-169zM1430 0l24 143h-356l24 138l441 442h196l-76 -434h103l-27 -146h-102l-25 -143h-202zM1485 285l24 133q5 32 14 68.5t15 56.5l6 20h-8q-29 -51 -78 -104
l-80 -82q-24 -24 -52.5 -48t-45.5 -36l-16 -12v-9q44 13 116 13h105z" />
    <glyph glyph-name="onehalf" unicode="&#xbd;" horiz-adv-x="1822" 
d="M594 483h-559l26 150h187l67 389l-211 -16l29 159l416 41l-103 -573h175zM406 0l835 1206h176l-842 -1206h-169zM1675 158l-26 -158h-572l23 131q114 66 178 106.5t123 86.5t83.5 84.5t24.5 78.5q0 84 -88 84q-93 0 -116 -127l-164 60q14 103 92.5 169t212.5 66
q124 0 196 -58t72 -165q0 -60 -27 -112.5t-65 -87.5t-94.5 -66.5t-100 -49t-96.5 -34.5v-8h344z" />
    <glyph glyph-name="threequarters" unicode="&#xbe;" horiz-adv-x="1822" 
d="M449 852l-3 -4q172 -22 172 -166q0 -103 -85.5 -158t-223.5 -55q-117 0 -187 49.5t-79 138.5l174 56q3 -48 24 -73.5t68 -25.5q44 0 71.5 19t27.5 55q0 20 -5.5 35t-21.5 29.5t-50.5 22t-86.5 7.5l20 117q180 5 180 96q0 32 -19 50t-48 18q-79 0 -98 -82l-154 61
q61 181 281 181q112 0 178.5 -48t66.5 -141q0 -75 -52.5 -121.5t-149.5 -60.5zM406 0l835 1206h176l-842 -1206h-169zM1430 0l24 143h-356l24 138l441 442h196l-76 -434h103l-27 -146h-102l-25 -143h-202zM1485 285l24 133q5 32 14 68.5t15 56.5l6 20h-8q-29 -51 -78 -104
l-80 -82q-24 -24 -52.5 -48t-45.5 -36l-16 -12v-9q44 13 116 13h105z" />
    <glyph glyph-name="questiondown" unicode="&#xbf;" horiz-adv-x="940" 
d="M618 139l248 -88q-42 -165 -155.5 -250.5t-296.5 -85.5q-201 0 -307.5 93t-106.5 260q0 76 25 138.5t67 104.5t97.5 70.5t115 41.5t121.5 13l25 125h239l-51 -274h-86q-272 0 -272 -183q0 -72 38.5 -110.5t114.5 -38.5q80 0 125.5 43.5t58.5 140.5zM772 799
q0 -71 -48.5 -115.5t-121.5 -44.5q-74 0 -123 44.5t-49 115.5t48.5 114t123.5 43q73 0 121.5 -43t48.5 -114z" />
    <glyph glyph-name="Agrave" unicode="&#xc0;" horiz-adv-x="1294" 
d="M883 0l-47 252h-457l-129 -252h-299l647 1206h344l229 -1206h-288zM913 1325h-249l-226 293h344zM571 621l-73 -138h297q-23 114 -39 237.5t-21 193t-2 69.5h-8q-54 -167 -154 -362z" />
    <glyph glyph-name="Aacute" unicode="&#xc1;" horiz-adv-x="1294" 
d="M883 0l-47 252h-457l-129 -252h-299l647 1206h344l229 -1206h-288zM887 1325h-250l131 293h344zM571 621l-73 -138h297q-23 114 -39 237.5t-21 193t-2 69.5h-8q-54 -167 -154 -362z" />
    <glyph glyph-name="Acircumflex" unicode="&#xc2;" horiz-adv-x="1294" 
d="M883 0l-47 252h-457l-129 -252h-299l647 1206h344l229 -1206h-288zM721 1622h174l223 -297h-250l-49 64q-14 16 -21.5 31.5t-8.5 22.5l-1 7h-10q1 -1 -0.5 -4t-5.5 -8t-9.5 -11.5t-13 -14t-16.5 -16t-18.5 -17.5t-19.5 -18t-21 -18.5t-21 -17.5h-262zM571 621l-73 -138
h297q-23 114 -39 237.5t-21 193t-2 69.5h-8q-54 -167 -154 -362z" />
    <glyph glyph-name="Atilde" unicode="&#xc3;" horiz-adv-x="1294" 
d="M883 0l-47 252h-457l-129 -252h-299l647 1206h344l229 -1206h-288zM915 1329q-48 0 -93 16t-72 35.5t-55.5 35.5t-47.5 16q-32 0 -55.5 -28.5t-24.5 -78.5h-151q-33 138 36 230t187 92q46 0 74 -10.5t61 -32.5q73 -50 95 -57q14 -5 30 -5q67 0 72 98h157
q35 -138 -26.5 -224.5t-186.5 -86.5zM571 621l-73 -138h297q-23 114 -39 237.5t-21 193t-2 69.5h-8q-54 -167 -154 -362z" />
    <glyph glyph-name="Adieresis" unicode="&#xc4;" horiz-adv-x="1294" 
d="M883 0l-47 252h-457l-129 -252h-299l647 1206h344l229 -1206h-288zM860 1481q0 73 43.5 113t108.5 40q69 0 112 -39.5t43 -113.5q0 -73 -43.5 -113.5t-111.5 -40.5q-65 0 -108.5 41t-43.5 113zM414 1481q0 73 43 113t108 40q70 0 113 -39.5t43 -113.5q0 -72 -43.5 -113
t-112.5 -41q-64 0 -107.5 41.5t-43.5 112.5zM571 621l-73 -138h297q-23 114 -39 237.5t-21 193t-2 69.5h-8q-54 -167 -154 -362z" />
    <glyph glyph-name="Aring" unicode="&#xc5;" horiz-adv-x="1294" 
d="M883 0l-47 252h-457l-129 -252h-299l647 1206h344l229 -1206h-288zM582 1497q2 102 69.5 173t179.5 71q93 0 150 -59t57 -146q0 -104 -68 -175t-175 -71q-102 0 -157.5 57t-55.5 150zM571 621l-73 -138h297q-23 114 -39 237.5t-21 193t-2 69.5h-8q-54 -167 -154 -362z
M821 1618q-45 0 -73.5 -33t-28.5 -80q0 -40 22.5 -63t63.5 -23q46 0 74 33t28 80q0 38 -23 62t-63 24z" />
    <glyph glyph-name="AE" unicode="&#xc6;" horiz-adv-x="1828" 
d="M831 0l43 252h-444l-194 -252h-318l940 1206h993l-43 -241h-528l-41 -240h465l-41 -231h-465l-45 -252h528l-41 -242h-809zM1008 997l-400 -514h307l46 258q15 88 28.5 152t20.5 84l6 20h-8z" />
    <glyph glyph-name="Ccedilla" unicode="&#xc7;" horiz-adv-x="1202" 
d="M705 -242q0 -93 -67 -141.5t-171 -48.5q-70 0 -127.5 20.5t-87.5 53.5l53 131q60 -72 127 -72q68 0 68 53q0 34 -23 53.5t-74 28.5l62 154q-176 34 -268.5 160t-92.5 327q0 173 50.5 316.5t137.5 238.5t202 147t245 52q207 0 320 -93.5t141 -256.5l-291 -97
q-11 101 -54 152t-136 51q-101 0 -176.5 -68t-113.5 -180.5t-38 -251.5q0 -130 60 -202t165 -72q87 0 148.5 39.5t114.5 142.5l237 -125q-76 -152 -202 -223.5t-312 -71.5h-37l-22 -49q84 -14 123 -53t39 -115z" />
    <glyph glyph-name="Egrave" unicode="&#xc8;" horiz-adv-x="1062" 
d="M915 242l-41 -242h-808l210 1206h809l-43 -241h-526l-43 -240h465l-41 -231h-465l-45 -252h528zM819 1325h-250l-225 293h344z" />
    <glyph glyph-name="Eacute" unicode="&#xc9;" horiz-adv-x="1062" 
d="M915 242l-41 -242h-808l210 1206h809l-43 -241h-526l-43 -240h465l-41 -231h-465l-45 -252h528zM795 1325h-252l131 293h344z" />
    <glyph glyph-name="Ecircumflex" unicode="&#xca;" horiz-adv-x="1062" 
d="M915 242l-41 -242h-808l210 1206h809l-43 -241h-526l-43 -240h465l-41 -231h-465l-45 -252h528zM625 1622h176l221 -297h-250l-49 64q-13 16 -20.5 31.5t-8.5 22.5l-2 7h-8q-10 -24 -51 -61l-76 -64h-260z" />
    <glyph glyph-name="Edieresis" unicode="&#xcb;" horiz-adv-x="1062" 
d="M915 242l-41 -242h-808l210 1206h809l-43 -241h-526l-43 -240h465l-41 -231h-465l-45 -252h528zM319 1481q0 73 43.5 113t108.5 40q70 0 114 -39.5t44 -113.5q0 -72 -44.5 -113t-113.5 -41q-64 0 -108 41.5t-44 112.5zM766 1481q0 73 43.5 113t108.5 40q70 0 112.5 -39.5
t42.5 -113.5q0 -73 -43 -113.5t-112 -40.5q-65 0 -108.5 41t-43.5 113z" />
    <glyph glyph-name="Igrave" unicode="&#xcc;" horiz-adv-x="581" 
d="M276 1206h283l-211 -1206h-282zM575 1325h-249l-226 293h344z" />
    <glyph glyph-name="Iacute" unicode="&#xcd;" horiz-adv-x="581" 
d="M276 1206h283l-211 -1206h-282zM551 1325h-252l131 293h344z" />
    <glyph glyph-name="Icircumflex" unicode="&#xce;" horiz-adv-x="581" 
d="M276 1206h283l-211 -1206h-282zM383 1622h176l221 -297h-250l-49 64q-13 16 -20.5 31.5t-8.5 22.5l-1 7h-9q-10 -24 -51 -61l-76 -64h-260z" />
    <glyph glyph-name="Idieresis" unicode="&#xcf;" horiz-adv-x="581" 
d="M276 1206h283l-211 -1206h-282zM76 1481q0 73 43 113t108 40q70 0 114 -39.5t44 -113.5q0 -72 -44.5 -113t-113.5 -41q-64 0 -107.5 41.5t-43.5 112.5zM522 1481q0 73 43.5 113t108.5 40q70 0 112.5 -39.5t42.5 -113.5q0 -73 -43 -113.5t-112 -40.5q-65 0 -108.5 41
t-43.5 113z" />
    <glyph glyph-name="Eth" unicode="&#xd0;" horiz-adv-x="1280" 
d="M485 0h-419l86 496h-136l41 225h133l86 485h400q530 0 530 -475q0 -155 -38 -279t-104 -207.5t-158.5 -139.5t-197 -80.5t-223.5 -24.5zM387 236h127q179 0 289 121t110 348q0 266 -288 266h-107l-45 -250h227l-41 -225h-227z" />
    <glyph glyph-name="Ntilde" unicode="&#xd1;" horiz-adv-x="1331" 
d="M539 1206l278 -571q23 -44 42 -93.5t27 -76.5l7 -27h8q10 115 37 269l88 499h283l-211 -1206h-254l-285 559q-25 49 -46.5 102.5t-30.5 82.5l-9 28h-8q-2 -111 -35 -285l-82 -487h-282l210 1206h263zM934 1329q-39 0 -68.5 7t-46 16t-45.5 28q-9 6 -27.5 17.5t-25 15.5
t-18 10t-20.5 7.5t-19 1.5q-32 0 -54.5 -28t-25.5 -79h-152q-31 138 37 230t186 92q34 0 62 -7.5t43 -16t39 -24.5q5 -3 15.5 -10.5t14.5 -10t12.5 -8t12 -7.5l10.5 -6t11 -5.5t10 -4t10 -3.5t9.5 -1.5t10.5 -0.5q67 0 72 98h158q35 -137 -26.5 -224t-184.5 -87z" />
    <glyph glyph-name="Ograve" unicode="&#xd2;" horiz-adv-x="1306" 
d="M602 -25q-239 0 -368.5 134.5t-129.5 367.5q0 173 50.5 316.5t137.5 238.5t202 147t245 52q240 0 368 -134.5t128 -369.5q0 -173 -50.5 -316.5t-137 -238t-201.5 -146t-244 -51.5zM719 987q-100 0 -176 -67.5t-114 -178t-38 -245.5t60 -209t165 -74q97 0 172 67.5
t114.5 180.5t39.5 250q0 128 -59 202t-164 74zM913 1325h-249l-226 293h344z" />
    <glyph glyph-name="Oacute" unicode="&#xd3;" horiz-adv-x="1306" 
d="M602 -25q-239 0 -368.5 134.5t-129.5 367.5q0 173 50.5 316.5t137.5 238.5t202 147t245 52q240 0 368 -134.5t128 -369.5q0 -173 -50.5 -316.5t-137 -238t-201.5 -146t-244 -51.5zM719 987q-100 0 -176 -67.5t-114 -178t-38 -245.5t60 -209t165 -74q97 0 172 67.5
t114.5 180.5t39.5 250q0 128 -59 202t-164 74zM889 1325h-252l131 293h344z" />
    <glyph glyph-name="Ocircumflex" unicode="&#xd4;" horiz-adv-x="1306" 
d="M602 -25q-239 0 -368.5 134.5t-129.5 367.5q0 173 50.5 316.5t137.5 238.5t202 147t245 52q240 0 368 -134.5t128 -369.5q0 -173 -50.5 -316.5t-137 -238t-201.5 -146t-244 -51.5zM719 987q-100 0 -176 -67.5t-114 -178t-38 -245.5t60 -209t165 -74q97 0 172 67.5
t114.5 180.5t39.5 250q0 128 -59 202t-164 74zM721 1622h176l221 -297h-250l-49 64q-13 16 -20.5 31.5t-8.5 22.5l-2 7h-8q-10 -24 -51 -61l-76 -64h-260z" />
    <glyph glyph-name="Otilde" unicode="&#xd5;" horiz-adv-x="1306" 
d="M602 -25q-239 0 -368.5 134.5t-129.5 367.5q0 173 50.5 316.5t137.5 238.5t202 147t245 52q240 0 368 -134.5t128 -369.5q0 -173 -50.5 -316.5t-137 -238t-201.5 -146t-244 -51.5zM719 987q-100 0 -176 -67.5t-114 -178t-38 -245.5t60 -209t165 -74q97 0 172 67.5
t114.5 180.5t39.5 250q0 128 -59 202t-164 74zM918 1329q-39 0 -68.5 7t-46 16t-45.5 28q-5 3 -17.5 11.5t-16.5 11t-13.5 8.5t-14 8t-12 5.5t-12 4.5t-11 2t-12.5 1q-34 0 -56.5 -28t-23.5 -79h-153q-31 138 37.5 230t185.5 92q34 0 62 -8t42.5 -16t38.5 -24q69 -46 91 -53
q13 -4 26 -4q67 0 72 98h157q36 -138 -24.5 -224.5t-185.5 -86.5z" />
    <glyph glyph-name="Odieresis" unicode="&#xd6;" horiz-adv-x="1306" 
d="M602 -25q-239 0 -368.5 134.5t-129.5 367.5q0 173 50.5 316.5t137.5 238.5t202 147t245 52q240 0 368 -134.5t128 -369.5q0 -173 -50.5 -316.5t-137 -238t-201.5 -146t-244 -51.5zM719 987q-100 0 -176 -67.5t-114 -178t-38 -245.5t60 -209t165 -74q97 0 172 67.5
t114.5 180.5t39.5 250q0 128 -59 202t-164 74zM414 1481q0 73 43 113t108 40q70 0 114 -39.5t44 -113.5q0 -72 -44.5 -113t-113.5 -41q-64 0 -107.5 41.5t-43.5 112.5zM860 1481q0 73 43.5 113t108.5 40q70 0 112.5 -39.5t42.5 -113.5q0 -73 -43 -113.5t-112 -40.5
q-65 0 -108.5 41t-43.5 113z" />
    <glyph glyph-name="multiply" unicode="&#xd7;" horiz-adv-x="1009" 
d="M76 250l309 264l-203 254l125 106l207 -249l317 268l103 -121l-320 -272l224 -267l-127 -108l-222 268l-311 -264z" />
    <glyph glyph-name="Oslash" unicode="&#xd8;" horiz-adv-x="1306" 
d="M150 -25l-95 82l121 127q-72 119 -72 293q0 173 50.5 316.5t137.5 238.5t202 147t245 52q207 0 336 -107l103 107l98 -82l-117 -123q76 -119 76 -299q0 -173 -50.5 -316.5t-137 -238t-201.5 -146t-244 -51.5q-214 0 -344 111zM942 711q0 47 -8 80l-483 -502
q55 -76 165 -76q97 0 172 67.5t114.5 180.5t39.5 250zM719 987q-100 0 -176 -67.5t-114 -178t-38 -245.5q0 -42 6 -80l480 502q-59 69 -158 69z" />
    <glyph glyph-name="Ugrave" unicode="&#xd9;" horiz-adv-x="1251" 
d="M967 1206h282l-139 -788q-22 -125 -70.5 -213t-123 -137.5t-163 -71t-202.5 -21.5q-108 0 -193 26t-149.5 82t-89 155t-0.5 233l131 735h280l-129 -725q-24 -136 18.5 -205t170.5 -69q64 0 108 17.5t71.5 55.5t43 84t27.5 117zM899 1325h-252l-225 293h344z" />
    <glyph glyph-name="Uacute" unicode="&#xda;" horiz-adv-x="1251" 
d="M967 1206h282l-139 -788q-22 -125 -70.5 -213t-123 -137.5t-163 -71t-202.5 -21.5q-108 0 -193 26t-149.5 82t-89 155t-0.5 233l131 735h280l-129 -725q-24 -136 18.5 -205t170.5 -69q64 0 108 17.5t71.5 55.5t43 84t27.5 117zM872 1325h-249l131 293h344z" />
    <glyph glyph-name="Ucircumflex" unicode="&#xdb;" horiz-adv-x="1251" 
d="M967 1206h282l-139 -788q-22 -125 -70.5 -213t-123 -137.5t-163 -71t-202.5 -21.5q-108 0 -193 26t-149.5 82t-89 155t-0.5 233l131 735h280l-129 -725q-24 -136 18.5 -205t170.5 -69q64 0 108 17.5t71.5 55.5t43 84t27.5 117zM707 1622h174l223 -297h-250l-51 64
q-13 16 -20 31.5t-8 22.5l-1 7h-10q-8 -24 -51 -61l-74 -64h-262z" />
    <glyph glyph-name="Udieresis" unicode="&#xdc;" horiz-adv-x="1251" 
d="M967 1206h282l-139 -788q-22 -125 -70.5 -213t-123 -137.5t-163 -71t-202.5 -21.5q-108 0 -193 26t-149.5 82t-89 155t-0.5 233l131 735h280l-129 -725q-24 -136 18.5 -205t170.5 -69q64 0 108 17.5t71.5 55.5t43 84t27.5 117zM399 1481q0 73 43 113t109 40
q69 0 112.5 -39.5t43.5 -113.5q0 -72 -44 -113t-112 -41q-65 0 -108.5 41.5t-43.5 112.5zM844 1481q0 73 43 113t108 40q70 0 114 -39.5t44 -113.5q0 -73 -44 -113.5t-114 -40.5q-64 0 -107.5 41t-43.5 113z" />
    <glyph glyph-name="Yacute" unicode="&#xdd;" horiz-adv-x="1112" 
d="M436 1206l90 -286q23 -72 36.5 -145.5t15.5 -111.5l2 -38h8q4 15 13 42t45.5 104.5t82.5 146.5l189 288h299l-525 -805l-67 -401h-283l70 401l-271 805h295zM819 1325h-252l131 293h344z" />
    <glyph glyph-name="Thorn" unicode="&#xde;" horiz-adv-x="1077" 
d="M487 793l-61 -338h111q118 0 171.5 43t53.5 157q0 71 -39.5 104.5t-124.5 33.5h-111zM348 0h-282l210 1206h283l-33 -182h125q207 0 300 -88t93 -256q0 -115 -38.5 -204t-106 -142t-153 -80t-185.5 -27h-176z" />
    <glyph glyph-name="germandbls" unicode="&#xdf;" horiz-adv-x="1185" 
d="M20 -141l173 991q21 121 63.5 214.5t97.5 153t125 97.5t141 53.5t152 15.5q185 0 279 -85t94 -214q0 -146 -78 -224.5t-207 -98.5v-8q130 -16 194 -101t64 -211q0 -229 -126 -348t-333 -119q-88 0 -156 29t-102 86l97 199q53 -96 166 -96q78 0 129 57t51 184
q0 203 -205 203h-109l39 219h121q87 0 138 41.5t51 130.5q0 135 -146 135q-105 0 -168 -72t-90 -231l-178 -1018q-27 -152 -98.5 -213t-214.5 -61q-119 0 -197 47l51 197q50 -37 96 -37q39 0 59 19.5t27 64.5z" />
    <glyph glyph-name="agrave" unicode="&#xe0;" 
d="M676 393l31 158q15 88 -12 148.5t-101 60.5q-111 0 -175.5 -112.5t-64.5 -268.5q0 -87 35.5 -142t102.5 -55q76 0 122 57.5t62 153.5zM1053 946l-113 -649q-7 -39 4 -61.5t53 -22.5q27 0 60 8l-43 -207q-81 -24 -150 -24q-103 0 -155.5 40t-61.5 130q-32 -95 -102.5 -140
t-165.5 -45q-150 0 -231.5 103t-81.5 284q0 164 52.5 301t156 221.5t239.5 84.5q217 0 234 -181l57 158h248zM778 1077h-250l-237 314h344z" />
    <glyph glyph-name="aacute" unicode="&#xe1;" 
d="M676 393l31 158q15 88 -12 148.5t-101 60.5q-111 0 -175.5 -112.5t-64.5 -268.5q0 -87 35.5 -142t102.5 -55q76 0 122 57.5t62 153.5zM1053 946l-113 -649q-7 -39 4 -61.5t53 -22.5q27 0 60 8l-43 -207q-81 -24 -150 -24q-103 0 -155.5 40t-61.5 130q-32 -95 -102.5 -140
t-165.5 -45q-150 0 -231.5 103t-81.5 284q0 164 52.5 301t156 221.5t239.5 84.5q217 0 234 -181l57 158h248zM754 1077h-250l143 314h346z" />
    <glyph glyph-name="acircumflex" unicode="&#xe2;" 
d="M676 393l31 158q15 88 -12 148.5t-101 60.5q-111 0 -175.5 -112.5t-64.5 -268.5q0 -87 35.5 -142t102.5 -55q76 0 122 57.5t62 153.5zM1053 946l-113 -649q-7 -39 4 -61.5t53 -22.5q27 0 60 8l-43 -207q-81 -24 -150 -24q-103 0 -155.5 40t-61.5 130q-32 -95 -102.5 -140
t-165.5 -45q-150 0 -231.5 103t-81.5 284q0 164 52.5 301t156 221.5t239.5 84.5q217 0 234 -181l57 158h248zM602 1399h172l221 -326h-247l-52 70q-14 19 -21 36t-7 24v7h-11q-6 -24 -53 -67l-76 -70h-258z" />
    <glyph glyph-name="atilde" unicode="&#xe3;" 
d="M676 393l31 158q15 88 -12 148.5t-101 60.5q-111 0 -175.5 -112.5t-64.5 -268.5q0 -87 35.5 -142t102.5 -55q76 0 122 57.5t62 153.5zM1053 946l-113 -649q-7 -39 4 -61.5t53 -22.5q27 0 60 8l-43 -207q-81 -24 -150 -24q-103 0 -155.5 40t-61.5 130q-32 -95 -102.5 -140
t-165.5 -45q-150 0 -231.5 103t-81.5 284q0 164 52.5 301t156 221.5t239.5 84.5q217 0 234 -181l57 158h248zM797 1067q-39 0 -69 8t-45 16.5t-46 28.5q-65 42 -86 48q-11 3 -23 3q-32 0 -55 -28t-24 -78h-154q-31 137 37.5 228t185.5 91q49 0 79.5 -11t64.5 -34
q8 -5 25.5 -16.5t23 -15t17.5 -10.5t18.5 -9t15.5 -4t18 -2q67 0 70 98h160q35 -139 -26.5 -226t-186.5 -87z" />
    <glyph glyph-name="adieresis" unicode="&#xe4;" 
d="M676 393l31 158q15 88 -12 148.5t-101 60.5q-111 0 -175.5 -112.5t-64.5 -268.5q0 -87 35.5 -142t102.5 -55q76 0 122 57.5t62 153.5zM1053 946l-113 -649q-7 -39 4 -61.5t53 -22.5q27 0 60 8l-43 -207q-81 -24 -150 -24q-103 0 -155.5 40t-61.5 130q-32 -95 -102.5 -140
t-165.5 -45q-150 0 -231.5 103t-81.5 284q0 164 52.5 301t156 221.5t239.5 84.5q217 0 234 -181l57 158h248zM283 1221q0 73 43 113t108 40q70 0 114 -39.5t44 -113.5q0 -72 -44.5 -113t-113.5 -41q-64 0 -107.5 41.5t-43.5 112.5zM729 1221q0 73 43.5 113t108.5 40
q70 0 112.5 -39.5t42.5 -113.5q0 -73 -43 -113.5t-112 -40.5q-65 0 -108.5 41t-43.5 113z" />
    <glyph glyph-name="aring" unicode="&#xe5;" 
d="M676 393l31 158q15 88 -12 148.5t-101 60.5q-111 0 -175.5 -112.5t-64.5 -268.5q0 -87 35.5 -142t102.5 -55q76 0 122 57.5t62 153.5zM1053 946l-113 -649q-7 -39 4 -61.5t53 -22.5q27 0 60 8l-43 -207q-81 -24 -150 -24q-103 0 -155.5 40t-61.5 130q-32 -95 -102.5 -140
t-165.5 -45q-150 0 -231.5 103t-81.5 284q0 164 52.5 301t156 221.5t239.5 84.5q217 0 234 -181l57 158h248zM446 1245q0 102 68.5 173t179.5 71q93 0 151 -59t58 -146q0 -104 -68.5 -175t-175.5 -71q-102 0 -157.5 57t-55.5 150zM686 1364q-46 0 -74 -32t-28 -79
q0 -40 22.5 -64t61.5 -24q47 0 74.5 33.5t27.5 81.5q0 38 -22 61t-62 23z" />
    <glyph glyph-name="ae" unicode="&#xe6;" horiz-adv-x="1542" 
d="M1034 186q64 0 102 29.5t56 97.5l260 -61q-43 -145 -148 -211t-292 -66q-221 0 -332 140q-109 -140 -324 -140q-145 0 -227 66t-82 190q0 174 145.5 251.5t425.5 82.5q9 40 37 107q-1 44 -27.5 67t-70.5 23q-58 0 -96.5 -36.5t-44.5 -102.5l-264 51q30 148 147 221.5
t289 73.5q178 0 260 -76q124 76 262 76q96 0 172 -28.5t122 -77t69.5 -108.5t23.5 -128q0 -131 -41 -215h-569q-14 -98 24 -162t123 -64zM612 258q-14 55 -14 127v27q-268 -10 -268 -156q0 -37 25 -58.5t69 -21.5q117 0 188 82zM918 565h294q7 24 7 62q0 62 -29 100.5
t-92 38.5q-67 0 -113 -58t-67 -143z" />
    <glyph glyph-name="ccedilla" unicode="&#xe7;" horiz-adv-x="985" 
d="M592 -242q0 -93 -67 -141.5t-171 -48.5q-70 0 -127.5 20.5t-87.5 53.5l54 131q60 -72 126 -72q68 0 68 53q0 34 -22.5 53.5t-73.5 28.5l61 156q-135 31 -210.5 130t-75.5 255q0 118 33 222.5t96.5 188t167.5 132.5t235 49q92 0 163 -27.5t114 -75.5t64.5 -110t21.5 -135
l-273 -48q2 44 -7 82t-37.5 66.5t-72.5 28.5q-94 0 -152.5 -104.5t-58.5 -254.5q0 -104 38 -154.5t106 -50.5q114 0 149 150l271 -43q-93 -318 -441 -318q-20 0 -30 2l-23 -51q84 -14 123 -53t39 -115z" />
    <glyph glyph-name="egrave" unicode="&#xe8;" horiz-adv-x="1009" 
d="M502 186q64 0 101.5 29.5t55.5 97.5l261 -61q-43 -145 -148 -211t-293 -66q-195 0 -304 110.5t-109 299.5q0 137 42.5 249.5t114 184.5t163 111t192.5 39q97 0 173 -28.5t121.5 -77t69 -108.5t23.5 -128q0 -126 -41 -201h-570q-18 -102 22.5 -171t125.5 -69zM385 578h297
q4 28 4 49q0 62 -29 100.5t-92 38.5q-68 0 -114 -53t-66 -135zM731 1077h-250l-239 314h344z" />
    <glyph glyph-name="eacute" unicode="&#xe9;" horiz-adv-x="1009" 
d="M502 186q64 0 101.5 29.5t55.5 97.5l261 -61q-43 -145 -148 -211t-293 -66q-195 0 -304 110.5t-109 299.5q0 137 42.5 249.5t114 184.5t163 111t192.5 39q97 0 173 -28.5t121.5 -77t69 -108.5t23.5 -128q0 -126 -41 -201h-570q-18 -102 22.5 -171t125.5 -69zM385 578h297
q4 28 4 49q0 62 -29 100.5t-92 38.5q-68 0 -114 -53t-66 -135zM707 1077h-250l143 314h344z" />
    <glyph glyph-name="ecircumflex" unicode="&#xea;" horiz-adv-x="1009" 
d="M502 186q64 0 101.5 29.5t55.5 97.5l261 -61q-43 -145 -148 -211t-293 -66q-195 0 -304 110.5t-109 299.5q0 137 42.5 249.5t114 184.5t163 111t192.5 39q97 0 173 -28.5t121.5 -77t69 -108.5t23.5 -128q0 -126 -41 -201h-570q-18 -102 22.5 -171t125.5 -69zM385 578h297
q4 28 4 49q0 62 -29 100.5t-92 38.5q-68 0 -114 -53t-66 -135zM555 1399h172l219 -326h-246l-53 70q-14 19 -21 36t-8 24v7h-8q-8 -24 -55 -67l-74 -70h-260z" />
    <glyph glyph-name="edieresis" unicode="&#xeb;" horiz-adv-x="1009" 
d="M502 186q64 0 101.5 29.5t55.5 97.5l261 -61q-43 -145 -148 -211t-293 -66q-195 0 -304 110.5t-109 299.5q0 137 42.5 249.5t114 184.5t163 111t192.5 39q97 0 173 -28.5t121.5 -77t69 -108.5t23.5 -128q0 -126 -41 -201h-570q-18 -102 22.5 -171t125.5 -69zM385 578h297
q4 28 4 49q0 62 -29 100.5t-92 38.5q-68 0 -114 -53t-66 -135zM236 1221q0 73 43 113t108 40q69 0 112.5 -39.5t43.5 -113.5q0 -72 -44 -113t-112 -41q-64 0 -107.5 41.5t-43.5 112.5zM682 1221q0 73 43 113t109 40q69 0 112 -39.5t43 -113.5q0 -73 -43.5 -113.5
t-111.5 -40.5q-66 0 -109 41t-43 113z" />
    <glyph glyph-name="igrave" unicode="&#xec;" horiz-adv-x="579" 
d="M504 1077h-250l-240 314h344zM487 946l-112 -649q-7 -40 3 -62t52 -22q29 0 62 8l-43 -207q-81 -24 -150 -24q-258 0 -213 262l123 694h278z" />
    <glyph glyph-name="iacute" unicode="&#xed;" horiz-adv-x="579" 
d="M477 1077h-248l144 314h344zM487 946l-112 -649q-7 -40 3 -62t52 -22q29 0 62 8l-43 -207q-81 -24 -150 -24q-258 0 -213 262l123 694h278z" />
    <glyph glyph-name="icircumflex" unicode="&#xee;" horiz-adv-x="579" 
d="M487 946l-112 -649q-7 -40 3 -62t52 -22q29 0 62 8l-43 -207q-81 -24 -150 -24q-258 0 -213 262l123 694h278zM328 1399h172l219 -326h-246l-53 70q-14 19 -21 36t-7 24l-1 7h-8q-8 -24 -55 -67l-74 -70h-260z" />
    <glyph glyph-name="idieresis" unicode="&#xef;" horiz-adv-x="579" 
d="M8 1221q0 73 43.5 113t108.5 40q69 0 112 -39.5t43 -113.5q0 -72 -43.5 -113t-111.5 -41q-64 0 -108 41.5t-44 112.5zM455 1221q0 74 42.5 113.5t108.5 39.5q69 0 112.5 -39.5t43.5 -113.5q0 -73 -44 -113.5t-112 -40.5q-66 0 -108.5 40.5t-42.5 113.5zM487 946
l-112 -649q-7 -40 3 -62t52 -22q29 0 62 8l-43 -207q-81 -24 -150 -24q-258 0 -213 262l123 694h278z" />
    <glyph glyph-name="eth" unicode="&#xf0;" horiz-adv-x="1077" 
d="M260 967l-29 104l240 74q-120 67 -285 110l258 129q187 -51 310 -151l213 65l30 -100l-157 -51q172 -203 172 -541q0 -181 -57 -321t-177 -225t-289 -85q-190 0 -306.5 105.5t-116.5 308.5q0 153 56.5 279.5t163 202t242.5 75.5q147 0 201 -115h8q-38 136 -153 236z
M571 735q-97 0 -155 -102t-58 -256q0 -94 39 -143.5t109 -49.5q99 0 157 101.5t58 259.5q0 94 -39 142t-111 48z" />
    <glyph glyph-name="ntilde" unicode="&#xf1;" horiz-adv-x="1148" 
d="M1014 647l-58 -350q-7 -40 3.5 -62t52.5 -22q28 0 61 8l-43 -207q-81 -24 -149 -24q-258 0 -213 262l57 328q25 161 -102 161q-65 0 -117 -58t-74 -177l-88 -506h-278l165 946h244v-192q48 108 118.5 161.5t182.5 53.5t178 -64.5t66 -173.5q0 -37 -6 -84zM815 1067
q-39 0 -69 8t-45 16.5t-44 28.5q-6 4 -20.5 13t-19 11.5t-15 9t-15.5 8t-12.5 4.5t-14 4t-13.5 1q-33 0 -56 -28t-24 -78h-152q-33 137 36.5 228t187.5 91q33 0 60.5 -7t43 -15t39.5 -23q69 -46 91 -53q13 -4 26 -4q66 0 69 98h160q35 -139 -26.5 -226t-186.5 -87z" />
    <glyph glyph-name="ograve" unicode="&#xf2;" horiz-adv-x="1081" 
d="M594 969q197 0 309.5 -110t112.5 -308q0 -92 -20.5 -176.5t-63.5 -157.5t-104 -126.5t-147.5 -84.5t-188.5 -31q-190 0 -308 104.5t-118 297.5q0 95 20.5 181.5t63.5 162t104 130.5t148.5 86.5t191.5 31.5zM573 750q-97 0 -155 -104.5t-58 -262.5q0 -97 38.5 -147
t107.5 -50q100 0 158.5 104t58.5 265q0 94 -39.5 144.5t-110.5 50.5zM750 1077h-248l-240 314h344z" />
    <glyph glyph-name="oacute" unicode="&#xf3;" horiz-adv-x="1081" 
d="M594 969q197 0 309.5 -110t112.5 -308q0 -92 -20.5 -176.5t-63.5 -157.5t-104 -126.5t-147.5 -84.5t-188.5 -31q-190 0 -308 104.5t-118 297.5q0 95 20.5 181.5t63.5 162t104 130.5t148.5 86.5t191.5 31.5zM573 750q-97 0 -155 -104.5t-58 -262.5q0 -97 38.5 -147
t107.5 -50q100 0 158.5 104t58.5 265q0 94 -39.5 144.5t-110.5 50.5zM725 1077h-248l144 314h344z" />
    <glyph glyph-name="ocircumflex" unicode="&#xf4;" horiz-adv-x="1081" 
d="M594 969q197 0 309.5 -110t112.5 -308q0 -92 -20.5 -176.5t-63.5 -157.5t-104 -126.5t-147.5 -84.5t-188.5 -31q-190 0 -308 104.5t-118 297.5q0 95 20.5 181.5t63.5 162t104 130.5t148.5 86.5t191.5 31.5zM573 750q-97 0 -155 -104.5t-58 -262.5q0 -97 38.5 -147
t107.5 -50q100 0 158.5 104t58.5 265q0 94 -39.5 144.5t-110.5 50.5zM573 1399h175l219 -326h-246l-53 70q-14 19 -21 36t-7 24l-1 7h-10q-7 -24 -54 -67l-75 -70h-258z" />
    <glyph glyph-name="otilde" unicode="&#xf5;" horiz-adv-x="1081" 
d="M594 969q197 0 309.5 -110t112.5 -308q0 -92 -20.5 -176.5t-63.5 -157.5t-104 -126.5t-147.5 -84.5t-188.5 -31q-190 0 -308 104.5t-118 297.5q0 95 20.5 181.5t63.5 162t104 130.5t148.5 86.5t191.5 31.5zM573 750q-97 0 -155 -104.5t-58 -262.5q0 -97 38.5 -147
t107.5 -50q100 0 158.5 104t58.5 265q0 94 -39.5 144.5t-110.5 50.5zM770 1067q-39 0 -69 8t-45 16.5t-44 28.5q-6 4 -20.5 13t-19 11.5t-15 9t-15.5 8t-12.5 4.5t-14 4t-13.5 1q-33 0 -56 -28t-24 -78h-152q-33 137 36.5 228t187.5 91q33 0 60.5 -7t43 -15t39.5 -23
q69 -46 91 -53q13 -4 26 -4q66 0 69 98h160q35 -139 -26.5 -226t-186.5 -87z" />
    <glyph glyph-name="odieresis" unicode="&#xf6;" horiz-adv-x="1081" 
d="M594 969q197 0 309.5 -110t112.5 -308q0 -92 -20.5 -176.5t-63.5 -157.5t-104 -126.5t-147.5 -84.5t-188.5 -31q-190 0 -308 104.5t-118 297.5q0 95 20.5 181.5t63.5 162t104 130.5t148.5 86.5t191.5 31.5zM573 750q-97 0 -155 -104.5t-58 -262.5q0 -97 38.5 -147
t107.5 -50q100 0 158.5 104t58.5 265q0 94 -39.5 144.5t-110.5 50.5zM256 1221q0 73 43 113t109 40q69 0 112 -39.5t43 -113.5q0 -72 -43.5 -113t-111.5 -41q-65 0 -108.5 41.5t-43.5 112.5zM700 1221q0 73 43.5 113t108.5 40q70 0 114 -39.5t44 -113.5q0 -73 -44 -113.5
t-114 -40.5q-65 0 -108.5 41t-43.5 113z" />
    <glyph glyph-name="divide" unicode="&#xf7;" horiz-adv-x="1026" 
d="M918 432h-836l27 152h835zM311 174q0 48 33 82.5t82 34.5q47 0 81 -35t34 -82q0 -46 -34 -79.5t-81 -33.5q-49 0 -82 33.5t-33 79.5zM467 829q0 50 33 83.5t82 33.5q47 0 80.5 -34t33.5 -83q0 -47 -33.5 -79.5t-80.5 -32.5q-49 0 -82 32.5t-33 79.5z" />
    <glyph glyph-name="oslash" unicode="&#xf8;" horiz-adv-x="1081" 
d="M594 969q184 0 297 -101l106 103l86 -94l-116 -109q49 -88 49 -217q0 -92 -20.5 -176.5t-63.5 -157.5t-104 -126.5t-147.5 -84.5t-188.5 -31q-181 0 -291 88l-103 -94l-86 88l109 101q-55 88 -55 219q0 95 20.5 181.5t63.5 162t104 130.5t148.5 86.5t191.5 31.5zM573 750
q-84 0 -138 -77t-68 -200q-7 -60 -5 -94l330 307q-37 64 -119 64zM506 186q86 0 140.5 75.5t68.5 197.5q5 68 4 84l-326 -301q41 -56 113 -56z" />
    <glyph glyph-name="ugrave" unicode="&#xf9;" horiz-adv-x="1138" 
d="M668 182q-44 -108 -119.5 -157.5t-194.5 -49.5q-151 0 -220 96t-40 265l109 610h278l-108 -622q-10 -72 15.5 -109t84.5 -37q73 0 126 53.5t71 167.5l98 547h279l-113 -649q-7 -39 3.5 -61.5t49.5 -22.5q29 0 62 8l-43 -207q-81 -24 -150 -24q-102 0 -148 47.5t-40 144.5
zM776 1077h-250l-239 314h346z" />
    <glyph glyph-name="uacute" unicode="&#xfa;" horiz-adv-x="1138" 
d="M668 182q-44 -108 -119.5 -157.5t-194.5 -49.5q-151 0 -220 96t-40 265l109 610h278l-108 -622q-10 -72 15.5 -109t84.5 -37q73 0 126 53.5t71 167.5l98 547h279l-113 -649q-7 -39 3.5 -61.5t49.5 -22.5q29 0 62 8l-43 -207q-81 -24 -150 -24q-102 0 -148 47.5t-40 144.5
zM752 1077h-250l143 314h344z" />
    <glyph glyph-name="ucircumflex" unicode="&#xfb;" horiz-adv-x="1138" 
d="M668 182q-44 -108 -119.5 -157.5t-194.5 -49.5q-151 0 -220 96t-40 265l109 610h278l-108 -622q-10 -72 15.5 -109t84.5 -37q73 0 126 53.5t71 167.5l98 547h279l-113 -649q-7 -39 3.5 -61.5t49.5 -22.5q29 0 62 8l-43 -207q-81 -24 -150 -24q-102 0 -148 47.5t-40 144.5
zM600 1399h172l221 -326h-248l-53 70q-14 19 -20.5 36t-5.5 24v7h-11q-6 -24 -53 -67l-76 -70h-258z" />
    <glyph glyph-name="udieresis" unicode="&#xfc;" horiz-adv-x="1138" 
d="M668 182q-44 -108 -119.5 -157.5t-194.5 -49.5q-151 0 -220 96t-40 265l109 610h278l-108 -622q-10 -72 15.5 -109t84.5 -37q73 0 126 53.5t71 167.5l98 547h279l-113 -649q-7 -39 3.5 -61.5t49.5 -22.5q29 0 62 8l-43 -207q-81 -24 -150 -24q-102 0 -148 47.5t-40 144.5
zM279 1221q0 73 43 113t108 40q70 0 114 -39.5t44 -113.5q0 -72 -44.5 -113t-113.5 -41q-64 0 -107.5 41.5t-43.5 112.5zM725 1221q0 73 43.5 113t108.5 40q70 0 112.5 -39.5t42.5 -113.5q0 -73 -43 -113.5t-112 -40.5q-65 0 -108.5 41t-43.5 113z" />
    <glyph glyph-name="yacute" unicode="&#xfd;" horiz-adv-x="962" 
d="M367 946l41 -477q7 -75 7.5 -144.5t-2.5 -102.5l-3 -32h8q30 148 102 287l246 469h291l-574 -1038q-58 -106 -114 -175.5t-114.5 -104.5t-111.5 -47.5t-123 -12.5q-106 0 -186 39l78 225q64 -39 119 -39q64 0 113 37.5t92 116.5l-156 999h287zM680 1077h-250l143 314h345
z" />
    <glyph glyph-name="thorn" unicode="&#xfe;" horiz-adv-x="1157" 
d="M434 518l-22 -129q-16 -92 21 -157.5t118 -65.5q75 0 131.5 55t83.5 140.5t27 185.5q0 101 -42.5 155t-115.5 54q-71 0 -125.5 -61.5t-75.5 -176.5zM369 143l-97 -559h-280l313 1784h279l-107 -604q82 205 297 205q145 0 231.5 -100t86.5 -296q0 -169 -56 -303.5
t-166 -214.5t-258 -80q-97 0 -163.5 43.5t-79.5 124.5z" />
    <glyph glyph-name="ydieresis" unicode="&#xff;" horiz-adv-x="962" 
d="M367 946l41 -477q7 -75 7.5 -144.5t-2.5 -102.5l-3 -32h8q30 148 102 287l246 469h291l-574 -1038q-58 -106 -114 -175.5t-114.5 -104.5t-111.5 -47.5t-123 -12.5q-106 0 -186 39l78 225q64 -39 119 -39q64 0 113 37.5t92 116.5l-156 999h287zM209 1221q0 73 43 113
t108 40q70 0 113 -39.5t43 -113.5q0 -72 -43.5 -113t-112.5 -41q-64 0 -107.5 41.5t-43.5 112.5zM655 1221q0 73 43.5 113t108.5 40q69 0 112.5 -39.5t43.5 -113.5q0 -73 -44 -113.5t-112 -40.5q-65 0 -108.5 41t-43.5 113z" />
    <glyph glyph-name="Amacron" unicode="&#x100;" horiz-adv-x="1294" 
d="M883 0l-47 252h-457l-129 -252h-299l647 1206h344l229 -1206h-288zM1092 1360h-619l39 221h618zM571 621l-73 -138h297q-23 114 -39 237.5t-21 193t-2 69.5h-8q-54 -167 -154 -362z" />
    <glyph glyph-name="amacron" unicode="&#x101;" 
d="M676 393l31 158q15 88 -12 148.5t-101 60.5q-111 0 -175.5 -112.5t-64.5 -268.5q0 -87 35.5 -142t102.5 -55q76 0 122 57.5t62 153.5zM1053 946l-113 -649q-7 -39 4 -61.5t53 -22.5q27 0 60 8l-43 -207q-81 -24 -150 -24q-103 0 -155.5 40t-61.5 130q-32 -95 -102.5 -140
t-165.5 -45q-150 0 -231.5 103t-81.5 284q0 164 52.5 301t156 221.5t239.5 84.5q217 0 234 -181l57 158h248zM946 1104h-602l41 221h602z" />
    <glyph glyph-name="Abreve" unicode="&#x102;" horiz-adv-x="1294" 
d="M883 0l-47 252h-457l-129 -252h-299l647 1206h344l229 -1206h-288zM770 1315q-156 0 -217.5 81t-34.5 224h203q-8 -59 10 -86t74 -27q57 0 84.5 27t40.5 86h203q-26 -144 -116.5 -224.5t-246.5 -80.5zM571 621l-73 -138h297q-23 114 -39 237.5t-21 193t-2 69.5h-8
q-54 -167 -154 -362z" />
    <glyph glyph-name="abreve" unicode="&#x103;" 
d="M676 393l31 158q15 88 -12 148.5t-101 60.5q-111 0 -175.5 -112.5t-64.5 -268.5q0 -87 35.5 -142t102.5 -55q76 0 122 57.5t62 153.5zM1053 946l-113 -649q-7 -39 4 -61.5t53 -22.5q27 0 60 8l-43 -207q-81 -24 -150 -24q-103 0 -155.5 40t-61.5 130q-32 -95 -102.5 -140
t-165.5 -45q-150 0 -231.5 103t-81.5 284q0 164 52.5 301t156 221.5t239.5 84.5q217 0 234 -181l57 158h248zM637 1065q-104 0 -167 44.5t-81.5 115.5t-1.5 164h203q-10 -65 5 -96t75 -31q62 0 89 31t40 96h202q-26 -144 -118.5 -234t-245.5 -90z" />
    <glyph glyph-name="Aogonek" unicode="&#x104;" horiz-adv-x="1294" 
d="M502 -221q0 72 32.5 133.5t84.5 102.5t114.5 66t126.5 30l-24 141h-457l-129 -252h-299l647 1206h344l229 -1206h-118q-166 0 -248 -37.5t-82 -134.5q0 -39 20 -60.5t56 -21.5t63 13t58 46l59 -139q-85 -98 -240 -98q-105 0 -171 53t-66 158zM571 621l-73 -138h297
q-23 114 -39 237.5t-21 193t-2 69.5h-8q-54 -167 -154 -362z" />
    <glyph glyph-name="aogonek" unicode="&#x105;" 
d="M514 -221q0 88 51.5 155.5t130.5 106.5q-43 51 -49 119q-35 -88 -106.5 -136.5t-161.5 -48.5q-150 0 -231.5 103t-81.5 284q0 164 52.5 301t156 221.5t239.5 84.5q217 0 234 -181l57 158h248l-113 -649q-7 -39 4 -61.5t53 -22.5q27 0 60 8l-43 -207q-128 -26 -173 -45
q-106 -46 -106 -141q0 -39 20 -60.5t56 -21.5q67 0 123 59l59 -139q-88 -98 -239 -98q-106 0 -173 53t-67 158zM676 393l31 158q15 88 -12 148.5t-101 60.5q-111 0 -175.5 -112.5t-64.5 -268.5q0 -87 35.5 -142t102.5 -55q76 0 122 57.5t62 153.5z" />
    <glyph glyph-name="Cacute" unicode="&#x106;" horiz-adv-x="1202" 
d="M879 395l237 -125q-76 -152 -202 -223.5t-312 -71.5q-241 0 -369.5 132.5t-128.5 369.5q0 173 50.5 316.5t137.5 238.5t202 147t245 52q207 0 320 -93.5t141 -256.5l-291 -97q-11 101 -54 152t-136 51q-101 0 -176.5 -68t-113.5 -180.5t-38 -251.5q0 -130 60 -202
t165 -72q87 0 148.5 39.5t114.5 142.5zM879 1325h-252l133 293h344z" />
    <glyph glyph-name="cacute" unicode="&#x107;" horiz-adv-x="985" 
d="M653 336l271 -43q-93 -318 -441 -318q-191 0 -304 106t-113 296q0 118 33 222.5t96.5 188t167.5 132.5t235 49q92 0 163 -27.5t114 -75.5t64.5 -110t21.5 -135l-273 -48q2 44 -7 82t-37.5 66.5t-72.5 28.5q-94 0 -152.5 -104.5t-58.5 -254.5q0 -104 38 -154.5t106 -50.5
q114 0 149 150zM723 1077h-250l143 314h345z" />
    <glyph glyph-name="Ccircumflex" unicode="&#x108;" horiz-adv-x="1202" 
d="M879 395l237 -125q-76 -152 -202 -223.5t-312 -71.5q-241 0 -369.5 132.5t-128.5 369.5q0 173 50.5 316.5t137.5 238.5t202 147t245 52q207 0 320 -93.5t141 -256.5l-291 -97q-11 101 -54 152t-136 51q-101 0 -176.5 -68t-113.5 -180.5t-38 -251.5q0 -130 60 -202
t165 -72q87 0 148.5 39.5t114.5 142.5zM713 1622h174l221 -297h-248l-51 64q-13 16 -20.5 31.5t-8.5 22.5l-2 7h-8q-10 -24 -51 -61l-76 -64h-260z" />
    <glyph glyph-name="ccircumflex" unicode="&#x109;" horiz-adv-x="985" 
d="M653 336l271 -43q-93 -318 -441 -318q-191 0 -304 106t-113 296q0 118 33 222.5t96.5 188t167.5 132.5t235 49q92 0 163 -27.5t114 -75.5t64.5 -110t21.5 -135l-273 -48q2 44 -7 82t-37.5 66.5t-72.5 28.5q-94 0 -152.5 -104.5t-58.5 -254.5q0 -104 38 -154.5t106 -50.5
q114 0 149 150zM571 1399h172l220 -326h-246l-53 70q-14 19 -21 36t-7 24l-1 7h-8q-9 -24 -56 -67l-73 -70h-260z" />
    <glyph glyph-name="Cdotaccent" unicode="&#x10a;" horiz-adv-x="1202" 
d="M879 395l237 -125q-76 -152 -202 -223.5t-312 -71.5q-241 0 -369.5 132.5t-128.5 369.5q0 173 50.5 316.5t137.5 238.5t202 147t245 52q207 0 320 -93.5t141 -256.5l-291 -97q-11 101 -54 152t-136 51q-101 0 -176.5 -68t-113.5 -180.5t-38 -251.5q0 -130 60 -202
t165 -72q87 0 148.5 39.5t114.5 142.5zM627 1497q0 75 47 117.5t119 42.5q75 0 122.5 -42t47.5 -118q0 -73 -48 -114.5t-122 -41.5q-72 0 -119 41.5t-47 114.5z" />
    <glyph glyph-name="cdotaccent" unicode="&#x10b;" horiz-adv-x="985" 
d="M653 336l271 -43q-93 -318 -441 -318q-191 0 -304 106t-113 296q0 118 33 222.5t96.5 188t167.5 132.5t235 49q92 0 163 -27.5t114 -75.5t64.5 -110t21.5 -135l-273 -48q2 44 -7 82t-37.5 66.5t-72.5 28.5q-94 0 -152.5 -104.5t-58.5 -254.5q0 -104 38 -154.5t106 -50.5
q114 0 149 150zM465 1225q0 75 47 117t119 42q76 0 123 -41.5t47 -117.5q0 -73 -47 -114.5t-123 -41.5q-72 0 -119 41.5t-47 114.5z" />
    <glyph glyph-name="Ccaron" unicode="&#x10c;" horiz-adv-x="1202" 
d="M879 395l237 -125q-76 -152 -202 -223.5t-312 -71.5q-241 0 -369.5 132.5t-128.5 369.5q0 173 50.5 316.5t137.5 238.5t202 147t245 52q207 0 320 -93.5t141 -256.5l-291 -97q-11 101 -54 152t-136 51q-101 0 -176.5 -68t-113.5 -180.5t-38 -251.5q0 -130 60 -202
t165 -72q87 0 148.5 39.5t114.5 142.5zM844 1325h-176l-222 297h250l49 -63q13 -16 20.5 -31.5t8.5 -23.5l2 -7h8q11 25 52 62l75 63h260z" />
    <glyph glyph-name="ccaron" unicode="&#x10d;" horiz-adv-x="985" 
d="M653 336l271 -43q-93 -318 -441 -318q-191 0 -304 106t-113 296q0 118 33 222.5t96.5 188t167.5 132.5t235 49q92 0 163 -27.5t114 -75.5t64.5 -110t21.5 -135l-273 -48q2 44 -7 82t-37.5 66.5t-72.5 28.5q-94 0 -152.5 -104.5t-58.5 -254.5q0 -104 38 -154.5t106 -50.5
q114 0 149 150zM686 1073h-172l-221 326h248l51 -72q14 -19 21 -36t7 -24l1 -7h10q6 24 53 67l76 72h258z" />
    <glyph glyph-name="Dcaron" unicode="&#x10e;" horiz-adv-x="1280" 
d="M387 236h127q179 0 289 121t110 348q0 266 -288 266h-107zM485 0h-419l210 1206h400q530 0 530 -475q0 -155 -38 -279t-104 -207.5t-158.5 -139.5t-197 -80.5t-223.5 -24.5zM786 1325h-174l-221 297h248l51 -63q13 -16 20.5 -31.5t9.5 -23.5l1 -7h8q10 25 51 62l76 63
h260z" />
    <glyph glyph-name="dcaron" unicode="&#x10f;" horiz-adv-x="1157" 
d="M1540 1417l-117 -364h-196l30 364h283zM688 393l29 158q7 55 2 101.5t-37 77t-88 30.5q-111 0 -175.5 -112.5t-64.5 -268.5q0 -87 35.5 -142t102.5 -55q157 0 196 211zM1137 1368l-185 -1071q-7 -40 3.5 -62t52.5 -22q28 0 61 8l-43 -207q-81 -24 -149 -24
q-104 0 -157.5 40.5t-60.5 129.5q-32 -95 -107.5 -140t-172.5 -45q-150 0 -231.5 103t-81.5 284q0 164 52.5 300.5t158.5 221.5t247 85q99 0 162 -45t72 -136l100 580h279z" />
    <glyph glyph-name="Dcroat" unicode="&#x110;" horiz-adv-x="1280" 
d="M485 0h-419l86 496h-136l41 225h133l86 485h400q530 0 530 -475q0 -155 -38 -279t-104 -207.5t-158.5 -139.5t-197 -80.5t-223.5 -24.5zM387 236h127q179 0 289 121t110 348q0 266 -288 266h-107l-45 -250h227l-41 -225h-227z" />
    <glyph glyph-name="dcroat" unicode="&#x111;" horiz-adv-x="1157" 
d="M1137 1368l-25 -139h152l-31 -166h-150l-131 -766q-7 -40 3.5 -62t52.5 -22q28 0 61 8l-43 -207q-81 -24 -149 -24q-104 0 -157.5 40.5t-60.5 129.5q-32 -95 -107.5 -140t-172.5 -45q-150 0 -231.5 103t-81.5 284q0 164 52.5 300.5t158.5 221.5t247 85q99 0 162 -45
t72 -136l47 275h-279l31 166h277l24 139h279zM688 393l29 158q7 55 2 101.5t-37 77t-88 30.5q-111 0 -175.5 -112.5t-64.5 -268.5q0 -87 35.5 -142t102.5 -55q157 0 196 211z" />
    <glyph glyph-name="Emacron" unicode="&#x112;" horiz-adv-x="1062" 
d="M915 242l-41 -242h-808l210 1206h809l-43 -241h-526l-43 -240h465l-41 -231h-465l-45 -252h528zM997 1360h-616l37 221h618z" />
    <glyph glyph-name="emacron" unicode="&#x113;" horiz-adv-x="1009" 
d="M502 186q64 0 101.5 29.5t55.5 97.5l261 -61q-43 -145 -148 -211t-293 -66q-195 0 -304 110.5t-109 299.5q0 137 42.5 249.5t114 184.5t163 111t192.5 39q97 0 173 -28.5t121.5 -77t69 -108.5t23.5 -128q0 -126 -41 -201h-570q-18 -102 22.5 -171t125.5 -69zM385 578h297
q4 28 4 49q0 62 -29 100.5t-92 38.5q-68 0 -114 -53t-66 -135zM899 1104h-602l39 221h604z" />
    <glyph glyph-name="Ebreve" unicode="&#x114;" horiz-adv-x="1062" 
d="M915 242l-41 -242h-808l210 1206h809l-43 -241h-526l-43 -240h465l-41 -231h-465l-45 -252h528zM674 1315q-156 0 -217 80.5t-35 224.5h205q-9 -58 8.5 -85.5t75.5 -27.5q56 0 84 27.5t39 85.5h202q-26 -144 -116 -224.5t-246 -80.5z" />
    <glyph glyph-name="ebreve" unicode="&#x115;" horiz-adv-x="1009" 
d="M502 186q64 0 101.5 29.5t55.5 97.5l261 -61q-43 -145 -148 -211t-293 -66q-195 0 -304 110.5t-109 299.5q0 137 42.5 249.5t114 184.5t163 111t192.5 39q97 0 173 -28.5t121.5 -77t69 -108.5t23.5 -128q0 -126 -41 -201h-570q-18 -102 22.5 -171t125.5 -69zM385 578h297
q4 28 4 49q0 62 -29 100.5t-92 38.5q-68 0 -114 -53t-66 -135zM590 1065q-155 0 -216 90t-36 234h205q-12 -65 3 -96t77 -31q61 0 87.5 30.5t39.5 96.5h204q-26 -144 -118.5 -234t-245.5 -90z" />
    <glyph glyph-name="Edotaccent" unicode="&#x116;" horiz-adv-x="1062" 
d="M915 242l-41 -242h-808l210 1206h809l-43 -241h-526l-43 -240h465l-41 -231h-465l-45 -252h528zM541 1497q0 75 47 117.5t119 42.5q76 0 124 -42t48 -118q0 -73 -48 -114.5t-124 -41.5q-72 0 -119 41.5t-47 114.5z" />
    <glyph glyph-name="edotaccent" unicode="&#x117;" horiz-adv-x="1009" 
d="M502 186q64 0 101.5 29.5t55.5 97.5l261 -61q-43 -145 -148 -211t-293 -66q-195 0 -304 110.5t-109 299.5q0 137 42.5 249.5t114 184.5t163 111t192.5 39q97 0 173 -28.5t121.5 -77t69 -108.5t23.5 -128q0 -126 -41 -201h-570q-18 -102 22.5 -171t125.5 -69zM385 578h297
q4 28 4 49q0 62 -29 100.5t-92 38.5q-68 0 -114 -53t-66 -135zM449 1225q0 75 46.5 117t118.5 42q76 0 123 -41.5t47 -117.5q0 -73 -47 -114.5t-123 -41.5q-72 0 -118.5 41.5t-46.5 114.5z" />
    <glyph glyph-name="Eogonek" unicode="&#x118;" horiz-adv-x="1062" 
d="M379 -221q0 68 35.5 127.5t93.5 93.5h-442l210 1206h809l-43 -241h-526l-43 -240h465l-41 -231h-465l-45 -252h528l-41 -242h-61q-96 0 -154.5 -49t-58.5 -123q0 -39 20 -60.5t56 -21.5t63 13t60 46l59 -139q-88 -98 -242 -98q-105 0 -171 53t-66 158z" />
    <glyph glyph-name="eogonek" unicode="&#x119;" horiz-adv-x="1009" 
d="M311 -221q0 112 84 203q-156 22 -242.5 128.5t-86.5 274.5q0 137 42.5 249.5t114 184.5t163 111t192.5 39q97 0 173 -28.5t121.5 -77t69 -108.5t23.5 -128q0 -126 -41 -201h-570q-18 -102 22.5 -171t125.5 -69q64 0 101.5 29.5t55.5 97.5l261 -61q-32 -102 -98.5 -160
t-176.5 -100q-115 -41 -115 -158q0 -39 21.5 -63.5t56.5 -24.5q36 0 63 13t60 46l60 -139q-88 -98 -242 -98q-105 0 -171.5 53t-66.5 158zM385 578h297q4 28 4 49q0 62 -29 100.5t-92 38.5q-68 0 -114 -53t-66 -135z" />
    <glyph glyph-name="Ecaron" unicode="&#x11a;" horiz-adv-x="1062" 
d="M915 242l-41 -242h-808l210 1206h809l-43 -241h-526l-43 -240h465l-41 -231h-465l-45 -252h528zM756 1325h-174l-222 297h248l51 -63q13 -16 20.5 -31.5t8.5 -23.5l2 -7h8q11 25 52 62l75 63h260z" />
    <glyph glyph-name="ecaron" unicode="&#x11b;" horiz-adv-x="1009" 
d="M502 186q64 0 101.5 29.5t55.5 97.5l261 -61q-43 -145 -148 -211t-293 -66q-195 0 -304 110.5t-109 299.5q0 137 42.5 249.5t114 184.5t163 111t192.5 39q97 0 173 -28.5t121.5 -77t69 -108.5t23.5 -128q0 -126 -41 -201h-570q-18 -102 22.5 -171t125.5 -69zM385 578h297
q4 28 4 49q0 62 -29 100.5t-92 38.5q-68 0 -114 -53t-66 -135zM670 1073h-172l-222 326h248l51 -72q14 -19 21 -36t8 -24v-7h10q7 24 54 67l75 72h258z" />
    <glyph glyph-name="Gcircumflex" unicode="&#x11c;" horiz-adv-x="1300" 
d="M688 643h520l-112 -643h-170l-25 147q-88 -172 -323 -172q-224 0 -349 133.5t-125 368.5q0 173 50.5 316.5t137.5 238.5t202 147t245 52q208 0 321.5 -94t139.5 -256l-291 -97q-10 97 -53.5 149t-136.5 52q-101 0 -176.5 -67t-113.5 -177.5t-38 -246.5
q0 -138 64.5 -215.5t189.5 -77.5q101 0 166 48t80 138l6 35h-248zM729 1622h174l223 -297h-249l-52 64q-13 16 -20 31.5t-7 22.5l-1 7h-11q-8 -24 -51 -61l-73 -64h-263z" />
    <glyph glyph-name="gcircumflex" unicode="&#x11d;" horiz-adv-x="1095" 
d="M690 410l27 141q7 55 2 101.5t-37 77t-88 30.5q-76 0 -130.5 -51.5t-80 -132.5t-25.5 -181q0 -86 35 -141t101 -55q161 0 196 211zM1063 946l-168 -950q-37 -219 -169.5 -323.5t-371.5 -104.5q-349 0 -432 229l209 146q17 -73 80.5 -118.5t148.5 -45.5q117 0 179.5 65
t85.5 185l26 141q-60 -178 -268 -178q-150 0 -231.5 103t-81.5 284q0 164 52 296.5t156.5 213t245.5 80.5q99 0 162 -45t70 -136l59 158h248zM586 1399h174l219 -326h-248l-51 70q-14 19 -21 36t-7 24l-1 7h-10q-6 -24 -53 -67l-76 -70h-258z" />
    <glyph glyph-name="Gbreve" unicode="&#x11e;" horiz-adv-x="1300" 
d="M688 643h520l-112 -643h-170l-25 147q-88 -172 -323 -172q-224 0 -349 133.5t-125 368.5q0 173 50.5 316.5t137.5 238.5t202 147t245 52q208 0 321.5 -94t139.5 -256l-291 -97q-10 97 -53.5 149t-136.5 52q-101 0 -176.5 -67t-113.5 -177.5t-38 -246.5
q0 -138 64.5 -215.5t189.5 -77.5q101 0 166 48t80 138l6 35h-248zM776 1315q-156 0 -217 80.5t-35 224.5h205q-9 -58 8.5 -85.5t75.5 -27.5q56 0 84 27.5t39 85.5h205q-27 -144 -117.5 -224.5t-247.5 -80.5z" />
    <glyph glyph-name="gbreve" unicode="&#x11f;" horiz-adv-x="1095" 
d="M690 410l27 141q7 55 2 101.5t-37 77t-88 30.5q-76 0 -130.5 -51.5t-80 -132.5t-25.5 -181q0 -86 35 -141t101 -55q161 0 196 211zM1063 946l-168 -950q-37 -219 -169.5 -323.5t-371.5 -104.5q-349 0 -432 229l209 146q17 -73 80.5 -118.5t148.5 -45.5q117 0 179.5 65
t85.5 185l26 141q-60 -178 -268 -178q-150 0 -231.5 103t-81.5 284q0 164 52 296.5t156.5 213t245.5 80.5q99 0 162 -45t70 -136l59 158h248zM623 1065q-104 0 -167 44.5t-81.5 115.5t-1.5 164h202q-10 -65 5 -96t75 -31q62 0 89 31t40 96h203q-26 -144 -118.5 -234
t-245.5 -90z" />
    <glyph glyph-name="Gdotaccent" unicode="&#x120;" horiz-adv-x="1300" 
d="M688 643h520l-112 -643h-170l-25 147q-88 -172 -323 -172q-224 0 -349 133.5t-125 368.5q0 173 50.5 316.5t137.5 238.5t202 147t245 52q208 0 321.5 -94t139.5 -256l-291 -97q-10 97 -53.5 149t-136.5 52q-101 0 -176.5 -67t-113.5 -177.5t-38 -246.5
q0 -138 64.5 -215.5t189.5 -77.5q101 0 166 48t80 138l6 35h-248zM643 1497q0 75 47 117.5t119 42.5q76 0 124 -42t48 -118q0 -73 -48 -114.5t-124 -41.5q-72 0 -119 41.5t-47 114.5z" />
    <glyph glyph-name="gdotaccent" unicode="&#x121;" horiz-adv-x="1095" 
d="M690 410l27 141q7 55 2 101.5t-37 77t-88 30.5q-76 0 -130.5 -51.5t-80 -132.5t-25.5 -181q0 -86 35 -141t101 -55q161 0 196 211zM1063 946l-168 -950q-37 -219 -169.5 -323.5t-371.5 -104.5q-349 0 -432 229l209 146q17 -73 80.5 -118.5t148.5 -45.5q117 0 179.5 65
t85.5 185l26 141q-60 -178 -268 -178q-150 0 -231.5 103t-81.5 284q0 164 52 296.5t156.5 213t245.5 80.5q99 0 162 -45t70 -136l59 158h248zM481 1225q0 75 47.5 117t118.5 42q77 0 124.5 -41.5t47.5 -117.5q0 -73 -47.5 -114.5t-124.5 -41.5q-71 0 -118.5 42t-47.5 114z
" />
    <glyph glyph-name="Gcommaaccent" unicode="&#x122;" horiz-adv-x="1300" 
d="M688 643h520l-112 -643h-170l-25 147q-88 -172 -323 -172q-224 0 -349 133.5t-125 368.5q0 173 50.5 316.5t137.5 238.5t202 147t245 52q208 0 321.5 -94t139.5 -256l-291 -97q-10 97 -53.5 149t-136.5 52q-101 0 -176.5 -67t-113.5 -177.5t-38 -246.5
q0 -138 64.5 -215.5t189.5 -77.5q101 0 166 48t80 138l6 35h-248zM666 -279q0 -121 -87.5 -182t-232.5 -61v92q164 4 164 78q-61 -9 -101 20.5t-40 91.5q0 65 39 99.5t102 34.5q72 0 114 -45.5t42 -127.5z" />
    <glyph glyph-name="gcommaaccent" unicode="&#x123;" horiz-adv-x="1095" 
d="M690 410l27 141q7 55 2 101.5t-37 77t-88 30.5q-76 0 -130.5 -51.5t-80 -132.5t-25.5 -181q0 -86 35 -141t101 -55q161 0 196 211zM1063 946l-168 -950q-37 -219 -169.5 -323.5t-371.5 -104.5q-349 0 -432 229l209 146q17 -73 80.5 -118.5t148.5 -45.5q117 0 179.5 65
t85.5 185l26 141q-60 -178 -268 -178q-150 0 -231.5 103t-81.5 284q0 164 52 296.5t156.5 213t245.5 80.5q99 0 162 -45t70 -136l59 158h248zM506 1243q0 121 87.5 183.5t231.5 62.5v-92q-163 -7 -163 -80q61 9 101 -20t40 -93q0 -65 -39 -99t-102 -34q-71 0 -113.5 45.5
t-42.5 126.5z" />
    <glyph glyph-name="Hcircumflex" unicode="&#x124;" horiz-adv-x="1323" 
d="M348 0h-282l210 1206h283l-84 -473h461l82 473h282l-210 -1206h-283l86 492h-459zM756 1622h174l223 -297h-250l-49 64q-14 16 -21.5 31.5t-8.5 22.5l-1 7h-10q-8 -24 -51 -61l-74 -64h-262z" />
    <glyph glyph-name="hcircumflex" unicode="&#x125;" horiz-adv-x="1148" 
d="M1014 647l-58 -350q-7 -40 3.5 -62t52.5 -22q28 0 61 8l-43 -207q-81 -24 -149 -24q-258 0 -213 262l57 328q25 161 -102 161q-65 0 -117 -58t-74 -177l-88 -506h-278l239 1368h281l-109 -614q48 109 118 162t181 53q112 0 178 -64.5t66 -173.5q0 -37 -6 -84zM424 1724
h174l221 -297h-248l-51 64q-13 16 -20.5 31.5t-9.5 22.5l-1 7h-8q-10 -24 -51 -61l-76 -64h-260z" />
    <glyph glyph-name="Hbar" unicode="&#x126;" horiz-adv-x="1368" 
d="M362 0h-282l147 844h-164l39 213h162l27 149h282l-24 -149h459l26 149h281l-27 -149h180l-38 -213h-179l-147 -844h-281l84 475h-461zM485 698h461l25 146h-461z" />
    <glyph glyph-name="hbar" unicode="&#x127;" horiz-adv-x="1148" 
d="M98 1063l31 166h152l24 139h281l-25 -139h275l-31 -166h-275l-53 -309q48 109 118 162t181 53q112 0 178 -64.5t66 -173.5q0 -37 -6 -84l-58 -350q-7 -40 3.5 -62t52.5 -22q28 0 61 8l-43 -207q-81 -24 -149 -24q-258 0 -213 262l57 328q25 161 -102 161q-65 0 -117 -58
t-74 -177l-88 -506h-278l184 1063h-152z" />
    <glyph glyph-name="Itilde" unicode="&#x128;" horiz-adv-x="581" 
d="M276 1206h283l-211 -1206h-282zM580 1329q-39 0 -68.5 7t-46 16t-45.5 28q-5 3 -17.5 11.5t-16.5 11t-13.5 8.5t-14 8t-12 5.5t-12 4.5t-11 2t-12.5 1q-34 0 -56.5 -28t-23.5 -79h-153q-31 138 37.5 230t185.5 92q34 0 62 -8t42.5 -16t38.5 -24q69 -46 91 -53
q13 -4 26 -4q67 0 72 98h158q36 -137 -25 -224t-186 -87z" />
    <glyph glyph-name="itilde" unicode="&#x129;" horiz-adv-x="579" 
d="M522 1067q-39 0 -69 8t-44.5 16.5t-43.5 28.5q-5 3 -16.5 10t-15.5 9.5t-13 8t-12.5 7.5t-10.5 5.5t-11.5 4.5t-10 3t-11 2.5t-10.5 0.5q-33 0 -56 -28t-24 -78h-151q-33 137 36 228t187 91q33 0 60.5 -7t43 -15t39.5 -23q69 -46 91 -53q13 -4 26 -4q66 0 69 98h160
q35 -139 -26.5 -226t-186.5 -87zM487 946l-112 -649q-7 -40 3 -62t52 -22q29 0 62 8l-43 -207q-81 -24 -150 -24q-258 0 -213 262l123 694h278z" />
    <glyph glyph-name="Imacron" unicode="&#x12a;" horiz-adv-x="581" 
d="M276 1206h283l-211 -1206h-282zM754 1360h-617l39 221h617z" />
    <glyph glyph-name="imacron" unicode="&#x12b;" horiz-adv-x="579" 
d="M672 1104h-602l39 221h604zM487 946l-112 -649q-7 -40 3 -62t52 -22q29 0 62 8l-43 -207q-81 -24 -150 -24q-258 0 -213 262l123 694h278z" />
    <glyph glyph-name="Ibreve" unicode="&#x12c;" horiz-adv-x="581" 
d="M276 1206h283l-211 -1206h-282zM432 1315q-156 0 -217 80.5t-35 224.5h203q-8 -59 10 -86t74 -27q58 0 86 27.5t39 85.5h203q-26 -144 -116.5 -224.5t-246.5 -80.5z" />
    <glyph glyph-name="ibreve" unicode="&#x12d;" horiz-adv-x="579" 
d="M360 1065q-78 0 -134 25.5t-83.5 69t-37 103t5.5 126.5h204q-12 -65 3 -96t77 -31q60 0 87 31t40 96h205q-26 -144 -119 -234t-248 -90zM487 946l-112 -649q-7 -40 3 -62t52 -22q29 0 62 8l-43 -207q-81 -24 -150 -24q-258 0 -213 262l123 694h278z" />
    <glyph glyph-name="Iogonek" unicode="&#x12e;" horiz-adv-x="581" 
d="M-106 -221q0 89 50.5 159.5t129.5 114.5l202 1153h283l-211 -1206q-107 0 -170 -48t-63 -124q0 -39 19.5 -60.5t55.5 -21.5t63 13t60 46l60 -139q-88 -98 -242 -98q-106 0 -171.5 53t-65.5 158z" />
    <glyph glyph-name="iogonek" unicode="&#x12f;" horiz-adv-x="579" 
d="M-12 -221q0 82 39.5 148.5t107.5 107.5q-76 64 -49 217l123 694h278l-112 -649q-7 -40 3 -62t52 -22q29 0 62 8l-43 -207q-50 -9 -88 -20.5t-75.5 -32.5t-58 -54.5t-20.5 -78.5q0 -39 20.5 -60.5t57.5 -21.5q65 0 121 59l59 -139q-88 -98 -240 -98q-106 0 -171.5 53
t-65.5 158zM221 1235q0 75 47.5 117.5t118.5 42.5q76 0 124 -42t48 -118q0 -73 -48 -114.5t-124 -41.5q-71 0 -118.5 42t-47.5 114z" />
    <glyph glyph-name="Idotaccent" unicode="&#x130;" horiz-adv-x="581" 
d="M276 1206h283l-211 -1206h-282zM297 1497q0 75 47 117.5t119 42.5q76 0 124 -42t48 -118q0 -73 -48 -114.5t-124 -41.5q-72 0 -119 41.5t-47 114.5z" />
    <glyph glyph-name="dotlessi" unicode="&#x131;" horiz-adv-x="579" 
d="M487 946l-112 -649q-7 -40 3 -62t52 -22q29 0 62 8l-43 -207q-81 -24 -150 -24q-258 0 -213 262l123 694h278z" />
    <glyph glyph-name="IJ" unicode="&#x132;" horiz-adv-x="1533" 
d="M276 1206h283l-211 -1206h-282zM1241 1206h281l-150 -862q-35 -202 -145 -285.5t-305 -83.5q-302 0 -385 252l227 150q21 -85 62 -127.5t110 -42.5q75 0 107.5 37t50.5 133z" />
    <glyph glyph-name="ij" unicode="&#x133;" horiz-adv-x="1093" 
d="M487 946l-112 -649q-7 -40 3 -62t52 -22q29 0 62 8l-43 -207q-81 -24 -150 -24q-258 0 -213 262l123 694h278zM221 1235q0 75 47.5 117.5t118.5 42.5q76 0 124 -42t48 -118q0 -73 -48 -114.5t-124 -41.5q-71 0 -118.5 42t-47.5 114zM1067 946l-188 -1071
q-30 -169 -120.5 -238t-252.5 -69q-143 0 -238 57l76 203q67 -53 137 -53q54 0 83.5 31t43.5 118l180 1022h279zM801 1235q0 75 47.5 117.5t118.5 42.5q76 0 124 -42t48 -118q0 -73 -48 -114.5t-124 -41.5q-71 0 -118.5 42t-47.5 114z" />
    <glyph glyph-name="Jcircumflex" unicode="&#x134;" horiz-adv-x="952" 
d="M657 1206h283l-152 -862q-35 -201 -145 -285t-303 -84q-304 0 -387 252l227 150q21 -85 62 -127.5t110 -42.5q75 0 107.5 37t50.5 133zM764 1622h174l221 -297h-248l-51 64q-13 16 -20.5 31.5t-9.5 22.5l-1 7h-8q-10 -24 -51 -61l-76 -64h-260z" />
    <glyph glyph-name="jcircumflex" unicode="&#x135;" horiz-adv-x="514" 
d="M487 946l-188 -1071q-30 -169 -120.5 -238t-252.5 -69q-142 0 -237 57l75 203q67 -53 138 -53q54 0 83.5 31t43.5 118l180 1022h278zM328 1399h174l219 -326h-248l-51 70q-14 19 -21 36t-7 24l-1 7h-10q-6 -24 -53 -67l-76 -70h-258z" />
    <glyph glyph-name="Kcommaaccent" unicode="&#x136;" horiz-adv-x="1175" 
d="M1077 0h-321l-240 492h-82l-86 -492h-282l210 1206h283l-84 -475h72l366 475h328l-477 -598zM606 -279q0 -121 -87.5 -182t-231.5 -61v92q162 4 162 78q-60 -9 -101 20.5t-41 91.5q0 65 40 99.5t102 34.5q72 0 114.5 -45.5t42.5 -127.5z" />
    <glyph glyph-name="kcommaaccent" unicode="&#x137;" horiz-adv-x="1075" 
d="M602 133l-125 275h-61l-72 -408h-278l239 1368h281l-133 -752h47l295 330h335l-411 -436l121 -234q27 -52 66 -62t102 11l-43 -215q-68 -20 -146 -20q-75 0 -128.5 31.5t-88.5 111.5zM596 -279q0 -121 -88 -182t-232 -61v92q162 4 162 78q-60 -9 -100.5 20.5t-40.5 91.5
q0 65 39.5 99.5t101.5 34.5q72 0 115 -45.5t43 -127.5z" />
    <glyph glyph-name="kgreenlandic" unicode="&#x138;" horiz-adv-x="1075" 
d="M602 133l-123 275h-63l-72 -408h-278l165 946h281l-59 -330h47l295 330h335l-411 -436l121 -234q27 -52 66 -62t102 11l-43 -215q-68 -20 -146 -20q-75 0 -128 31.5t-89 111.5z" />
    <glyph glyph-name="Lacute" unicode="&#x139;" horiz-adv-x="960" 
d="M276 1206h283l-172 -964h469l-41 -242h-749zM559 1325h-252l133 293h344z" />
    <glyph glyph-name="lacute" unicode="&#x13a;" horiz-adv-x="583" 
d="M563 1368l-188 -1071q-7 -40 3 -62t52 -22q29 0 62 8l-43 -207q-81 -24 -150 -24q-258 0 -213 262l199 1116h278zM553 1423h-252l133 295h344z" />
    <glyph glyph-name="Lcommaaccent" unicode="&#x13b;" horiz-adv-x="960" 
d="M276 1206h283l-172 -964h469l-41 -242h-749zM555 -279q0 -121 -87 -182t-232 -61v92q163 4 163 78q-61 -9 -101 20.5t-40 91.5q0 65 39 99.5t102 34.5q72 0 114 -45.5t42 -127.5z" />
    <glyph glyph-name="lcommaaccent" unicode="&#x13c;" horiz-adv-x="583" 
d="M563 1368l-188 -1071q-7 -40 3 -62t52 -22q29 0 62 8l-43 -207q-81 -24 -150 -24q-258 0 -213 262l199 1116h278zM365 -279q0 -121 -88 -182t-232 -61v92q162 4 162 78q-61 -9 -101 20.5t-40 91.5q0 65 39 99.5t102 34.5q72 0 115 -45.5t43 -127.5z" />
    <glyph glyph-name="Lcaron" unicode="&#x13d;" horiz-adv-x="960" 
d="M276 1206h283l-172 -964h469l-41 -242h-749zM1006 1368l-119 -397h-195l31 397h283z" />
    <glyph glyph-name="lcaron" unicode="&#x13e;" horiz-adv-x="583" 
d="M965 1417l-117 -364h-197l31 364h283zM563 1368l-188 -1071q-7 -40 3 -62t52 -22q29 0 62 8l-43 -207q-81 -24 -150 -24q-258 0 -213 262l199 1116h278z" />
    <glyph glyph-name="Ldot" unicode="&#x13f;" horiz-adv-x="960" 
d="M276 1206h283l-172 -964h469l-41 -242h-749zM633 637q0 76 50 127t122 51q78 0 129 -50.5t51 -127.5q0 -73 -51.5 -123.5t-128.5 -50.5q-72 0 -122 51t-50 123z" />
    <glyph glyph-name="ldot" unicode="&#x140;" horiz-adv-x="849" 
d="M563 1368l-188 -1071q-7 -40 3 -62t52 -22q29 0 62 8l-43 -207q-81 -24 -150 -24q-258 0 -213 262l199 1116h278zM545 668q0 76 51 128t123 52q76 0 127 -51.5t51 -128.5q0 -72 -51 -122t-127 -50q-72 0 -123 50t-51 122z" />
    <glyph glyph-name="Lslash" unicode="&#x141;" horiz-adv-x="976" 
d="M293 1206h282l-77 -438l278 94l-33 -190l-280 -92l-57 -338h466l-38 -242h-752l84 483l-141 -47l32 187l142 47z" />
    <glyph glyph-name="lslash" unicode="&#x142;" horiz-adv-x="604" 
d="M571 1368l-86 -477l177 80l-35 -197l-176 -82l-68 -395q-7 -39 4 -61.5t53 -22.5q27 0 60 8l-43 -207q-81 -24 -150 -24q-258 0 -213 262l53 303l-143 -66l35 199l145 64l109 616h278z" />
    <glyph glyph-name="Nacute" unicode="&#x143;" horiz-adv-x="1331" 
d="M539 1206l278 -571q23 -44 42 -93.5t27 -76.5l7 -27h8q10 115 37 269l88 499h283l-211 -1206h-254l-285 559q-25 49 -46.5 102.5t-30.5 82.5l-9 28h-8q-2 -111 -35 -285l-82 -487h-282l210 1206h263zM903 1325h-250l131 293h344z" />
    <glyph glyph-name="nacute" unicode="&#x144;" horiz-adv-x="1148" 
d="M1014 647l-58 -350q-7 -40 3.5 -62t52.5 -22q28 0 61 8l-43 -207q-81 -24 -149 -24q-258 0 -213 262l57 328q25 161 -102 161q-65 0 -117 -58t-74 -177l-88 -506h-278l165 946h244v-192q48 108 118.5 161.5t182.5 53.5t178 -64.5t66 -173.5q0 -37 -6 -84zM770 1077h-248
l144 314h344z" />
    <glyph glyph-name="Ncommaaccent" unicode="&#x145;" horiz-adv-x="1331" 
d="M539 1206l278 -571q23 -44 42 -93.5t27 -76.5l7 -27h8q10 115 37 269l88 499h283l-211 -1206h-254l-285 559q-25 49 -46.5 102.5t-30.5 82.5l-9 28h-8q-2 -111 -35 -285l-82 -487h-282l210 1206h263zM676 -279q0 -121 -88 -182t-232 -61v92q162 4 162 78
q-60 -9 -100.5 20.5t-40.5 91.5q0 65 39.5 99.5t101.5 34.5q72 0 115 -45.5t43 -127.5z" />
    <glyph glyph-name="ncommaaccent" unicode="&#x146;" horiz-adv-x="1148" 
d="M1014 647l-58 -350q-7 -40 3.5 -62t52.5 -22q28 0 61 8l-43 -207q-81 -24 -149 -24q-258 0 -213 262l57 328q25 161 -102 161q-65 0 -117 -58t-74 -177l-88 -506h-278l165 946h244v-192q48 108 118.5 161.5t182.5 53.5t178 -64.5t66 -173.5q0 -37 -6 -84zM586 -279
q0 -121 -88 -182t-232 -61v92q162 4 162 78q-60 -9 -100.5 20.5t-40.5 91.5q0 65 39.5 99.5t101.5 34.5q73 0 115.5 -45.5t42.5 -127.5z" />
    <glyph glyph-name="Ncaron" unicode="&#x147;" horiz-adv-x="1331" 
d="M539 1206l278 -571q23 -44 42 -93.5t27 -76.5l7 -27h8q10 115 37 269l88 499h283l-211 -1206h-254l-285 559q-25 49 -46.5 102.5t-30.5 82.5l-9 28h-8q-2 -111 -35 -285l-82 -487h-282l210 1206h263zM868 1325h-174l-223 297h250l51 -63q13 -16 20 -31.5t8 -23.5l1 -7h10
q8 25 51 62l74 63h262z" />
    <glyph glyph-name="ncaron" unicode="&#x148;" horiz-adv-x="1148" 
d="M1014 647l-58 -350q-7 -40 3.5 -62t52.5 -22q28 0 61 8l-43 -207q-81 -24 -149 -24q-258 0 -213 262l57 328q25 161 -102 161q-65 0 -117 -58t-74 -177l-88 -506h-278l165 946h244v-192q48 108 118.5 161.5t182.5 53.5t178 -64.5t66 -173.5q0 -37 -6 -84zM735 1073h-172
l-221 326h248l51 -72q14 -19 21 -36t8 -24v-7h10q6 24 53 67l76 72h258z" />
    <glyph glyph-name="Eng" unicode="&#x14a;" horiz-adv-x="1331" 
d="M1309 1206l-224 -1269q-35 -201 -146.5 -285t-305.5 -84q-256 0 -369 168l189 211q23 -68 76 -108t114 -40q84 0 118 41.5t50 145.5l10 57l-262 516q-25 49 -46.5 102.5t-30.5 82.5l-9 28h-8q-2 -111 -35 -285l-82 -487h-282l210 1206h263l278 -571q23 -44 42 -93.5
t27 -76.5l7 -27h8q10 115 37 269l88 499h283z" />
    <glyph glyph-name="eng" unicode="&#x14b;" horiz-adv-x="1093" 
d="M1014 647l-133 -772q-30 -168 -121 -237.5t-254 -69.5q-143 0 -238 57l78 203q63 -53 135 -53q54 0 83.5 31t43.5 118l117 656q25 161 -102 161q-65 0 -117 -58t-74 -177l-88 -506h-278l165 946h244v-192q48 108 118.5 161.5t182.5 53.5t178 -64.5t66 -173.5
q0 -37 -6 -84z" />
    <glyph glyph-name="Omacron" unicode="&#x14c;" horiz-adv-x="1306" 
d="M602 -25q-239 0 -368.5 134.5t-129.5 367.5q0 173 50.5 316.5t137.5 238.5t202 147t245 52q240 0 368 -134.5t128 -369.5q0 -173 -50.5 -316.5t-137 -238t-201.5 -146t-244 -51.5zM719 987q-100 0 -176 -67.5t-114 -178t-38 -245.5t60 -209t165 -74q97 0 172 67.5
t114.5 180.5t39.5 250q0 128 -59 202t-164 74zM1092 1360h-617l39 221h616z" />
    <glyph glyph-name="omacron" unicode="&#x14d;" horiz-adv-x="1081" 
d="M594 969q197 0 309.5 -110t112.5 -308q0 -92 -20.5 -176.5t-63.5 -157.5t-104 -126.5t-147.5 -84.5t-188.5 -31q-190 0 -308 104.5t-118 297.5q0 95 20.5 181.5t63.5 162t104 130.5t148.5 86.5t191.5 31.5zM573 750q-97 0 -155 -104.5t-58 -262.5q0 -97 38.5 -147
t107.5 -50q100 0 158.5 104t58.5 265q0 94 -39.5 144.5t-110.5 50.5zM920 1104h-605l41 221h602z" />
    <glyph glyph-name="Obreve" unicode="&#x14e;" horiz-adv-x="1306" 
d="M602 -25q-239 0 -368.5 134.5t-129.5 367.5q0 173 50.5 316.5t137.5 238.5t202 147t245 52q240 0 368 -134.5t128 -369.5q0 -173 -50.5 -316.5t-137 -238t-201.5 -146t-244 -51.5zM719 987q-100 0 -176 -67.5t-114 -178t-38 -245.5t60 -209t165 -74q97 0 172 67.5
t114.5 180.5t39.5 250q0 128 -59 202t-164 74zM770 1315q-156 0 -217 80.5t-35 224.5h203q-8 -59 10 -86t74 -27q58 0 86 27.5t39 85.5h203q-26 -144 -116.5 -224.5t-246.5 -80.5z" />
    <glyph glyph-name="obreve" unicode="&#x14f;" horiz-adv-x="1081" 
d="M594 969q197 0 309.5 -110t112.5 -308q0 -92 -20.5 -176.5t-63.5 -157.5t-104 -126.5t-147.5 -84.5t-188.5 -31q-190 0 -308 104.5t-118 297.5q0 95 20.5 181.5t63.5 162t104 130.5t148.5 86.5t191.5 31.5zM573 750q-97 0 -155 -104.5t-58 -262.5q0 -97 38.5 -147
t107.5 -50q100 0 158.5 104t58.5 265q0 94 -39.5 144.5t-110.5 50.5zM608 1065q-104 0 -167 44.5t-81.5 115.5t-1.5 164h205q-12 -65 3 -96t77 -31q60 0 87 31t40 96h205q-26 -144 -119 -234t-248 -90z" />
    <glyph glyph-name="Ohungarumlaut" unicode="&#x150;" horiz-adv-x="1306" 
d="M602 -25q-239 0 -368.5 134.5t-129.5 367.5q0 173 50.5 316.5t137.5 238.5t202 147t245 52q240 0 368 -134.5t128 -369.5q0 -173 -50.5 -316.5t-137 -238t-201.5 -146t-244 -51.5zM719 987q-100 0 -176 -67.5t-114 -178t-38 -245.5t60 -209t165 -74q97 0 172 67.5
t114.5 180.5t39.5 250q0 128 -59 202t-164 74zM684 1325h-195l107 293h289zM1042 1325h-213l144 293h307z" />
    <glyph glyph-name="ohungarumlaut" unicode="&#x151;" horiz-adv-x="1081" 
d="M594 969q197 0 309.5 -110t112.5 -308q0 -92 -20.5 -176.5t-63.5 -157.5t-104 -126.5t-147.5 -84.5t-188.5 -31q-190 0 -308 104.5t-118 297.5q0 95 20.5 181.5t63.5 162t104 130.5t148.5 86.5t191.5 31.5zM573 750q-97 0 -155 -104.5t-58 -262.5q0 -97 38.5 -147
t107.5 -50q100 0 158.5 104t58.5 265q0 94 -39.5 144.5t-110.5 50.5zM520 1077h-194l106 314h289zM879 1077h-213l143 314h307z" />
    <glyph glyph-name="OE" unicode="&#x152;" horiz-adv-x="1773" 
d="M602 -25q-239 0 -368.5 134.5t-129.5 367.5q0 173 50.5 316.5t137.5 238.5t202 147t245 52q98 0 181 -25h876l-41 -241h-567q33 -68 39 -140q3 -17 8 -100h414l-41 -231h-400q-33 -144 -112 -252h530l-41 -242h-813q-86 -25 -170 -25zM719 987q-100 0 -176 -67.5
t-114 -178t-38 -245.5t60 -209t165 -74q97 0 172 67.5t114.5 180.5t39.5 250q0 128 -59 202t-164 74z" />
    <glyph glyph-name="oe" unicode="&#x153;" horiz-adv-x="1669" 
d="M1151 186q124 0 156 127l262 -61q-44 -143 -151 -210t-283 -67q-102 0 -189 40t-121 100q-130 -140 -333 -140q-190 0 -308 104.5t-118 297.5q0 95 20.5 181.5t63.5 162t104 130.5t148.5 86.5t191.5 31.5q101 0 180.5 -37t130.5 -103q58 65 144 102.5t176 37.5
q97 0 173 -28.5t122.5 -77t70 -108.5t23.5 -128q0 -121 -41 -201h-561q-14 -101 21 -170.5t118 -69.5zM573 750q-97 0 -155 -104.5t-58 -262.5q0 -97 38.5 -147t107.5 -50q100 0 158.5 104t58.5 265q0 94 -39.5 144.5t-110.5 50.5zM1034 578h295q6 21 6 49q0 62 -29 100.5
t-92 38.5q-66 0 -112 -52.5t-68 -135.5z" />
    <glyph glyph-name="Racute" unicode="&#x154;" horiz-adv-x="1196" 
d="M1067 0h-305q-36 32 -51 125l-29 180q-12 73 -42 97t-103 24h-115l-74 -426h-282l210 1206h459q201 0 296 -74t95 -239q0 -86 -27 -154t-73 -109.5t-100.5 -65t-116.5 -29.5v-9q81 -12 118 -49.5t52 -122.5l37 -225q15 -84 51 -129zM518 971l-57 -316h174
q92 0 147.5 45.5t55.5 143.5q0 127 -152 127h-168zM807 1325h-250l131 293h344z" />
    <glyph glyph-name="racute" unicode="&#x155;" horiz-adv-x="796" 
d="M846 961l-66 -322q-53 23 -108.5 26.5t-106 -13t-88 -63t-49.5 -116.5l-84 -473h-278l165 946h244l-8 -252q48 142 154.5 219.5t224.5 47.5zM649 1077h-250l144 314h344z" />
    <glyph glyph-name="Rcommaaccent" unicode="&#x156;" horiz-adv-x="1196" 
d="M1067 0h-305q-36 32 -51 125l-29 180q-12 73 -42 97t-103 24h-115l-74 -426h-282l210 1206h459q201 0 296 -74t95 -239q0 -86 -27 -154t-73 -109.5t-100.5 -65t-116.5 -29.5v-9q81 -12 118 -49.5t52 -122.5l37 -225q15 -84 51 -129zM518 971l-57 -316h174
q92 0 147.5 45.5t55.5 143.5q0 127 -152 127h-168zM653 -279q0 -121 -87.5 -182t-231.5 -61v92q162 4 162 78q-60 -9 -101 20.5t-41 91.5q0 65 40 99.5t102 34.5q72 0 114.5 -45.5t42.5 -127.5z" />
    <glyph glyph-name="rcommaaccent" unicode="&#x157;" horiz-adv-x="796" 
d="M846 961l-66 -322q-53 23 -108.5 26.5t-106 -13t-88 -63t-49.5 -116.5l-84 -473h-278l165 946h244l-8 -252q48 142 154.5 219.5t224.5 47.5zM328 -279q0 -121 -88 -182t-232 -61v92q162 4 162 78q-60 -9 -100.5 20.5t-40.5 91.5q0 65 39.5 99.5t101.5 34.5
q73 0 115.5 -45.5t42.5 -127.5z" />
    <glyph glyph-name="Rcaron" unicode="&#x158;" horiz-adv-x="1196" 
d="M1067 0h-305q-36 32 -51 125l-29 180q-12 73 -42 97t-103 24h-115l-74 -426h-282l210 1206h459q201 0 296 -74t95 -239q0 -86 -27 -154t-73 -109.5t-100.5 -65t-116.5 -29.5v-9q81 -12 118 -49.5t52 -122.5l37 -225q15 -84 51 -129zM518 971l-57 -316h174
q92 0 147.5 45.5t55.5 143.5q0 127 -152 127h-168zM772 1325h-174l-223 297h250l51 -63q13 -16 20 -31.5t8 -23.5l1 -7h10q8 25 51 62l74 63h262z" />
    <glyph glyph-name="rcaron" unicode="&#x159;" horiz-adv-x="796" 
d="M846 961l-66 -322q-53 23 -108.5 26.5t-106 -13t-88 -63t-49.5 -116.5l-84 -473h-278l165 946h244l-8 -252q48 142 154.5 219.5t224.5 47.5zM612 1073h-172l-221 326h248l53 -72q14 -19 20.5 -36t6.5 -24v-7h10q6 24 53 67l76 72h258z" />
    <glyph glyph-name="Sacute" unicode="&#x15a;" horiz-adv-x="1060" 
d="M25 283l254 96q2 -90 53.5 -143.5t140.5 -53.5q178 0 178 137q0 60 -37 95.5t-133 66.5q-166 54 -237.5 138.5t-71.5 222.5q0 104 40.5 182t108 121.5t144.5 64.5t162 21q196 0 300 -79.5t111 -252.5l-272 -53q4 77 -41 118.5t-121 41.5q-75 0 -116.5 -34.5t-41.5 -99.5
q0 -55 37.5 -84t141.5 -65q168 -57 239.5 -138.5t71.5 -226.5q0 -84 -26.5 -150t-71.5 -109t-108.5 -71.5t-133.5 -40.5t-150 -12q-186 0 -296.5 75.5t-124.5 232.5zM770 1325h-250l131 293h344z" />
    <glyph glyph-name="sacute" unicode="&#x15b;" horiz-adv-x="897" 
d="M8 242l228 82q6 -78 49 -120t112 -42q121 0 121 88q0 45 -29.5 72t-109.5 49q-127 35 -187.5 104.5t-60.5 179.5q0 106 53.5 178t139.5 104t198 32q175 0 265 -69t90 -195l-234 -54q0 62 -35.5 96.5t-103.5 34.5q-50 0 -80.5 -23.5t-30.5 -62.5q0 -37 29.5 -58.5
t126.5 -55.5q137 -46 191.5 -113t54.5 -190q0 -154 -111.5 -229t-300.5 -75q-164 0 -263 65.5t-112 201.5zM668 1077h-250l145 314h344z" />
    <glyph glyph-name="Scircumflex" unicode="&#x15c;" horiz-adv-x="1060" 
d="M25 283l254 96q2 -90 53.5 -143.5t140.5 -53.5q178 0 178 137q0 60 -37 95.5t-133 66.5q-166 54 -237.5 138.5t-71.5 222.5q0 104 40.5 182t108 121.5t144.5 64.5t162 21q196 0 300 -79.5t111 -252.5l-272 -53q4 77 -41 118.5t-121 41.5q-75 0 -116.5 -34.5t-41.5 -99.5
q0 -55 37.5 -84t141.5 -65q168 -57 239.5 -138.5t71.5 -226.5q0 -84 -26.5 -150t-71.5 -109t-108.5 -71.5t-133.5 -40.5t-150 -12q-186 0 -296.5 75.5t-124.5 232.5zM604 1622h174l223 -297h-249l-50 64q-13 16 -20.5 31.5t-8.5 22.5l-1 7h-8q-11 -24 -54 -61l-73 -64h-261z
" />
    <glyph glyph-name="scircumflex" unicode="&#x15d;" horiz-adv-x="897" 
d="M8 242l228 82q6 -78 49 -120t112 -42q121 0 121 88q0 45 -29.5 72t-109.5 49q-127 35 -187.5 104.5t-60.5 179.5q0 106 53.5 178t139.5 104t198 32q175 0 265 -69t90 -195l-234 -54q0 62 -35.5 96.5t-103.5 34.5q-50 0 -80.5 -23.5t-30.5 -62.5q0 -37 29.5 -58.5
t126.5 -55.5q137 -46 191.5 -113t54.5 -190q0 -154 -111.5 -229t-300.5 -75q-164 0 -263 65.5t-112 201.5zM516 1399h174l219 -326h-247l-52 70q-14 19 -21 36t-7 24v7h-11q-6 -24 -53 -67l-76 -70h-258z" />
    <glyph glyph-name="Scedilla" unicode="&#x15e;" horiz-adv-x="1060" 
d="M598 -242q0 -93 -67 -141.5t-171 -48.5q-70 0 -127.5 20.5t-87.5 53.5l52 131q63 -72 129 -72q67 0 67 53q0 34 -22.5 53.5t-73.5 28.5l55 146q-145 16 -230 90t-97 211l254 96q2 -90 53.5 -143.5t140.5 -53.5q178 0 178 137q0 60 -37 95.5t-133 66.5
q-166 54 -237.5 138.5t-71.5 222.5q0 104 40.5 182t108 121.5t144.5 64.5t162 21q196 0 300 -79.5t111 -252.5l-272 -53q4 77 -41 118.5t-121 41.5q-75 0 -116.5 -34.5t-41.5 -99.5q0 -55 37.5 -84t141.5 -65q168 -57 239.5 -138.5t71.5 -226.5q0 -83 -25.5 -148.5
t-69 -108.5t-105 -71.5t-130 -41t-147.5 -13.5l-23 -49q84 -14 123 -53t39 -115z" />
    <glyph glyph-name="scedilla" unicode="&#x15f;" horiz-adv-x="897" 
d="M539 -242q0 -93 -67 -141.5t-171 -48.5q-70 0 -127.5 20.5t-87.5 53.5l51 131q63 -72 129 -72q68 0 68 53q0 34 -22.5 53.5t-73.5 28.5l57 146q-127 16 -202 80t-85 180l228 82q6 -78 49 -120t112 -42q121 0 121 88q0 45 -29.5 72t-109.5 49q-127 35 -187.5 104.5
t-60.5 179.5q0 106 53.5 178t139.5 104t198 32q175 0 265 -69t90 -195l-234 -54q0 62 -35.5 96.5t-103.5 34.5q-50 0 -80.5 -23.5t-30.5 -62.5q0 -37 29.5 -58.5t126.5 -55.5q137 -46 191.5 -113t54.5 -190q0 -133 -84 -206t-230 -91q-6 0 -36 -3.5t-46 -3.5l-22 -49
q84 -14 123 -53t39 -115z" />
    <glyph glyph-name="Scaron" unicode="&#x160;" horiz-adv-x="1060" 
d="M25 283l254 96q2 -90 53.5 -143.5t140.5 -53.5q178 0 178 137q0 60 -37 95.5t-133 66.5q-166 54 -237.5 138.5t-71.5 222.5q0 104 40.5 182t108 121.5t144.5 64.5t162 21q196 0 300 -79.5t111 -252.5l-272 -53q4 77 -41 118.5t-121 41.5q-75 0 -116.5 -34.5t-41.5 -99.5
q0 -55 37.5 -84t141.5 -65q168 -57 239.5 -138.5t71.5 -226.5q0 -84 -26.5 -150t-71.5 -109t-108.5 -71.5t-133.5 -40.5t-150 -12q-186 0 -296.5 75.5t-124.5 232.5zM735 1325h-174l-223 297h250l51 -63q13 -16 20 -31.5t8 -23.5l1 -7h10q8 25 51 62l74 63h262z" />
    <glyph glyph-name="scaron" unicode="&#x161;" horiz-adv-x="897" 
d="M8 242l228 82q6 -78 49 -120t112 -42q121 0 121 88q0 45 -29.5 72t-109.5 49q-127 35 -187.5 104.5t-60.5 179.5q0 106 53.5 178t139.5 104t198 32q175 0 265 -69t90 -195l-234 -54q0 62 -35.5 96.5t-103.5 34.5q-50 0 -80.5 -23.5t-30.5 -62.5q0 -37 29.5 -58.5
t126.5 -55.5q137 -46 191.5 -113t54.5 -190q0 -154 -111.5 -229t-300.5 -75q-164 0 -263 65.5t-112 201.5zM633 1073h-174l-219 326h245l54 -72q14 -19 21 -36t7 -24v-7h11q6 24 53 67l76 72h258z" />
    <glyph glyph-name="Tcommaaccent" unicode="&#x162;" horiz-adv-x="1030" 
d="M567 0h-280l170 965h-330l43 241h942l-41 -241h-336zM549 -279q0 -121 -88 -182t-232 -61v92q162 4 162 78q-60 -9 -100.5 20.5t-40.5 91.5q0 65 39.5 99.5t101.5 34.5q72 0 115 -45.5t43 -127.5z" />
    <glyph glyph-name="tcommaaccent" unicode="&#x163;" horiz-adv-x="735" 
d="M629 264v-231q-44 -26 -113 -42t-139 -16q-327 0 -266 349l73 411h-135l37 211h137l35 201l283 33l-39 -234h246l-37 -211h-246l-74 -409q-19 -109 78 -109q81 0 160 47zM459 -279q0 -121 -88 -182t-232 -61v92q162 4 162 78q-60 -9 -100.5 20.5t-40.5 91.5
q0 65 39.5 99.5t101.5 34.5q73 0 115.5 -45.5t42.5 -127.5z" />
    <glyph glyph-name="Tcaron" unicode="&#x164;" horiz-adv-x="1030" 
d="M567 0h-280l170 965h-330l43 241h942l-41 -241h-336zM741 1325h-174l-223 297h250l51 -63q13 -16 20 -31.5t8 -23.5l1 -7h10q8 25 51 62l74 63h262z" />
    <glyph glyph-name="tcaron" unicode="&#x165;" horiz-adv-x="735" 
d="M629 264v-231q-44 -26 -113 -42t-139 -16q-327 0 -266 349l73 411h-135l37 211h137l35 201l283 33l-39 -234h246l-37 -211h-246l-74 -409q-19 -109 78 -109q81 0 160 47zM918 1438l-119 -400h-197l33 400h283z" />
    <glyph glyph-name="Tbar" unicode="&#x166;" horiz-adv-x="1030" 
d="M567 0h-280l80 453h-199l39 223h199l51 289h-330l43 241h942l-41 -241h-336l-49 -289h217l-39 -223h-217z" />
    <glyph glyph-name="tbar" unicode="&#x167;" horiz-adv-x="788" 
d="M37 416l35 200h133l20 119h-133l37 211h135l35 201l283 33l-39 -234h245l-36 -211h-246l-21 -119h248l-35 -200h-249l-15 -90q-21 -109 78 -109q82 0 158 47v-231q-44 -26 -113 -42t-139 -16q-325 0 -264 349l14 92h-131z" />
    <glyph glyph-name="Utilde" unicode="&#x168;" horiz-adv-x="1251" 
d="M967 1206h282l-139 -788q-22 -125 -70.5 -213t-123 -137.5t-163 -71t-202.5 -21.5q-108 0 -193 26t-149.5 82t-89 155t-0.5 233l131 735h280l-129 -725q-24 -136 18.5 -205t170.5 -69q64 0 108 17.5t71.5 55.5t43 84t27.5 117zM899 1329q-38 0 -67.5 7t-45.5 16t-45 28
l-24 15t-21.5 13.5t-16.5 9.5t-17 8t-14.5 4t-16.5 2q-32 0 -55.5 -28.5t-24.5 -78.5h-152q-33 138 36.5 230t187.5 92q33 0 61 -8t41.5 -15.5t40.5 -24.5q69 -46 91 -53q13 -4 26 -4q66 0 71 98h158q35 -138 -26.5 -224.5t-186.5 -86.5z" />
    <glyph glyph-name="utilde" unicode="&#x169;" horiz-adv-x="1138" 
d="M668 182q-44 -108 -119.5 -157.5t-194.5 -49.5q-151 0 -220 96t-40 265l109 610h278l-108 -622q-10 -72 15.5 -109t84.5 -37q73 0 126 53.5t71 167.5l98 547h279l-113 -649q-7 -39 3.5 -61.5t49.5 -22.5q29 0 62 8l-43 -207q-81 -24 -150 -24q-102 0 -148 47.5t-40 144.5
zM795 1067q-39 0 -69 8t-45 16.5t-46 28.5q-65 42 -86 48q-11 3 -23 3q-34 0 -56.5 -27.5t-23.5 -78.5h-153q-31 137 37.5 228t185.5 91q49 0 79 -11t64 -34q69 -46 91 -53q13 -4 26 -4q67 0 72 98h158q36 -139 -25 -226t-186 -87z" />
    <glyph glyph-name="Umacron" unicode="&#x16a;" horiz-adv-x="1251" 
d="M967 1206h282l-139 -788q-22 -125 -70.5 -213t-123 -137.5t-163 -71t-202.5 -21.5q-108 0 -193 26t-149.5 82t-89 155t-0.5 233l131 735h280l-129 -725q-24 -136 18.5 -205t170.5 -69q64 0 108 17.5t71.5 55.5t43 84t27.5 117zM1077 1360h-618l39 221h616z" />
    <glyph glyph-name="umacron" unicode="&#x16b;" horiz-adv-x="1138" 
d="M668 182q-44 -108 -119.5 -157.5t-194.5 -49.5q-151 0 -220 96t-40 265l109 610h278l-108 -622q-10 -72 15.5 -109t84.5 -37q73 0 126 53.5t71 167.5l98 547h279l-113 -649q-7 -39 3.5 -61.5t49.5 -22.5q29 0 62 8l-43 -207q-81 -24 -150 -24q-102 0 -148 47.5t-40 144.5
zM944 1104h-602l41 221h602z" />
    <glyph glyph-name="Ubreve" unicode="&#x16c;" horiz-adv-x="1251" 
d="M967 1206h282l-139 -788q-22 -125 -70.5 -213t-123 -137.5t-163 -71t-202.5 -21.5q-108 0 -193 26t-149.5 82t-89 155t-0.5 233l131 735h280l-129 -725q-24 -136 18.5 -205t170.5 -69q64 0 108 17.5t71.5 55.5t43 84t27.5 117zM754 1315q-156 0 -217.5 81t-34.5 224h203
q-9 -58 9 -85.5t74 -27.5q58 0 85 27t38 86h205q-27 -144 -116.5 -224.5t-245.5 -80.5z" />
    <glyph glyph-name="ubreve" unicode="&#x16d;" horiz-adv-x="1138" 
d="M668 182q-44 -108 -119.5 -157.5t-194.5 -49.5q-151 0 -220 96t-40 265l109 610h278l-108 -622q-10 -72 15.5 -109t84.5 -37q73 0 126 53.5t71 167.5l98 547h279l-113 -649q-7 -39 3.5 -61.5t49.5 -22.5q29 0 62 8l-43 -207q-81 -24 -150 -24q-102 0 -148 47.5t-40 144.5
zM635 1065q-104 0 -167 44.5t-81.5 115.5t-1.5 164h203q-10 -65 5 -96t75 -31q62 0 89 31t40 96h202q-26 -144 -118.5 -234t-245.5 -90z" />
    <glyph glyph-name="Uring" unicode="&#x16e;" horiz-adv-x="1251" 
d="M967 1206h282l-139 -788q-22 -125 -70.5 -213t-123 -137.5t-163 -71t-202.5 -21.5q-108 0 -193 26t-149.5 82t-89 155t-0.5 233l131 735h280l-129 -725q-24 -136 18.5 -205t170.5 -69q64 0 108 17.5t71.5 55.5t43 84t27.5 117zM567 1497q0 102 68.5 173t179.5 71
q93 0 151 -59t58 -146q0 -104 -68.5 -175t-175.5 -71q-102 0 -157.5 57t-55.5 150zM807 1618q-46 0 -74 -33t-28 -80q0 -40 22 -63t61 -23q48 0 75.5 32.5t27.5 80.5q0 38 -22 62t-62 24z" />
    <glyph glyph-name="uring" unicode="&#x16f;" horiz-adv-x="1138" 
d="M668 182q-44 -108 -119.5 -157.5t-194.5 -49.5q-151 0 -220 96t-40 265l109 610h278l-108 -622q-10 -72 15.5 -109t84.5 -37q73 0 126 53.5t71 167.5l98 547h279l-113 -649q-7 -39 3.5 -61.5t49.5 -22.5q29 0 62 8l-43 -207q-81 -24 -150 -24q-102 0 -148 47.5t-40 144.5
zM442 1245q0 101 69.5 172.5t180.5 71.5q93 0 150 -59t57 -146q0 -104 -68.5 -175t-175.5 -71q-102 0 -157.5 57t-55.5 150zM682 1364q-45 0 -73.5 -32t-28.5 -79q0 -40 22.5 -64t63.5 -24q47 0 74.5 33.5t27.5 81.5q0 38 -23 61t-63 23z" />
    <glyph glyph-name="Uhungarumlaut" unicode="&#x170;" horiz-adv-x="1251" 
d="M967 1206h282l-139 -788q-22 -125 -70.5 -213t-123 -137.5t-163 -71t-202.5 -21.5q-108 0 -193 26t-149.5 82t-89 155t-0.5 233l131 735h280l-129 -725q-24 -136 18.5 -205t170.5 -69q64 0 108 17.5t71.5 55.5t43 84t27.5 117zM668 1325h-195l109 293h288zM1026 1325
h-213l143 293h310z" />
    <glyph glyph-name="uhungarumlaut" unicode="&#x171;" horiz-adv-x="1138" 
d="M668 182q-44 -108 -119.5 -157.5t-194.5 -49.5q-151 0 -220 96t-40 265l109 610h278l-108 -622q-10 -72 15.5 -109t84.5 -37q73 0 126 53.5t71 167.5l98 547h279l-113 -649q-7 -39 3.5 -61.5t49.5 -22.5q29 0 62 8l-43 -207q-81 -24 -150 -24q-102 0 -148 47.5t-40 144.5
zM545 1077h-195l109 314h289zM903 1077h-213l144 314h309z" />
    <glyph glyph-name="Uogonek" unicode="&#x172;" horiz-adv-x="1253" 
d="M326 -221q0 119 90 209q-80 14 -140.5 47.5t-104 92.5t-55 143t6.5 200l129 735h283l-132 -725q-23 -136 20 -205t171 -69q63 0 107 17.5t71 55t42.5 84t27.5 117.5l129 725h280l-137 -788q-40 -219 -158 -321.5t-311 -116.5q-47 -25 -72.5 -64.5t-25.5 -87.5
q0 -39 20 -60.5t56 -21.5q37 0 64 13.5t58 45.5l60 -139q-88 -98 -240 -98q-106 0 -172.5 53t-66.5 158z" />
    <glyph glyph-name="uogonek" unicode="&#x173;" horiz-adv-x="1138" 
d="M1047 946l-113 -649q-7 -40 3 -62t52 -22q29 0 62 8l-43 -207q-128 -26 -173 -45q-106 -46 -106 -141q0 -39 20 -60.5t56 -21.5t63 13t58 46l59 -139q-85 -98 -240 -98q-105 0 -171 53t-66 158q0 86 57 154t140 108q-50 50 -37 141q-44 -108 -119.5 -157.5t-194.5 -49.5
q-151 0 -220 96t-40 265l109 610h278l-108 -622q-10 -72 15.5 -109t84.5 -37q73 0 126 53.5t71 167.5l98 547h279z" />
    <glyph glyph-name="Wcircumflex" unicode="&#x174;" horiz-adv-x="1771" 
d="M1176 1206l32 -663q3 -89 2 -165t-4 -126l-4 -51h8q44 172 107 340l248 665h293l-472 -1206h-399l-41 596q-5 73 -5 153.5t3 124.5l2 44h-8q-28 -152 -98 -324l-240 -594h-385l-43 1206h287l16 -663q2 -89 1 -165t-4 -126l-3 -51h8q39 172 105 340l260 665h334zM954 1622
h174l222 -297h-248l-51 64q-13 16 -20.5 31.5t-8.5 22.5l-2 7h-8q-10 -24 -51 -61l-76 -64h-260z" />
    <glyph glyph-name="wcircumflex" unicode="&#x175;" horiz-adv-x="1447" 
d="M922 946l30 -391q9 -98 8 -177t-6 -129l-6 -50h8q33 162 111 352l162 395h293l-412 -946h-326l-41 338q-5 79 -4 146.5t5 113.5l4 45h-9q-32 -151 -100 -307l-135 -336h-324l-94 946h281l30 -393q6 -84 6.5 -172.5t-1.5 -134.5l-3 -47h9q30 166 110 356l162 391h242z
M780 1399h172l222 -326h-248l-54 70q-14 19 -20.5 36t-5.5 24v7h-10q-7 -24 -54 -67l-75 -70h-258z" />
    <glyph glyph-name="Ycircumflex" unicode="&#x176;" horiz-adv-x="1112" 
d="M436 1206l90 -286q23 -72 36.5 -145.5t15.5 -111.5l2 -38h8q4 15 13 42t45.5 104.5t82.5 146.5l189 288h299l-525 -805l-67 -401h-283l70 401l-271 805h295zM651 1622h174l224 -297h-250l-49 64q-13 16 -20.5 31.5t-9.5 22.5l-1 7h-8q-11 -24 -54 -61l-73 -64h-260z" />
    <glyph glyph-name="ycircumflex" unicode="&#x177;" horiz-adv-x="962" 
d="M367 946l41 -477q7 -75 7.5 -144.5t-2.5 -102.5l-3 -32h8q30 148 102 287l246 469h291l-574 -1038q-58 -106 -114 -175.5t-114.5 -104.5t-111.5 -47.5t-123 -12.5q-106 0 -186 39l78 225q64 -39 119 -39q64 0 113 37.5t92 116.5l-156 999h287zM528 1399h172l222 -326
h-248l-53 70q-14 19 -20.5 36t-6.5 24v7h-10q-7 -24 -54 -67l-75 -70h-258z" />
    <glyph glyph-name="Ydieresis" unicode="&#x178;" horiz-adv-x="1112" 
d="M436 1206l90 -286q23 -72 36.5 -145.5t15.5 -111.5l2 -38h8q4 15 13 42t45.5 104.5t82.5 146.5l189 288h299l-525 -805l-67 -401h-283l70 401l-271 805h295zM344 1481q0 73 43.5 113t108.5 40q70 0 113.5 -39.5t43.5 -113.5q0 -72 -44 -113t-113 -41q-64 0 -108 41.5
t-44 112.5zM791 1481q0 73 43 113t108 40q70 0 113 -39.5t43 -113.5q0 -73 -43 -113.5t-113 -40.5q-64 0 -107.5 41t-43.5 113z" />
    <glyph glyph-name="Zacute" unicode="&#x179;" horiz-adv-x="1116" 
d="M45 201l557 633q38 43 76.5 77.5t57.5 48.5l20 13v8q-72 -16 -178 -16h-383l41 241h911l-41 -194l-574 -639q-38 -43 -76.5 -78t-57.5 -49l-19 -13v-8q72 17 178 17h432l-41 -242h-940zM815 1325h-252l133 293h344z" />
    <glyph glyph-name="zacute" unicode="&#x17a;" horiz-adv-x="937" 
d="M37 152l383 446q38 44 77 78.5t59 47.5l19 13v8q-74 -16 -180 -16h-239l47 217h731l-21 -166l-395 -436q-38 -43 -76.5 -77.5t-57.5 -48.5l-19 -13v-8q72 16 178 16h274l-39 -213h-766zM680 1077h-248l143 314h345z" />
    <glyph glyph-name="Zdotaccent" unicode="&#x17b;" horiz-adv-x="1116" 
d="M45 201l557 633q38 43 76.5 77.5t57.5 48.5l20 13v8q-72 -16 -178 -16h-383l41 241h911l-41 -194l-574 -639q-38 -43 -76.5 -78t-57.5 -49l-19 -13v-8q72 17 178 17h432l-41 -242h-940zM563 1497q0 75 47 117.5t119 42.5q75 0 122.5 -42t47.5 -118q0 -73 -48 -114.5
t-122 -41.5q-72 0 -119 41.5t-47 114.5z" />
    <glyph glyph-name="zdotaccent" unicode="&#x17c;" horiz-adv-x="937" 
d="M37 152l383 446q38 44 77 78.5t59 47.5l19 13v8q-74 -16 -180 -16h-239l47 217h731l-21 -166l-395 -436q-38 -43 -76.5 -77.5t-57.5 -48.5l-19 -13v-8q72 16 178 16h274l-39 -213h-766zM422 1225q0 75 47.5 117t118.5 42q77 0 124.5 -41.5t47.5 -117.5
q0 -73 -47.5 -114.5t-124.5 -41.5q-71 0 -118.5 42t-47.5 114z" />
    <glyph glyph-name="Zcaron" unicode="&#x17d;" horiz-adv-x="1116" 
d="M45 201l557 633q38 43 76.5 77.5t57.5 48.5l20 13v8q-72 -16 -178 -16h-383l41 241h911l-41 -194l-574 -639q-38 -43 -76.5 -78t-57.5 -49l-19 -13v-8q72 17 178 17h432l-41 -242h-940zM778 1325h-174l-223 297h250l49 -63q13 -16 20.5 -31.5t9.5 -23.5l1 -7h8
q10 25 53 62l74 63h260z" />
    <glyph glyph-name="zcaron" unicode="&#x17e;" horiz-adv-x="937" 
d="M37 152l383 446q38 44 77 78.5t59 47.5l19 13v8q-74 -16 -180 -16h-239l47 217h731l-21 -166l-395 -436q-38 -43 -76.5 -77.5t-57.5 -48.5l-19 -13v-8q72 16 178 16h274l-39 -213h-766zM645 1073h-174l-219 326h248l51 -72q14 -19 21 -36t8 -24v-7h10q6 24 53 67l76 72
h258z" />
    <glyph glyph-name="Schwa" unicode="&#x18f;" horiz-adv-x="1245" 
d="M657 979q-91 0 -148.5 -46.5t-80.5 -127.5l-266 78q111 348 524 348q226 0 357 -139t131 -375q0 -175 -48 -317.5t-131 -234t-192 -141t-234 -49.5q-121 0 -213 36t-145.5 98.5t-80 138t-26.5 162.5q0 141 50 254h716q14 136 -41.5 225.5t-171.5 89.5zM842 475h-445
q0 -1 -4 -30t-4 -44q0 -90 42 -145t132 -55q108 0 179.5 72.5t99.5 201.5z" />
    <glyph glyph-name="florin" unicode="&#x192;" horiz-adv-x="958" 
d="M25 -248l159 512h-137l53 209h142l57 191q107 346 442 346q83 0 162.5 -31t130.5 -100l-182 -205q-45 98 -135 98q-57 0 -90 -33.5t-56 -105.5l-51 -160h240l-51 -209h-246l-162 -512h-276z" />
    <glyph glyph-name="Khook" unicode="&#x198;" horiz-adv-x="1175" 
d="M764 608l313 -608h-321l-240 492h-82l-86 -492h-282l210 1206h283l-84 -475h72l151 266q73 124 144 179t184 55q94 0 151 -39.5t95 -116.5l-156 -186q-36 61 -84 61q-26 0 -48 -21t-56 -71z" />
    <glyph glyph-name="khook" unicode="&#x199;" horiz-adv-x="1075" 
d="M526 1032l-73 -416h47l295 330h335l-411 -436l121 -234q27 -52 66 -62t102 11l-43 -215q-68 -20 -146 -20q-75 0 -128 31.5t-89 111.5l-123 275h-63l-72 -408h-278l180 1032q31 180 140.5 266t268.5 86q141 0 254 -55l-84 -225q-73 51 -159 51q-118 0 -140 -123z" />
    <glyph glyph-name="Ezh" unicode="&#x1b7;" horiz-adv-x="1036" 
d="M508 965h-363l43 241h865l-33 -194l-451 -482l-2 -6q91 -10 158 -46t103 -90t52.5 -112t16.5 -122q0 -125 -43 -225t-118.5 -164t-174 -98t-211.5 -34q-219 0 -338.5 95t-120.5 274l230 115q1 -134 63.5 -202.5t173.5 -68.5q115 0 187.5 70.5t72.5 204.5q0 240 -352 250
l33 188l233 275q37 44 75.5 79t58.5 47l20 13v8q-72 -16 -178 -16z" />
    <glyph glyph-name="Acaron" unicode="&#x1cd;" horiz-adv-x="1294" 
d="M883 0l-47 252h-457l-129 -252h-299l647 1206h344l229 -1206h-288zM852 1325h-174l-223 297h250l49 -63q14 -16 21.5 -31.5t8.5 -23.5v-7h11q-19 0 94 99q15 13 31 26h262zM571 621l-73 -138h297q-23 114 -39 237.5t-21 193t-2 69.5h-8q-54 -167 -154 -362z" />
    <glyph glyph-name="acaron" unicode="&#x1ce;" 
d="M676 393l31 158q15 88 -12 148.5t-101 60.5q-111 0 -175.5 -112.5t-64.5 -268.5q0 -87 35.5 -142t102.5 -55q76 0 122 57.5t62 153.5zM1053 946l-113 -649q-7 -39 4 -61.5t53 -22.5q27 0 60 8l-43 -207q-81 -24 -150 -24q-103 0 -155.5 40t-61.5 130q-32 -95 -102.5 -140
t-165.5 -45q-150 0 -231.5 103t-81.5 284q0 164 52.5 301t156 221.5t239.5 84.5q217 0 234 -181l57 158h248zM717 1073h-172l-219 326h245l54 -72q14 -19 21 -36t7 -24v-7h9q8 24 55 67l74 72h260z" />
    <glyph glyph-name="Icaron" unicode="&#x1cf;" horiz-adv-x="581" 
d="M276 1206h283l-211 -1206h-282zM514 1325h-174l-221 297h248l51 -63q13 -16 20.5 -31.5t9.5 -23.5l1 -7h8q10 25 51 62l76 63h260z" />
    <glyph glyph-name="icaron" unicode="&#x1d0;" horiz-adv-x="579" 
d="M442 1073h-172l-221 326h248l51 -72q14 -19 21 -36t7 -24l1 -7h10q6 24 53 67l76 72h258zM487 946l-112 -649q-7 -40 3 -62t52 -22q29 0 62 8l-43 -207q-81 -24 -150 -24q-258 0 -213 262l123 694h278z" />
    <glyph glyph-name="Ocaron" unicode="&#x1d1;" horiz-adv-x="1306" 
d="M602 -25q-239 0 -368.5 134.5t-129.5 367.5q0 173 50.5 316.5t137.5 238.5t202 147t245 52q240 0 368 -134.5t128 -369.5q0 -173 -50.5 -316.5t-137 -238t-201.5 -146t-244 -51.5zM719 987q-100 0 -176 -67.5t-114 -178t-38 -245.5t60 -209t165 -74q97 0 172 67.5
t114.5 180.5t39.5 250q0 128 -59 202t-164 74zM852 1325h-174l-221 297h248l51 -63q13 -16 20.5 -31.5t8.5 -23.5l1 -7h9q10 25 51 62l76 63h260z" />
    <glyph glyph-name="ocaron" unicode="&#x1d2;" horiz-adv-x="1081" 
d="M594 969q197 0 309.5 -110t112.5 -308q0 -92 -20.5 -176.5t-63.5 -157.5t-104 -126.5t-147.5 -84.5t-188.5 -31q-190 0 -308 104.5t-118 297.5q0 95 20.5 181.5t63.5 162t104 130.5t148.5 86.5t191.5 31.5zM573 750q-97 0 -155 -104.5t-58 -262.5q0 -97 38.5 -147
t107.5 -50q100 0 158.5 104t58.5 265q0 94 -39.5 144.5t-110.5 50.5zM690 1073h-174l-219 326h248l51 -72q14 -19 21 -36t7 -24l1 -7h10q6 24 53 67l76 72h258z" />
    <glyph glyph-name="Ucaron" unicode="&#x1d3;" horiz-adv-x="1251" 
d="M967 1206h282l-139 -788q-22 -125 -70.5 -213t-123 -137.5t-163 -71t-202.5 -21.5q-108 0 -193 26t-149.5 82t-89 155t-0.5 233l131 735h280l-129 -725q-24 -136 18.5 -205t170.5 -69q64 0 108 17.5t71.5 55.5t43 84t27.5 117zM838 1325h-174l-224 297h250l49 -63
q13 -16 20.5 -31.5t8.5 -23.5l2 -7h8q10 25 53 62l74 63h260z" />
    <glyph glyph-name="ucaron" unicode="&#x1d4;" horiz-adv-x="1138" 
d="M668 182q-44 -108 -119.5 -157.5t-194.5 -49.5q-151 0 -220 96t-40 265l109 610h278l-108 -622q-10 -72 15.5 -109t84.5 -37q73 0 126 53.5t71 167.5l98 547h279l-113 -649q-7 -39 3.5 -61.5t49.5 -22.5q29 0 62 8l-43 -207q-81 -24 -150 -24q-102 0 -148 47.5t-40 144.5
zM715 1073h-172l-221 326h247l54 -72q14 -19 20.5 -36t6.5 -24l-1 -7h10q7 24 54 67l75 72h259z" />
    <glyph glyph-name="uni01D9" unicode="&#x1d9;" horiz-adv-x="1251" 
d="M967 1206h282l-139 -788q-22 -125 -70.5 -213t-123 -137.5t-163 -71t-202.5 -21.5q-108 0 -193 26t-149.5 82t-89 155t-0.5 233l131 735h280l-129 -725q-26 -135 17 -204.5t172 -69.5q64 0 108 17.5t71.5 55.5t42.5 84t28 117zM399 1419q0 74 43 114t109 40
q69 0 112.5 -40t43.5 -114q0 -71 -44 -112t-112 -41q-65 0 -108.5 41t-43.5 112zM844 1419q0 73 43 113.5t108 40.5q70 0 114 -40t44 -114q0 -73 -44 -113t-114 -40q-65 0 -108 40.5t-43 112.5zM881 1587h-176l-222 297h250l49 -63q13 -16 20.5 -31.5t9.5 -23.5l1 -7h8
q10 25 51 62l76 63h260z" />
    <glyph glyph-name="uni01DA" unicode="&#x1da;" horiz-adv-x="1138" 
d="M668 182q-44 -108 -119.5 -157.5t-194.5 -49.5q-151 0 -220 96t-40 265l109 610h278l-108 -622q-10 -72 15.5 -109t84.5 -37q73 0 126 53.5t71 167.5l98 547h279l-113 -649q-7 -39 3.5 -61.5t49.5 -22.5q29 0 62 8l-43 -207q-81 -24 -150 -24q-102 0 -148 47.5t-40 144.5
zM272 1157q0 74 43 115t109 41q69 0 112.5 -41t43.5 -115q0 -71 -44 -112t-112 -41q-65 0 -108.5 41t-43.5 112zM717 1157q0 73 43 113.5t108 40.5q70 0 114 -40t44 -114q0 -72 -44 -112.5t-114 -40.5q-64 0 -107.5 41t-43.5 112zM754 1325h-176l-222 297h250l49 -63
q13 -16 20.5 -31.5t8.5 -23.5l2 -7h8q10 25 51 62l76 63h260z" />
    <glyph glyph-name="uni004100A800AF" unicode="&#x1de;" horiz-adv-x="1294" 
d="M883 0l-47 252h-457l-129 -252h-299l647 1206h344l229 -1206h-288zM1145 1634h-617l39 221h617zM416 1415q0 74 43 115t108 41q69 0 112.5 -41t43.5 -115q0 -71 -44 -112t-112 -41q-64 0 -107.5 41t-43.5 112zM862 1415q0 74 43 115t109 41q68 0 111.5 -41t43.5 -115
q0 -72 -43.5 -112.5t-111.5 -40.5q-65 0 -108.5 41t-43.5 112zM571 621l-73 -138h297q-23 114 -39 237.5t-21 193t-2 69.5h-8q-54 -167 -154 -362z" />
    <glyph glyph-name="adieresismacron" unicode="&#x1df;" 
d="M676 393l31 158q15 88 -12 148.5t-101 60.5q-111 0 -175.5 -112.5t-64.5 -268.5q0 -87 35.5 -142t102.5 -55q76 0 122 57.5t62 153.5zM1053 946l-113 -649q-7 -39 4 -61.5t53 -22.5q27 0 60 8l-43 -207q-81 -24 -150 -24q-103 0 -155.5 40t-61.5 130q-32 -95 -102.5 -140
t-165.5 -45q-150 0 -231.5 103t-81.5 284q0 164 52.5 301t156 221.5t239.5 84.5q217 0 234 -181l57 158h248zM1014 1432h-602l41 221h602zM289 1188q0 74 42.5 114.5t108.5 40.5q69 0 112.5 -40.5t43.5 -114.5q0 -72 -44 -113t-112 -41q-65 0 -108 41.5t-43 112.5zM733 1188
q0 73 43.5 114t108.5 41q70 0 113.5 -40.5t43.5 -114.5q0 -72 -44 -113t-113 -41q-64 0 -108 41.5t-44 112.5z" />
    <glyph glyph-name="AEmacron" unicode="&#x1e2;" horiz-adv-x="1861" 
d="M864 0l43 252h-444l-195 -252h-317l940 1206h993l-43 -241h-528l-41 -240h465l-41 -231h-465l-45 -252h528l-41 -242h-809zM1647 1360h-619l39 221h616zM1040 997l-399 -514h307l45 258q15 88 29 152t20 84l7 20h-9z" />
    <glyph glyph-name="aemacron" unicode="&#x1e3;" horiz-adv-x="1527" 
d="M1020 186q121 0 158 127l260 -61q-43 -145 -148 -211t-291 -66q-225 0 -335 144q-39 -66 -124 -105t-200 -39q-139 0 -216 64.5t-77 179.5q0 166 140.5 253.5t416.5 84.5q8 41 29 92q3 113 -96 113q-58 0 -96.5 -36.5t-45.5 -102.5l-264 51q36 146 151.5 220.5
t284.5 74.5q180 0 254 -86q128 86 275 86q96 0 172 -28.5t122 -77t69.5 -108.5t23.5 -128q0 -127 -43 -209h-561q-13 -95 22.5 -163.5t118.5 -68.5zM1178 1104h-603l41 221h603zM897 557h297q10 30 10 70q0 62 -29 100.5t-92 38.5q-70 0 -118 -55t-68 -154zM584 377v41
q-121 -5 -185.5 -43.5t-64.5 -110.5q0 -90 92 -90q52 0 98.5 19t73.5 55q-14 72 -14 129z" />
    <glyph glyph-name="Gstroke" unicode="&#x1e4;" horiz-adv-x="1327" 
d="M696 682h518l-40 -240h112l-24 -147h-115l-51 -295h-170l-25 147q-88 -172 -323 -172q-224 0 -349 133.5t-125 368.5q0 173 50.5 316.5t137.5 238.5t202 147t245 52q208 0 321.5 -94t139.5 -256l-291 -97q-10 97 -53.5 149t-136.5 52q-101 0 -176.5 -67t-113.5 -177.5
t-38 -246.5q0 -139 66.5 -219t195.5 -80q85 0 135 23.5t84 76.5h-245l24 147h250l17 84h-248z" />
    <glyph glyph-name="gstroke" unicode="&#x1e5;" horiz-adv-x="1095" 
d="M1063 946l-168 -950l-12 -62h125l-13 -71h-135q-57 -150 -182 -222.5t-324 -72.5q-349 0 -432 229l209 146q17 -73 80.5 -118.5t148.5 -45.5q128 0 193 84h-234l13 71h264q16 39 29 95l26 141q-60 -178 -268 -178q-150 0 -231.5 103t-81.5 284q0 164 52 296.5t156.5 213
t245.5 80.5q99 0 162 -45t70 -136l59 158h248zM690 410l27 141q7 55 2 101.5t-37 77t-88 30.5q-76 0 -130.5 -51.5t-80 -132.5t-25.5 -181q0 -86 35 -141t101 -55q161 0 196 211z" />
    <glyph glyph-name="Gcaron" unicode="&#x1e6;" horiz-adv-x="1300" 
d="M688 643h520l-112 -643h-170l-25 147q-88 -172 -323 -172q-224 0 -349 133.5t-125 368.5q0 173 50.5 316.5t137.5 238.5t202 147t245 52q208 0 321.5 -94t139.5 -256l-291 -97q-10 97 -53.5 149t-136.5 52q-101 0 -176.5 -67t-113.5 -177.5t-38 -246.5
q0 -138 64.5 -215.5t189.5 -77.5q101 0 166 48t80 138l6 35h-248zM860 1325h-174l-223 297h250l49 -63q13 -16 20.5 -31.5t9.5 -23.5l1 -7h8q10 25 53 62l74 63h260z" />
    <glyph glyph-name="gcaron" unicode="&#x1e7;" horiz-adv-x="1095" 
d="M690 410l27 141q7 55 2 101.5t-37 77t-88 30.5q-76 0 -130.5 -51.5t-80 -132.5t-25.5 -181q0 -86 35 -141t101 -55q161 0 196 211zM1063 946l-168 -950q-37 -219 -169.5 -323.5t-371.5 -104.5q-349 0 -432 229l209 146q17 -73 80.5 -118.5t148.5 -45.5q117 0 179.5 65
t85.5 185l26 141q-60 -178 -268 -178q-150 0 -231.5 103t-81.5 284q0 164 52 296.5t156.5 213t245.5 80.5q99 0 162 -45t70 -136l59 158h248zM702 1073h-174l-219 326h246l53 -72q14 -19 21 -36t7 -24l1 -7h10q6 24 53 67l76 72h258z" />
    <glyph glyph-name="Kcaron" unicode="&#x1e8;" horiz-adv-x="1175" 
d="M1077 0h-321l-240 492h-82l-86 -492h-282l210 1206h283l-84 -475h72l366 475h328l-477 -598zM799 1325h-176l-222 297h250l49 -63q13 -16 20.5 -31.5t9.5 -23.5l1 -7h8q11 25 52 62l75 63h260z" />
    <glyph glyph-name="kcaron" unicode="&#x1e9;" horiz-adv-x="1075" 
d="M602 133l-125 275h-61l-72 -408h-278l239 1368h281l-133 -752h47l295 330h335l-411 -436l121 -234q27 -52 66 -62t102 11l-43 -215q-68 -20 -146 -20q-75 0 -128.5 31.5t-88.5 111.5zM539 1434h-177l-221 297h250l49 -64q13 -16 20.5 -31.5t9.5 -22.5l1 -7h8q10 24 51 61
l76 64h260z" />
    <glyph glyph-name="Oogonek" unicode="&#x1ea;" horiz-adv-x="1306" 
d="M309 -221q0 131 105 223q-151 45 -230.5 169t-79.5 306q0 173 50.5 316.5t137.5 238.5t202 147t245 52q240 0 368 -134.5t128 -369.5q0 -169 -47.5 -309t-130 -234t-192 -148t-234.5 -59q-101 -50 -101 -149q0 -39 20 -60.5t56 -21.5t63 13t58 46l59 -139
q-85 -98 -239 -98q-105 0 -171.5 53t-66.5 158zM719 987q-100 0 -176 -67.5t-114 -178t-38 -245.5t60 -209t165 -74q97 0 172 67.5t114.5 180.5t39.5 250q0 128 -59 202t-164 74z" />
    <glyph glyph-name="oogonek" unicode="&#x1eb;" horiz-adv-x="1079" 
d="M217 -221q0 131 102 223q-119 38 -186 133.5t-67 241.5q0 95 20.5 181.5t63.5 162t104 130.5t148.5 86.5t191.5 31.5q197 0 309.5 -110t112.5 -308q0 -111 -30.5 -209.5t-88.5 -177.5t-151 -129t-209 -58q-99 -52 -99 -149q0 -39 20 -60.5t56 -21.5t63 13t58 46l59 -139
q-85 -98 -239 -98q-105 0 -171.5 53t-66.5 158zM573 750q-97 0 -155 -104.5t-58 -262.5q0 -97 38.5 -147t107.5 -50q100 0 158.5 104t58.5 265q0 94 -39.5 144.5t-110.5 50.5z" />
    <glyph glyph-name="uni004F02DB00AF" unicode="&#x1ec;" horiz-adv-x="1306" 
d="M1092 1360h-617l39 221h616zM309 -221q0 131 105 223q-151 45 -230.5 169t-79.5 306q0 173 50.5 316.5t137.5 238.5t202 147t245 52q240 0 368 -134.5t128 -369.5q0 -169 -47.5 -309t-130 -234t-192 -148t-234.5 -59q-101 -50 -101 -149q0 -39 20 -60.5t56 -21.5t63 13
t58 46l59 -139q-85 -98 -239 -98q-105 0 -171.5 53t-66.5 158zM719 987q-100 0 -176 -67.5t-114 -178t-38 -245.5t60 -209t165 -74q97 0 172 67.5t114.5 180.5t39.5 250q0 128 -59 202t-164 74z" />
    <glyph glyph-name="oogonekmacron" unicode="&#x1ed;" horiz-adv-x="1079" 
d="M920 1104h-605l41 221h602zM217 -221q0 131 102 223q-119 38 -186 133.5t-67 241.5q0 95 20.5 181.5t63.5 162t104 130.5t148.5 86.5t191.5 31.5q197 0 309.5 -110t112.5 -308q0 -111 -30.5 -209.5t-88.5 -177.5t-151 -129t-209 -58q-99 -52 -99 -149q0 -39 20 -60.5
t56 -21.5t63 13t58 46l59 -139q-85 -98 -239 -98q-105 0 -171.5 53t-66.5 158zM573 750q-97 0 -155 -104.5t-58 -262.5q0 -97 38.5 -147t107.5 -50q100 0 158.5 104t58.5 265q0 94 -39.5 144.5t-110.5 50.5z" />
    <glyph glyph-name="Ezhcaron" unicode="&#x1ee;" horiz-adv-x="1036" 
d="M508 965h-363l43 241h865l-33 -194l-451 -482l-2 -6q91 -10 158 -46t103 -90t52.5 -112t16.5 -122q0 -125 -43 -225t-118.5 -164t-174 -98t-211.5 -34q-219 0 -338.5 95t-120.5 274l230 115q1 -134 63.5 -202.5t173.5 -68.5q115 0 187.5 70.5t72.5 204.5q0 240 -352 250
l33 188l233 275q37 44 75.5 79t58.5 47l20 13v8q-72 -16 -178 -16zM709 1325h-177l-221 297h250l49 -63q13 -16 20.5 -31.5t9.5 -23.5l1 -7h8q10 25 51 62l76 63h260z" />
    <glyph glyph-name="ezhcaron" unicode="&#x1ef;" horiz-adv-x="872" 
d="M231 459l113 123q40 44 80 81t60 53l20 15v8q-62 -10 -168 -10h-232l37 217h727l-28 -172l-363 -354l-2 -6q140 -21 205 -108.5t65 -221.5q0 -127 -67.5 -219t-171 -135t-227.5 -43q-184 0 -272 72.5t-101 213.5l241 95q-7 -86 36 -131.5t118 -45.5q76 0 126 47.5
t50 129.5q0 42 -10 74t-37 64.5t-84 54t-143 30.5zM598 1073h-174l-219 326h246l53 -72q14 -19 21 -36t7 -24v-7h11q6 24 53 67l76 72h258z" />
    <glyph glyph-name="jcaron" unicode="&#x1f0;" horiz-adv-x="514" 
d="M444 1073h-174l-219 326h246l53 -72q14 -19 21 -36t7 -24l1 -7h10q6 24 53 67l76 72h258zM487 946l-188 -1071q-30 -169 -120.5 -238t-252.5 -69q-142 0 -237 57l75 203q67 -53 138 -53q54 0 83.5 31t43.5 118l180 1022h278z" />
    <glyph glyph-name="jcaron" unicode="&#xe10c;" horiz-adv-x="514" 
d="M444 1073h-174l-219 326h246l53 -72q14 -19 21 -36t7 -24l1 -7h10q6 24 53 67l76 72h258zM487 946l-188 -1071q-30 -169 -120.5 -238t-252.5 -69q-142 0 -237 57l75 203q67 -53 138 -53q54 0 83.5 31t43.5 118l180 1022h278z" />
    <glyph glyph-name="Gacute" unicode="&#x1f4;" horiz-adv-x="1300" 
d="M688 643h520l-112 -643h-170l-25 147q-88 -172 -323 -172q-224 0 -349 133.5t-125 368.5q0 173 50.5 316.5t137.5 238.5t202 147t245 52q208 0 321.5 -94t139.5 -256l-291 -97q-10 97 -53.5 149t-136.5 52q-101 0 -176.5 -67t-113.5 -177.5t-38 -246.5
q0 -138 64.5 -215.5t189.5 -77.5q101 0 166 48t80 138l6 35h-248zM895 1325h-252l133 293h344z" />
    <glyph glyph-name="gacute" unicode="&#x1f5;" horiz-adv-x="1095" 
d="M690 410l27 141q7 55 2 101.5t-37 77t-88 30.5q-76 0 -130.5 -51.5t-80 -132.5t-25.5 -181q0 -86 35 -141t101 -55q161 0 196 211zM1063 946l-168 -950q-37 -219 -169.5 -323.5t-371.5 -104.5q-349 0 -432 229l209 146q17 -73 80.5 -118.5t148.5 -45.5q117 0 179.5 65
t85.5 185l26 141q-60 -178 -268 -178q-150 0 -231.5 103t-81.5 284q0 164 52 296.5t156.5 213t245.5 80.5q99 0 162 -45t70 -136l59 158h248zM737 1077h-250l146 314h344z" />
    <glyph glyph-name="Ngrave" unicode="&#x1f8;" horiz-adv-x="1331" 
d="M539 1206l278 -571q23 -44 42 -93.5t27 -76.5l7 -27h8q10 115 37 269l88 499h283l-211 -1206h-254l-285 559q-25 49 -46.5 102.5t-30.5 82.5l-9 28h-8q-2 -111 -35 -285l-82 -487h-282l210 1206h263zM930 1325h-250l-225 293h344z" />
    <glyph glyph-name="ngrave" unicode="&#x1f9;" horiz-adv-x="1148" 
d="M1014 647l-58 -350q-7 -40 3.5 -62t52.5 -22q28 0 61 8l-43 -207q-81 -24 -149 -24q-258 0 -213 262l57 328q25 161 -102 161q-65 0 -117 -58t-74 -177l-88 -506h-278l165 946h244v-192q48 108 118.5 161.5t182.5 53.5t178 -64.5t66 -173.5q0 -37 -6 -84zM797 1077h-250
l-240 314h344z" />
    <glyph glyph-name="uni004102DA00B4" unicode="&#x1fa;" horiz-adv-x="1294" 
d="M883 0l-47 252h-457l-129 -252h-299l647 1206h344l229 -1206h-288zM571 1454q0 101 69.5 172.5t180.5 71.5q93 0 150 -59t57 -146q0 -104 -68.5 -175t-175.5 -71q-102 0 -157.5 57t-55.5 150zM973 1743h-252l131 293h344zM571 621l-73 -138h297q-23 114 -39 237.5
t-21 193t-2 69.5h-8q-54 -167 -154 -362zM811 1573q-46 0 -74 -32t-28 -79q0 -40 22.5 -64t61.5 -24q48 0 76 33.5t28 81.5q0 38 -23 61t-63 23z" />
    <glyph glyph-name="aringacute" unicode="&#x1fb;" 
d="M676 393l31 158q15 88 -12 148.5t-101 60.5q-111 0 -175.5 -112.5t-64.5 -268.5q0 -87 35.5 -142t102.5 -55q76 0 122 57.5t62 153.5zM1053 946l-113 -649q-7 -39 4 -61.5t53 -22.5q27 0 60 8l-43 -207q-81 -24 -150 -24q-103 0 -155.5 40t-61.5 130q-32 -95 -102.5 -140
t-165.5 -45q-150 0 -231.5 103t-81.5 284q0 164 52.5 301t156 221.5t239.5 84.5q217 0 234 -181l57 158h248zM436 1219q0 101 69.5 172t180.5 71q93 0 150 -59t57 -146q0 -104 -68.5 -174.5t-175.5 -70.5q-102 0 -157.5 57t-55.5 150zM676 1339q-45 0 -74 -32.5t-29 -79.5
q0 -40 22.5 -63t63.5 -23q48 0 75.5 32t27.5 80q0 38 -23 62t-63 24zM825 1524h-250l132 293h344z" />
    <glyph glyph-name="AEacute" unicode="&#x1fc;" horiz-adv-x="1861" 
d="M864 0l43 252h-444l-195 -252h-317l940 1206h993l-43 -241h-528l-41 -240h465l-41 -231h-465l-45 -252h528l-41 -242h-809zM1442 1325h-250l131 293h344zM1040 997l-399 -514h307l45 258q15 88 29 152t20 84l7 20h-9z" />
    <glyph glyph-name="aeacute" unicode="&#x1fd;" horiz-adv-x="1527" 
d="M1020 186q121 0 158 127l260 -61q-43 -145 -148 -211t-291 -66q-225 0 -335 144q-39 -66 -124 -105t-200 -39q-139 0 -216 64.5t-77 179.5q0 166 140.5 253.5t416.5 84.5q8 41 29 92q3 113 -96 113q-58 0 -96.5 -36.5t-45.5 -102.5l-264 51q36 146 151.5 220.5
t284.5 74.5q180 0 254 -86q128 86 275 86q96 0 172 -28.5t122 -77t69.5 -108.5t23.5 -128q0 -127 -43 -209h-561q-13 -95 22.5 -163.5t118.5 -68.5zM985 1077h-250l144 314h346zM897 557h297q10 30 10 70q0 62 -29 100.5t-92 38.5q-70 0 -118 -55t-68 -154zM584 377v41
q-121 -5 -185.5 -43.5t-64.5 -110.5q0 -90 92 -90q52 0 98.5 19t73.5 55q-14 72 -14 129z" />
    <glyph glyph-name="Oslashacute" unicode="&#x1fe;" horiz-adv-x="1306" 
d="M150 -25l-95 82l121 127q-72 119 -72 293q0 173 50.5 316.5t137.5 238.5t202 147t245 52q207 0 336 -107l103 107l98 -82l-117 -123q76 -119 76 -299q0 -173 -50.5 -316.5t-137 -238t-201.5 -146t-244 -51.5q-214 0 -344 111zM942 711q0 47 -8 80l-483 -502
q55 -76 165 -76q97 0 172 67.5t114.5 180.5t39.5 250zM903 1325h-250l131 293h344zM719 987q-100 0 -176 -67.5t-114 -178t-38 -245.5q0 -42 6 -80l480 502q-59 69 -158 69z" />
    <glyph glyph-name="oslashacute" unicode="&#x1ff;" horiz-adv-x="1081" 
d="M594 969q184 0 297 -101l106 103l86 -94l-116 -109q49 -88 49 -217q0 -92 -20.5 -176.5t-63.5 -157.5t-104 -126.5t-147.5 -84.5t-188.5 -31q-181 0 -291 88l-103 -94l-86 88l109 101q-55 88 -55 219q0 95 20.5 181.5t63.5 162t104 130.5t148.5 86.5t191.5 31.5z
M758 1077h-250l145 314h344zM573 750q-84 0 -138 -77t-68 -200q-7 -60 -5 -94l330 307q-37 64 -119 64zM506 186q86 0 140.5 75.5t68.5 197.5q5 68 4 84l-326 -301q41 -56 113 -56z" />
    <glyph glyph-name="Adoublegrave" unicode="&#x200;" horiz-adv-x="1294" 
d="M883 0l-47 252h-457l-129 -252h-299l647 1206h344l229 -1206h-288zM696 1325h-213l-239 293h309zM1034 1325h-192l-203 293h289zM571 621l-73 -138h297q-23 114 -39 237.5t-21 193t-2 69.5h-8q-54 -167 -154 -362z" />
    <glyph glyph-name="edoublegrave" unicode="&#x201;" horiz-adv-x="1009" 
d="M502 186q64 0 101.5 29.5t55.5 97.5l261 -61q-43 -145 -148 -211t-293 -66q-195 0 -304 110.5t-109 299.5q0 137 42.5 249.5t114 184.5t163 111t192.5 39q97 0 173 -28.5t121.5 -77t69 -108.5t23.5 -128q0 -126 -41 -201h-570q-18 -102 22.5 -171t125.5 -69zM385 578h297
q4 28 4 49q0 62 -29 100.5t-92 38.5q-68 0 -114 -53t-66 -135zM870 1077h-192l-203 314h289zM532 1077h-213l-239 314h309z" />
    <glyph glyph-name="edoublegrave" unicode="&#x205;" horiz-adv-x="1009" 
d="M502 186q64 0 101.5 29.5t55.5 97.5l261 -61q-43 -145 -148 -211t-293 -66q-195 0 -304 110.5t-109 299.5q0 137 42.5 249.5t114 184.5t163 111t192.5 39q97 0 173 -28.5t121.5 -77t69 -108.5t23.5 -128q0 -126 -41 -201h-570q-18 -102 22.5 -171t125.5 -69zM385 578h297
q4 28 4 49q0 62 -29 100.5t-92 38.5q-68 0 -114 -53t-66 -135zM870 1077h-192l-203 314h289zM532 1077h-213l-239 314h309z" />
    <glyph glyph-name="Ainvertedbreve" unicode="&#x202;" horiz-adv-x="1294" 
d="M883 0l-47 252h-457l-129 -252h-299l647 1206h344l229 -1206h-288zM829 1634q156 0 217 -79.5t35 -223.5h-204q9 58 -8.5 84.5t-75.5 26.5q-57 0 -84.5 -26.5t-38.5 -84.5h-203q26 143 116 223t246 80zM571 621l-73 -138h297q-23 114 -39 237.5t-21 193t-2 69.5h-8
q-54 -167 -154 -362z" />
    <glyph glyph-name="ainvertedbreve" unicode="&#x203;" 
d="M676 393l31 158q15 88 -12 148.5t-101 60.5q-111 0 -175.5 -112.5t-64.5 -268.5q0 -87 35.5 -142t102.5 -55q76 0 122 57.5t62 153.5zM1053 946l-113 -649q-7 -39 4 -61.5t53 -22.5q27 0 60 8l-43 -207q-81 -24 -150 -24q-103 0 -155.5 40t-61.5 130q-32 -95 -102.5 -140
t-165.5 -45q-150 0 -231.5 103t-81.5 284q0 164 52.5 301t156 221.5t239.5 84.5q217 0 234 -181l57 158h248zM694 1405q104 0 167 -44.5t81.5 -115.5t1.5 -164h-203q10 66 -4.5 96.5t-74.5 30.5q-62 0 -89.5 -31t-40.5 -96h-202q26 144 118.5 234t245.5 90z" />
    <glyph glyph-name="Edoublegrave" unicode="&#x204;" horiz-adv-x="1062" 
d="M915 242l-41 -242h-808l210 1206h809l-43 -241h-526l-43 -240h465l-41 -231h-465l-45 -252h528zM940 1325h-195l-200 293h289zM600 1325h-213l-237 293h307z" />
    <glyph glyph-name="Einvertedbreve" unicode="&#x206;" horiz-adv-x="1062" 
d="M915 242l-41 -242h-808l210 1206h809l-43 -241h-526l-43 -240h465l-41 -231h-465l-45 -252h528zM733 1634q156 0 217.5 -80t34.5 -223h-203q8 58 -10 84.5t-74 26.5q-58 0 -85 -26.5t-40 -84.5h-202q26 143 116 223t246 80z" />
    <glyph glyph-name="einvertedbreve" unicode="&#x207;" horiz-adv-x="1009" 
d="M502 186q64 0 101.5 29.5t55.5 97.5l261 -61q-43 -145 -148 -211t-293 -66q-195 0 -304 110.5t-109 299.5q0 137 42.5 249.5t114 184.5t163 111t192.5 39q97 0 173 -28.5t121.5 -77t69 -108.5t23.5 -128q0 -126 -41 -201h-570q-18 -102 22.5 -171t125.5 -69zM385 578h297
q4 28 4 49q0 62 -29 100.5t-92 38.5q-68 0 -114 -53t-66 -135zM647 1405q104 0 167 -44.5t81.5 -115.5t1.5 -164h-205q12 65 -3 96t-77 31q-60 0 -87 -31t-40 -96h-204q26 145 118.5 234.5t247.5 89.5z" />
    <glyph glyph-name="Idoublegrave" unicode="&#x208;" horiz-adv-x="581" 
d="M276 1206h283l-211 -1206h-282zM698 1325h-194l-203 293h291zM358 1325h-213l-237 293h307z" />
    <glyph glyph-name="idoublegrave" unicode="&#x209;" horiz-adv-x="579" 
d="M487 946l-112 -649q-7 -40 3 -62t52 -22q29 0 62 8l-43 -207q-81 -24 -150 -24q-258 0 -213 262l123 694h278zM643 1077h-194l-201 314h289zM305 1077h-213l-239 314h307z" />
    <glyph glyph-name="Iinvertedbreve" unicode="&#x20a;" horiz-adv-x="581" 
d="M276 1206h283l-211 -1206h-282zM492 1634q156 0 216.5 -79.5t34.5 -223.5h-202q8 58 -10 84.5t-74 26.5q-58 0 -86 -26.5t-39 -84.5h-203q26 143 116.5 223t246.5 80z" />
    <glyph glyph-name="iinvertedbreve" unicode="&#x20b;" horiz-adv-x="579" 
d="M487 946l-112 -649q-7 -40 3 -62t52 -22q29 0 62 8l-43 -207q-81 -24 -150 -24q-258 0 -213 262l123 694h278zM420 1405q104 0 167 -44.5t81.5 -115.5t1.5 -164h-205q12 65 -3 96t-77 31q-60 0 -87 -31t-40 -96h-205q26 144 119 234t248 90z" />
    <glyph glyph-name="Odoublegrave" unicode="&#x20c;" horiz-adv-x="1306" 
d="M602 -25q-239 0 -368.5 134.5t-129.5 367.5q0 173 50.5 316.5t137.5 238.5t202 147t245 52q240 0 368 -134.5t128 -369.5q0 -173 -50.5 -316.5t-137 -238t-201.5 -146t-244 -51.5zM719 987q-100 0 -176 -67.5t-114 -178t-38 -245.5t60 -209t165 -74q97 0 172 67.5
t114.5 180.5t39.5 250q0 128 -59 202t-164 74zM1036 1325h-194l-203 293h291zM696 1325h-213l-237 293h307z" />
    <glyph glyph-name="odoublegrave" unicode="&#x20d;" horiz-adv-x="1081" 
d="M594 969q197 0 309.5 -110t112.5 -308q0 -92 -20.5 -176.5t-63.5 -157.5t-104 -126.5t-147.5 -84.5t-188.5 -31q-190 0 -308 104.5t-118 297.5q0 95 20.5 181.5t63.5 162t104 130.5t148.5 86.5t191.5 31.5zM573 750q-97 0 -155 -104.5t-58 -262.5q0 -97 38.5 -147
t107.5 -50q100 0 158.5 104t58.5 265q0 94 -39.5 144.5t-110.5 50.5zM891 1077h-195l-200 314h288zM553 1077h-213l-240 314h308z" />
    <glyph glyph-name="Oinvertedbreve" unicode="&#x20e;" horiz-adv-x="1306" 
d="M602 -25q-239 0 -368.5 134.5t-129.5 367.5q0 173 50.5 316.5t137.5 238.5t202 147t245 52q240 0 368 -134.5t128 -369.5q0 -173 -50.5 -316.5t-137 -238t-201.5 -146t-244 -51.5zM719 987q-100 0 -176 -67.5t-114 -178t-38 -245.5t60 -209t165 -74q97 0 172 67.5
t114.5 180.5t39.5 250q0 128 -59 202t-164 74zM829 1634q156 0 217 -79.5t35 -223.5h-202q8 58 -10 84.5t-74 26.5q-58 0 -86 -26.5t-39 -84.5h-203q26 143 116 223t246 80z" />
    <glyph glyph-name="oinvertedbreve" unicode="&#x20f;" horiz-adv-x="1081" 
d="M594 969q197 0 309.5 -110t112.5 -308q0 -92 -20.5 -176.5t-63.5 -157.5t-104 -126.5t-147.5 -84.5t-188.5 -31q-190 0 -308 104.5t-118 297.5q0 95 20.5 181.5t63.5 162t104 130.5t148.5 86.5t191.5 31.5zM573 750q-97 0 -155 -104.5t-58 -262.5q0 -97 38.5 -147
t107.5 -50q100 0 158.5 104t58.5 265q0 94 -39.5 144.5t-110.5 50.5zM666 1405q155 0 216 -90t36 -234h-205q12 65 -3 96t-77 31q-61 0 -87.5 -30.5t-39.5 -96.5h-205q26 144 119 234t246 90z" />
    <glyph glyph-name="Rinvertedbreve" unicode="&#x212;" horiz-adv-x="1196" 
d="M1067 0h-305q-36 32 -51 125l-29 180q-12 73 -42 97t-103 24h-115l-74 -426h-282l210 1206h459q201 0 296 -74t95 -239q0 -86 -27 -154t-73 -109.5t-100.5 -65t-116.5 -29.5v-9q81 -12 118 -49.5t52 -122.5l37 -225q15 -84 51 -129zM518 971l-57 -316h174
q92 0 147.5 45.5t55.5 143.5q0 127 -152 127h-168zM750 1634q156 0 216.5 -79.5t34.5 -223.5h-204q9 58 -8.5 84.5t-75.5 26.5q-57 0 -84.5 -26.5t-38.5 -84.5h-203q26 143 116.5 223t246.5 80z" />
    <glyph glyph-name="rinvertedbreve" unicode="&#x213;" horiz-adv-x="796" 
d="M846 961l-66 -322q-53 23 -108.5 26.5t-106 -13t-88 -63t-49.5 -116.5l-84 -473h-278l165 946h244l-8 -252q48 142 154.5 219.5t224.5 47.5zM588 1405q104 0 167 -44.5t81.5 -115.5t1.5 -164h-203q10 65 -5 96t-75 31q-62 0 -89 -31t-40 -96h-203q26 144 119 234t246 90z
" />
    <glyph glyph-name="Udoublegrave" unicode="&#x214;" horiz-adv-x="1251" 
d="M967 1206h282l-139 -788q-22 -125 -70.5 -213t-123 -137.5t-163 -71t-202.5 -21.5q-108 0 -193 26t-149.5 82t-89 155t-0.5 233l131 735h280l-129 -725q-24 -136 18.5 -205t170.5 -69q64 0 108 17.5t71.5 55.5t43 84t27.5 117zM1018 1325h-193l-202 293h288zM680 1325
h-213l-240 293h310z" />
    <glyph glyph-name="udoublegrave" unicode="&#x215;" horiz-adv-x="1138" 
d="M668 182q-44 -108 -119.5 -157.5t-194.5 -49.5q-151 0 -220 96t-40 265l109 610h278l-108 -622q-10 -72 15.5 -109t84.5 -37q73 0 126 53.5t71 167.5l98 547h279l-113 -649q-7 -39 3.5 -61.5t49.5 -22.5q29 0 62 8l-43 -207q-81 -24 -150 -24q-102 0 -148 47.5t-40 144.5
zM918 1077h-195l-203 314h289zM578 1077h-213l-240 314h309z" />
    <glyph glyph-name="Uinvertedbreve" unicode="&#x216;" horiz-adv-x="1251" 
d="M967 1206h282l-139 -788q-22 -125 -70.5 -213t-123 -137.5t-163 -71t-202.5 -21.5q-108 0 -193 26t-149.5 82t-89 155t-0.5 233l131 735h280l-129 -725q-24 -136 18.5 -205t170.5 -69q64 0 108 17.5t71.5 55.5t43 84t27.5 117zM813 1634q156 0 217.5 -80t34.5 -223h-203
q9 58 -9 84.5t-75 26.5q-58 0 -85 -26.5t-38 -84.5h-204q27 144 116.5 223.5t245.5 79.5z" />
    <glyph glyph-name="uinvertedbreve" unicode="&#x217;" horiz-adv-x="1138" 
d="M668 182q-44 -108 -119.5 -157.5t-194.5 -49.5q-151 0 -220 96t-40 265l109 610h278l-108 -622q-10 -72 15.5 -109t84.5 -37q73 0 126 53.5t71 167.5l98 547h279l-113 -649q-7 -39 3.5 -61.5t49.5 -22.5q29 0 62 8l-43 -207q-81 -24 -150 -24q-102 0 -148 47.5t-40 144.5
zM692 1405q104 0 167 -44.5t81.5 -115.5t1.5 -164h-203q10 66 -5.5 96.5t-76.5 30.5q-60 0 -87 -31t-40 -96h-202q25 144 117.5 234t246.5 90z" />
    <glyph glyph-name="Scommaaccent" unicode="&#x218;" horiz-adv-x="1060" 
d="M25 283l254 96q2 -90 53.5 -143.5t140.5 -53.5q178 0 178 137q0 60 -37 95.5t-133 66.5q-166 54 -237.5 138.5t-71.5 222.5q0 104 40.5 182t108 121.5t144.5 64.5t162 21q196 0 300 -79.5t111 -252.5l-272 -53q4 77 -41 118.5t-121 41.5q-75 0 -116.5 -34.5t-41.5 -99.5
q0 -55 37.5 -84t141.5 -65q168 -57 239.5 -138.5t71.5 -226.5q0 -84 -26.5 -150t-71.5 -109t-108.5 -71.5t-133.5 -40.5t-150 -12q-186 0 -296.5 75.5t-124.5 232.5zM543 -279q0 -121 -88 -182t-232 -61v92q162 4 162 78q-60 -9 -100.5 20.5t-40.5 91.5q0 65 39.5 99.5
t101.5 34.5q72 0 115 -45.5t43 -127.5z" />
    <glyph glyph-name="scommaaccent" unicode="&#x219;" horiz-adv-x="897" 
d="M8 242l228 82q6 -78 49 -120t112 -42q121 0 121 88q0 45 -29.5 72t-109.5 49q-127 35 -187.5 104.5t-60.5 179.5q0 106 53.5 178t139.5 104t198 32q175 0 265 -69t90 -195l-234 -54q0 62 -35.5 96.5t-103.5 34.5q-50 0 -80.5 -23.5t-30.5 -62.5q0 -37 29.5 -58.5
t126.5 -55.5q137 -46 191.5 -113t54.5 -190q0 -154 -111.5 -229t-300.5 -75q-164 0 -263 65.5t-112 201.5zM483 -279q0 -121 -87.5 -182t-231.5 -61v92q162 4 162 78q-60 -9 -101 20.5t-41 91.5q0 65 40 99.5t102 34.5q72 0 114.5 -45.5t42.5 -127.5z" />
    <glyph glyph-name="Hcaron" unicode="&#x21e;" horiz-adv-x="1323" 
d="M348 0h-282l210 1206h283l-84 -473h461l82 473h282l-210 -1206h-283l86 492h-459zM887 1325h-174l-224 297h250l49 -63q14 -16 21.5 -31.5t8.5 -23.5l1 -7h10q9 25 52 62l73 63h263z" />
    <glyph glyph-name="hcaron" unicode="&#x21f;" horiz-adv-x="1148" 
d="M1014 647l-58 -350q-7 -40 3.5 -62t52.5 -22q28 0 61 8l-43 -207q-81 -24 -149 -24q-258 0 -213 262l57 328q25 161 -102 161q-65 0 -117 -58t-74 -177l-88 -506h-278l239 1368h281l-109 -614q48 109 118 162t181 53q112 0 178 -64.5t66 -173.5q0 -37 -6 -84zM539 1436
h-177l-221 295h250l49 -62q13 -16 20.5 -32t9.5 -23l1 -8h8q10 26 51 63l76 62h260z" />
    <glyph glyph-name="Adotabove" unicode="&#x226;" horiz-adv-x="1294" 
d="M883 0l-47 252h-457l-129 -252h-299l647 1206h344l229 -1206h-288zM635 1497q0 75 47 117.5t119 42.5q76 0 124 -42t48 -118q0 -73 -48 -114.5t-124 -41.5q-72 0 -119 41.5t-47 114.5zM571 621l-73 -138h297q-23 114 -39 237.5t-21 193t-2 69.5h-8q-54 -167 -154 -362z
" />
    <glyph glyph-name="adotabove" unicode="&#x227;" 
d="M676 393l31 158q15 88 -12 148.5t-101 60.5q-111 0 -175.5 -112.5t-64.5 -268.5q0 -87 35.5 -142t102.5 -55q76 0 122 57.5t62 153.5zM1053 946l-113 -649q-7 -39 4 -61.5t53 -22.5q27 0 60 8l-43 -207q-81 -24 -150 -24q-103 0 -155.5 40t-61.5 130q-32 -95 -102.5 -140
t-165.5 -45q-150 0 -231.5 103t-81.5 284q0 164 52.5 301t156 221.5t239.5 84.5q217 0 234 -181l57 158h248zM496 1225q0 75 47.5 117t118.5 42q77 0 124.5 -41.5t47.5 -117.5q0 -73 -47.5 -114.5t-124.5 -41.5q-71 0 -118.5 42t-47.5 114z" />
    <glyph glyph-name="Otildemacron" unicode="&#x22c;" horiz-adv-x="1306" 
d="M602 -25q-239 0 -368.5 134.5t-129.5 367.5q0 173 50.5 316.5t137.5 238.5t202 147t245 52q240 0 368 -134.5t128 -369.5q0 -173 -50.5 -316.5t-137 -238t-201.5 -146t-244 -51.5zM719 987q-100 0 -176 -67.5t-114 -178t-38 -245.5t60 -209t165 -74q97 0 172 67.5
t114.5 180.5t39.5 250q0 128 -59 202t-164 74zM915 1278q-39 0 -69.5 8.5t-43 15t-46.5 27.5q-34 22 -46.5 30t-30 14.5t-34.5 6.5q-32 0 -54.5 -27t-25.5 -77h-151q-31 137 37 228t186 91q34 0 62 -7.5t42.5 -15.5t38.5 -24q5 -3 19 -12t18 -11.5t14.5 -9t15 -8.5
t12.5 -5.5t13 -5t12 -2.5t13 -1q67 0 72 98h157q35 -139 -26 -226t-185 -87zM1141 1657h-617l39 221h617z" />
    <glyph glyph-name="otildemacron" unicode="&#x22d;" horiz-adv-x="1081" 
d="M594 969q197 0 309.5 -110t112.5 -308q0 -92 -20.5 -176.5t-63.5 -157.5t-104 -126.5t-147.5 -84.5t-188.5 -31q-190 0 -308 104.5t-118 297.5q0 95 20.5 181.5t63.5 162t104 130.5t148.5 86.5t191.5 31.5zM573 750q-97 0 -155 -104.5t-58 -262.5q0 -97 38.5 -147
t107.5 -50q100 0 158.5 104t58.5 265q0 94 -39.5 144.5t-110.5 50.5zM778 1016q-39 0 -69 8t-45 16.5t-46 28.5q-5 3 -16 10t-14.5 9.5t-12.5 8t-12.5 7.5t-10.5 5.5t-11 4.5t-9.5 3t-11 2.5t-10.5 0.5q-34 0 -56.5 -27.5t-23.5 -78.5h-154q-31 137 38 228t186 91
q49 0 79 -11t64 -34q69 -46 91 -53q13 -4 26 -4q66 0 71 98h158q36 -139 -25 -226t-186 -87zM985 1407h-602l41 221h602z" />
    <glyph glyph-name="Odotabove" unicode="&#x22e;" horiz-adv-x="1306" 
d="M602 -25q-239 0 -368.5 134.5t-129.5 367.5q0 173 50.5 316.5t137.5 238.5t202 147t245 52q240 0 368 -134.5t128 -369.5q0 -173 -50.5 -316.5t-137 -238t-201.5 -146t-244 -51.5zM719 987q-100 0 -176 -67.5t-114 -178t-38 -245.5t60 -209t165 -74q97 0 172 67.5
t114.5 180.5t39.5 250q0 128 -59 202t-164 74zM635 1497q0 75 47 117.5t119 42.5q76 0 124 -42t48 -118q0 -73 -48 -114.5t-124 -41.5q-72 0 -119 41.5t-47 114.5z" />
    <glyph glyph-name="odotabove" unicode="&#x22f;" horiz-adv-x="1081" 
d="M594 969q197 0 309.5 -110t112.5 -308q0 -92 -20.5 -176.5t-63.5 -157.5t-104 -126.5t-147.5 -84.5t-188.5 -31q-190 0 -308 104.5t-118 297.5q0 95 20.5 181.5t63.5 162t104 130.5t148.5 86.5t191.5 31.5zM573 750q-97 0 -155 -104.5t-58 -262.5q0 -97 38.5 -147
t107.5 -50q100 0 158.5 104t58.5 265q0 94 -39.5 144.5t-110.5 50.5zM530 1225q0 75 47.5 117t118.5 42q77 0 124.5 -41.5t47.5 -117.5q0 -73 -47.5 -114.5t-124.5 -41.5q-71 0 -118.5 42t-47.5 114z" />
    <glyph glyph-name="odotabovemacron" unicode="&#x231;" horiz-adv-x="1081" 
d="M594 969q197 0 309.5 -110t112.5 -308q0 -92 -20.5 -176.5t-63.5 -157.5t-104 -126.5t-147.5 -84.5t-188.5 -31q-190 0 -308 104.5t-118 297.5q0 95 20.5 181.5t63.5 162t104 130.5t148.5 86.5t191.5 31.5zM573 750q-97 0 -155 -104.5t-58 -262.5q0 -97 38.5 -147
t107.5 -50q100 0 158.5 104t58.5 265q0 94 -39.5 144.5t-110.5 50.5zM967 1382h-602l41 222h602zM465 1167q0 75 47.5 117.5t118.5 42.5q77 0 124.5 -42t47.5 -118q0 -73 -47.5 -114t-124.5 -41q-71 0 -118.5 41.5t-47.5 113.5z" />
    <glyph glyph-name="odotabovemacron" unicode="&#xe11e;" horiz-adv-x="1081" 
d="M594 969q197 0 309.5 -110t112.5 -308q0 -92 -20.5 -176.5t-63.5 -157.5t-104 -126.5t-147.5 -84.5t-188.5 -31q-190 0 -308 104.5t-118 297.5q0 95 20.5 181.5t63.5 162t104 130.5t148.5 86.5t191.5 31.5zM573 750q-97 0 -155 -104.5t-58 -262.5q0 -97 38.5 -147
t107.5 -50q100 0 158.5 104t58.5 265q0 94 -39.5 144.5t-110.5 50.5zM967 1382h-602l41 222h602zM465 1167q0 75 47.5 117.5t118.5 42.5q77 0 124.5 -42t47.5 -118q0 -73 -47.5 -114t-124.5 -41q-71 0 -118.5 41.5t-47.5 113.5z" />
    <glyph glyph-name="Ymacron" unicode="&#x232;" horiz-adv-x="1112" 
d="M436 1206l90 -286q23 -72 36.5 -145.5t15.5 -111.5l2 -38h8q4 15 13 42t45.5 104.5t82.5 146.5l189 288h299l-525 -805l-67 -401h-283l70 401l-271 805h295zM1022 1360h-616l36 221h619z" />
    <glyph glyph-name="ymacron" unicode="&#x233;" horiz-adv-x="962" 
d="M367 946l41 -477q7 -75 7.5 -144.5t-2.5 -102.5l-3 -32h8q30 148 102 287l246 469h291l-574 -1038q-58 -106 -114 -175.5t-114.5 -104.5t-111.5 -47.5t-123 -12.5q-106 0 -186 39l78 225q64 -39 119 -39q64 0 113 37.5t92 116.5l-156 999h287zM874 1104h-602l39 221h604z
" />
    <glyph glyph-name="dotlessj" unicode="&#x237;" horiz-adv-x="514" 
d="M487 946l-188 -1071q-30 -169 -120.5 -238t-252.5 -69q-142 0 -237 57l75 203q67 -53 138 -53q54 0 83.5 31t43.5 118l180 1022h278z" />
    <glyph glyph-name="schwa" unicode="&#x259;" horiz-adv-x="1030" 
d="M528 758q-117 0 -157 -129l-260 63q106 277 440 277q195 0 304.5 -109t109.5 -293q0 -141 -42.5 -255.5t-114 -187t-162.5 -111t-191 -38.5q-97 0 -173 28.5t-122.5 77t-70 108.5t-23.5 128q0 122 40 201h562q14 100 -21.5 170t-118.5 70zM645 367h-295q-6 -21 -6 -50
q0 -62 29 -100.5t92 -38.5q128 0 180 189z" />
    <glyph glyph-name="ezh" unicode="&#x292;" horiz-adv-x="872" 
d="M231 459l113 123q40 44 80 81t60 53l20 15v8q-62 -10 -168 -10h-232l37 217h727l-28 -172l-363 -354l-2 -6q140 -21 205 -108.5t65 -221.5q0 -127 -67.5 -219t-171 -135t-227.5 -43q-184 0 -272 72.5t-101 213.5l241 95q-7 -86 36 -131.5t118 -45.5q76 0 126 47.5
t50 129.5q0 42 -10 74t-37 64.5t-84 54t-143 30.5z" />
    <glyph glyph-name="circumflex" unicode="&#x2c6;" horiz-adv-x="1052" 
d="M496 1399h174l219 -326h-248l-51 70q-14 19 -21 36t-7 24l-1 7h-10q-6 -24 -53 -67l-76 -70h-258z" />
    <glyph glyph-name="caron" unicode="&#x2c7;" horiz-adv-x="1052" 
d="M557 1073h-174l-219 326h248l51 -72q14 -19 21 -36t8 -24v-7h10q6 24 53 67l76 72h258z" />
    <glyph glyph-name="breve" unicode="&#x2d8;" horiz-adv-x="950" 
d="M422 1065q-104 0 -167 44.5t-81.5 115.5t-1.5 164h203q-10 -66 5.5 -96.5t76.5 -30.5q60 0 87 31t40 96h202q-25 -144 -117.5 -234t-246.5 -90z" />
    <glyph glyph-name="dotaccent" unicode="&#x2d9;" horiz-adv-x="665" 
d="M164 1225q0 75 47.5 117t118.5 42q77 0 124.5 -41.5t47.5 -117.5q0 -73 -47.5 -114.5t-124.5 -41.5q-71 0 -118.5 42t-47.5 114z" />
    <glyph glyph-name="ring" unicode="&#x2da;" horiz-adv-x="784" 
d="M164 1245q0 101 69.5 172.5t180.5 71.5q93 0 150 -59t57 -146q0 -104 -68.5 -175t-175.5 -71q-102 0 -157.5 57t-55.5 150zM403 1364q-46 0 -74 -32t-28 -79q0 -40 22.5 -64t61.5 -24q48 0 76 33.5t28 81.5q0 38 -23 61t-63 23z" />
    <glyph glyph-name="ogonek" unicode="&#x2db;" horiz-adv-x="804" 
d="M164 -221q0 75 36.5 139.5t94 105.5t125 64.5t133.5 24.5l63 -113q-106 0 -168.5 -48t-62.5 -124q0 -39 20 -60.5t56 -21.5t63 13t58 46l59 -139q-85 -98 -240 -98q-105 0 -171 53t-66 158z" />
    <glyph glyph-name="tilde" unicode="&#x2dc;" horiz-adv-x="1064" 
d="M676 1067q-39 0 -69 8t-45 16.5t-46 28.5q-5 3 -16 10t-14.5 9.5t-12.5 8t-12.5 7.5t-10.5 5.5t-11 4.5t-9.5 3t-11 2.5t-10.5 0.5q-34 0 -56.5 -27.5t-23.5 -78.5h-154q-31 137 37.5 228t185.5 91q49 0 79.5 -11t64.5 -34q5 -3 15.5 -10.5t14.5 -10t12.5 -8t12 -7.5
l10.5 -6t11 -5.5t10 -4t10 -3.5t9.5 -1.5t10.5 -0.5q67 0 72 98h158q36 -139 -25 -226t-186 -87z" />
    <glyph glyph-name="hungarumlaut" unicode="&#x2dd;" horiz-adv-x="1118" 
d="M358 1077h-194l106 314h289zM717 1077h-213l143 314h307z" />
    <glyph glyph-name="uni0312" unicode="&#x312;" horiz-adv-x="724" 
d="M164 1495q0 120 88 182t231 62v-92q-161 -4 -161 -80q59 11 100 -19t41 -94q0 -65 -39.5 -99t-101.5 -34q-72 0 -115 46t-43 128z" />
    <glyph glyph-name="uni0320" unicode="&#x320;" horiz-adv-x="970" 
d="M766 -395h-602l41 221h602z" />
    <glyph glyph-name="uni0323" unicode="&#x323;" horiz-adv-x="665" 
d="M164 -260q0 75 47 117.5t119 42.5q76 0 124 -42t48 -118q0 -73 -48 -114.5t-124 -41.5q-72 0 -119 41.5t-47 114.5z" />
    <glyph glyph-name="uni0329" unicode="&#x329;" horiz-adv-x="595" 
d="M164 -438v350h268v-330z" />
    <glyph glyph-name="pi" unicode="&#x3c0;" horiz-adv-x="1392" 
d="M399 985h961l-35 -205h-203l-92 -510q-10 -53 4 -74.5t49 -21.5q34 0 58.5 22.5t62.5 79.5l103 -143q-96 -158 -301 -158q-294 0 -236 316l90 489h-190l-236 -780h-278l243 780h-24q-54 0 -91.5 -30.5t-41.5 -102.5h-207q9 172 95 255t269 83z" />
    <glyph glyph-name="pi" unicode="&#x3d6;" horiz-adv-x="1392" 
d="M399 985h961l-35 -205h-203l-92 -510q-10 -53 4 -74.5t49 -21.5q34 0 58.5 22.5t62.5 79.5l103 -143q-96 -158 -301 -158q-294 0 -236 316l90 489h-190l-236 -780h-278l243 780h-24q-54 0 -91.5 -30.5t-41.5 -102.5h-207q9 172 95 255t269 83z" />
    <glyph glyph-name="uni0E3F" unicode="&#xe3f;" horiz-adv-x="1128" 
d="M811 508v-10q101 -7 155 -61.5t54 -147.5q0 -84 -29.5 -141.5t-88.5 -89t-133 -45t-175 -13.5h-53l-37 -217h-103l37 217h-377l172 985h379l35 191h103l-35 -191q171 0 253.5 -52t82.5 -177q0 -112 -63.5 -174t-176.5 -74zM645 416h-31l-41 -221h23q75 0 119.5 31
t44.5 91q0 51 -27.5 75t-87.5 24zM438 573h101l39 222h-101zM412 416l-39 -221h98l41 221h-100zM778 702q0 90 -98 93l-39 -222q61 0 99 34.5t38 94.5z" />
    <glyph glyph-name="Ddotbelow" unicode="&#x1e0c;" horiz-adv-x="1280" 
d="M387 236h127q179 0 289 121t110 348q0 266 -288 266h-107zM485 0h-419l210 1206h400q530 0 530 -475q0 -155 -38 -279t-104 -207.5t-158.5 -139.5t-197 -80.5t-223.5 -24.5zM262 -270q0 75 47 117t119 42q76 0 124 -41.5t48 -117.5q0 -73 -48 -114.5t-124 -41.5
q-72 0 -119 41.5t-47 114.5z" />
    <glyph glyph-name="ddotbelow" unicode="&#x1e0d;" horiz-adv-x="1157" 
d="M688 393l29 158q7 55 2 101.5t-37 77t-88 30.5q-111 0 -175.5 -112.5t-64.5 -268.5q0 -87 35.5 -142t102.5 -55q157 0 196 211zM1137 1368l-185 -1071q-7 -40 3.5 -62t52.5 -22q28 0 61 8l-43 -207q-81 -24 -149 -24q-104 0 -157.5 40.5t-60.5 129.5q-32 -95 -107.5 -140
t-172.5 -45q-150 0 -231.5 103t-81.5 284q0 164 52.5 300.5t158.5 221.5t247 85q99 0 162 -45t72 -136l100 580h279zM266 -270q0 75 47 117t119 42q76 0 124 -41.5t48 -117.5q0 -73 -48 -114.5t-124 -41.5q-72 0 -119 41.5t-47 114.5z" />
    <glyph glyph-name="Dcedilla" unicode="&#x1e10;" horiz-adv-x="1280" 
d="M651 -242q0 -93 -66.5 -141.5t-170.5 -48.5q-70 0 -127.5 20.5t-87.5 53.5l51 131q63 -72 129 -72q67 0 67 53q0 34 -22.5 53.5t-73.5 28.5l64 164h-348l210 1206h400q530 0 530 -475q0 -152 -36 -274t-98 -204t-150 -138t-187 -83t-213 -32l-33 -74q84 -14 123 -53
t39 -115zM387 236h127q179 0 289 121t110 348q0 266 -288 266h-107z" />
    <glyph glyph-name="dcedilla" unicode="&#x1e11;" horiz-adv-x="1157" 
d="M655 -242q0 -93 -66.5 -141.5t-170.5 -48.5q-71 0 -129 20.5t-86 53.5l51 131q63 -72 129 -72q68 0 68 53q0 65 -99 82l58 141h-48q-144 6 -220 108t-76 277q0 161 51 295t153 219.5t238 90.5q32 2 86 -6q70 -12 113.5 -55.5t50.5 -117.5l100 580h279l-185 -1071
q-7 -40 3.5 -62t52.5 -22q28 0 61 8l-43 -207q-81 -24 -149 -24q-103 0 -157 40.5t-61 129.5q-36 -101 -129 -150l-36 -84q84 -14 122.5 -53t38.5 -115zM688 393l29 158q15 88 -14 148.5t-109 60.5q-111 0 -175.5 -112.5t-64.5 -268.5q0 -87 35.5 -142t102.5 -55
q157 0 196 211z" />
    <glyph glyph-name="Hdotbelow" unicode="&#x1e24;" horiz-adv-x="1323" 
d="M348 0h-282l210 1206h283l-84 -473h461l82 473h282l-210 -1206h-283l86 492h-459zM360 -270q0 75 47 117t119 42q76 0 124 -41.5t48 -117.5q0 -73 -48 -114.5t-124 -41.5q-72 0 -119 41.5t-47 114.5z" />
    <glyph glyph-name="hdotbelow" unicode="&#x1e25;" horiz-adv-x="1148" 
d="M1014 647l-58 -350q-7 -40 3.5 -62t52.5 -22q28 0 61 8l-43 -207q-81 -24 -149 -24q-258 0 -213 262l57 328q25 161 -102 161q-65 0 -117 -58t-74 -177l-88 -506h-278l239 1368h281l-109 -614q48 109 118 162t181 53q112 0 178 -64.5t66 -173.5q0 -37 -6 -84zM309 -270
q0 75 47 117t119 42q76 0 124 -41.5t48 -117.5q0 -73 -48 -114.5t-124 -41.5q-72 0 -119 41.5t-47 114.5z" />
    <glyph glyph-name="Ldotbelow" unicode="&#x1e36;" horiz-adv-x="960" 
d="M276 1206h283l-172 -964h469l-41 -242h-749zM223 -270q0 75 47 117t119 42q76 0 124 -41.5t48 -117.5q0 -73 -48 -114.5t-124 -41.5q-72 0 -119 41.5t-47 114.5z" />
    <glyph glyph-name="ldotbelow" unicode="&#x1e37;" horiz-adv-x="583" 
d="M563 1368l-188 -1071q-7 -40 3 -62t52 -22q29 0 62 8l-43 -207q-81 -24 -150 -24q-258 0 -213 262l199 1116h278zM31 -270q0 75 47 117t119 42q76 0 124 -41.5t48 -117.5q0 -73 -48 -114.5t-124 -41.5q-72 0 -119 41.5t-47 114.5z" />
    <glyph glyph-name="uni004C032300AF" unicode="&#x1e38;" horiz-adv-x="960" 
d="M276 1206h283l-172 -964h469l-41 -242h-749zM223 -270q0 75 47 117t119 42q76 0 124 -41.5t48 -117.5q0 -73 -48 -114.5t-124 -41.5q-72 0 -119 41.5t-47 114.5zM758 1360h-617l39 221h617z" />
    <glyph glyph-name="ldotbelowmacron" unicode="&#x1e39;" horiz-adv-x="583" 
d="M563 1368l-188 -1071q-7 -40 3 -62t52 -22q29 0 62 8l-43 -207q-81 -24 -150 -24q-258 0 -213 262l199 1116h278zM31 -270q0 75 47 117t119 42q76 0 124 -41.5t48 -117.5q0 -73 -48 -114.5t-124 -41.5q-72 0 -119 41.5t-47 114.5zM750 1473h-617l39 221h616z" />
    <glyph glyph-name="Mdotbelow" unicode="&#x1e42;" horiz-adv-x="1492" 
d="M782 279h-133l-112 272q-19 45 -35 96t-22 79l-7 28h-8q0 -82 -25 -219l-92 -535h-282l210 1206h281l152 -401q21 -55 35 -103t18 -69l4 -21h8q27 68 119 193l297 401h280l-210 -1206h-281l92 535q11 61 23.5 115.5t19.5 79.5l6 24h-8q-43 -99 -121 -201zM438 -270
q0 75 47 117t119 42q76 0 124 -41.5t48 -117.5q0 -73 -48 -114.5t-124 -41.5q-72 0 -119 41.5t-47 114.5z" />
    <glyph glyph-name="mdotbelow" unicode="&#x1e43;" horiz-adv-x="1656" 
d="M881 0h-281l100 580q28 161 -92 161q-67 0 -110 -55.5t-66 -179.5l-88 -506h-278l165 946h244v-192q43 110 108 162.5t175 52.5q113 0 175 -59t62 -167q37 115 109 170.5t186 55.5q113 0 176.5 -64t63.5 -174q0 -43 -8 -84l-58 -350q-7 -39 4.5 -61.5t53.5 -22.5
q26 0 59 8l-43 -207q-81 -24 -149 -24q-258 0 -213 262l57 328q28 161 -92 161q-68 0 -111.5 -56t-64.5 -179zM524 -270q0 75 47 117t119 42q76 0 124 -41.5t48 -117.5q0 -73 -48 -114.5t-124 -41.5q-72 0 -119 41.5t-47 114.5z" />
    <glyph glyph-name="Ndotaccent" unicode="&#x1e44;" horiz-adv-x="1331" 
d="M539 1206l278 -571q23 -44 42 -93.5t27 -76.5l7 -27h8q10 115 37 269l88 499h283l-211 -1206h-254l-285 559q-25 49 -46.5 102.5t-30.5 82.5l-9 28h-8q-2 -111 -35 -285l-82 -487h-282l210 1206h263zM651 1497q0 75 47 117.5t119 42.5q76 0 124 -42t48 -118
q0 -73 -48 -114.5t-124 -41.5q-72 0 -119 41.5t-47 114.5z" />
    <glyph glyph-name="ndotaccent" unicode="&#x1e45;" horiz-adv-x="1148" 
d="M1014 647l-58 -350q-7 -40 3.5 -62t52.5 -22q28 0 61 8l-43 -207q-81 -24 -149 -24q-258 0 -213 262l57 328q25 161 -102 161q-65 0 -117 -58t-74 -177l-88 -506h-278l165 946h244v-192q48 108 118.5 161.5t182.5 53.5t178 -64.5t66 -173.5q0 -37 -6 -84zM514 1225
q0 75 47.5 117t118.5 42q77 0 124.5 -41.5t47.5 -117.5q0 -73 -47.5 -114.5t-124.5 -41.5q-71 0 -118.5 42t-47.5 114z" />
    <glyph glyph-name="Ndotbelow" unicode="&#x1e46;" horiz-adv-x="1331" 
d="M539 1206l278 -571q23 -44 42 -93.5t27 -76.5l7 -27h8q10 115 37 269l88 499h283l-211 -1206h-254l-285 559q-25 49 -46.5 102.5t-30.5 82.5l-9 28h-8q-2 -111 -35 -285l-82 -487h-282l210 1206h263zM342 -270q0 75 47 117t119 42q76 0 124 -41.5t48 -117.5
q0 -73 -48 -114.5t-124 -41.5q-72 0 -119 41.5t-47 114.5z" />
    <glyph glyph-name="ndotbelow" unicode="&#x1e47;" horiz-adv-x="1148" 
d="M1014 647l-58 -350q-7 -40 3.5 -62t52.5 -22q28 0 61 8l-43 -207q-81 -24 -149 -24q-258 0 -213 262l57 328q25 161 -102 161q-65 0 -117 -58t-74 -177l-88 -506h-278l165 946h244v-192q48 108 118.5 161.5t182.5 53.5t178 -64.5t66 -173.5q0 -37 -6 -84zM254 -270
q0 75 47 117t119 42q75 0 122.5 -41.5t47.5 -117.5q0 -73 -48 -114.5t-122 -41.5q-72 0 -119 41.5t-47 114.5z" />
    <glyph glyph-name="Rdotbelow" unicode="&#x1e5a;" horiz-adv-x="1196" 
d="M1067 0h-305q-36 32 -51 125l-29 180q-12 73 -42 97t-103 24h-115l-74 -426h-282l210 1206h459q201 0 296 -74t95 -239q0 -86 -27 -154t-73 -109.5t-100.5 -65t-116.5 -29.5v-9q81 -12 118 -49.5t52 -122.5l37 -225q15 -84 51 -129zM518 971l-57 -316h174
q92 0 147.5 45.5t55.5 143.5q0 127 -152 127h-168zM307 -270q0 75 47 117t119 42q76 0 124 -41.5t48 -117.5q0 -73 -48 -114.5t-124 -41.5q-72 0 -119 41.5t-47 114.5z" />
    <glyph glyph-name="rdotbelow" unicode="&#x1e5b;" horiz-adv-x="796" 
d="M846 961l-66 -322q-53 23 -108.5 26.5t-106 -13t-88 -63t-49.5 -116.5l-84 -473h-278l165 946h244l-8 -252q48 142 154.5 219.5t224.5 47.5zM0 -270q0 75 47 117t119 42q76 0 124 -41.5t48 -117.5q0 -73 -48 -114.5t-124 -41.5q-72 0 -119 41.5t-47 114.5z" />
    <glyph glyph-name="Rdotbelowmacron" unicode="&#x1e5c;" horiz-adv-x="1196" 
d="M1067 0h-305q-36 32 -51 125l-29 180q-12 73 -42 97t-103 24h-115l-74 -426h-282l210 1206h459q201 0 296 -74t95 -239q0 -86 -27 -154t-73 -109.5t-100.5 -65t-116.5 -29.5v-9q81 -12 118 -49.5t52 -122.5l37 -225q15 -84 51 -129zM518 971l-57 -316h174
q92 0 147.5 45.5t55.5 143.5q0 127 -152 127h-168zM307 -270q0 75 47 117t119 42q76 0 124 -41.5t48 -117.5q0 -73 -48 -114.5t-124 -41.5q-72 0 -119 41.5t-47 114.5zM1012 1360h-617l37 221h619z" />
    <glyph glyph-name="rdotbelowmacron" unicode="&#x1e5d;" horiz-adv-x="796" 
d="M846 961l-66 -322q-53 23 -108.5 26.5t-106 -13t-88 -63t-49.5 -116.5l-84 -473h-278l165 946h244l-8 -252q48 142 154.5 219.5t224.5 47.5zM842 1104h-602l41 221h602zM0 -270q0 75 47 117t119 42q76 0 124 -41.5t48 -117.5q0 -73 -48 -114.5t-124 -41.5
q-72 0 -119 41.5t-47 114.5z" />
    <glyph glyph-name="Sdotbelow" unicode="&#x1e62;" horiz-adv-x="1060" 
d="M25 283l254 96q2 -90 53.5 -143.5t140.5 -53.5q178 0 178 137q0 60 -37 95.5t-133 66.5q-166 54 -237.5 138.5t-71.5 222.5q0 104 40.5 182t108 121.5t144.5 64.5t162 21q196 0 300 -79.5t111 -252.5l-272 -53q4 77 -41 118.5t-121 41.5q-75 0 -116.5 -34.5t-41.5 -99.5
q0 -55 37.5 -84t141.5 -65q168 -57 239.5 -138.5t71.5 -226.5q0 -84 -26.5 -150t-71.5 -109t-108.5 -71.5t-133.5 -40.5t-150 -12q-186 0 -296.5 75.5t-124.5 232.5zM209 -270q0 75 47 117t119 42q76 0 124 -41.5t48 -117.5q0 -73 -48 -114.5t-124 -41.5q-72 0 -119 41.5
t-47 114.5z" />
    <glyph glyph-name="sdotbelow" unicode="&#x1e63;" horiz-adv-x="897" 
d="M8 242l228 82q6 -78 49 -120t112 -42q121 0 121 88q0 45 -29.5 72t-109.5 49q-127 35 -187.5 104.5t-60.5 179.5q0 106 53.5 178t139.5 104t198 32q175 0 265 -69t90 -195l-234 -54q0 62 -35.5 96.5t-103.5 34.5q-50 0 -80.5 -23.5t-30.5 -62.5q0 -37 29.5 -58.5
t126.5 -55.5q137 -46 191.5 -113t54.5 -190q0 -154 -111.5 -229t-300.5 -75q-164 0 -263 65.5t-112 201.5zM150 -270q0 75 46.5 117t118.5 42q76 0 124 -41.5t48 -117.5q0 -73 -48 -114.5t-124 -41.5q-72 0 -118.5 41.5t-46.5 114.5z" />
    <glyph glyph-name="Tdotbelow" unicode="&#x1e6c;" horiz-adv-x="1030" 
d="M567 0h-280l170 965h-330l43 241h942l-41 -241h-336zM215 -270q0 75 47 117t119 42q76 0 124 -41.5t48 -117.5q0 -73 -48 -114.5t-124 -41.5q-72 0 -119 41.5t-47 114.5z" />
    <glyph glyph-name="tdotbelow" unicode="&#x1e6d;" horiz-adv-x="735" 
d="M629 264v-231q-44 -26 -113 -42t-139 -16q-327 0 -266 349l73 411h-135l37 211h137l35 201l283 33l-39 -234h246l-37 -211h-246l-74 -409q-19 -109 78 -109q81 0 160 47zM127 -270q0 75 47 117t119 42q76 0 124 -41.5t48 -117.5q0 -73 -48 -114.5t-124 -41.5
q-72 0 -119 41.5t-47 114.5z" />
    <glyph glyph-name="Wgrave" unicode="&#x1e80;" horiz-adv-x="1771" 
d="M1176 1206l32 -663q3 -89 2 -165t-4 -126l-4 -51h8q44 172 107 340l248 665h293l-472 -1206h-399l-41 596q-5 73 -5 153.5t3 124.5l2 44h-8q-28 -152 -98 -324l-240 -594h-385l-43 1206h287l16 -663q2 -89 1 -165t-4 -126l-3 -51h8q39 172 105 340l260 665h334z
M1147 1325h-252l-225 293h344z" />
    <glyph glyph-name="wgrave" unicode="&#x1e81;" horiz-adv-x="1447" 
d="M922 946l30 -391q9 -98 8 -177t-6 -129l-6 -50h8q33 162 111 352l162 395h293l-412 -946h-326l-41 338q-5 79 -4 146.5t5 113.5l4 45h-9q-32 -151 -100 -307l-135 -336h-324l-94 946h281l30 -393q6 -84 6.5 -172.5t-1.5 -134.5l-3 -47h9q30 166 110 356l162 391h242z
M956 1077h-249l-240 314h346z" />
    <glyph glyph-name="Wacute" unicode="&#x1e82;" horiz-adv-x="1771" 
d="M1176 1206l32 -663q3 -89 2 -165t-4 -126l-4 -51h8q44 172 107 340l248 665h293l-472 -1206h-399l-41 596q-5 73 -5 153.5t3 124.5l2 44h-8q-28 -152 -98 -324l-240 -594h-385l-43 1206h287l16 -663q2 -89 1 -165t-4 -126l-3 -51h8q39 172 105 340l260 665h334z
M1120 1325h-252l133 293h345z" />
    <glyph glyph-name="wacute" unicode="&#x1e83;" horiz-adv-x="1447" 
d="M922 946l30 -391q9 -98 8 -177t-6 -129l-6 -50h8q33 162 111 352l162 395h293l-412 -946h-326l-41 338q-5 79 -4 146.5t5 113.5l4 45h-9q-32 -151 -100 -307l-135 -336h-324l-94 946h281l30 -393q6 -84 6.5 -172.5t-1.5 -134.5l-3 -47h9q30 166 110 356l162 391h242z
M932 1077h-250l143 314h344z" />
    <glyph glyph-name="Wdieresis" unicode="&#x1e84;" horiz-adv-x="1771" 
d="M1176 1206l32 -663q3 -89 2 -165t-4 -126l-4 -51h8q44 172 107 340l248 665h293l-472 -1206h-399l-41 596q-5 73 -5 153.5t3 124.5l2 44h-8q-28 -152 -98 -324l-240 -594h-385l-43 1206h287l16 -663q2 -89 1 -165t-4 -126l-3 -51h8q39 172 105 340l260 665h334zM645 1481
q0 73 43.5 113t108.5 40q70 0 113.5 -39.5t43.5 -113.5q0 -72 -44 -113t-113 -41q-64 0 -108 41.5t-44 112.5zM1092 1481q0 73 43 113t108 40q70 0 114 -39.5t44 -113.5q0 -73 -44 -113.5t-114 -40.5q-64 0 -107.5 41t-43.5 113z" />
    <glyph glyph-name="wdieresis" unicode="&#x1e85;" horiz-adv-x="1447" 
d="M922 946l30 -391q9 -98 8 -177t-6 -129l-6 -50h8q33 162 111 352l162 395h293l-412 -946h-326l-41 338q-5 79 -4 146.5t5 113.5l4 45h-9q-32 -151 -100 -307l-135 -336h-324l-94 946h281l30 -393q6 -84 6.5 -172.5t-1.5 -134.5l-3 -47h9q30 166 110 356l162 391h242z
M459 1221q0 73 43 113t108 40q70 0 114 -39.5t44 -113.5q0 -72 -44.5 -113t-113.5 -41q-64 0 -107.5 41.5t-43.5 112.5zM905 1221q0 73 43.5 113t108.5 40q70 0 112.5 -39.5t42.5 -113.5q0 -73 -43 -113.5t-112 -40.5q-65 0 -108.5 41t-43.5 113z" />
    <glyph glyph-name="Idotbelow" unicode="&#x1eca;" horiz-adv-x="581" 
d="M276 1206h283l-211 -1206h-282zM-12 -270q0 75 47 117t119 42q76 0 124 -41.5t48 -117.5q0 -73 -48 -114.5t-124 -41.5q-72 0 -119 41.5t-47 114.5z" />
    <glyph glyph-name="idotbelow" unicode="&#x1ecb;" horiz-adv-x="579" 
d="M487 946l-112 -649q-7 -40 3 -62t52 -22q29 0 62 8l-43 -207q-81 -24 -150 -24q-258 0 -213 262l123 694h278zM221 1235q0 75 47.5 117.5t118.5 42.5q76 0 124 -42t48 -118q0 -73 -48 -114.5t-124 -41.5q-71 0 -118.5 42t-47.5 114zM-14 -270q0 75 47 117t119 42
q75 0 122.5 -41.5t47.5 -117.5q0 -73 -48 -114.5t-122 -41.5q-72 0 -119 41.5t-47 114.5z" />
    <glyph glyph-name="Odotbelow" unicode="&#x1ecc;" horiz-adv-x="1306" 
d="M602 -25q-239 0 -368.5 134.5t-129.5 367.5q0 173 50.5 316.5t137.5 238.5t202 147t245 52q240 0 368 -134.5t128 -369.5q0 -173 -50.5 -316.5t-137 -238t-201.5 -146t-244 -51.5zM719 987q-100 0 -176 -67.5t-114 -178t-38 -245.5t60 -209t165 -74q97 0 172 67.5
t114.5 180.5t39.5 250q0 128 -59 202t-164 74zM326 -270q0 75 47 117t119 42q76 0 124 -41.5t48 -117.5q0 -73 -48 -114.5t-124 -41.5q-72 0 -119 41.5t-47 114.5z" />
    <glyph glyph-name="odotbelow" unicode="&#x1ecd;" horiz-adv-x="1081" 
d="M594 969q197 0 309.5 -110t112.5 -308q0 -92 -20.5 -176.5t-63.5 -157.5t-104 -126.5t-147.5 -84.5t-188.5 -31q-190 0 -308 104.5t-118 297.5q0 95 20.5 181.5t63.5 162t104 130.5t148.5 86.5t191.5 31.5zM573 750q-97 0 -155 -104.5t-58 -262.5q0 -97 38.5 -147
t107.5 -50q100 0 158.5 104t58.5 265q0 94 -39.5 144.5t-110.5 50.5zM207 -270q0 75 47 117t119 42q76 0 124 -41.5t48 -117.5q0 -73 -48 -114.5t-124 -41.5q-72 0 -119 41.5t-47 114.5z" />
    <glyph glyph-name="Udotbelow" unicode="&#x1ee4;" horiz-adv-x="1251" 
d="M967 1206h282l-139 -788q-22 -125 -70.5 -213t-123 -137.5t-163 -71t-202.5 -21.5q-108 0 -193 26t-149.5 82t-89 155t-0.5 233l131 735h280l-129 -725q-24 -136 18.5 -205t170.5 -69q64 0 108 17.5t71.5 55.5t43 84t27.5 117zM311 -270q0 75 47 117t119 42
q76 0 124 -41.5t48 -117.5q0 -73 -48 -114.5t-124 -41.5q-72 0 -119 41.5t-47 114.5z" />
    <glyph glyph-name="udotbelow" unicode="&#x1ee5;" horiz-adv-x="1138" 
d="M668 182q-44 -108 -119.5 -157.5t-194.5 -49.5q-151 0 -220 96t-40 265l109 610h278l-108 -622q-10 -72 15.5 -109t84.5 -37q73 0 126 53.5t71 167.5l98 547h279l-113 -649q-7 -39 3.5 -61.5t49.5 -22.5q29 0 62 8l-43 -207q-81 -24 -150 -24q-102 0 -148 47.5t-40 144.5
zM233 -270q0 75 47 117t119 42q76 0 124 -41.5t48 -117.5q0 -73 -48 -114.5t-124 -41.5q-72 0 -119 41.5t-47 114.5z" />
    <glyph glyph-name="Ygrave" unicode="&#x1ef2;" horiz-adv-x="1112" 
d="M436 1206l90 -286q23 -72 36.5 -145.5t15.5 -111.5l2 -38h8q4 15 13 42t45.5 104.5t82.5 146.5l189 288h299l-525 -805l-67 -401h-283l70 401l-271 805h295zM844 1325h-250l-225 293h344z" />
    <glyph glyph-name="ygrave" unicode="&#x1ef3;" horiz-adv-x="962" 
d="M367 946l41 -477q7 -75 7.5 -144.5t-2.5 -102.5l-3 -32h8q30 148 102 287l246 469h291l-574 -1038q-58 -106 -114 -175.5t-114.5 -104.5t-111.5 -47.5t-123 -12.5q-106 0 -186 39l78 225q64 -39 119 -39q64 0 113 37.5t92 116.5l-156 999h287zM705 1077h-250l-240 314
h346z" />
    <glyph glyph-name="Ytilde" unicode="&#x1ef8;" horiz-adv-x="1112" 
d="M436 1206l90 -286q23 -72 36.5 -145.5t15.5 -111.5l2 -38h8q4 15 13 42t45.5 104.5t82.5 146.5l189 288h299l-525 -805l-67 -401h-283l70 401l-271 805h295zM848 1329q-39 0 -68.5 7t-46 16t-45.5 28q-9 6 -27.5 17.5t-25 15.5t-18 10t-20.5 7.5t-19 1.5q-32 0 -54.5 -28
t-25.5 -79h-152q-31 138 37 230t186 92q34 0 62 -7.5t43 -16t39 -24.5q5 -3 15.5 -10.5t14.5 -10t12.5 -8t12 -7.5l10.5 -6t11 -5.5t10 -4t10 -3.5t9.5 -1.5t10.5 -0.5q67 0 72 98h158q35 -137 -26.5 -224t-184.5 -87z" />
    <glyph glyph-name="ytilde" unicode="&#x1ef9;" horiz-adv-x="962" 
d="M367 946l41 -477q7 -75 7.5 -144.5t-2.5 -102.5l-3 -32h8q30 148 102 287l246 469h291l-574 -1038q-58 -106 -114 -175.5t-114.5 -104.5t-111.5 -47.5t-123 -12.5q-106 0 -186 39l78 225q64 -39 119 -39q64 0 113 37.5t92 116.5l-156 999h287zM725 1067q-39 0 -69 8
t-45 16.5t-46 28.5q-8 5 -23.5 15t-21 13.5t-16.5 9.5t-17 7.5t-14.5 3.5t-17.5 2q-32 0 -54.5 -27.5t-25.5 -78.5h-152q-31 137 37 228t186 91q49 0 79.5 -11t64.5 -34q69 -46 91 -53q13 -4 26 -4q66 0 71 98h158q35 -139 -26 -226t-185 -87z" />
    <glyph glyph-name="enspace" unicode="&#x2002;" horiz-adv-x="921" 
 />
    <glyph glyph-name="emspace" unicode="&#x2003;" horiz-adv-x="1843" 
 />
    <glyph glyph-name="threeperemspace" unicode="&#x2004;" horiz-adv-x="614" 
 />
    <glyph glyph-name="fourperemspace" unicode="&#x2005;" horiz-adv-x="460" 
 />
    <glyph glyph-name="sixperemspace" unicode="&#x2006;" horiz-adv-x="307" 
 />
    <glyph glyph-name="figurespace" unicode="&#x2007;" horiz-adv-x="1050" 
 />
    <glyph glyph-name="punctuationspace" unicode="&#x2008;" horiz-adv-x="350" 
 />
    <glyph glyph-name="thinspace" unicode="&#x2009;" horiz-adv-x="184" 
 />
    <glyph glyph-name="hairspace" unicode="&#x200a;" horiz-adv-x="92" 
 />
    <glyph glyph-name="zerowidthspace" unicode="&#x200b;" horiz-adv-x="0" 
 />
    <glyph glyph-name="figuredash" unicode="&#x2012;" horiz-adv-x="1167" 
d="M127 430l33 182h880l-32 -182h-881z" />
    <glyph glyph-name="endash" unicode="&#x2013;" horiz-adv-x="1056" 
d="M127 430l33 182h770l-33 -182h-770z" />
    <glyph glyph-name="emdash" unicode="&#x2014;" horiz-adv-x="2080" 
d="M127 430l33 182h1794l-33 -182h-1794z" />
    <glyph glyph-name="uni2015" unicode="&#x2015;" horiz-adv-x="2560" 
d="M143 430l33 182h2241l-33 -182h-2241z" />
    <glyph glyph-name="doublebar" unicode="&#x2016;" horiz-adv-x="929" 
d="M213 -416h-219l313 1784h219zM625 -416h-219l313 1784h219z" />
    <glyph glyph-name="quoteleft" unicode="&#x2018;" horiz-adv-x="509" 
d="M166 1042q0 91 35 160.5t96 110.5t135.5 61t161.5 21v-113q-103 -5 -177.5 -48.5t-74.5 -113.5q75 11 129.5 -26t54.5 -115t-48.5 -119t-123.5 -41q-87 0 -137.5 60.5t-50.5 162.5z" />
    <glyph glyph-name="quoteright" unicode="&#x2019;" horiz-adv-x="509" 
d="M551 1171q0 -74 -23.5 -133.5t-63.5 -99.5t-95 -67t-116.5 -39t-129.5 -13v113q103 5 176.5 48.5t73.5 113.5q-74 -11 -129.5 25.5t-55.5 115.5q0 76 50 118t124 42q86 0 137.5 -62t51.5 -162z" />
    <glyph glyph-name="quotesinglbase" unicode="&#x201a;" horiz-adv-x="509" 
d="M367 90q0 -92 -35 -161.5t-96.5 -110.5t-136 -61t-160.5 -21v112q102 5 175.5 49.5t73.5 114.5q-74 -13 -129 24.5t-55 115.5t49.5 119.5t124.5 41.5q86 0 137.5 -61.5t51.5 -161.5z" />
    <glyph glyph-name="reversequoteleft" unicode="&#x201b;" horiz-adv-x="462" 
d="M129 1184q0 102 50.5 162.5t137.5 60.5q74 0 123 -42t49 -118q0 -79 -54 -115.5t-130 -25.5q0 -70 74.5 -113.5t177.5 -48.5v-113q-87 1 -161.5 21t-135.5 60.5t-96 110t-35 161.5z" />
    <glyph glyph-name="quotedblleft" unicode="&#x201c;" horiz-adv-x="974" 
d="M166 1042q0 91 35 160.5t96 110.5t135.5 61t161.5 21v-113q-103 -5 -177.5 -48.5t-74.5 -113.5q75 11 129.5 -26t54.5 -115t-48.5 -119t-123.5 -41q-87 0 -137.5 60.5t-50.5 162.5zM631 1042q0 91 35 160.5t96 110.5t135.5 61t161.5 21v-113q-103 -5 -177.5 -48.5
t-74.5 -113.5q75 11 129.5 -26t54.5 -115t-48.5 -119t-123.5 -41q-87 0 -137.5 60.5t-50.5 162.5z" />
    <glyph glyph-name="quotedblright" unicode="&#x201d;" horiz-adv-x="974" 
d="M551 1171q0 -74 -23.5 -133.5t-63.5 -99.5t-95 -67t-116.5 -39t-129.5 -13v113q103 5 176.5 48.5t73.5 113.5q-74 -11 -129.5 25.5t-55.5 115.5q0 76 50 118t124 42q86 0 137.5 -62t51.5 -162zM1016 1171q0 -74 -23.5 -133.5t-63.5 -99.5t-95 -67t-116.5 -39t-129.5 -13
v113q103 5 176.5 48.5t73.5 113.5q-74 -11 -129.5 25.5t-55.5 115.5q0 76 50 118t124 42q86 0 137.5 -62t51.5 -162z" />
    <glyph glyph-name="quotedblbase" unicode="&#x201e;" horiz-adv-x="974" 
d="M367 88q0 -74 -23.5 -133.5t-63.5 -99.5t-95 -67t-116.5 -39t-129.5 -13v112q103 5 176 48.5t73 113.5q-74 -11 -129 26t-55 116q0 76 49.5 117.5t124.5 41.5q86 0 137.5 -61.5t51.5 -161.5zM831 88q0 -74 -23.5 -133.5t-63.5 -99.5t-95 -67t-116.5 -39t-129.5 -13v112
q103 5 176.5 48.5t73.5 113.5q-74 -11 -129 26t-55 116q0 76 49.5 117.5t124.5 41.5q86 0 137 -61.5t51 -161.5z" />
    <glyph glyph-name="reversequotedblleft" unicode="&#x201f;" horiz-adv-x="868" 
d="M129 1184q0 102 50.5 162.5t137.5 60.5q75 0 123.5 -41t48.5 -119t-54.5 -115t-129.5 -26q0 -70 74.5 -113.5t177.5 -48.5v-113q-87 1 -161.5 21t-135.5 61t-96 110.5t-35 160.5zM532 1184q0 101 51.5 162t137.5 61q75 0 124.5 -41t49.5 -119t-55 -115t-129 -26
q0 -70 73.5 -113.5t176.5 -48.5v-113q-86 1 -160.5 21t-136 61t-97 110.5t-35.5 160.5z" />
    <glyph glyph-name="dagger" unicode="&#x2020;" horiz-adv-x="1134" 
d="M543 520l-371 -22l45 250l361 -21l63 479h272l-104 -479l371 21l-45 -250l-361 22l-125 -827h-272z" />
    <glyph glyph-name="daggerdbl" unicode="&#x2021;" horiz-adv-x="1134" 
d="M788 606l-49 -282l369 20l-43 -248l-363 23l-53 -426h-270l96 426l-373 -23l43 248l365 -20l49 282l-371 -22l43 252l365 -23l47 393h272l-90 -393l371 23l-45 -252z" />
    <glyph glyph-name="bullet" unicode="&#x2022;" horiz-adv-x="739" 
d="M121 526q0 100 71.5 172t169.5 72q100 0 172 -72t72 -172t-72 -171.5t-172 -71.5q-98 0 -169.5 71.5t-71.5 171.5z" />
    <glyph glyph-name="ellipsis" unicode="&#x2026;" horiz-adv-x="1794" 
d="M70 162q0 76 50 128t122 52q78 0 129 -51.5t51 -128.5q0 -73 -51.5 -122.5t-128.5 -49.5q-72 0 -122 50t-50 122zM668 162q0 76 50 128t122 52q78 0 129 -51.5t51 -128.5q0 -73 -51.5 -122.5t-128.5 -49.5q-72 0 -122 50t-50 122zM1266 162q0 76 50 128t122 52
q78 0 129 -51.5t51 -128.5q0 -73 -51.5 -122.5t-128.5 -49.5q-72 0 -122 50t-50 122z" />
    <glyph glyph-name="perthousand" unicode="&#x2030;" horiz-adv-x="2578" 
d="M369 469q-137 0 -204 82t-67 221q0 115 40.5 216t125 168t195.5 67q131 0 201.5 -86t70.5 -226q0 -88 -24 -167.5t-68 -141t-114 -97.5t-156 -36zM440 1049q-39 0 -68.5 -29.5t-45 -74.5t-22.5 -88.5t-7 -82.5q2 -62 25.5 -99.5t68.5 -37.5q37 0 66.5 29.5t45.5 74t24 88
t8 80.5q0 140 -95 140zM418 0l835 1206h177l-842 -1206h-170zM1380 -14q-137 0 -203.5 82t-66.5 221q0 85 24 164.5t68 144t114 103t154 38.5q131 0 202 -85.5t71 -225.5q0 -119 -40.5 -218t-124.5 -161.5t-198 -62.5zM1452 565q-39 0 -68.5 -29t-45 -74t-22.5 -88.5
t-7 -82.5q2 -62 25.5 -99.5t68.5 -37.5q37 0 66.5 29.5t45 74t23.5 88t8 80.5q0 139 -94 139zM2118 -14q-137 0 -204 82t-67 221q0 85 24 164.5t68.5 143.5t114.5 103t154 39q131 0 201.5 -85.5t70.5 -225.5q0 -88 -24 -167.5t-68 -141t-114 -97.5t-156 -36zM2189 565
q-39 0 -68.5 -29t-45 -74t-22.5 -88.5t-7 -82.5q2 -62 25.5 -99.5t68.5 -37.5q37 0 66.5 29.5t45.5 74t24 88t8 80.5q0 139 -95 139z" />
    <glyph glyph-name="tripleprime" unicode="&#x2034;" 
d="M162 844l92 524h268l-196 -524h-164zM522 844l92 524h269l-197 -524h-164zM883 844l92 524h268l-196 -524h-164z" />
    <glyph glyph-name="guilsinglleft" unicode="&#x2039;" horiz-adv-x="710" 
d="M301 483v-8q35 -18 86 -86l158 -211l-162 -129l-330 434l484 435l120 -136l-235 -217q-32 -29 -62 -49.5t-44 -26.5z" />
    <glyph glyph-name="guilsinglright" unicode="&#x203a;" horiz-adv-x="710" 
d="M412 483v9q-35 18 -86 88l-160 208l162 130l329 -435l-483 -434l-121 135l236 219q32 28 62.5 48t45.5 26z" />
    <glyph glyph-name="fraction" unicode="&#x2044;" horiz-adv-x="348" 
d="M-332 0l836 1206h176l-842 -1206h-170z" />
    <glyph glyph-name="uni2070" unicode="&#x2070;" horiz-adv-x="747" 
d="M328 469q-137 0 -204 82t-67 221q0 115 40.5 216t125 168t195.5 67q131 0 201.5 -86t70.5 -226q0 -88 -24 -167.5t-68 -141t-114 -97.5t-156 -36zM399 1049q-39 0 -68.5 -29.5t-45 -74.5t-22.5 -88.5t-7 -82.5q2 -62 25.5 -99.5t68.5 -37.5q37 0 66.5 29.5t45.5 74t24 88
t8 80.5q0 140 -95 140z" />
    <glyph glyph-name="uni2074" unicode="&#x2074;" horiz-adv-x="753" 
d="M344 483l25 144h-357l25 137l440 442h197l-76 -434h102l-26 -145h-103l-24 -144h-203zM399 768l25 133q5 32 14 68.5t15 56.5l6 21h-8q-29 -52 -78 -105l-80 -82q-24 -24 -53 -48t-46 -36l-16 -12v-8q45 12 117 12h104z" />
    <glyph glyph-name="uni2075" unicode="&#x2075;" horiz-adv-x="690" 
d="M94 791l90 415h473l-28 -166h-320l-37 -145q49 55 144 55q92 0 145 -55t53 -150q0 -139 -90.5 -207.5t-230.5 -68.5q-126 0 -195.5 46t-81.5 132l189 64q0 -45 27 -70t75 -25q52 0 82.5 29.5t30.5 87.5q0 43 -21 67.5t-59 24.5q-46 0 -80 -34h-166z" />
    <glyph glyph-name="uni2076" unicode="&#x2076;" horiz-adv-x="716" 
d="M692 1104l-155 -113q-22 70 -99 70q-66 0 -117 -60t-65 -172h8q51 111 182 111q93 0 144 -56.5t51 -142.5q0 -128 -86 -200t-227 -72q-130 0 -200.5 75.5t-70.5 203.5q0 118 35 211.5t93.5 149.5t128.5 85t145 29q89 0 145.5 -27.5t87.5 -91.5zM266 696q0 -33 20.5 -55.5
t59.5 -22.5q49 0 82 30.5t33 82.5q0 35 -20.5 57.5t-59.5 22.5q-45 0 -80 -31.5t-35 -83.5z" />
    <glyph glyph-name="uni2077" unicode="&#x2077;" horiz-adv-x="665" 
d="M428 1040h-199l-20 -112h-168l49 278h598l-24 -145l-373 -578h-232z" />
    <glyph glyph-name="uni2078" unicode="&#x2078;" horiz-adv-x="731" 
d="M326 469q-144 0 -213.5 52.5t-69.5 140.5q0 83 56 133t147 59v6q-63 16 -95 58t-32 96q0 101 83.5 155t219.5 54q129 0 197.5 -51t68.5 -136q0 -76 -46.5 -120.5t-121.5 -57.5v-6q131 -40 131 -164q0 -100 -92.5 -159.5t-232.5 -59.5zM408 1085q-44 0 -73.5 -23.5
t-29.5 -62.5q0 -31 21 -50t57 -19q45 0 77 23t32 67q0 28 -20.5 46.5t-63.5 18.5zM367 786q-55 0 -89 -25t-34 -73q0 -37 24.5 -58.5t69.5 -21.5q51 0 85 27.5t34 75.5q0 35 -24 55t-66 20z" />
    <glyph glyph-name="uni2079" unicode="&#x2079;" horiz-adv-x="704" 
d="M-10 588l155 110q10 -31 43.5 -49t77.5 -18q69 0 119 56.5t61 174.5h-8q-25 -57 -66.5 -83.5t-107.5 -26.5q-96 0 -148.5 56t-52.5 142q0 128 85.5 200.5t224.5 72.5q131 0 202.5 -75.5t71.5 -205.5q0 -119 -30.5 -211t-84 -148.5t-122.5 -85t-150 -28.5q-209 0 -270 119
zM436 997q0 33 -21 55.5t-61 22.5q-49 0 -80.5 -29.5t-31.5 -80.5q0 -36 20 -58t60 -22q45 0 79.5 31t34.5 81z" />
    <glyph glyph-name="uni207A" unicode="&#x207a;" horiz-adv-x="911" 
d="M106 924h291l49 282h134l-48 -282h297l-24 -133h-297l-55 -308h-134l54 308h-291z" />
    <glyph glyph-name="uni207B" unicode="&#x207b;" horiz-adv-x="911" 
d="M807 788h-725l24 136h723z" />
    <glyph glyph-name="uni207C" unicode="&#x207c;" horiz-adv-x="958" 
d="M807 666h-725l22 133h725zM854 936h-725l23 133h725z" />
    <glyph glyph-name="uni207D" unicode="&#x207d;" horiz-adv-x="491" 
d="M336 1303h156q-263 -291 -263 -588q0 -162 99 -342h-152q-44 77 -69 155t-25 187q0 159 66 311t188 277z" />
    <glyph glyph-name="uni207E" unicode="&#x207e;" horiz-adv-x="491" 
d="M158 373h-158q262 290 262 588q0 164 -98 342h153q28 -52 44.5 -90t32.5 -107.5t16 -144.5q0 -159 -65.5 -311t-186.5 -277z" />
    <glyph glyph-name="n.superior" unicode="&#x207f;" horiz-adv-x="866" 
d="M774 1016l-43 -230q-11 -53 41 -53q26 0 49 6l-35 -141q-56 -16 -112 -16q-193 0 -162 174l41 215q21 104 -74 104q-107 0 -139 -153l-66 -334h-213l125 626h187v-124q35 71 88 106t135 35q84 0 134 -44t50 -116q0 -28 -6 -55z" />
    <glyph glyph-name="uni2080" unicode="&#x2080;" horiz-adv-x="747" 
d="M328 -14q-137 0 -204 82t-67 221q0 85 24 164.5t68.5 143.5t114.5 103t154 39q131 0 201.5 -85.5t70.5 -225.5q0 -88 -24 -167.5t-68 -141t-114 -97.5t-156 -36zM399 565q-39 0 -68.5 -29t-45 -74t-22.5 -88.5t-7 -82.5q2 -62 25.5 -99.5t68.5 -37.5q37 0 66.5 29.5
t45.5 74t24 88t8 80.5q0 139 -95 139z" />
    <glyph glyph-name="uni2081" unicode="&#x2081;" horiz-adv-x="641" 
d="M571 0h-563l27 150h190l68 389l-211 -17l29 160l415 41l-102 -573h174z" />
    <glyph glyph-name="uni2082" unicode="&#x2082;" horiz-adv-x="673" 
d="M590 158l-27 -158h-571l22 131q91 53 145.5 86.5t111.5 73t86 69t48 62.5t19 65q0 84 -88 84q-94 0 -117 -127l-164 60q14 103 92.5 169t212.5 66q124 0 196.5 -58t72.5 -165q0 -60 -27 -112.5t-65 -87.5t-94.5 -66.5t-100 -49t-96.5 -34.5v-8h344z" />
    <glyph glyph-name="uni2083" unicode="&#x2083;" horiz-adv-x="651" 
d="M406 369l-3 -4q172 -22 172 -166q0 -103 -85.5 -158t-223.5 -55q-117 0 -187 49.5t-79 138.5l174 55q3 -48 24 -73t68 -25q44 0 71.5 19t27.5 55q0 20 -5.5 35t-21.5 29.5t-50.5 22t-86.5 7.5l20 117q180 5 180 96q0 32 -19 50t-48 18q-79 0 -98 -82l-154 61
q61 180 280 180q112 0 179 -47.5t67 -140.5q0 -75 -52.5 -121.5t-149.5 -60.5z" />
    <glyph glyph-name="uni2084" unicode="&#x2084;" horiz-adv-x="753" 
d="M344 0l25 143h-357l25 138l440 442h197l-76 -434h102l-26 -146h-103l-24 -143h-203zM399 285l25 133q5 32 14 68t15 56l6 21h-8q-29 -51 -78 -104l-80 -82q-24 -24 -53 -48t-46 -36l-16 -12v-9q45 13 117 13h104z" />
    <glyph glyph-name="uni2085" unicode="&#x2085;" horiz-adv-x="690" 
d="M94 307l90 416h473l-28 -166h-320l-37 -145q49 55 144 55q92 0 145 -55t53 -150q0 -139 -90.5 -207.5t-230.5 -68.5q-126 0 -195.5 46t-81.5 132l189 63q0 -45 27 -69.5t75 -24.5q52 0 82.5 29.5t30.5 87.5q0 43 -21 67.5t-59 24.5q-45 0 -80 -35h-166z" />
    <glyph glyph-name="uni2086" unicode="&#x2086;" horiz-adv-x="716" 
d="M692 621l-155 -113q-22 70 -99 70q-66 0 -116 -59.5t-68 -174.5h8q55 113 184 113q93 0 144 -56.5t51 -142.5q0 -128 -86 -200t-227 -72q-130 0 -200.5 75t-70.5 203q0 118 35 211.5t93.5 149.5t128.5 85t145 29q89 0 145.5 -27t87.5 -91zM266 213q0 -33 20.5 -55.5
t59.5 -22.5q49 0 83 30.5t34 82.5q0 34 -21.5 57t-60.5 23q-45 0 -80 -31.5t-35 -83.5z" />
    <glyph glyph-name="uni2087" unicode="&#x2087;" horiz-adv-x="681" 
d="M436 557h-198l-21 -113h-168l49 279h598l-24 -145l-373 -578h-231z" />
    <glyph glyph-name="uni2088" unicode="&#x2088;" horiz-adv-x="731" 
d="M326 -14q-144 0 -213.5 52t-69.5 140q0 83 56 133.5t147 59.5v6q-63 17 -95 58t-32 95q0 101 83.5 155t219.5 54q130 0 198 -50.5t68 -135.5q0 -76 -46.5 -120.5t-121.5 -57.5v-6q131 -40 131 -164q0 -100 -92.5 -159.5t-232.5 -59.5zM408 602q-44 0 -73.5 -23.5
t-29.5 -62.5q0 -31 21 -50.5t57 -19.5q45 0 77 23.5t32 67.5q0 28 -20.5 46.5t-63.5 18.5zM367 303q-55 0 -89 -25t-34 -73q0 -37 24.5 -58.5t69.5 -21.5q52 0 85.5 27t33.5 75q0 35 -24.5 55.5t-65.5 20.5z" />
    <glyph glyph-name="uni2089" unicode="&#x2089;" horiz-adv-x="704" 
d="M-10 104l155 111q10 -32 44 -51t77 -19q69 0 119.5 57.5t63.5 178.5h-9q-50 -113 -176 -113q-96 0 -148.5 56.5t-52.5 142.5q0 128 85.5 200t224.5 72q131 0 202.5 -75t71.5 -205q0 -119 -30.5 -211t-84 -148.5t-122.5 -85t-150 -28.5q-210 0 -270 118zM436 514
q0 34 -21 57t-61 23q-49 0 -81.5 -31t-32.5 -82q0 -35 21 -57.5t61 -22.5q46 0 80 31t34 82z" />
    <glyph glyph-name="uni208A" unicode="&#x208a;" horiz-adv-x="911" 
d="M106 440h291l49 283h134l-48 -283h297l-24 -133h-297l-55 -307h-134l54 307h-291z" />
    <glyph glyph-name="uni208B" unicode="&#x208b;" horiz-adv-x="911" 
d="M807 305h-725l24 135h723z" />
    <glyph glyph-name="uni208C" unicode="&#x208c;" horiz-adv-x="958" 
d="M807 182h-725l22 133h725zM854 453h-725l23 133h725z" />
    <glyph glyph-name="uni208D" unicode="&#x208d;" horiz-adv-x="491" 
d="M336 819h156q-263 -291 -263 -588q0 -162 99 -342h-152q-44 77 -69 155t-25 187q0 159 66 311t188 277z" />
    <glyph glyph-name="uni208E" unicode="&#x208e;" horiz-adv-x="491" 
d="M158 -111h-158q262 290 262 588q0 164 -98 342h153q28 -52 44.5 -90t32.5 -107.5t16 -144.5q0 -159 -65.5 -311t-186.5 -277z" />
    <glyph glyph-name="uni20A1" unicode="&#x20a1;" horiz-adv-x="1058" 
d="M395 -193l62 173q-41 3 -78 12l-57 -164l-99 35l60 164q-197 107 -197 370q0 124 35 232.5t102.5 193t174.5 134.5t241 51l59 166l97 -37l-50 -138q46 -7 74 -18l51 137l97 -35l-56 -147q98 -72 127 -215l-233 -80l-154 -428q81 36 129 141l193 -131
q-68 -118 -166.5 -178.5t-243.5 -67.5l-71 -202zM461 215q46 -16 76 -16l196 542q-25 31 -67 43zM346 414q0 -78 33 -125l176 495q-93 -25 -151 -126.5t-58 -243.5z" />
    <glyph glyph-name="uni20A2" unicode="&#x20a2;" horiz-adv-x="1048" 
d="M928 586l-43 -217q-36 16 -74 18.5t-72.5 -9t-60 -43t-33.5 -79.5l-16 -82q56 13 95.5 50.5t72.5 101.5l180 -115q-71 -123 -182.5 -179.5t-278.5 -56.5q-195 0 -312.5 109t-117.5 313q0 124 35.5 233t103 194t175.5 134.5t243 49.5q176 0 266.5 -72.5t118.5 -204.5
l-215 -92q-8 75 -52 119.5t-128 44.5q-127 0 -203 -110t-76 -283q0 -151 88 -209l68 374h166l-6 -169q34 96 107 148t151 32z" />
    <glyph glyph-name="franc" unicode="&#x20a3;" horiz-adv-x="987" 
d="M733 291h-266l-51 -291h-277l49 291h-147l20 108h146l16 97h-145l18 108h148l67 381h721l-39 -223h-444l-27 -158h266l-18 -108h-266l-19 -97h269z" />
    <glyph glyph-name="lira" unicode="&#x20a4;" horiz-adv-x="1034" 
d="M758 332h-256q-15 -39 -43 -68t-62 -41h271q54 0 95 19t73 77l170 -110q-34 -100 -123 -154.5t-205 -54.5h-649l39 225h88q48 0 82 30.5t43 76.5h-199l20 106h181l-13 66h-151l18 106h105q-4 40 -4 78q0 154 117 237t288 83q76 0 137 -14.5t110.5 -46t77 -87.5t27.5 -133
l-254 -43q0 115 -125 115q-61 0 -98 -35t-37 -94q0 -39 8 -60h324l-18 -106h-279q4 -20 8 -66h254z" />
    <glyph glyph-name="uni20A6" unicode="&#x20a6;" horiz-adv-x="1458" 
d="M1384 528h-178l-18 -108h180l-18 -109h-181l-55 -311h-252l-237 424q-26 48 -46.5 101t-28.5 81l-7 29h-8q-6 -125 -37 -297l-60 -338h-274l53 311h-174l18 109h175l18 108h-172l20 109h170l64 348h295l211 -401q22 -44 39 -89.5t23 -69.5l7 -24h9q9 121 36 275l56 309
h274l-61 -348h180z" />
    <glyph glyph-name="peseta" unicode="&#x20a7;" horiz-adv-x="2385" 
d="M1466 248l224 71q7 -78 57.5 -119.5t118.5 -41.5q58 0 92.5 23t34.5 71t-31 75.5t-119 51.5q-113 30 -172 78.5t-78 120.5h-188l-100 -578h-279l100 578h-135q-28 -174 -153.5 -254t-311.5 -80h-145l-41 -244h-279l172 985h388q291 0 358 -184h623q20 56 60 97t93 64.5
t110.5 34.5t121.5 11q186 0 276 -71t90 -204l-235 -57q0 64 -40.5 100.5t-107.5 36.5q-59 0 -93 -25.5t-34 -70.5q0 -42 31.5 -65.5t134.5 -55.5q152 -45 207 -115.5t55 -187.5q0 -161 -113 -239.5t-307 -78.5q-370 0 -385 273zM473 766l-53 -303h121q89 0 138.5 44
t49.5 136q0 64 -34 93.5t-105 29.5h-117z" />
    <glyph glyph-name="uni20A8" unicode="&#x20a8;" horiz-adv-x="1712" 
d="M473 766l-43 -252h148q165 0 165 150q0 52 -27 77t-89 25h-154zM1260 -25q-302 0 -476 146l-112 90q-4 3 -26 23t-28 24t-27 17.5t-36 17t-40.5 8t-55.5 4.5h-66l-53 -305h-279l172 985h439q176 0 261 -72t85 -204q0 -142 -82 -216t-215 -85v-7q73 -4 123.5 -25.5
t101.5 -62.5l109 -84q71 -54 123 -80t104 -26q40 0 65 15.5t25 47.5q0 34 -19.5 55.5t-76.5 43.5q-112 40 -156.5 96.5t-44.5 146.5q0 66 27.5 116t73.5 77.5t99 41t111 13.5q141 0 211 -53.5t70 -151.5l-186 -49q0 46 -29 72.5t-76 26.5q-40 0 -65 -19.5t-25 -50.5
q0 -30 24.5 -47.5t106.5 -46.5q96 -34 140.5 -86.5t44.5 -137.5q0 -258 -342 -258z" />
    <glyph glyph-name="uni20A9" unicode="&#x20a9;" horiz-adv-x="1800" 
d="M1733 551h-209l-45 -111h237l-20 -106h-262l-138 -334h-340l-43 432q-6 69 -6 142.5t3 111.5l3 39h-8q-31 -154 -88 -295l-182 -430h-340l-19 334h-239l20 106h213l-8 111h-184l18 106h160l-18 328h276l18 -498q2 -62 0 -134t-5 -113l-3 -41h6q29 147 84 284l201 502h289
l37 -498q3 -73 2 -136t-5 -105l-3 -43h6q25 145 80 284l200 498h283l-137 -328h184z" />
    <glyph glyph-name="uni20AA" unicode="&#x20aa;" horiz-adv-x="1644" 
d="M1096 309h-234l64 355q10 58 -14 88t-93 30h-346l-135 -782h-277l172 985h658q174 0 234.5 -81.5t35.5 -229.5zM1333 985h277l-119 -674q-27 -150 -115 -230.5t-262 -80.5h-653l119 674h231l-82 -471h348q57 0 94 31t46 83z" />
    <glyph glyph-name="Euro" unicode="&#x20ac;" horiz-adv-x="1138" 
d="M750 539h-287q-12 -46 -12 -97h268l-41 -106h-217q37 -141 182 -141q73 0 119 42t82 121l223 -133q-73 -128 -181.5 -189t-273.5 -61q-179 0 -291.5 92.5t-130.5 268.5h-149l20 106h127q1 20 6.5 56.5t6.5 40.5h-123l18 108h131q57 164 187 262.5t325 98.5q95 0 166 -21
t116.5 -61.5t72.5 -90t41 -114.5l-248 -90q-8 66 -53 107.5t-119 41.5q-68 0 -123.5 -35t-89.5 -98h289z" />
    <glyph glyph-name="uni20AE" unicode="&#x20ae;" horiz-adv-x="1005" 
d="M831 524l-210 -37l-17 -96l209 35l-18 -107l-209 -36l-49 -283h-281l43 236l-219 -35l20 106l215 35l19 98l-217 -34l18 106l217 35l37 215h-309l39 223h903l-39 -223h-313l-31 -166l211 35z" />
    <glyph glyph-name="uni20B1" unicode="&#x20b1;" horiz-adv-x="1239" 
d="M395 0h-278l98 561h-149l18 107h149l56 317h387q379 0 379 -317h149l-18 -107h-142q-16 -85 -58.5 -147.5t-105.5 -99t-137 -53.5t-161 -17h-146zM594 446q64 0 110 29.5t66 85.5h-278l-19 -115h121zM530 778l-20 -110h272q-12 110 -135 110h-117z" />
    <glyph glyph-name="afii61289" unicode="&#x2113;" horiz-adv-x="806" 
d="M80 248l-62 112l164 113v477q0 224 80 322t238 98q270 0 270 -262q0 -115 -25.5 -216.5t-73.5 -183.5t-104 -145.5t-129 -124.5v-71q0 -90 30 -124t95 -34q62 0 131 31l-16 -232q-104 -33 -205 -33q-61 0 -111 13.5t-91.5 42.5t-65 81.5t-23.5 123.5v79zM438 1004v-400
q91 91 139 205.5t48 296.5q0 113 -90 113q-50 0 -73.5 -51.5t-23.5 -163.5z" />
    <glyph glyph-name="afii61352" unicode="&#x2116;" horiz-adv-x="2295" 
d="M1470 0l35 197h672l-35 -197h-672zM1929 975q142 0 223.5 -74t81.5 -205q0 -104 -40.5 -188.5t-127.5 -138.5t-208 -54q-137 0 -222.5 69.5t-85.5 197.5q0 79 24 149t70 125t119.5 87t165.5 32zM1913 809q-66 0 -103.5 -62t-37.5 -157q0 -57 25 -88t69 -31
q66 0 103.5 62.5t37.5 160.5q0 56 -25 85.5t-69 29.5zM1391 899l-156 -899h-252l-287 559q-25 49 -46 102.5t-30 82.5l-8 28h-8q-6 -111 -35 -285l-43 -237q-26 -152 -98 -213.5t-215 -61.5q-117 0 -197 48l58 219q50 -37 96 -37q38 0 57.5 20t28.5 66l160 915h260l280 -571
q23 -44 42 -93.5t26 -76.5l8 -27h8q10 115 37 269l43 249q27 149 104 212t212 63q119 0 194 -47l-57 -236q-51 35 -98 35q-37 0 -56 -19t-28 -65z" />
    <glyph glyph-name="published" unicode="&#x2117;" horiz-adv-x="1429" 
d="M723 823l-41 -235h80q66 0 104.5 35t38.5 104q0 51 -25 73.5t-79 22.5h-78zM621 227h-220l134 768h288q295 0 295 -247q0 -89 -28.5 -155t-80.5 -103.5t-116 -55.5t-143 -18h-99zM113 602q0 179 84 323.5t227 225t315 80.5q128 0 244 -47.5t200.5 -129.5t134.5 -200
t50 -252t-50 -251.5t-134.5 -199.5t-200.5 -129t-244 -47t-243.5 47t-199.5 129t-133.5 199.5t-49.5 251.5zM176 602q0 -163 77 -294t206 -202t284 -71q115 0 218.5 42t179.5 115.5t121 180t45 229.5q0 162 -76.5 293.5t-205 203.5t-282.5 72q-115 0 -219.5 -42.5t-181 -117
t-121.5 -181t-45 -228.5z" />
    <glyph glyph-name="servicemark" unicode="&#x2120;" horiz-adv-x="1343" 
d="M94 831l142 35q4 -38 29.5 -58t62.5 -20q71 0 71 46q0 21 -17 32.5t-69 24.5q-90 23 -125.5 60.5t-35.5 101.5q0 60 37 99.5t87.5 54t112.5 14.5q217 0 217 -144l-145 -28q0 33 -23.5 51t-60.5 18q-28 0 -46 -11.5t-18 -31.5q0 -22 19 -34t82 -31q84 -23 119.5 -60
t35.5 -96q0 -84 -67 -124t-180 -40q-219 0 -228 141zM1227 698h-154l55 283h-8l-114 -162h-95l-47 162h-10l-57 -283h-154l102 508h162l80 -217h2l166 217h172z" />
    <glyph glyph-name="trademark" unicode="&#x2122;" horiz-adv-x="1310" 
d="M360 698h-153l76 383h-140l25 125h434l-24 -125h-142zM1192 698h-154l58 283h-9l-116 -162h-92l-50 162h-10l-55 -283h-154l101 508h163l78 -217h4l164 217h174z" />
    <glyph glyph-name="estimated" unicode="&#x212e;" horiz-adv-x="1325" 
d="M662 1231q145 0 257.5 -53t179.5 -143t100.5 -199.5t33.5 -233.5v-53h-883v-346q119 -119 312 -119q266 0 376 213h136q-62 -149 -190.5 -235.5t-321.5 -86.5q-116 0 -211.5 35t-161 94.5t-111 140t-66 170.5t-20.5 187q0 98 21 188t66 171t110.5 140.5t161 94.5
t211.5 35zM662 1122q-197 0 -312 -118v-349h625v349q-115 118 -313 118z" />
    <glyph glyph-name="uni2153" unicode="&#x2153;" horiz-adv-x="1822" 
d="M594 483h-559l26 150h187l67 389l-211 -16l29 159l416 41l-103 -573h175zM406 0l835 1206h176l-842 -1206h-169zM1491 369l-2 -4q172 -22 172 -166q0 -103 -85.5 -158t-223.5 -55q-117 0 -187.5 49.5t-79.5 138.5l175 55q3 -48 24 -73t68 -25q44 0 71 19t27 55
q0 20 -5.5 35t-21.5 29.5t-50.5 22t-86.5 7.5l21 117q180 5 180 96q0 32 -19.5 50t-48.5 18q-79 0 -98 -82l-154 61q61 180 281 180q112 0 179 -47.5t67 -140.5q0 -75 -53 -121.5t-150 -60.5z" />
    <glyph glyph-name="uni2154" unicode="&#x2154;" horiz-adv-x="1822" 
d="M614 641l-26 -158h-572l23 131q114 66 178 107t123.5 87t84 84.5t24.5 78.5q0 84 -89 84q-93 0 -116 -127l-164 59q14 103 92.5 169.5t212.5 66.5q124 0 196 -58.5t72 -165.5q0 -60 -27 -112.5t-65 -87.5t-94.5 -66.5t-100 -49t-96.5 -34.5v-8h344zM406 0l835 1206h176
l-842 -1206h-169zM1491 369l-2 -4q172 -22 172 -166q0 -103 -85.5 -158t-223.5 -55q-117 0 -187.5 49.5t-79.5 138.5l175 55q3 -48 24 -73t68 -25q44 0 71 19t27 55q0 20 -5.5 35t-21.5 29.5t-50.5 22t-86.5 7.5l21 117q180 5 180 96q0 32 -19.5 50t-48.5 18q-79 0 -98 -82
l-154 61q61 180 281 180q112 0 179 -47.5t67 -140.5q0 -75 -53 -121.5t-150 -60.5z" />
    <glyph glyph-name="uni215B" unicode="&#x215b;" horiz-adv-x="1822" 
d="M594 483h-559l26 150h187l67 389l-211 -16l29 159l416 41l-103 -573h175zM406 0l835 1206h176l-842 -1206h-169zM1411 -14q-144 0 -213.5 52t-69.5 140q0 83 56 133.5t147 59.5v6q-63 17 -95 58t-32 95q0 101 83.5 155t219.5 54q130 0 198.5 -50.5t68.5 -135.5
q0 -76 -46.5 -120.5t-121.5 -57.5v-6q131 -40 131 -164q0 -100 -93 -159.5t-233 -59.5zM1493 602q-44 0 -73 -23.5t-29 -62.5q0 -31 20.5 -50.5t56.5 -19.5q45 0 77 23.5t32 67.5q0 28 -20.5 46.5t-63.5 18.5zM1452 303q-55 0 -89 -25t-34 -73q0 -37 24.5 -58.5t69.5 -21.5
q52 0 85.5 27t33.5 75q0 35 -24.5 55.5t-65.5 20.5z" />
    <glyph glyph-name="uni215C" unicode="&#x215c;" horiz-adv-x="1822" 
d="M449 852l-3 -4q172 -22 172 -166q0 -103 -85.5 -158t-223.5 -55q-117 0 -187 49.5t-79 138.5l174 56q3 -48 24 -73.5t68 -25.5q44 0 71.5 19t27.5 55q0 20 -5.5 35t-21.5 29.5t-50.5 22t-86.5 7.5l20 117q180 5 180 96q0 32 -19 50t-48 18q-79 0 -98 -82l-154 61
q61 181 281 181q112 0 178.5 -48t66.5 -141q0 -75 -52.5 -121.5t-149.5 -60.5zM406 0l835 1206h176l-842 -1206h-169zM1411 -14q-144 0 -213.5 52t-69.5 140q0 83 56 133.5t147 59.5v6q-63 17 -95 58t-32 95q0 101 83.5 155t219.5 54q130 0 198.5 -50.5t68.5 -135.5
q0 -76 -46.5 -120.5t-121.5 -57.5v-6q131 -40 131 -164q0 -100 -93 -159.5t-233 -59.5zM1493 602q-44 0 -73 -23.5t-29 -62.5q0 -31 20.5 -50.5t56.5 -19.5q45 0 77 23.5t32 67.5q0 28 -20.5 46.5t-63.5 18.5zM1452 303q-55 0 -89 -25t-34 -73q0 -37 24.5 -58.5t69.5 -21.5
q52 0 85.5 27t33.5 75q0 35 -24.5 55.5t-65.5 20.5z" />
    <glyph glyph-name="uni215D" unicode="&#x215d;" horiz-adv-x="1822" 
d="M115 791l90 415h473l-29 -166h-319l-37 -145q49 55 143 55q92 0 145.5 -55t53.5 -150q0 -139 -91 -207.5t-231 -68.5q-251 0 -276 178l188 64q0 -45 27.5 -70t75.5 -25q52 0 82 29.5t30 87.5q0 43 -21 67.5t-59 24.5q-45 0 -79 -34h-166zM406 0l835 1206h176l-842 -1206
h-169zM1411 -14q-144 0 -213.5 52t-69.5 140q0 83 56 133.5t147 59.5v6q-63 17 -95 58t-32 95q0 101 83.5 155t219.5 54q130 0 198.5 -50.5t68.5 -135.5q0 -76 -46.5 -120.5t-121.5 -57.5v-6q131 -40 131 -164q0 -100 -93 -159.5t-233 -59.5zM1493 602q-44 0 -73 -23.5
t-29 -62.5q0 -31 20.5 -50.5t56.5 -19.5q45 0 77 23.5t32 67.5q0 28 -20.5 46.5t-63.5 18.5zM1452 303q-55 0 -89 -25t-34 -73q0 -37 24.5 -58.5t69.5 -21.5q52 0 85.5 27t33.5 75q0 35 -24.5 55.5t-65.5 20.5z" />
    </font>
</defs>
</svg>
