<?xml version="1.0" standalone="no"?>
<!DOCTYPE svg PUBLIC "-//W3C//DTD SVG 1.1//EN" "http://www.w3.org/Graphics/SVG/1.1/DTD/svg11.dtd" >
<svg xmlns="http://www.w3.org/2000/svg" xmlns:xlink="http://www.w3.org/1999/xlink" version="1.1">
<metadata>
Created by FontForge 20170731 at Fri Sep 17 22:21:34 2021
 By Aleksey,,,
Copyright (c) 2004-9 by Kris Sowersby. All rights reserved.
</metadata>
<defs>
<font id="National-ExtraboldItalic" horiz-adv-x="1165" >
  <font-face 
    font-family="National Extrabold Italic"
    font-weight="910"
    font-style="italic"
    font-stretch="normal"
    units-per-em="2048"
    panose-1="2 0 5 3 0 0 0 2 0 4"
    ascent="1638"
    descent="-410"
    x-height="946"
    cap-height="1206"
    bbox="-328 -528 2607 2071"
    underline-thickness="116"
    underline-position="-173"
    unicode-range="U+0020-F778"
  />
<missing-glyph horiz-adv-x="1546" 
d="M170 0v1206h1206v-1206h-1206zM772 541l-453 -453h908zM319 1118l453 -454l455 454h-908zM834 602l454 -452v907zM711 602l-453 455v-907z" />
    <glyph glyph-name="f_b" unicode="fb" horiz-adv-x="1816" 
d="M1098 512l-21 -113q-16 -91 16 -152t105 -61q69 0 121.5 53t77 132t24.5 170q0 94 -39.5 143t-107.5 49q-63 0 -109.5 -55.5t-66.5 -165.5zM698 0l197 1118q-67 39 -141 39q-150 0 -179 -141l-14 -70h170l-41 -233h-170l-149 -856q-28 -159 -102.5 -224t-229.5 -65
q-123 0 -203 45l55 215q48 -33 93 -33q36 0 55 19.5t27 62.5l145 836h-141l41 233h141l14 80q17 94 60 164.5t104.5 112t132.5 61.5t152 20q133 0 241 -47l293 31l-108 -604q80 205 295 205q144 0 231.5 -100t87.5 -298q0 -169 -56 -303t-166.5 -213.5t-260.5 -79.5
q-97 0 -166 41.5t-82 122.5l-84 -139h-242z" />
    <glyph glyph-name="f_f_b" unicode="ffb" horiz-adv-x="2428" 
d="M1710 512l-20 -113q-16 -91 15.5 -152t104.5 -61q69 0 121.5 52.5t77.5 132t25 170.5q0 94 -40 143t-108 49q-63 0 -109.5 -55.5t-66.5 -165.5zM1311 0l196 1118q-67 39 -141 39q-149 0 -178 -141l-14 -70h169l-40 -233h-170l-148 -830q-28 -159 -102.5 -224t-229.5 -65
q-120 0 -202 46l55 215q48 -33 92 -33q36 0 55 19.5t27 62.5l143 809h-303l-149 -856q-28 -159 -102.5 -224t-229.5 -65q-123 0 -203 45l55 215q48 -33 93 -33q36 0 55 19.5t27 62.5l145 836h-141l41 233h141l8 60q58 362 379 362q71 0 118.5 -11t104.5 -42l-90 -250
q-41 49 -94 49q-40 0 -64 -22.5t-36 -73.5l-17 -72h303l15 80q17 94 60 164.5t104 112t132 61.5t152 20q134 0 242 -47l293 31l-109 -604q80 205 295 205q144 0 231.5 -100t87.5 -298q0 -169 -56 -303t-166.5 -213.5t-260.5 -79.5q-97 0 -166 41.5t-82 122.5l-84 -139h-241z
" />
    <glyph glyph-name="f_f_h" unicode="ffh" horiz-adv-x="2426" 
d="M1311 0l196 1118q-67 39 -141 39q-149 0 -178 -141l-14 -70h169l-40 -233h-170l-148 -830q-28 -159 -102.5 -224t-229.5 -65q-120 0 -202 46l55 215q48 -33 92 -33q36 0 55 19.5t27 62.5l143 809h-303l-149 -856q-28 -159 -102.5 -224t-229.5 -65q-123 0 -203 45l55 215
q48 -33 93 -33q36 0 55 19.5t27 62.5l145 836h-141l41 233h141l8 60q58 362 379 362q71 0 118.5 -11t104.5 -42l-90 -250q-41 49 -94 49q-40 0 -64 -22.5t-36 -73.5l-17 -72h303l15 80q17 94 60 164.5t104 112t132 61.5t152 20q134 0 242 -47l293 31l-109 -614
q46 109 115.5 162t183.5 53q112 0 178 -66.5t66 -175.5q0 -43 -6 -80l-54 -325q-7 -39 4.5 -61.5t53.5 -22.5q19 0 61 10l-49 -232q-83 -26 -162 -26q-276 0 -229 276l51 295q25 156 -96 156q-58 0 -100 -53t-62 -162l-88 -502h-309z" />
    <glyph glyph-name="f_f_j" unicode="ffj" horiz-adv-x="1806" 
d="M1436 713h-303l-148 -830q-28 -159 -102.5 -224t-229.5 -65q-120 0 -202 46l55 215q48 -33 92 -33q36 0 55 19.5t27 62.5l143 809h-303l-149 -856q-28 -159 -102.5 -224t-229.5 -65q-123 0 -203 45l55 215q48 -33 93 -33q36 0 55 19.5t27 62.5l145 836h-141l41 233h141
l8 60q58 362 379 362q71 0 118.5 -11t104.5 -42l-90 -250q-41 49 -94 49q-40 0 -64 -22.5t-36 -73.5l-17 -72h303l17 76q78 362 434 362q187 0 309 -73l-90 -258q-99 82 -191 82q-66 0 -104 -33.5t-53 -102.5l-12 -53h612l-189 -1063q-28 -159 -102 -224t-229 -65
q-121 0 -203 46l55 215q48 -33 92 -33q36 0 55 19.5t27 62.5z" />
    <glyph glyph-name="f_f_k" unicode="ffk" horiz-adv-x="2369" 
d="M1311 0l196 1118q-67 39 -141 39q-149 0 -178 -141l-14 -70h169l-40 -233h-170l-148 -830q-28 -159 -102.5 -224t-229.5 -65q-120 0 -202 46l55 215q48 -33 92 -33q36 0 55 19.5t27 62.5l143 809h-303l-149 -856q-28 -159 -102.5 -224t-229.5 -65q-123 0 -203 45l55 215
q48 -33 93 -33q36 0 55 19.5t27 62.5l145 836h-141l41 233h141l8 60q58 362 379 362q71 0 118.5 -11t104.5 -42l-90 -250q-41 49 -94 49q-40 0 -64 -22.5t-36 -73.5l-17 -72h303l15 80q17 94 60 164.5t104 112t132 61.5t152 20q134 0 242 -47l293 31l-131 -741h47l280 319
h373l-410 -442l109 -205q27 -51 66 -60t102 13l-49 -240q-75 -22 -154 -22q-81 0 -138.5 33.5t-94.5 119.5l-109 250h-63l-70 -393h-309z" />
    <glyph glyph-name="f_h" unicode="fh" horiz-adv-x="1814" 
d="M698 0l197 1118q-67 39 -141 39q-150 0 -179 -141l-14 -70h170l-41 -233h-170l-149 -856q-28 -159 -102.5 -224t-229.5 -65q-123 0 -203 45l55 215q48 -33 93 -33q36 0 55 19.5t27 62.5l145 836h-141l41 233h141l14 80q17 94 60 164.5t104.5 112t132.5 61.5t152 20
q133 0 241 -47l293 31l-108 -614q46 109 115.5 162t183.5 53q112 0 177.5 -66t65.5 -176q0 -43 -6 -80l-53 -325q-7 -39 4 -61.5t53 -22.5q20 0 62 10l-49 -232q-83 -26 -162 -26q-276 0 -229 276l51 295q25 156 -97 156t-161 -215l-88 -502h-310z" />
    <glyph glyph-name="f_j" unicode="fj" horiz-adv-x="1193" 
d="M1174 946l-189 -1063q-28 -159 -102.5 -224t-229.5 -65q-120 0 -202 46l55 215q48 -33 92 -33q36 0 55 19.5t27 62.5l143 809h-303l-149 -856q-28 -159 -102.5 -224t-229.5 -65q-123 0 -203 45l55 215q48 -33 93 -33q36 0 55 19.5t27 62.5l145 836h-141l41 233h141l16 76
q78 362 434 362q188 0 310 -73l-90 -258q-99 82 -191 82q-128 0 -158 -136l-12 -53h613z" />
    <glyph glyph-name="f_k" unicode="fk" horiz-adv-x="1757" 
d="M698 0l197 1118q-67 39 -141 39q-150 0 -179 -141l-14 -70h170l-41 -233h-170l-149 -856q-28 -159 -102.5 -224t-229.5 -65q-123 0 -203 45l55 215q48 -33 93 -33q36 0 55 19.5t27 62.5l145 836h-141l41 233h141l14 80q17 94 60 164.5t104.5 112t132.5 61.5t152 20
q133 0 241 -47l293 31l-131 -741h47l281 319h373l-410 -442l109 -205q27 -51 66 -60t102 13l-50 -240q-75 -22 -153 -22q-53 0 -93.5 12.5t-77.5 47.5t-63 93l-108 250h-64l-69 -393h-310z" />
    <glyph glyph-name="ff" unicode="ff" horiz-adv-x="1347" 
d="M1133 713l-148 -830q-28 -159 -102.5 -224t-229.5 -65q-120 0 -202 46l55 215q48 -33 92 -33q36 0 55 19.5t27 62.5l143 809h-303l-149 -856q-28 -159 -102.5 -224t-229.5 -65q-123 0 -203 45l55 215q48 -33 93 -33q36 0 55 19.5t27 62.5l145 836h-141l41 233h141l8 60
q58 362 379 362q71 0 118.5 -11t104.5 -42l-90 -250q-41 49 -94 49q-40 0 -64 -22.5t-36 -73.5l-17 -72h303l13 76q15 94 55 165t98.5 113.5t128 63t150.5 20.5q144 0 264 -53l-90 -250q-70 49 -164 49q-58 0 -88 -27t-41 -81l-16 -76h241l-41 -233h-241z" />
    <glyph glyph-name="ffi" unicode="ffi" horiz-adv-x="1875" 
d="M1786 946l-109 -624q-7 -39 4.5 -61.5t53.5 -22.5q19 0 61 10l-49 -232q-83 -26 -162 -26q-276 0 -229 276l78 447h-301l-148 -830q-28 -159 -102.5 -224t-229.5 -65q-120 0 -202 46l55 215q48 -33 92 -33q36 0 55 19.5t27 62.5l143 809h-303l-149 -856
q-28 -159 -102.5 -224t-229.5 -65q-123 0 -203 45l55 215q48 -33 93 -33q36 0 55 19.5t27 62.5l145 836h-141l41 233h141l8 60q58 362 379 362q71 0 118.5 -11t104.5 -42l-90 -250q-41 49 -94 49q-40 0 -64 -22.5t-36 -73.5l-17 -72h303l17 76q78 362 434 362q187 0 309 -73
l-90 -258q-99 82 -191 82q-66 0 -104 -33.5t-53 -102.5l-12 -53h612z" />
    <glyph glyph-name="ffl" unicode="ffl" horiz-adv-x="1882" 
d="M1133 713l-148 -830q-28 -159 -102.5 -224t-229.5 -65q-120 0 -202 46l55 215q48 -33 92 -33q36 0 55 19.5t27 62.5l143 809h-303l-149 -856q-28 -159 -102.5 -224t-229.5 -65q-123 0 -203 45l55 215q48 -33 93 -33q36 0 55 19.5t27 62.5l145 836h-141l41 233h141l8 60
q58 362 379 362q71 0 118.5 -11t104.5 -42l-90 -250q-41 49 -94 49q-40 0 -64 -22.5t-36 -73.5l-17 -72h303l15 80q17 94 60 164.5t104 112t132 61.5t152 20q134 0 242 -47l293 31l-185 -1046q-7 -39 4.5 -61.5t53.5 -22.5q19 0 61 10l-49 -232q-83 -26 -162 -26
q-276 0 -229 276l151 852q-67 39 -141 39q-149 0 -178 -141l-14 -70h169l-40 -233h-170z" />
    <glyph glyph-name="fi" unicode="fi" horiz-adv-x="1263" 
d="M1174 946l-109 -624q-7 -39 4 -61.5t53 -22.5q20 0 62 10l-49 -232q-83 -26 -162 -26q-277 0 -230 276l78 447h-301l-149 -856q-28 -159 -102.5 -224t-229.5 -65q-123 0 -203 45l55 215q48 -33 93 -33q36 0 55 19.5t27 62.5l145 836h-141l41 233h141l16 76
q78 362 434 362q188 0 310 -73l-90 -258q-99 82 -191 82q-128 0 -158 -136l-12 -53h613z" />
    <glyph glyph-name="fl" unicode="fl" horiz-adv-x="1269" 
d="M520 713l-149 -856q-28 -159 -102.5 -224t-229.5 -65q-123 0 -203 45l55 215q48 -33 93 -33q36 0 55 19.5t27 62.5l145 836h-141l41 233h141l14 80q17 94 60 164.5t104.5 112t132.5 61.5t152 20q133 0 241 -47l293 31l-184 -1046q-7 -39 4 -61.5t53 -22.5q20 0 62 10
l-49 -232q-83 -26 -162 -26q-277 0 -230 276l152 852q-67 39 -141 39q-150 0 -179 -141l-14 -70h170l-41 -233h-170z" />
    <glyph glyph-name=".notdef" horiz-adv-x="1546" 
d="M170 0v1206h1206v-1206h-1206zM772 541l-453 -453h908zM319 1118l453 -454l455 454h-908zM834 602l454 -452v907zM711 602l-453 455v-907z" />
    <glyph glyph-name=".null" horiz-adv-x="0" 
 />
    <glyph glyph-name="nonmarkingreturn" horiz-adv-x="682" 
 />
    <glyph glyph-name="space" unicode=" " horiz-adv-x="452" 
 />
    <glyph glyph-name="exclam" unicode="!" horiz-adv-x="571" 
d="M233 1206h373l-246 -784h-200zM27 158q0 76 52 123t130 47q81 0 133.5 -46.5t52.5 -123.5q0 -75 -52.5 -121.5t-133.5 -46.5q-78 0 -130 46.5t-52 121.5z" />
    <glyph glyph-name="quotedbl" unicode="&#x22;" horiz-adv-x="823" 
d="M164 844l92 524h291l-203 -524h-180zM543 844l92 524h291l-203 -524h-180z" />
    <glyph glyph-name="numbersign" unicode="#" horiz-adv-x="1409" 
d="M1231 233h-338l-113 -233h-237l112 233h-176l-112 -233h-238l113 233h-181l35 205h244l70 144h-246l35 204h311l96 199h242l-98 -199h174l96 199h242l-99 -199h205l-35 -204h-270l-70 -144h273zM649 582l-69 -144h174l69 144h-174z" />
    <glyph glyph-name="dollar" unicode="$" horiz-adv-x="997" 
d="M20 248l244 82q7 -62 41.5 -103.5t87.5 -56.5l35 195q-6 0 -10 4q-161 47 -225 115.5t-64 187.5q0 72 24.5 129.5t64 94.5t94.5 62.5t111 36.5t118 13l30 168h103l-31 -172q153 -13 238.5 -86t85.5 -189l-260 -65q0 49 -25.5 88t-73.5 53l-37 -203l27 -6
q160 -42 225.5 -112.5t65.5 -186.5q0 -106 -58 -179t-152 -106.5t-218 -36.5l-33 -192h-102l34 197q-154 12 -243.5 80.5t-96.5 187.5zM608 252q0 28 -19 46t-65 36l-28 -170q57 5 84.5 25t27.5 63zM399 721q0 -29 14.5 -48t61.5 -38l33 178q-58 -6 -83.5 -28t-25.5 -64z
" />
    <glyph glyph-name="percent" unicode="%" horiz-adv-x="1865" 
d="M379 469q-141 0 -209 82t-68 221q0 117 42 218.5t128 167t199 65.5q135 0 207 -86.5t72 -225.5q0 -189 -99.5 -315.5t-271.5 -126.5zM451 1032q-36 0 -63.5 -27t-41.5 -69t-20.5 -83t-6.5 -77q0 -55 21.5 -89t62.5 -34q35 0 62 27.5t41.5 69t21.5 82.5t7 75
q0 125 -84 125zM426 0l836 1206h188l-842 -1206h-182zM1393 -14q-141 0 -209 82t-68 221q0 117 42 218t128 166.5t199 65.5q135 0 206.5 -86t71.5 -225q0 -189 -99 -315.5t-271 -126.5zM1464 549q-36 0 -63 -27t-41 -69.5t-20.5 -83t-6.5 -76.5q0 -55 21.5 -89t62.5 -34
q35 0 61.5 27.5t41 69.5t21.5 82.5t7 74.5q0 125 -84 125z" />
    <glyph glyph-name="ampersand" unicode="&#x26;" horiz-adv-x="1202" 
d="M1139 164l-236 -195l-115 129q-95 -65 -189.5 -94t-219.5 -29q-167 0 -268 78.5t-101 227.5q0 258 330 325l-59 70q-86 99 -86 227q0 84 36.5 148.5t99 102.5t139.5 57.5t165 19.5q162 0 262 -70t100 -200q0 -59 -20 -107.5t-51.5 -80t-74.5 -54.5t-84.5 -35t-86.5 -18
l180 -199q54 70 76 178l246 -104q-21 -62 -73.5 -129t-102.5 -111zM315 317q0 -52 37.5 -86t100.5 -34q111 0 196 61l-219 252q-115 -70 -115 -193zM610 1030q-52 0 -83 -27t-31 -69q0 -26 10.5 -48.5t38.5 -56.5l57 -71q50 27 82.5 76t32.5 92q0 51 -28 77.5t-79 26.5z" />
    <glyph glyph-name="quotesingle" unicode="'" horiz-adv-x="444" 
d="M164 844l92 524h291l-203 -524h-180z" />
    <glyph glyph-name="parenleft" unicode="(" horiz-adv-x="772" 
d="M416 279q0 -194 43 -356t149 -337h-303q-182 282 -182 674q0 354 129 632.5t348 475.5h336q-96 -97 -164 -175t-140 -184t-116 -210t-72 -238t-28 -282z" />
    <glyph glyph-name="parenright" unicode=")" horiz-adv-x="772" 
d="M356 676q0 194 -43 355.5t-149 336.5h303q182 -282 182 -674q0 -354 -129 -632.5t-348 -475.5h-336q96 97 164 175t140 184.5t116 210.5t72 238t28 282z" />
    <glyph glyph-name="asterisk" unicode="*" horiz-adv-x="851" 
d="M666 1198l-93 -205l224 54l14 -209l-225 14l125 -193l-207 -88l-47 222l-144 -177l-141 168l190 119l-208 86l110 178l174 -143l13 225z" />
    <glyph glyph-name="plus" unicode="+" horiz-adv-x="1028" 
d="M111 592h325l58 319h178l-58 -319h332l-28 -168h-332l-62 -348h-178l62 348h-326z" />
    <glyph glyph-name="comma" unicode="," horiz-adv-x="602" 
d="M442 117q0 -79 -25 -142t-67 -105.5t-100.5 -70.5t-123 -40.5t-136.5 -12.5v121q108 3 185 48.5t77 117.5q-79 -11 -138 27t-59 122q0 83 53.5 127.5t133.5 44.5q93 0 146.5 -65t53.5 -172z" />
    <glyph glyph-name="hyphen" unicode="-" horiz-adv-x="811" 
d="M123 403l45 256h520l-45 -256h-520z" />
    <glyph glyph-name="period" unicode="." horiz-adv-x="602" 
d="M61 174q0 82 54 137.5t131 55.5q83 0 137.5 -55t54.5 -138q0 -77 -55 -130.5t-137 -53.5q-77 0 -131 54t-54 130z" />
    <glyph glyph-name="slash" unicode="/" horiz-adv-x="845" 
d="M-174 -416l870 1784h262l-876 -1784h-256z" />
    <glyph glyph-name="zero" unicode="0" horiz-adv-x="1196" 
d="M551 -25q-118 0 -210 38.5t-147.5 104t-83.5 144.5t-28 166q0 139 44.5 250.5t122 183t178 109t216.5 37.5q95 0 173.5 -25t133 -68t92 -103t55 -128.5t17.5 -144.5q0 -132 -44 -239.5t-121 -178t-179 -108.5t-219 -38zM367 457q0 -97 53 -160.5t145 -63.5
q105 0 179.5 77t74.5 208q0 97 -52 160t-142 63q-111 0 -184.5 -77t-73.5 -207z" />
    <glyph glyph-name="one" unicode="1" horiz-adv-x="765" 
d="M508 0h-309l127 715l-254 -29l43 246l569 69z" />
    <glyph glyph-name="two" unicode="2" horiz-adv-x="993" 
d="M862 252l-45 -252h-817l37 225q292 132 424.5 229t132.5 195q0 94 -90 94q-106 0 -129 -145l-275 98q36 154 153.5 233t289.5 79q185 0 276.5 -83t91.5 -220q0 -76 -29.5 -142t-80.5 -114.5t-123 -87t-152.5 -62.5t-173.5 -39v-8h510z" />
    <glyph glyph-name="three" unicode="3" horiz-adv-x="1003" 
d="M547 381v-8q86 -4 149 -29.5t98 -66.5t51.5 -88t16.5 -101q0 -168 -138 -269.5t-362 -101.5q-197 0 -303 73t-120 214l288 111q0 -82 43.5 -125t114.5 -43q74 0 119 37t45 108q0 167 -279 180l37 201q98 12 162.5 30.5t97 44t44.5 52.5t12 64q0 50 -30.5 76t-78.5 26
q-59 0 -96 -38.5t-43 -113.5l-287 82q41 154 162 233t311 79q180 0 280.5 -76.5t100.5 -216.5q0 -155 -101 -240t-294 -94z" />
    <glyph glyph-name="four" unicode="4" horiz-adv-x="1191" 
d="M532 -268l56 307h-588l35 203l743 743h283l-127 -723h196l-38 -223h-197l-55 -307h-308zM444 262h183l35 201q6 36 17 81.5t19 73.5l7 27h-9q-39 -57 -84 -104l-157 -168q-30 -33 -64.5 -61t-54.5 -40l-19 -12v-8q51 10 127 10z" />
    <glyph glyph-name="five" unicode="5" horiz-adv-x="1015" 
d="M131 256l158 729h676l-47 -270h-431l-55 -246q58 39 160 39q140 0 218.5 -89t78.5 -239q0 -95 -29.5 -172.5t-80.5 -131.5t-121 -90.5t-150 -53.5t-168 -17q-177 0 -289 75.5t-112 211.5l268 107q4 -81 52.5 -116.5t121.5 -35.5q92 0 147.5 50.5t55.5 142.5
q0 73 -40.5 114t-99.5 41q-40 0 -64 -11.5t-46 -37.5h-203z" />
    <glyph glyph-name="six" unicode="6" horiz-adv-x="1083" 
d="M1094 1042l-187 -186q-28 60 -79.5 93.5t-114.5 33.5q-152 0 -243.5 -120.5t-102.5 -305.5h8q23 102 96 155.5t191 53.5q150 0 243.5 -96t93.5 -252q0 -197 -125.5 -320t-334.5 -123q-227 0 -342 133t-115 371q0 212 75.5 381t224 270t347.5 101q262 0 365 -189zM557 541
q-70 0 -122 -50t-52 -139q0 -66 38.5 -104.5t106.5 -38.5q74 0 126.5 50t52.5 138q0 69 -39 106.5t-111 37.5z" />
    <glyph glyph-name="seven" unicode="7" horiz-adv-x="1091" 
d="M594 715h-244l-26 -148h-244l74 418h938l-37 -217l-664 -1036h-330l553 854q30 46 59 79.5t43 43.5l13 10v8q-35 -12 -135 -12z" />
    <glyph glyph-name="eight" unicode="8" horiz-adv-x="1091" 
d="M494 -25q-211 0 -322 91t-111 227q0 135 87.5 222.5t220.5 105.5v8q-92 25 -145.5 87.5t-53.5 149.5q0 96 39 168.5t106.5 114.5t150 62t177.5 20q186 0 297 -86.5t111 -220.5q0 -128 -74.5 -212t-196.5 -102v-8q97 -27 157 -97.5t60 -168.5q-1 -81 -31 -144.5
t-78.5 -103.5t-115.5 -66t-135 -36.5t-143 -10.5zM621 1020q-73 0 -116.5 -50t-43.5 -118q0 -58 37 -91.5t88 -33.5q75 0 121.5 47t46.5 119q0 54 -34.5 90.5t-98.5 36.5zM555 500q-79 0 -133.5 -46t-54.5 -118q0 -58 38 -96.5t105 -38.5q90 0 140 46t50 124q0 58 -41 93.5
t-104 35.5z" />
    <glyph glyph-name="nine" unicode="9" horiz-adv-x="1083" 
d="M-10 -94l176 180q28 -61 82 -94t127 -33q149 0 239.5 121t102.5 346h-8q-23 -101 -94 -155t-179 -54q-159 0 -255.5 93.5t-96.5 242.5q0 206 128 330.5t347 124.5q217 0 329.5 -135.5t112.5 -378.5q0 -226 -75.5 -401t-223.5 -275.5t-348 -100.5q-261 0 -364 189z
M518 442q70 0 122 50t52 139q0 67 -38 105t-107 38q-74 0 -126 -50t-52 -138q0 -69 38.5 -106.5t110.5 -37.5z" />
    <glyph glyph-name="colon" unicode=":" horiz-adv-x="602" 
d="M61 174q0 82 54 137.5t131 55.5q83 0 137.5 -55t54.5 -138q0 -77 -55 -130.5t-137 -53.5q-77 0 -131 54t-54 130zM176 811q0 83 53.5 138t130.5 55q83 0 138 -55t55 -138q0 -77 -55 -130.5t-138 -53.5q-76 0 -130 53.5t-54 130.5z" />
    <glyph glyph-name="semicolon" unicode=";" horiz-adv-x="602" 
d="M442 117q0 -79 -25 -142t-67 -105.5t-100.5 -70.5t-123 -40.5t-136.5 -12.5v121q108 3 185 48.5t77 117.5q-79 -11 -138 27t-59 122q0 83 53.5 127.5t133.5 44.5q93 0 146.5 -65t53.5 -172zM164 811q0 83 53.5 138t130.5 55q83 0 138 -55t55 -138q0 -77 -55 -130.5
t-138 -53.5q-76 0 -130 53.5t-54 130.5z" />
    <glyph glyph-name="less" unicode="&#x3c;" horiz-adv-x="866" 
d="M805 791l-426 -304l297 -284l-144 -140l-430 443l596 434z" />
    <glyph glyph-name="equal" unicode="=" horiz-adv-x="1085" 
d="M918 262h-836l31 168h835zM973 578h-836l31 167h836z" />
    <glyph glyph-name="greater" unicode="&#x3e;" horiz-adv-x="866" 
d="M82 213l426 303l-297 285l143 139l430 -442l-596 -435z" />
    <glyph glyph-name="question" unicode="?" horiz-adv-x="966" 
d="M350 782l-278 97q85 352 473 352q211 0 321.5 -95t110.5 -266q0 -93 -38 -164.5t-101 -112t-137 -61t-154 -20.5l-23 -111h-262l49 275h99q124 0 190 34t66 119q0 65 -36 100.5t-106 35.5q-79 0 -121.5 -42t-52.5 -141zM178 158q0 76 52 123t130 47q81 0 134 -46.5
t53 -123.5q0 -75 -53 -121.5t-134 -46.5q-78 0 -130 46.5t-52 121.5z" />
    <glyph glyph-name="at" unicode="@" horiz-adv-x="1828" 
d="M1012 358l18 88q15 71 -12.5 112.5t-91.5 41.5q-81 0 -128.5 -68.5t-47.5 -171.5q0 -75 26.5 -113t85.5 -38q57 0 94.5 33.5t55.5 115.5zM1272 -25q-126 0 -187 47t-69 144q-58 -191 -275 -191q-137 0 -216 94.5t-79 266.5q0 223 117.5 361.5t284.5 138.5q90 0 153 -46.5
t76 -127.5l90 161h224l-113 -583q-20 -111 90 -111q80 0 143.5 107t63.5 284q0 141 -48 251t-133.5 179t-198.5 104.5t-247 35.5q-138 0 -262 -47t-219.5 -134t-152 -222t-56.5 -300q0 -313 191.5 -489.5t531.5 -176.5q113 0 199.5 15t212.5 55l34 -141q-207 -66 -448 -66
q-224 1 -396 62t-278 170.5t-159.5 253.5t-53.5 319q0 183 65.5 339.5t179.5 264.5t272 169t339 61q150 0 278 -34.5t221.5 -96.5t159 -147.5t98 -188t32.5 -217.5q0 -83 -13 -159.5t-46.5 -152t-85 -130t-133.5 -88.5t-187 -34z" />
    <glyph glyph-name="A" unicode="A" horiz-adv-x="1323" 
d="M881 0l-41 225h-445l-114 -225h-332l647 1206h375l229 -1206h-319zM575 575l-49 -94h269q-21 104 -35.5 220t-19 182.5t-1.5 66.5h-8q-54 -178 -156 -375z" />
    <glyph glyph-name="B" unicode="B" horiz-adv-x="1159" 
d="M840 625l-2 -9q124 -19 181.5 -88.5t57.5 -165.5q0 -180 -130.5 -271t-358.5 -91h-527l211 1206h500q178 0 262 -72.5t84 -197.5q0 -131 -79 -213t-199 -98zM498 711h145q70 0 114 30.5t44 100.5q0 55 -30.5 79.5t-92.5 24.5h-139zM459 489l-41 -229h192q76 0 120 32
t44 99q0 98 -123 98h-192z" />
    <glyph glyph-name="C" unicode="C" horiz-adv-x="1220" 
d="M870 420l267 -139q-77 -158 -207.5 -232t-321.5 -74q-246 0 -376 131.5t-130 372.5q0 172 51 315.5t138 238t203 146.5t247 52q220 0 337.5 -99.5t142.5 -267.5l-324 -104q-8 100 -45.5 150.5t-130.5 50.5t-162 -63.5t-104 -169.5t-35 -239q0 -120 54.5 -185.5
t148.5 -65.5q79 0 138 40.5t109 141.5z" />
    <glyph glyph-name="D" unicode="D" horiz-adv-x="1298" 
d="M418 260h108q170 0 273.5 113.5t103.5 322.5q0 250 -270 250h-94zM489 0h-428l211 1206h418q537 0 537 -479q0 -154 -38 -277t-104.5 -206.5t-160.5 -139t-202 -80t-233 -24.5z" />
    <glyph glyph-name="E" unicode="E" horiz-adv-x="1083" 
d="M938 266l-45 -266h-832l211 1206h832l-47 -266h-520l-35 -201h456l-45 -256h-456l-39 -217h520z" />
    <glyph glyph-name="F" unicode="F" horiz-adv-x="1013" 
d="M373 0h-312l211 1206h813l-47 -266h-501l-45 -262h438l-45 -256h-439z" />
    <glyph glyph-name="G" unicode="G" horiz-adv-x="1323" 
d="M698 651h533l-115 -651h-180l-31 145q-87 -170 -325 -170q-226 0 -352 132.5t-126 371.5q0 172 51 315.5t138 238t203 146.5t247 52q220 0 337.5 -99.5t142.5 -267.5l-324 -104q-7 94 -45.5 146t-130.5 52t-161.5 -62t-104.5 -165.5t-35 -232.5q0 -130 60.5 -202.5
t176.5 -72.5q94 0 155 44t73 118l4 25h-234z" />
    <glyph glyph-name="H" unicode="H" horiz-adv-x="1339" 
d="M373 0h-312l211 1206h312l-80 -461h424l80 461h311l-211 -1206h-311l84 479h-424z" />
    <glyph glyph-name="I" unicode="I" horiz-adv-x="604" 
d="M272 1206h312l-211 -1206h-312z" />
    <glyph glyph-name="J" unicode="J" horiz-adv-x="974" 
d="M653 1206h312l-150 -856q-35 -206 -150.5 -290.5t-314.5 -84.5q-162 0 -259 63t-142 189l252 168q20 -81 58.5 -122.5t105.5 -41.5t97.5 33.5t45.5 120.5z" />
    <glyph glyph-name="K" unicode="K" horiz-adv-x="1210" 
d="M1112 0h-356l-226 479h-73l-84 -479h-312l211 1206h312l-80 -461h63l342 461h363l-463 -600z" />
    <glyph glyph-name="L" unicode="L" horiz-adv-x="966" 
d="M272 1206h312l-166 -940h446l-45 -266h-758z" />
    <glyph glyph-name="M" unicode="M" horiz-adv-x="1513" 
d="M791 272h-136l-102 230q-18 41 -34.5 89.5t-24.5 76.5l-7 28h-8q1 -82 -22 -217l-84 -479h-312l211 1206h303l144 -356q23 -57 38 -107t19 -71l4 -21h8q29 70 127 199l275 356h303l-211 -1206h-311l84 479q10 60 22 114.5t19 78.5l6 24h-8q-45 -102 -119 -194z" />
    <glyph glyph-name="N" unicode="N" horiz-adv-x="1349" 
d="M557 1206l268 -536q21 -40 38.5 -84.5t24.5 -69.5l7 -24h8q8 108 35 262l80 452h311l-211 -1206h-274l-275 522q-24 46 -44 95.5t-28 75.5l-8 26h-8q-2 -103 -35 -281l-73 -438h-312l211 1206h285z" />
    <glyph glyph-name="O" unicode="O" horiz-adv-x="1318" 
d="M608 -25q-244 0 -375 134.5t-131 369.5q0 172 51 315.5t138 238t203 146.5t247 52q246 0 376 -134t130 -372q0 -172 -51 -315t-138.5 -237.5t-203.5 -146t-246 -51.5zM721 961q-138 0 -219.5 -132t-81.5 -329q0 -127 54.5 -194.5t148.5 -67.5q87 0 156 62.5t106 169.5
t37 237q0 120 -54.5 187t-146.5 67z" />
    <glyph glyph-name="P" unicode="P" horiz-adv-x="1114" 
d="M539 948l-58 -325h92q108 0 159.5 45.5t51.5 154.5q0 65 -37 95t-114 30h-94zM373 0h-312l211 1206h424q218 0 308 -91t90 -265q0 -118 -39.5 -211t-108 -150.5t-155 -87.5t-185.5 -30h-170z" />
    <glyph glyph-name="Q" unicode="Q" horiz-adv-x="1329" 
d="M1257 725q0 -157 -42.5 -290.5t-117 -226t-174 -150.5t-214.5 -74q91 -93 309 -74l-82 -260q-237 0 -366 84.5t-167 273.5q-142 49 -216 169t-74 302q0 172 51 315.5t138 238t203 146.5t247 52q248 0 376.5 -131t128.5 -375zM731 961q-138 0 -219.5 -132t-81.5 -329
q0 -127 54.5 -194.5t148.5 -67.5q87 0 156 62.5t106 169.5t37 237q0 120 -54.5 187t-146.5 67z" />
    <glyph glyph-name="R" unicode="R" horiz-adv-x="1220" 
d="M1090 0h-338q-41 34 -56 129l-26 170q-10 64 -35 84t-90 20h-103l-69 -403h-312l211 1206h473q205 0 304.5 -74t99.5 -247q0 -86 -26 -153.5t-71 -109t-99 -65.5t-117 -31v-8q81 -13 116 -49.5t49 -116.5l37 -221q15 -86 52 -131zM539 946l-52 -287h160q81 0 131.5 40.5
t50.5 129.5q0 117 -139 117h-151z" />
    <glyph glyph-name="S" unicode="S" horiz-adv-x="1081" 
d="M20 281l281 112q2 -84 51.5 -137t132.5 -53q160 0 160 116q0 53 -34.5 84.5t-123.5 59.5q-176 53 -246.5 141t-70.5 227q0 85 27 154.5t72 114.5t106.5 75t126.5 43t135 13q404 0 424 -336l-303 -59q4 70 -37.5 106.5t-108.5 36.5q-139 0 -139 -115q0 -46 35 -73t133 -58
q173 -56 245 -138.5t72 -229.5q0 -107 -40.5 -185.5t-112.5 -121.5t-158.5 -63t-191.5 -20q-186 0 -301.5 75t-133.5 231z" />
    <glyph glyph-name="T" unicode="T" horiz-adv-x="1046" 
d="M590 0h-309l163 940h-321l47 266h958l-47 -266h-327z" />
    <glyph glyph-name="U" unicode="U" horiz-adv-x="1265" 
d="M954 1206h312l-138 -778q-22 -129 -71.5 -218t-125 -140t-166.5 -73t-210 -22q-72 0 -134 11t-119 35t-97 63t-68 94.5t-32.5 129.5t10.5 169l129 729h311l-129 -712q-22 -129 13.5 -196t160.5 -67q51 0 88 13.5t59.5 33.5t39 58t24.5 71.5t18 90.5z" />
    <glyph glyph-name="V" unicode="V" horiz-adv-x="1212" 
d="M455 1206l84 -612q10 -73 15 -154.5t5 -126.5v-45h8q37 164 111 324l291 614h336l-609 -1206h-366l-187 1206h312z" />
    <glyph glyph-name="W" unicode="W" horiz-adv-x="1794" 
d="M1206 1206l25 -633q3 -75 0 -161.5t-7 -135.5l-5 -49h8q45 182 104 344l230 635h325l-461 -1206h-442l-35 557q-4 70 -4 151t2 127l2 46h-8q-28 -160 -94 -326l-219 -555h-424l-39 1206h317l15 -633q2 -75 -1 -161.5t-7 -135.5l-3 -49h9q41 180 102 344l240 635h370z" />
    <glyph glyph-name="X" unicode="X" horiz-adv-x="1198" 
d="M768 0l-121 229q-29 56 -44.5 98t-16.5 56v14h-8q0 -5 -3 -16t-29.5 -54t-72.5 -98l-194 -229h-361l526 614l-299 592h342l91 -194q30 -65 48.5 -113t21.5 -63l3 -15h11q1 6 4.5 18.5t32.5 61.5t77 111l152 194h352l-479 -596l305 -610h-338z" />
    <glyph glyph-name="Y" unicode="Y" horiz-adv-x="1136" 
d="M461 1206l78 -256q23 -75 36 -153.5t15 -120.5l2 -41h8q5 17 14.5 46.5t48.5 112.5t87 156l170 256h329l-532 -823l-66 -383h-311l66 383l-273 823h328z" />
    <glyph glyph-name="Z" unicode="Z" horiz-adv-x="1134" 
d="M53 229l520 582q37 41 75.5 75t58.5 48l20 14v8q-74 -16 -174 -16h-365l48 266h929l-45 -217l-545 -594q-37 -41 -75.5 -75t-57.5 -48l-20 -14v-8q74 16 174 16h418l-45 -266h-959z" />
    <glyph glyph-name="bracketleft" unicode="[" horiz-adv-x="796" 
d="M598 1141l-236 -1331h293l-39 -226h-606l314 1784h606l-39 -227h-293z" />
    <glyph glyph-name="backslash" unicode="\" horiz-adv-x="774" 
d="M408 1368l243 -1784h-237l-250 1784h244z" />
    <glyph glyph-name="bracketright" unicode="]" horiz-adv-x="796" 
d="M188 -188l236 1331h-293l39 225h606l-313 -1784h-606l39 228h292z" />
    <glyph glyph-name="asciicircum" unicode="^" horiz-adv-x="1103" 
d="M858 657l-57 209q-24 87 -35 159.5t-10 102.5v29h-8q-3 -12 -11 -34t-46 -97t-93 -158l-139 -211h-283l481 711h271l229 -711h-299z" />
    <glyph glyph-name="underscore" unicode="_" horiz-adv-x="983" 
d="M-31 -270l39 225h780l-40 -225h-779z" />
    <glyph glyph-name="grave" unicode="`" horiz-adv-x="845" 
d="M682 1075h-279l-239 320h377z" />
    <glyph glyph-name="a" unicode="a" 
d="M666 393l30 158q7 50 4.5 91.5t-27.5 69t-71 27.5q-70 0 -121 -54.5t-73.5 -134t-22.5 -171.5q0 -77 30 -126.5t89 -49.5q68 0 107.5 52t54.5 138zM1073 946l-108 -624q-7 -39 4 -61.5t53 -22.5q19 0 61 10l-49 -232q-83 -26 -162 -26q-111 0 -167 39.5t-68 130.5
q-60 -185 -262 -185q-154 0 -234 103t-80 284q0 164 51.5 300.5t154.5 221.5t239 85q218 0 229 -181l60 158h278z" />
    <glyph glyph-name="b" unicode="b" horiz-adv-x="1179" 
d="M461 512l-21 -113q-16 -91 16 -152t105 -61q69 0 121 53t77 132t25 170q0 94 -39.5 143t-107.5 49q-63 0 -109.5 -55.5t-66.5 -165.5zM387 139l-84 -139h-242l242 1368h309l-108 -604q80 205 295 205q144 0 231.5 -100t87.5 -298q0 -169 -56 -303t-166.5 -213.5
t-260.5 -79.5q-97 0 -166 41.5t-82 122.5z" />
    <glyph glyph-name="c" unicode="c" horiz-adv-x="1005" 
d="M645 348l301 -45q-88 -328 -450 -328q-200 0 -317.5 106t-117.5 296q0 119 33.5 224t98.5 188t172 131.5t243 48.5q96 0 170 -29.5t118 -80t66.5 -114.5t22.5 -137l-303 -53q5 64 -20 118t-82 54q-83 0 -136 -97t-53 -241q0 -180 125 -180q102 0 129 139z" />
    <glyph glyph-name="d" unicode="d" horiz-adv-x="1179" 
d="M680 393l29 158q31 188 -107 188q-70 0 -121 -54.5t-73.5 -134t-22.5 -171.5q0 -77 30 -126.5t89 -49.5q142 0 176 190zM1159 1368l-180 -1046q-7 -39 4 -61.5t53 -22.5q20 0 62 10l-49 -232q-83 -26 -162 -26q-111 0 -167.5 39.5t-68.5 130.5q-31 -94 -105.5 -139.5
t-170.5 -45.5q-154 0 -234 103t-80 284q0 165 52 301t157.5 221t247.5 85q100 0 163 -44.5t69 -136.5l100 580h309z" />
    <glyph glyph-name="e" unicode="e" horiz-adv-x="1028" 
d="M514 209q55 0 89 27t48 92l291 -70q-42 -147 -149 -215t-304 -68q-202 0 -315 110.5t-113 301.5q0 136 43.5 248.5t116.5 184t167 110.5t198 39q194 0 297.5 -100t103.5 -244q0 -123 -41 -203h-559q-19 -94 16.5 -153.5t110.5 -59.5zM420 582h252q4 24 4 43
q0 120 -103 120q-58 0 -96 -45t-57 -118z" />
    <glyph glyph-name="f" unicode="f" horiz-adv-x="735" 
d="M66 -123l145 836h-141l41 233h141l12 76q15 94 55 165t98.5 113.5t128 63t150.5 20.5q145 0 265 -53l-91 -250q-70 49 -163 49q-58 0 -88 -27t-41 -81l-17 -76h242l-41 -233h-242l-149 -856q-28 -159 -102.5 -224t-229.5 -65q-123 0 -203 45l55 215q48 -33 93 -33
q36 0 55 19.5t27 62.5z" />
    <glyph glyph-name="g" unicode="g" horiz-adv-x="1114" 
d="M684 414l25 137q14 82 -10 135t-99 53q-53 0 -94.5 -28t-66.5 -76.5t-37.5 -108t-12.5 -127.5q0 -77 30 -126.5t89 -49.5q141 0 176 191zM1085 946l-165 -944q-38 -222 -176.5 -328t-385.5 -106q-357 0 -450 221l227 170q18 -70 82.5 -113t144.5 -43q115 0 175 63t84 179
l24 129q-58 -178 -266 -178q-153 0 -233 103t-80 284q0 165 50.5 296t154 210.5t245.5 79.5q100 0 163 -44.5t69 -136.5l59 158h278z" />
    <glyph glyph-name="h" unicode="h" horiz-adv-x="1177" 
d="M1040 647l-53 -325q-7 -39 4 -61.5t53 -22.5q20 0 62 10l-49 -232q-83 -26 -162 -26q-276 0 -229 276l51 295q25 156 -96 156q-58 0 -100 -53t-62 -162l-88 -502h-310l240 1368h311l-108 -614q46 109 115.5 162t183.5 53q112 0 178 -66.5t66 -175.5q0 -36 -7 -80z" />
    <glyph glyph-name="i" unicode="i" horiz-adv-x="600" 
d="M510 946l-109 -624q-7 -39 4.5 -61.5t53.5 -22.5q19 0 61 10l-49 -232q-83 -26 -162 -26q-276 0 -229 276l121 680h309zM213 1231q0 82 51 126t129 44q83 0 135 -43.5t52 -126.5q0 -80 -52 -124t-135 -44q-77 0 -128.5 44t-51.5 124z" />
    <glyph glyph-name="j" unicode="j" horiz-adv-x="530" 
d="M510 946l-186 -1067q-30 -171 -124.5 -241t-265.5 -70q-149 0 -251 57l81 223q63 -53 136 -53q54 0 82.5 30.5t42.5 117.5l176 1003h309zM213 1231q0 82 51 126t129 44q83 0 135 -43.5t52 -126.5q0 -80 -52 -124t-135 -44q-77 0 -128.5 44t-51.5 124z" />
    <glyph glyph-name="k" unicode="k" horiz-adv-x="1120" 
d="M612 143l-108 250h-64l-69 -393h-310l240 1368h311l-131 -741h47l281 319h373l-410 -442l109 -205q27 -51 66 -60t102 13l-50 -240q-75 -22 -153 -22q-53 0 -93.5 12.5t-77.5 47.5t-63 93z" />
    <glyph glyph-name="l" unicode="l" horiz-adv-x="606" 
d="M586 1368l-185 -1046q-7 -39 4.5 -61.5t53.5 -22.5q19 0 61 10l-49 -232q-83 -26 -162 -26q-276 0 -229 276l196 1102h310z" />
    <glyph glyph-name="m" unicode="m" horiz-adv-x="1685" 
d="M909 0h-313l96 561q25 156 -84 156q-63 0 -95.5 -49.5t-53.5 -165.5l-88 -502h-310l166 946h271l4 -192q42 111 105 163t173 52q117 0 178.5 -58.5t61.5 -167.5q66 226 293 226q115 0 178 -65.5t63 -176.5q0 -43 -6 -80l-53 -325q-7 -39 4 -61.5t53 -22.5q20 0 62 10
l-49 -232q-83 -26 -162 -26q-276 0 -229 276l51 295q25 156 -84 156q-63 0 -97 -50t-53 -165z" />
    <glyph glyph-name="n" unicode="n" horiz-adv-x="1177" 
d="M1040 647l-53 -325q-7 -39 4 -61.5t53 -22.5q20 0 62 10l-49 -232q-83 -26 -162 -26q-276 0 -229 276l51 295q25 156 -96 156q-58 0 -100 -53t-62 -162l-88 -502h-310l166 946h271l4 -192q46 109 116.5 162t184.5 53q112 0 178 -66.5t66 -175.5q0 -36 -7 -80z" />
    <glyph glyph-name="o" unicode="o" horiz-adv-x="1099" 
d="M600 969q204 0 321 -110t117 -310q0 -91 -20.5 -175t-64 -157t-105.5 -126.5t-150.5 -84.5t-193.5 -31q-197 0 -320 104t-123 298q0 120 33.5 225t98 188t169.5 131t238 48zM582 727q-88 0 -139.5 -98t-51.5 -250q0 -84 33.5 -127t93.5 -43q91 0 142 95.5t51 250.5
q0 85 -33.5 128.5t-95.5 43.5z" />
    <glyph glyph-name="p" unicode="p" horiz-adv-x="1179" 
d="M461 512l-21 -113q-16 -91 16 -152t105 -61q69 0 121 53t77 132t25 170q0 94 -39.5 143t-107.5 49q-63 0 -109.5 -55.5t-66.5 -165.5zM395 139l-96 -555h-311l239 1362h273l4 -182q80 205 295 205q144 0 231.5 -100t87.5 -298q0 -169 -56 -303t-166.5 -213.5
t-260.5 -79.5q-96 0 -161.5 41.5t-78.5 122.5z" />
    <glyph glyph-name="q" unicode="q" horiz-adv-x="1118" 
d="M680 393l31 158q14 82 -10 135t-99 53q-70 0 -121 -54.5t-73.5 -134t-22.5 -171.5q0 -77 30 -126.5t89 -49.5q142 0 176 190zM850 -416h-313l100 568q-28 -88 -98.5 -132.5t-163.5 -44.5q-154 0 -234 103t-80 284q0 165 52 301t157.5 221t247.5 85q100 0 163 -44.5
t69 -136.5l59 158h278z" />
    <glyph glyph-name="r" unicode="r" horiz-adv-x="825" 
d="M877 961l-72 -359q-52 28 -107.5 35t-106.5 -6.5t-89 -59t-51 -116.5l-80 -455h-310l166 946h271l-6 -260q50 149 157.5 228t227.5 47z" />
    <glyph glyph-name="s" unicode="s" horiz-adv-x="917" 
d="M0 240l250 94q6 -74 47.5 -114t105.5 -40q109 0 109 74q0 37 -28 59.5t-103 42.5q-133 35 -194.5 105.5t-61.5 183.5q0 83 32 146.5t89 101.5t129.5 57t159.5 19q182 0 277 -71t95 -198l-256 -63q0 61 -35 95t-100 34q-44 0 -71 -20.5t-27 -53.5q0 -32 28 -50.5
t121 -47.5q141 -44 196.5 -111.5t55.5 -195.5q0 -159 -117 -235.5t-313 -76.5q-357 0 -389 265z" />
    <glyph glyph-name="t" unicode="t" horiz-adv-x="763" 
d="M657 291v-256q-45 -27 -118 -43.5t-150 -16.5q-342 0 -278 365l65 373h-135l41 233h137l35 201l313 35l-39 -236h246l-41 -233h-246l-65 -367q-10 -56 10.5 -79t67.5 -23q76 0 157 47z" />
    <glyph glyph-name="u" unicode="u" 
d="M672 182q-44 -107 -120 -157t-196 -50q-153 0 -224 96.5t-42 264.5l109 610h309l-107 -616q-10 -65 14 -98t77 -33q144 0 178 207l96 540h309l-108 -624q-15 -84 55 -84q19 0 61 10l-49 -232q-83 -26 -162 -26q-106 0 -154.5 47t-45.5 145z" />
    <glyph glyph-name="v" unicode="v" horiz-adv-x="972" 
d="M207 0l-146 946h312l41 -401q8 -89 7.5 -157t-5.5 -109l-4 -41h8q4 18 11.5 49t36 112.5t64.5 145.5l220 401h323l-538 -946h-330z" />
    <glyph glyph-name="w" unicode="w" horiz-adv-x="1470" 
d="M944 946l25 -356q9 -98 7 -180t-8 -136l-7 -53h8q34 175 112 365l146 360h325l-409 -946h-361l-37 301q-4 75 -2 143t7 116l4 48h-9q-35 -162 -96 -309l-117 -299h-358l-92 946h311l27 -360q6 -84 6 -175.5t-3 -140.5l-3 -49h8q33 179 111 369l143 356h262z" />
    <glyph glyph-name="x" unicode="x" horiz-adv-x="1042" 
d="M647 0l-80 158q-24 56 -36.5 101.5t-13.5 62.5l-1 18h-8q-11 -59 -105 -182l-122 -158h-342l383 471l-199 475h328l53 -131q21 -52 33.5 -99t14.5 -68l3 -21h8q35 90 107 186l100 133h344l-371 -465l222 -481h-318z" />
    <glyph glyph-name="y" unicode="y" horiz-adv-x="989" 
d="M393 946l37 -459q5 -83 4 -144t-4 -95l-4 -35h8q30 156 98 285l238 448h322l-578 -1032q-59 -108 -117 -178.5t-118.5 -106t-116 -48.5t-127.5 -13q-122 0 -199 41l90 252q55 -41 119 -41q117 0 188 127l-157 999h317z" />
    <glyph glyph-name="z" unicode="z" horiz-adv-x="960" 
d="M47 168l350 412q36 42 75 76t60 48l21 13v8q-76 -16 -176 -16h-223l51 237h745l-20 -180l-367 -404q-37 -41 -75.5 -75t-57.5 -48l-20 -14v-8q74 16 174 16h260l-43 -233h-781z" />
    <glyph glyph-name="braceleft" unicode="{" horiz-adv-x="872" 
d="M352 471l-2 -8q30 -3 54.5 -8.5t48.5 -17t39 -28.5t27 -42t12.5 -58.5t-5.5 -77.5l-51 -294q-11 -68 3.5 -99t68.5 -31q40 0 64 7t69 30l12 -209q-104 -65 -274 -65q-303 0 -246 307l55 318q16 88 -14 122.5t-98 34.5h-84l39 230h84q68 0 111 34.5t59 122.5l55 318
q57 307 356 307q169 0 250 -66l-86 -208q-36 22 -58.5 29t-62.5 7q-54 0 -79.5 -31t-36.5 -98l-52 -295q-12 -66 -37 -112t-62 -70t-74 -35t-85 -14z" />
    <glyph glyph-name="bar" unicode="|" horiz-adv-x="532" 
d="M229 -416h-239l313 1784h240z" />
    <glyph glyph-name="braceright" unicode="}" horiz-adv-x="872" 
d="M520 463l2 8q-37 3 -65 11t-55 24t-40 41.5t-20.5 64t4.5 90.5l51 295q11 68 -3 98.5t-68 30.5q-40 0 -64.5 -7t-68.5 -29l-13 208q106 66 275 66q302 0 245 -307l-55 -318q-16 -88 14.5 -122.5t98.5 -34.5h84l-39 -230h-84q-68 0 -111 -34.5t-59 -122.5l-55 -318
q-57 -307 -357 -307q-171 0 -250 65l86 209q37 -23 59 -30t62 -7q54 0 80 31.5t37 98.5l51 294q12 66 37 112t62 70.5t74 35.5t85 14z" />
    <glyph glyph-name="asciitilde" unicode="~" horiz-adv-x="843" 
d="M475 399l-115 54q-26 16 -61 16q-36 0 -61 -19.5t-31 -60.5l-121 51q-12 40 -12 78q0 87 54.5 152t145.5 65q61 0 121 -28l76 -37q31 -17 70 -17q70 0 94 78l129 -59q6 -54 6 -60q0 -95 -56 -165t-141 -70q-50 0 -98 22z" />
    <glyph glyph-name="nbspace" unicode="&#xa0;" horiz-adv-x="313" 
 />
    <glyph glyph-name="exclamdown" unicode="&#xa1;" horiz-adv-x="571" 
d="M326 -260h-373l246 784h200zM532 788q0 -76 -52 -123t-130 -47q-81 0 -133.5 46.5t-52.5 123.5q0 75 52.5 121.5t133.5 46.5q78 0 130 -46.5t52 -121.5z" />
    <glyph glyph-name="cent" unicode="&#xa2;" horiz-adv-x="1052" 
d="M735 377l250 -146q-70 -125 -176 -188.5t-264 -67.5l-33 -192h-102l34 197q-168 19 -265 125.5t-97 293.5q0 95 21 182.5t65.5 164t107.5 133.5t152.5 91t196.5 36l30 170h103l-31 -175q78 -9 136 -34.5t95.5 -65t60 -86.5t34.5 -106l-291 -99q-7 103 -80 140l-92 -525
q53 9 84 46.5t61 105.5zM391 414q0 -141 98 -181l93 531q-90 -13 -140.5 -107.5t-50.5 -242.5z" />
    <glyph glyph-name="sterling" unicode="&#xa3;" horiz-adv-x="1032" 
d="M760 397h-230q-5 -34 -22 -67q-35 -63 -94 -84h245q25 0 44 3t42 12t43.5 29.5t38.5 51.5l185 -123q-33 -104 -125.5 -161.5t-212.5 -57.5h-654l43 246h84q61 0 94 40.5t33 96.5v14h-176l27 150h119q-21 69 -21 145q0 150 119.5 233t298.5 83q77 0 139 -14t114 -45
t81 -88t29 -136l-279 -72q0 123 -119 123q-53 0 -83.5 -30.5t-30.5 -77.5q0 -18 2.5 -35.5t5.5 -27.5t9.5 -30t8.5 -28h268z" />
    <glyph glyph-name="currency" unicode="&#xa4;" horiz-adv-x="944" 
d="M20 272l154 131q-39 61 -39 144q0 168 98 278l-90 111l78 68l92 -115q85 51 209 51q133 0 213 -59l150 127l59 -72l-145 -125q39 -64 39 -149q0 -175 -107 -279l96 -115l-77 -67l-101 123q-79 -43 -194 -43q-133 0 -215 55l-160 -135zM510 778q-63 0 -100 -64t-37 -165
q0 -55 24.5 -84t67.5 -29q65 0 101 63t36 167q0 112 -92 112z" />
    <glyph glyph-name="yen" unicode="&#xa5;" horiz-adv-x="1142" 
d="M1040 492h-233l-70 -97h295l-8 -108h-352l-49 -287h-310l49 287h-311l8 108h273l-41 97h-223l10 108h168l-158 385h326l86 -237q22 -58 34 -112t14 -79l1 -25h8q2 9 7.5 26.5t33 73t68.5 113.5l161 240h336l-278 -385h166z" />
    <glyph glyph-name="brokenbar" unicode="&#xa6;" horiz-adv-x="532" 
d="M403 569h-239l139 799h240zM229 -414h-239l139 797h240z" />
    <glyph glyph-name="section" unicode="&#xa7;" horiz-adv-x="935" 
d="M41 473q0 199 199 260q-45 67 -45 174q0 72 24 129t63.5 92.5t93.5 59.5t110 33.5t118 9.5q189 0 281 -70t92 -198l-256 -64q0 58 -39 93.5t-96 35.5q-44 0 -70.5 -20.5t-26.5 -53.5q0 -34 31.5 -56t128.5 -52q149 -45 207.5 -115t58.5 -178q0 -100 -52 -165.5
t-146 -94.5q45 -64 45 -166q0 -157 -114.5 -233t-309.5 -76q-191 0 -285.5 65t-103.5 197l250 78q10 -72 52.5 -111t100.5 -39q103 0 103 74q0 36 -27.5 55.5t-112.5 42.5q-150 39 -212 112t-62 181zM496 426q58 -20 65 -23q25 13 40 39.5t15 55.5q0 36 -31 57.5t-116 44.5
q-50 12 -88 29q-24 -14 -38.5 -41t-14.5 -51q0 -33 35 -57t133 -54z" />
    <glyph glyph-name="dieresis" unicode="&#xa8;" horiz-adv-x="1118" 
d="M164 1221q0 81 46 123t116 42q76 0 122 -42t46 -123q0 -79 -46.5 -121.5t-121.5 -42.5q-70 0 -116 43t-46 121zM625 1221q0 81 45.5 123t115.5 42q76 0 122 -42t46 -123q0 -79 -46.5 -121.5t-121.5 -42.5q-70 0 -115.5 43t-45.5 121z" />
    <glyph glyph-name="copyright" unicode="&#xa9;" horiz-adv-x="1429" 
d="M866 520l203 -119q-59 -101 -145.5 -150.5t-218.5 -49.5q-158 0 -252.5 84.5t-94.5 246.5q0 95 27.5 179.5t81 151.5t139 106t193.5 39q80 0 139.5 -18t96 -51.5t57 -74.5t30.5 -94l-235 -78q-4 105 -107 105q-80 0 -125 -73t-45 -179q0 -65 30 -104.5t89 -39.5
q55 0 84.5 31t52.5 88zM113 602q0 179 84 323.5t227 225t315 80.5q128 0 244 -47.5t200.5 -129.5t134.5 -200t50 -252t-50 -251.5t-134.5 -199.5t-200.5 -129t-244 -47t-243.5 47t-199.5 129t-133.5 199.5t-49.5 251.5zM176 602q0 -163 77 -294t206 -202t284 -71
q115 0 218.5 42t179.5 115.5t121 180t45 229.5q0 162 -76.5 293.5t-205 203.5t-282.5 72q-115 0 -219.5 -42.5t-181 -117t-121.5 -181t-45 -228.5z" />
    <glyph glyph-name="ordfeminine" unicode="&#xaa;" horiz-adv-x="890" 
d="M526 848l23 104q12 55 -6.5 90t-75.5 35q-78 0 -120 -70.5t-42 -166.5q0 -52 22 -84.5t66 -32.5q55 0 87 30.5t46 94.5zM831 1214l-81 -413q-12 -56 43 -56q15 0 47 7l-37 -154q-62 -16 -121 -16q-85 0 -127 25.5t-51 86.5q-22 -62 -78 -92.5t-129 -30.5
q-115 0 -175.5 68.5t-60.5 187.5q0 169 93 286.5t252 117.5q74 0 121 -30t51 -91l45 104h208z" />
    <glyph glyph-name="guillemotleft" unicode="&#xab;" horiz-adv-x="1210" 
d="M809 485v-8q39 -23 86 -84l156 -200l-179 -142l-337 434l491 435l133 -150l-233 -211q-31 -27 -60.5 -45.5t-43.5 -23.5zM326 485v-8q39 -23 86 -84l155 -200l-178 -142l-338 434l492 435l133 -150l-234 -211q-31 -27 -60 -45.5t-42 -23.5z" />
    <glyph glyph-name="logicalnot" unicode="&#xac;" horiz-adv-x="1028" 
d="M725 477h-643l29 168h835l-69 -397h-193z" />
    <glyph glyph-name="uni00AD" unicode="&#xad;" horiz-adv-x="749" 
d="M123 403l45 256h459l-45 -256h-459z" />
    <glyph glyph-name="registered" unicode="&#xae;" horiz-adv-x="1429" 
d="M1079 246h-248q-18 20 -32 82l-11 57q-8 40 -26 57t-60 17h-67l-37 -213h-229l129 739h340q138 0 203 -56t65 -157q0 -108 -61 -163.5t-162 -63.5v-6q107 -5 131 -97l26 -108q12 -57 39 -88zM696 803l-30 -172h104q111 0 111 102q0 70 -80 70h-105zM113 602
q0 179 84 323.5t227 225t315 80.5q128 0 244 -47.5t200.5 -129.5t134.5 -200t50 -252t-50 -251.5t-134.5 -199.5t-200.5 -129t-244 -47t-243.5 47t-199.5 129t-133.5 199.5t-49.5 251.5zM176 602q0 -163 77 -294t206 -202t284 -71q115 0 218.5 42t179.5 115.5t121 180
t45 229.5q0 162 -76.5 293.5t-205 203.5t-282.5 72q-115 0 -219.5 -42.5t-181 -117t-121.5 -181t-45 -228.5z" />
    <glyph glyph-name="macron" unicode="&#xaf;" horiz-adv-x="997" 
d="M788 1092h-624l45 245h625z" />
    <glyph glyph-name="degree" unicode="&#xb0;" horiz-adv-x="630" 
d="M92 948q0 119 80 201t207 82q108 0 175 -68.5t67 -167.5q0 -122 -79.5 -204t-203.5 -82q-120 0 -183 66.5t-63 172.5zM373 1090q-54 0 -88.5 -39.5t-34.5 -96.5q0 -45 25.5 -73.5t70.5 -28.5q57 0 90 39.5t33 95.5q0 45 -25 74t-71 29z" />
    <glyph glyph-name="plusminus" unicode="&#xb1;" horiz-adv-x="1124" 
d="M186 750h324l43 245h180l-43 -245h332l-29 -168h-331l-50 -275h-180l49 275h-323zM897 37h-836l29 168h836z" />
    <glyph glyph-name="twosuperior" unicode="&#xb2;" horiz-adv-x="677" 
d="M600 655l-31 -172h-579l24 140q92 54 145.5 86.5t109.5 71.5t83.5 66.5t45.5 57.5t18 60q0 75 -82 75q-86 0 -107 -120l-180 61q15 105 94 173.5t221 68.5q126 0 200.5 -59t74.5 -167q0 -60 -26.5 -111t-63 -84.5t-92 -63t-97.5 -44.5t-94 -30v-9h336z" />
    <glyph glyph-name="threesuperior" unicode="&#xb3;" horiz-adv-x="657" 
d="M414 850l-2 -4q174 -22 174 -166q0 -102 -87 -156.5t-229 -54.5q-118 0 -190 47.5t-82 138.5l188 64q3 -45 21.5 -68.5t62.5 -23.5q38 0 61 16t23 45q0 18 -5 31.5t-19.5 27.5t-47.5 21.5t-83 7.5l22 123q170 5 170 88q0 30 -17 46t-42 16q-71 0 -90 -76l-164 67
q29 90 102.5 136.5t184.5 46.5q116 0 183.5 -48.5t67.5 -142.5q0 -76 -52 -122t-150 -60z" />
    <glyph glyph-name="acute" unicode="&#xb4;" horiz-adv-x="845" 
d="M442 1075h-278l141 320h377z" />
    <glyph glyph-name="mu" unicode="&#xb5;" 
d="M670 145q-41 -100 -97.5 -135t-142.5 -35q-67 0 -86 31l-74 -422h-313l242 1362h309l-107 -616q-10 -65 14 -98t77 -33q144 0 178 207l96 540h309l-108 -624q-15 -84 55 -84q19 0 61 10l-49 -232q-83 -26 -162 -26q-103 0 -147 35.5t-55 119.5z" />
    <glyph glyph-name="mu" unicode="&#x3bc;" 
d="M670 145q-41 -100 -97.5 -135t-142.5 -35q-67 0 -86 31l-74 -422h-313l242 1362h309l-107 -616q-10 -65 14 -98t77 -33q144 0 178 207l96 540h309l-108 -624q-15 -84 55 -84q19 0 61 10l-49 -232q-83 -26 -162 -26q-103 0 -147 35.5t-55 119.5z" />
    <glyph glyph-name="paragraph" unicode="&#xb6;" horiz-adv-x="1173" 
d="M1108 958l-172 -972q-15 -86 -53.5 -150t-94.5 -100t-120 -53t-138 -17q-71 0 -120.5 12t-100.5 43l94 263q60 -60 148 -60q43 0 68.5 27.5t37.5 93.5l56 311h-101q-215 0 -323.5 104t-71.5 308q77 438 588 438h508l-43 -248h-162z" />
    <glyph glyph-name="periodcentered" unicode="&#xb7;" horiz-adv-x="602" 
d="M102 541q0 82 54 137t131 55q83 0 137.5 -54.5t54.5 -137.5q0 -77 -55 -131t-137 -54q-77 0 -131 54t-54 131z" />
    <glyph glyph-name="cedilla" unicode="&#xb8;" horiz-adv-x="796" 
d="M633 -238q0 -94 -68.5 -144t-175.5 -50q-74 0 -134.5 20.5t-90.5 53.5l53 137q64 -70 129 -70q64 0 64 49q0 58 -86 78l84 207h112l-49 -115q84 -12 123 -50t39 -116z" />
    <glyph glyph-name="onesuperior" unicode="&#xb9;" horiz-adv-x="655" 
d="M586 483h-576l29 162h186l64 363l-207 -15l31 172l428 41l-99 -561h172z" />
    <glyph glyph-name="ordmasculine" unicode="&#xba;" horiz-adv-x="825" 
d="M449 1231q146 0 230.5 -73.5t84.5 -205.5q0 -77 -24 -144.5t-70 -121t-120.5 -84.5t-168.5 -31q-142 0 -231 69t-89 198q0 79 24.5 149t71 125t122 87t170.5 32zM436 1069q-63 0 -100 -64t-37 -165q0 -55 24.5 -84t67.5 -29q65 0 101 63t36 166q0 56 -24 84.5t-68 28.5z
" />
    <glyph glyph-name="guillemotright" unicode="&#xbb;" horiz-adv-x="1210" 
d="M401 485v9q-39 23 -86 84l-155 200l178 142l338 -435l-492 -434l-133 150l234 211q31 27 60 45.5t43 22.5zM885 485v9q-39 23 -86 84l-156 200l178 142l338 -435l-491 -434l-133 150l233 211q31 27 60.5 45.5t43.5 22.5z" />
    <glyph glyph-name="onequarter" unicode="&#xbc;" horiz-adv-x="1843" 
d="M600 483h-575l28 162h187l63 363l-207 -15l31 172l428 41l-98 -561h172zM410 0l835 1206h189l-842 -1206h-182zM1448 0l22 131h-354l27 148l440 444h213l-76 -434h97l-29 -158h-96l-23 -131h-221zM1503 285l21 118q5 31 14 68t15 59l6 21h-9q-26 -51 -71 -98l-72 -76
q-24 -24 -52.5 -48t-45.5 -36l-17 -12v-9q49 13 117 13h94z" />
    <glyph glyph-name="onehalf" unicode="&#xbd;" horiz-adv-x="1843" 
d="M600 483h-575l28 162h187l63 363l-207 -15l31 172l428 41l-98 -561h172zM410 0l835 1206h189l-842 -1206h-182zM1706 172l-31 -172h-579l24 139q92 54 145.5 86.5t109.5 71.5t83.5 66.5t45.5 57.5t18 60q0 76 -82 76q-85 0 -107 -121l-180 62q15 105 94 173t221 68
q126 0 200.5 -58.5t74.5 -166.5q0 -60 -26.5 -111t-63.5 -85t-92 -63t-97 -44.5t-94 -30.5v-8h336z" />
    <glyph glyph-name="threequarters" unicode="&#xbe;" horiz-adv-x="1843" 
d="M455 850l-2 -4q174 -22 174 -166q0 -102 -87 -156.5t-229 -54.5q-118 0 -190 47.5t-82 138.5l188 64q3 -45 21.5 -68.5t62.5 -23.5q38 0 61 16t23 45q0 18 -5 31.5t-19.5 27.5t-47.5 21.5t-83 7.5l22 123q170 5 170 88q0 30 -17 46t-42 16q-71 0 -90 -76l-164 67
q29 90 102.5 136.5t184.5 46.5q116 0 183.5 -48.5t67.5 -142.5q0 -76 -52 -122t-150 -60zM410 0l835 1206h189l-842 -1206h-182zM1448 0l22 131h-354l27 148l440 444h213l-76 -434h97l-29 -158h-96l-23 -131h-221zM1503 285l21 118q5 31 14 68t15 59l6 21h-9
q-26 -51 -71 -98l-72 -76q-24 -24 -52.5 -48t-45.5 -36l-17 -12v-9q49 13 117 13h94z" />
    <glyph glyph-name="questiondown" unicode="&#xbf;" horiz-adv-x="966" 
d="M616 164l279 -96q-85 -353 -473 -353q-211 0 -321.5 95t-110.5 266q0 93 38 164.5t101 112t137 61t154 20.5l22 111h263l-50 -275h-98q-124 0 -190 -34t-66 -119q0 -65 35.5 -100t105.5 -35q79 0 121.5 42t52.5 140zM788 788q0 -76 -52 -123t-130 -47q-81 0 -133.5 46.5
t-52.5 123.5q0 75 52.5 121.5t133.5 46.5q78 0 130 -46.5t52 -121.5z" />
    <glyph glyph-name="Agrave" unicode="&#xc0;" horiz-adv-x="1323" 
d="M881 0l-41 225h-445l-114 -225h-332l647 1206h375l229 -1206h-319zM940 1321h-278l-232 307h377zM575 575l-49 -94h269q-21 104 -35.5 220t-19 182.5t-1.5 66.5h-8q-54 -178 -156 -375z" />
    <glyph glyph-name="Aacute" unicode="&#xc1;" horiz-adv-x="1323" 
d="M881 0l-41 225h-445l-114 -225h-332l647 1206h375l229 -1206h-319zM911 1321h-278l133 307h377zM575 575l-49 -94h269q-21 104 -35.5 220t-19 182.5t-1.5 66.5h-8q-54 -178 -156 -375z" />
    <glyph glyph-name="Acircumflex" unicode="&#xc2;" horiz-adv-x="1323" 
d="M881 0l-41 225h-445l-114 -225h-332l647 1206h375l229 -1206h-319zM723 1628h195l227 -307h-268l-50 61q-13 16 -20 31t-7 22l-1 7h-11q7 -4 -29.5 -39t-92.5 -82h-281zM575 575l-49 -94h269q-21 104 -35.5 220t-19 182.5t-1.5 66.5h-8q-54 -178 -156 -375z" />
    <glyph glyph-name="Atilde" unicode="&#xc3;" horiz-adv-x="1323" 
d="M881 0l-41 225h-445l-114 -225h-332l647 1206h375l229 -1206h-319zM932 1325q-50 0 -96 16t-73.5 35t-55.5 35t-45 16q-33 0 -56 -28t-24 -78h-166q-35 148 37 245t196 97q47 0 76.5 -10.5t62.5 -32.5q50 -35 73.5 -47t47.5 -12q67 0 70 96h172q40 -148 -23.5 -240
t-195.5 -92zM575 575l-49 -94h269q-21 104 -35.5 220t-19 182.5t-1.5 66.5h-8q-54 -178 -156 -375z" />
    <glyph glyph-name="Adieresis" unicode="&#xc4;" horiz-adv-x="1323" 
d="M881 0l-41 225h-445l-114 -225h-332l647 1206h375l229 -1206h-319zM868 1487q0 81 46 123.5t116 42.5q75 0 121.5 -42t46.5 -124q0 -79 -46.5 -121.5t-121.5 -42.5q-70 0 -116 43t-46 121zM408 1487q0 81 45.5 123.5t115.5 42.5q75 0 121.5 -42t46.5 -124
q0 -79 -46.5 -121.5t-121.5 -42.5q-70 0 -115.5 43t-45.5 121zM575 575l-49 -94h269q-21 104 -35.5 220t-19 182.5t-1.5 66.5h-8q-54 -178 -156 -375z" />
    <glyph glyph-name="Aring" unicode="&#xc5;" horiz-adv-x="1323" 
d="M881 0l-41 225h-445l-114 -225h-332l647 1206h375l229 -1206h-319zM586 1501q2 106 72 179t186 73q96 0 155.5 -60.5t59.5 -150.5q0 -109 -70.5 -182.5t-181.5 -73.5q-107 0 -164 59.5t-57 155.5zM575 575l-49 -94h269q-21 104 -35.5 220t-19 182.5t-1.5 66.5h-8
q-54 -178 -156 -375zM834 1618q-44 0 -71.5 -31.5t-27.5 -77.5q0 -37 21 -59.5t59 -22.5q47 0 73.5 32t26.5 79q0 35 -21.5 57.5t-59.5 22.5z" />
    <glyph glyph-name="AE" unicode="&#xc6;" horiz-adv-x="1857" 
d="M836 0l38 225h-442l-174 -225h-350l938 1206h1032l-47 -266h-520l-35 -201h457l-45 -256h-457l-39 -217h520l-45 -266h-831zM1008 971l-379 -490h291l38 226q16 89 30.5 155t21.5 88l6 21h-8z" />
    <glyph glyph-name="Ccedilla" unicode="&#xc7;" horiz-adv-x="1220" 
d="M715 -238q0 -94 -68.5 -144t-175.5 -50q-74 0 -134.5 20.5t-90.5 53.5l53 137q64 -70 129 -70q64 0 64 49q0 58 -86 78l61 154q-179 34 -272 159.5t-93 329.5q0 172 51 315.5t138 238t203 146.5t247 52q220 0 337.5 -99.5t142.5 -267.5l-324 -104q-8 100 -45.5 150.5
t-130.5 50.5t-162 -63.5t-104 -169.5t-35 -239q0 -120 54.5 -185.5t148.5 -65.5q79 0 138 40.5t109 141.5l267 -139q-77 -158 -207.5 -232t-321.5 -74h-35l-20 -47q84 -12 123 -50t39 -116z" />
    <glyph glyph-name="Egrave" unicode="&#xc8;" horiz-adv-x="1083" 
d="M938 266l-45 -266h-832l211 1206h832l-47 -266h-520l-35 -201h456l-45 -256h-456l-39 -217h520zM844 1321h-279l-231 307h377z" />
    <glyph glyph-name="Eacute" unicode="&#xc9;" horiz-adv-x="1083" 
d="M938 266l-45 -266h-832l211 1206h832l-47 -266h-520l-35 -201h456l-45 -256h-456l-39 -217h520zM815 1321h-278l133 307h377z" />
    <glyph glyph-name="Ecircumflex" unicode="&#xca;" horiz-adv-x="1083" 
d="M938 266l-45 -266h-832l211 1206h832l-47 -266h-520l-35 -201h456l-45 -256h-456l-39 -217h520zM625 1628h194l228 -307h-269l-49 61q-13 16 -20 31t-8 22l-1 7h-10q-8 -25 -49 -60l-74 -61h-280z" />
    <glyph glyph-name="Edieresis" unicode="&#xcb;" horiz-adv-x="1083" 
d="M938 266l-45 -266h-832l211 1206h832l-47 -266h-520l-35 -201h456l-45 -256h-456l-39 -217h520zM311 1487q0 81 46 123.5t116 42.5q75 0 121.5 -42t46.5 -124q0 -79 -46.5 -121.5t-121.5 -42.5q-70 0 -116 43t-46 121zM772 1487q0 81 46 123.5t116 42.5q75 0 121.5 -42
t46.5 -124q0 -79 -46.5 -121.5t-121.5 -42.5q-70 0 -116 43t-46 121z" />
    <glyph glyph-name="Igrave" unicode="&#xcc;" horiz-adv-x="604" 
d="M272 1206h312l-211 -1206h-312zM602 1321h-278l-232 307h377z" />
    <glyph glyph-name="Iacute" unicode="&#xcd;" horiz-adv-x="604" 
d="M272 1206h312l-211 -1206h-312zM573 1321h-278l133 307h377z" />
    <glyph glyph-name="Icircumflex" unicode="&#xce;" horiz-adv-x="604" 
d="M272 1206h312l-211 -1206h-312zM385 1628h195l227 -307h-268l-50 61q-13 16 -20 31t-7 22l-1 7h-10q-9 -25 -50 -60l-73 -61h-281z" />
    <glyph glyph-name="Idieresis" unicode="&#xcf;" horiz-adv-x="604" 
d="M272 1206h312l-211 -1206h-312zM70 1487q0 81 45.5 123.5t115.5 42.5q75 0 121.5 -42t46.5 -124q0 -79 -46.5 -121.5t-121.5 -42.5q-70 0 -115.5 43t-45.5 121zM530 1487q0 81 46 123.5t116 42.5q75 0 121.5 -42t46.5 -124q0 -79 -46.5 -121.5t-121.5 -42.5
q-70 0 -116 43t-46 121z" />
    <glyph glyph-name="Eth" unicode="&#xd0;" horiz-adv-x="1298" 
d="M489 0h-428l84 487h-135l45 246h133l84 473h418q537 0 537 -479q0 -154 -38 -277t-104.5 -206.5t-160.5 -139t-202 -80t-233 -24.5zM418 260h108q170 0 273.5 113.5t103.5 322.5q0 250 -270 250h-94l-39 -213h221l-45 -246h-219z" />
    <glyph glyph-name="Ntilde" unicode="&#xd1;" horiz-adv-x="1349" 
d="M557 1206l268 -536q21 -40 38.5 -84.5t24.5 -69.5l7 -24h8q8 108 35 262l80 452h311l-211 -1206h-274l-275 522q-24 46 -44 95.5t-28 75.5l-8 26h-8q-2 -103 -35 -281l-73 -438h-312l211 1206h285zM946 1325q-40 0 -70 7t-46.5 16t-45.5 28q-32 21 -46 29.5t-30.5 15
t-31.5 6.5q-33 0 -56 -28t-24 -78h-166q-35 148 37.5 245t196.5 97q47 0 76.5 -10.5t62.5 -32.5l19.5 -13t18.5 -12t15.5 -9.5t15.5 -9l13 -6.5t13.5 -5.5t12.5 -2.5t13 -1q66 0 69 96h172q40 -148 -23.5 -240t-195.5 -92z" />
    <glyph glyph-name="Ograve" unicode="&#xd2;" horiz-adv-x="1318" 
d="M608 -25q-244 0 -375 134.5t-131 369.5q0 172 51 315.5t138 238t203 146.5t247 52q246 0 376 -134t130 -372q0 -172 -51 -315t-138.5 -237.5t-203.5 -146t-246 -51.5zM721 961q-138 0 -219.5 -132t-81.5 -329q0 -127 54.5 -194.5t148.5 -67.5q87 0 156 62.5t106 169.5
t37 237q0 120 -54.5 187t-146.5 67zM934 1321h-279l-231 307h377z" />
    <glyph glyph-name="Oacute" unicode="&#xd3;" horiz-adv-x="1318" 
d="M608 -25q-244 0 -375 134.5t-131 369.5q0 172 51 315.5t138 238t203 146.5t247 52q246 0 376 -134t130 -372q0 -172 -51 -315t-138.5 -237.5t-203.5 -146t-246 -51.5zM721 961q-138 0 -219.5 -132t-81.5 -329q0 -127 54.5 -194.5t148.5 -67.5q87 0 156 62.5t106 169.5
t37 237q0 120 -54.5 187t-146.5 67zM905 1321h-278l133 307h377z" />
    <glyph glyph-name="Ocircumflex" unicode="&#xd4;" horiz-adv-x="1318" 
d="M608 -25q-244 0 -375 134.5t-131 369.5q0 172 51 315.5t138 238t203 146.5t247 52q246 0 376 -134t130 -372q0 -172 -51 -315t-138.5 -237.5t-203.5 -146t-246 -51.5zM721 961q-138 0 -219.5 -132t-81.5 -329q0 -127 54.5 -194.5t148.5 -67.5q87 0 156 62.5t106 169.5
t37 237q0 120 -54.5 187t-146.5 67zM717 1628h194l228 -307h-269l-49 61q-13 16 -20 31t-7 22l-1 7h-11q-8 -25 -49 -60l-74 -61h-280z" />
    <glyph glyph-name="Otilde" unicode="&#xd5;" horiz-adv-x="1318" 
d="M608 -25q-244 0 -375 134.5t-131 369.5q0 172 51 315.5t138 238t203 146.5t247 52q246 0 376 -134t130 -372q0 -172 -51 -315t-138.5 -237.5t-203.5 -146t-246 -51.5zM721 961q-138 0 -219.5 -132t-81.5 -329q0 -127 54.5 -194.5t148.5 -67.5q87 0 156 62.5t106 169.5
t37 237q0 120 -54.5 187t-146.5 67zM926 1325q-40 0 -70 7t-46.5 16t-45.5 28q-45 30 -66.5 40.5t-42.5 10.5q-33 0 -56 -28t-24 -78h-165q-35 148 37 245t196 97q47 0 76.5 -10.5t62.5 -32.5l19.5 -13t18.5 -12t15.5 -9.5t15.5 -9l13 -6.5t13.5 -5.5t12.5 -2.5t13 -1
q67 0 70 96h172q40 -148 -23.5 -240t-195.5 -92z" />
    <glyph glyph-name="Odieresis" unicode="&#xd6;" horiz-adv-x="1318" 
d="M608 -25q-244 0 -375 134.5t-131 369.5q0 172 51 315.5t138 238t203 146.5t247 52q246 0 376 -134t130 -372q0 -172 -51 -315t-138.5 -237.5t-203.5 -146t-246 -51.5zM721 961q-138 0 -219.5 -132t-81.5 -329q0 -127 54.5 -194.5t148.5 -67.5q87 0 156 62.5t106 169.5
t37 237q0 120 -54.5 187t-146.5 67zM401 1487q0 81 46 123.5t116 42.5q75 0 121.5 -42t46.5 -124q0 -79 -46.5 -121.5t-121.5 -42.5q-70 0 -116 43t-46 121zM862 1487q0 81 46 123.5t116 42.5q75 0 121.5 -42t46.5 -124q0 -79 -46.5 -121.5t-121.5 -42.5q-70 0 -116 43
t-46 121z" />
    <glyph glyph-name="multiply" unicode="&#xd7;" horiz-adv-x="1017" 
d="M76 256l303 258l-199 250l137 117l203 -246l311 264l113 -133l-313 -266l217 -262l-139 -117l-217 262l-304 -260z" />
    <glyph glyph-name="Oslash" unicode="&#xd8;" horiz-adv-x="1318" 
d="M156 -25l-97 82l117 123q-74 121 -74 299q0 172 51 315.5t138 238t203 146.5t247 52q209 0 340 -103l97 103l100 -82l-111 -117q80 -124 80 -307q0 -172 -51 -315t-138.5 -237.5t-203.5 -146t-246 -51.5q-217 0 -348 109zM922 707q0 28 -7 63l-442 -463q51 -69 150 -69
q87 0 156 62.5t106 169.5t37 237zM721 961q-138 0 -219.5 -132t-81.5 -329q0 -44 2 -62l438 461q-56 62 -139 62z" />
    <glyph glyph-name="Ugrave" unicode="&#xd9;" horiz-adv-x="1265" 
d="M954 1206h312l-138 -778q-22 -129 -71.5 -218t-125 -140t-166.5 -73t-210 -22q-72 0 -134 11t-119 35t-97 63t-68 94.5t-32.5 129.5t10.5 169l129 729h311l-129 -712q-22 -129 13.5 -196t160.5 -67q51 0 88 13.5t59.5 33.5t39 58t24.5 71.5t18 90.5zM920 1321h-279
l-231 307h376z" />
    <glyph glyph-name="Uacute" unicode="&#xda;" horiz-adv-x="1265" 
d="M954 1206h312l-138 -778q-22 -129 -71.5 -218t-125 -140t-166.5 -73t-210 -22q-72 0 -134 11t-119 35t-97 63t-68 94.5t-32.5 129.5t10.5 169l129 729h311l-129 -712q-22 -129 13.5 -196t160.5 -67q51 0 88 13.5t59.5 33.5t39 58t24.5 71.5t18 90.5zM891 1321h-279
l133 307h377z" />
    <glyph glyph-name="Ucircumflex" unicode="&#xdb;" horiz-adv-x="1265" 
d="M954 1206h312l-138 -778q-22 -129 -71.5 -218t-125 -140t-166.5 -73t-210 -22q-72 0 -134 11t-119 35t-97 63t-68 94.5t-32.5 129.5t10.5 169l129 729h311l-129 -712q-22 -129 13.5 -196t160.5 -67q51 0 88 13.5t59.5 33.5t39 58t24.5 71.5t18 90.5zM702 1628h195
l227 -307h-268l-49 61q-13 16 -20 31t-8 22l-1 7h-10q-8 -25 -49 -60l-74 -61h-280z" />
    <glyph glyph-name="Udieresis" unicode="&#xdc;" horiz-adv-x="1265" 
d="M954 1206h312l-138 -778q-22 -129 -71.5 -218t-125 -140t-166.5 -73t-210 -22q-72 0 -134 11t-119 35t-97 63t-68 94.5t-32.5 129.5t10.5 169l129 729h311l-129 -712q-22 -129 13.5 -196t160.5 -67q51 0 88 13.5t59.5 33.5t39 58t24.5 71.5t18 90.5zM387 1487
q0 81 46 123.5t116 42.5q75 0 121.5 -42t46.5 -124q0 -79 -46.5 -121.5t-121.5 -42.5q-70 0 -116 43t-46 121zM848 1487q0 81 46 123.5t116 42.5q75 0 121.5 -42t46.5 -124q0 -79 -46.5 -121.5t-121.5 -42.5q-70 0 -116 43t-46 121z" />
    <glyph glyph-name="Yacute" unicode="&#xdd;" horiz-adv-x="1136" 
d="M461 1206l78 -256q23 -75 36 -153.5t15 -120.5l2 -41h8q5 17 14.5 46.5t48.5 112.5t87 156l170 256h329l-532 -823l-66 -383h-311l66 383l-273 823h328zM844 1321h-279l133 307h377z" />
    <glyph glyph-name="Thorn" unicode="&#xde;" horiz-adv-x="1095" 
d="M510 778l-55 -305h92q112 0 160.5 36.5t48.5 143.5q0 65 -37.5 95t-114.5 30h-94zM373 0h-312l211 1206h312l-31 -170h115q209 0 303 -92.5t94 -263.5q0 -118 -39 -208t-107 -143.5t-153.5 -80.5t-185.5 -27h-170z" />
    <glyph glyph-name="germandbls" unicode="&#xdf;" horiz-adv-x="1214" 
d="M14 -123l164 946q22 128 67.5 227t103.5 161t132.5 102t148.5 55.5t158 15.5q191 0 288.5 -86.5t97.5 -216.5q0 -145 -76.5 -224t-206.5 -99v-8q131 -16 194.5 -101t63.5 -209q0 -155 -61.5 -261.5t-165.5 -155t-244 -48.5q-83 0 -153 27.5t-107 79.5l94 225
q55 -90 170 -90q72 0 118 50t46 165q0 85 -46 135.5t-145 50.5h-112l43 242h133q162 0 162 156q0 58 -31 90.5t-109 32.5q-103 0 -163 -73t-86 -228l-173 -981q-28 -159 -102 -224t-229 -65q-123 0 -203 45l55 215q48 -33 92 -33q36 0 55 19.5t27 62.5z" />
    <glyph glyph-name="agrave" unicode="&#xe0;" 
d="M666 393l30 158q7 50 4.5 91.5t-27.5 69t-71 27.5q-70 0 -121 -54.5t-73.5 -134t-22.5 -171.5q0 -77 30 -126.5t89 -49.5q68 0 107.5 52t54.5 138zM1073 946l-108 -624q-7 -39 4 -61.5t53 -22.5q19 0 61 10l-49 -232q-83 -26 -162 -26q-111 0 -167 39.5t-68 130.5
q-60 -185 -262 -185q-154 0 -234 103t-80 284q0 164 51.5 300.5t154.5 221.5t239 85q218 0 229 -181l60 158h278zM801 1075h-279l-239 320h376z" />
    <glyph glyph-name="aacute" unicode="&#xe1;" 
d="M666 393l30 158q7 50 4.5 91.5t-27.5 69t-71 27.5q-70 0 -121 -54.5t-73.5 -134t-22.5 -171.5q0 -77 30 -126.5t89 -49.5q68 0 107.5 52t54.5 138zM1073 946l-108 -624q-7 -39 4 -61.5t53 -22.5q19 0 61 10l-49 -232q-83 -26 -162 -26q-111 0 -167 39.5t-68 130.5
q-60 -185 -262 -185q-154 0 -234 103t-80 284q0 164 51.5 300.5t154.5 221.5t239 85q218 0 229 -181l60 158h278zM778 1075h-278l141 320h377z" />
    <glyph glyph-name="acircumflex" unicode="&#xe2;" 
d="M666 393l30 158q7 50 4.5 91.5t-27.5 69t-71 27.5q-70 0 -121 -54.5t-73.5 -134t-22.5 -171.5q0 -77 30 -126.5t89 -49.5q68 0 107.5 52t54.5 138zM1073 946l-108 -624q-7 -39 4 -61.5t53 -22.5q19 0 61 10l-49 -232q-83 -26 -162 -26q-111 0 -167 39.5t-68 130.5
q-60 -185 -262 -185q-154 0 -234 103t-80 284q0 164 51.5 300.5t154.5 221.5t239 85q218 0 229 -181l60 158h278zM604 1403h195l225 -334h-268l-51 66q-14 18 -20.5 34t-6.5 23v6h-10q-5 -22 -52 -63l-71 -66h-281z" />
    <glyph glyph-name="atilde" unicode="&#xe3;" 
d="M666 393l30 158q7 50 4.5 91.5t-27.5 69t-71 27.5q-70 0 -121 -54.5t-73.5 -134t-22.5 -171.5q0 -77 30 -126.5t89 -49.5q68 0 107.5 52t54.5 138zM1073 946l-108 -624q-7 -39 4 -61.5t53 -22.5q19 0 61 10l-49 -232q-83 -26 -162 -26q-111 0 -167 39.5t-68 130.5
q-60 -185 -262 -185q-154 0 -234 103t-80 284q0 164 51.5 300.5t154.5 221.5t239 85q218 0 229 -181l60 158h278zM809 1063q-40 0 -70 7t-46.5 16t-45.5 28q-32 21 -46 29.5t-30.5 15t-31.5 6.5q-33 0 -56 -28t-24 -78h-166q-35 148 37 245t196 97q75 0 140 -43l25.5 -17
t23.5 -15.5t19 -11t18.5 -9.5t15.5 -5t18 -2q67 0 70 97h172q40 -148 -23.5 -240t-195.5 -92z" />
    <glyph glyph-name="adieresis" unicode="&#xe4;" 
d="M666 393l30 158q7 50 4.5 91.5t-27.5 69t-71 27.5q-70 0 -121 -54.5t-73.5 -134t-22.5 -171.5q0 -77 30 -126.5t89 -49.5q68 0 107.5 52t54.5 138zM1073 946l-108 -624q-7 -39 4 -61.5t53 -22.5q19 0 61 10l-49 -232q-83 -26 -162 -26q-111 0 -167 39.5t-68 130.5
q-60 -185 -262 -185q-154 0 -234 103t-80 284q0 164 51.5 300.5t154.5 221.5t239 85q218 0 229 -181l60 158h278zM274 1221q0 81 46 123t116 42q76 0 122 -42t46 -123q0 -79 -46.5 -121.5t-121.5 -42.5q-70 0 -116 43t-46 121zM735 1221q0 81 46 123t116 42q76 0 122 -42
t46 -123q0 -79 -46.5 -121.5t-121.5 -42.5q-70 0 -116 43t-46 121z" />
    <glyph glyph-name="aring" unicode="&#xe5;" 
d="M666 393l30 158q7 50 4.5 91.5t-27.5 69t-71 27.5q-70 0 -121 -54.5t-73.5 -134t-22.5 -171.5q0 -77 30 -126.5t89 -49.5q68 0 107.5 52t54.5 138zM1073 946l-108 -624q-7 -39 4 -61.5t53 -22.5q19 0 61 10l-49 -232q-83 -26 -162 -26q-111 0 -167 39.5t-68 130.5
q-60 -185 -262 -185q-154 0 -234 103t-80 284q0 164 51.5 300.5t154.5 221.5t239 85q218 0 229 -181l60 158h278zM449 1243q0 105 71.5 178.5t186.5 73.5q96 0 155.5 -60.5t59.5 -150.5q0 -109 -70.5 -182.5t-181.5 -73.5q-107 0 -164 59.5t-57 155.5zM696 1360
q-44 0 -71 -31.5t-27 -77.5q0 -37 21 -59.5t59 -22.5q47 0 73.5 32t26.5 79q0 35 -21.5 57.5t-60.5 22.5z" />
    <glyph glyph-name="ae" unicode="&#xe6;" horiz-adv-x="1552" 
d="M1038 209q55 0 89.5 27t48.5 92l290 -70q-42 -147 -148.5 -215t-303.5 -68q-223 0 -340 136q-110 -136 -318 -136q-146 0 -230.5 66.5t-84.5 194.5q0 173 145 249.5t420 81.5q12 49 41 111q-15 63 -84 63q-51 0 -85.5 -35t-37.5 -98l-295 58q28 150 148.5 226.5
t302.5 76.5q169 0 260 -66q120 66 254 66q194 0 297.5 -100t103.5 -244q0 -137 -41 -217h-559q-15 -89 19 -144t108 -55zM600 262q-14 52 -14 125v19q-230 -9 -230 -142q0 -31 21 -49t59 -18q102 0 164 65zM944 567h252q4 24 4 58q0 120 -102 120q-57 0 -95.5 -51
t-58.5 -127z" />
    <glyph glyph-name="ccedilla" unicode="&#xe7;" horiz-adv-x="1005" 
d="M604 -238q0 -94 -68.5 -144t-175.5 -50q-74 0 -134.5 20.5t-90.5 53.5l53 137q64 -70 129 -70q64 0 64 49q0 58 -86 78l61 156q-139 31 -217 131t-78 254q0 119 33.5 224t98.5 188t172 131.5t243 48.5q96 0 170 -29.5t118 -80t66.5 -114.5t22.5 -137l-303 -53
q5 64 -20 118t-82 54q-83 0 -136 -97t-53 -241q0 -180 125 -180q102 0 129 139l301 -45q-88 -328 -450 -328q-23 0 -33 2l-21 -49q84 -12 123 -50t39 -116z" />
    <glyph glyph-name="egrave" unicode="&#xe8;" horiz-adv-x="1028" 
d="M514 209q55 0 89 27t48 92l291 -70q-42 -147 -149 -215t-304 -68q-202 0 -315 110.5t-113 301.5q0 136 43.5 248.5t116.5 184t167 110.5t198 39q194 0 297.5 -100t103.5 -244q0 -123 -41 -203h-559q-19 -94 16.5 -153.5t110.5 -59.5zM420 582h252q4 24 4 43
q0 120 -103 120q-58 0 -96 -45t-57 -118zM756 1075h-279l-239 320h376z" />
    <glyph glyph-name="eacute" unicode="&#xe9;" horiz-adv-x="1028" 
d="M514 209q55 0 89 27t48 92l291 -70q-42 -147 -149 -215t-304 -68q-202 0 -315 110.5t-113 301.5q0 136 43.5 248.5t116.5 184t167 110.5t198 39q194 0 297.5 -100t103.5 -244q0 -123 -41 -203h-559q-19 -94 16.5 -153.5t110.5 -59.5zM420 582h252q4 24 4 43
q0 120 -103 120q-58 0 -96 -45t-57 -118zM733 1075h-278l141 320h377z" />
    <glyph glyph-name="ecircumflex" unicode="&#xea;" horiz-adv-x="1028" 
d="M514 209q55 0 89 27t48 92l291 -70q-42 -147 -149 -215t-304 -68q-202 0 -315 110.5t-113 301.5q0 136 43.5 248.5t116.5 184t167 110.5t198 39q194 0 297.5 -100t103.5 -244q0 -123 -41 -203h-559q-19 -94 16.5 -153.5t110.5 -59.5zM420 582h252q4 24 4 43
q0 120 -103 120q-58 0 -96 -45t-57 -118zM559 1403h195l225 -334h-268l-52 66q-14 18 -20.5 34t-6.5 23l1 6h-10q-5 -22 -52 -63l-71 -66h-281z" />
    <glyph glyph-name="edieresis" unicode="&#xeb;" horiz-adv-x="1028" 
d="M514 209q55 0 89 27t48 92l291 -70q-42 -147 -149 -215t-304 -68q-202 0 -315 110.5t-113 301.5q0 136 43.5 248.5t116.5 184t167 110.5t198 39q194 0 297.5 -100t103.5 -244q0 -123 -41 -203h-559q-19 -94 16.5 -153.5t110.5 -59.5zM420 582h252q4 24 4 43
q0 120 -103 120q-58 0 -96 -45t-57 -118zM229 1221q0 81 46 123t116 42q76 0 122 -42t46 -123q0 -79 -46.5 -121.5t-121.5 -42.5q-70 0 -116 43t-46 121zM690 1221q0 81 46 123t116 42q76 0 122 -42t46 -123q0 -79 -46.5 -121.5t-121.5 -42.5q-70 0 -116 43t-46 121z" />
    <glyph glyph-name="igrave" unicode="&#xec;" horiz-adv-x="600" 
d="M520 1075h-278l-240 320h377zM510 946l-109 -624q-7 -39 4.5 -61.5t53.5 -22.5q19 0 61 10l-49 -232q-83 -26 -162 -26q-276 0 -229 276l121 680h309z" />
    <glyph glyph-name="iacute" unicode="&#xed;" horiz-adv-x="600" 
d="M498 1075h-279l141 320h377zM510 946l-109 -624q-7 -39 4.5 -61.5t53.5 -22.5q19 0 61 10l-49 -232q-83 -26 -162 -26q-276 0 -229 276l121 680h309z" />
    <glyph glyph-name="icircumflex" unicode="&#xee;" horiz-adv-x="600" 
d="M510 946l-109 -624q-7 -39 4.5 -61.5t53.5 -22.5q19 0 61 10l-49 -232q-83 -26 -162 -26q-276 0 -229 276l121 680h309zM324 1403h194l225 -334h-268l-51 66q-14 18 -20.5 34t-6.5 23v6h-10q-4 -22 -51 -63l-72 -66h-280z" />
    <glyph glyph-name="idieresis" unicode="&#xef;" horiz-adv-x="600" 
d="M-6 1221q0 81 46 123t116 42q76 0 122 -42t46 -123q0 -79 -46.5 -121.5t-121.5 -42.5q-70 0 -116 43t-46 121zM455 1221q0 81 45.5 123t115.5 42q76 0 122 -42t46 -123q0 -79 -46.5 -121.5t-121.5 -42.5q-70 0 -115.5 43t-45.5 121zM510 946l-109 -624q-7 -39 4.5 -61.5
t53.5 -22.5q19 0 61 10l-49 -232q-83 -26 -162 -26q-276 0 -229 276l121 680h309z" />
    <glyph glyph-name="eth" unicode="&#xf0;" horiz-adv-x="1095" 
d="M258 956l-33 109l232 74q-113 61 -281 106l295 141q183 -52 301 -147l221 72l33 -107l-164 -53q172 -206 172 -541q0 -135 -33.5 -249t-98 -201t-167 -136t-233.5 -49q-128 0 -225.5 43.5t-156.5 139.5t-59 235q0 153 58 279t165 200t242 74q80 0 125 -29t70 -79h8
q-35 128 -151 221zM580 715q-87 0 -139 -96t-52 -244q0 -83 33.5 -125.5t93.5 -42.5q90 0 141.5 94t51.5 246q0 82 -33.5 125t-95.5 43z" />
    <glyph glyph-name="ntilde" unicode="&#xf1;" horiz-adv-x="1177" 
d="M1040 647l-53 -325q-7 -39 4 -61.5t53 -22.5q20 0 62 10l-49 -232q-83 -26 -162 -26q-276 0 -229 276l51 295q25 156 -96 156q-58 0 -100 -53t-62 -162l-88 -502h-310l166 946h271l4 -192q46 109 116.5 162t184.5 53q112 0 178 -66.5t66 -175.5q0 -36 -7 -80zM831 1063
q-40 0 -70 7.5t-45.5 15.5t-45.5 28q-45 30 -66.5 40.5t-42.5 10.5q-33 0 -56 -28t-24 -78h-166q-35 148 37.5 245t196.5 97q47 0 76.5 -10.5t62.5 -32.5q8 -5 22.5 -14.5t20.5 -13.5t17 -10.5t17 -9.5t14.5 -6.5t15.5 -4.5t14 -1q67 0 70 97h172q40 -148 -24 -240t-196 -92
z" />
    <glyph glyph-name="ograve" unicode="&#xf2;" horiz-adv-x="1099" 
d="M600 969q204 0 321 -110t117 -310q0 -91 -20.5 -175t-64 -157t-105.5 -126.5t-150.5 -84.5t-193.5 -31q-197 0 -320 104t-123 298q0 120 33.5 225t98 188t169.5 131t238 48zM582 727q-88 0 -139.5 -98t-51.5 -250q0 -84 33.5 -127t93.5 -43q91 0 142 95.5t51 250.5
q0 85 -33.5 128.5t-95.5 43.5zM772 1075h-278l-240 320h377z" />
    <glyph glyph-name="oacute" unicode="&#xf3;" horiz-adv-x="1099" 
d="M600 969q204 0 321 -110t117 -310q0 -91 -20.5 -175t-64 -157t-105.5 -126.5t-150.5 -84.5t-193.5 -31q-197 0 -320 104t-123 298q0 120 33.5 225t98 188t169.5 131t238 48zM582 727q-88 0 -139.5 -98t-51.5 -250q0 -84 33.5 -127t93.5 -43q91 0 142 95.5t51 250.5
q0 85 -33.5 128.5t-95.5 43.5zM750 1075h-279l141 320h377z" />
    <glyph glyph-name="ocircumflex" unicode="&#xf4;" horiz-adv-x="1099" 
d="M600 969q204 0 321 -110t117 -310q0 -91 -20.5 -175t-64 -157t-105.5 -126.5t-150.5 -84.5t-193.5 -31q-197 0 -320 104t-123 298q0 120 33.5 225t98 188t169.5 131t238 48zM582 727q-88 0 -139.5 -98t-51.5 -250q0 -84 33.5 -127t93.5 -43q91 0 142 95.5t51 250.5
q0 85 -33.5 128.5t-95.5 43.5zM575 1403h195l225 -334h-268l-51 66q-14 18 -20.5 34t-6.5 23v6h-10q-4 -22 -51 -63l-72 -66h-280z" />
    <glyph glyph-name="otilde" unicode="&#xf5;" horiz-adv-x="1099" 
d="M600 969q204 0 321 -110t117 -310q0 -91 -20.5 -175t-64 -157t-105.5 -126.5t-150.5 -84.5t-193.5 -31q-197 0 -320 104t-123 298q0 120 33.5 225t98 188t169.5 131t238 48zM582 727q-88 0 -139.5 -98t-51.5 -250q0 -84 33.5 -127t93.5 -43q91 0 142 95.5t51 250.5
q0 85 -33.5 128.5t-95.5 43.5zM782 1063q-40 0 -70 7.5t-45.5 15.5t-45.5 28q-45 30 -66 40.5t-43 10.5q-33 0 -56 -28t-24 -78h-166q-35 148 37.5 245t196.5 97q47 0 76.5 -10.5t62.5 -32.5q8 -5 22.5 -14.5t20.5 -13.5t17 -10.5t17 -9.5t14.5 -6.5t15.5 -4.5t14 -1
q66 0 69 97h172q40 -148 -23.5 -240t-195.5 -92z" />
    <glyph glyph-name="odieresis" unicode="&#xf6;" horiz-adv-x="1099" 
d="M600 969q204 0 321 -110t117 -310q0 -91 -20.5 -175t-64 -157t-105.5 -126.5t-150.5 -84.5t-193.5 -31q-197 0 -320 104t-123 298q0 120 33.5 225t98 188t169.5 131t238 48zM582 727q-88 0 -139.5 -98t-51.5 -250q0 -84 33.5 -127t93.5 -43q91 0 142 95.5t51 250.5
q0 85 -33.5 128.5t-95.5 43.5zM246 1221q0 81 46 123t116 42q75 0 121 -41.5t46 -123.5q0 -79 -46 -121.5t-121 -42.5q-70 0 -116 43t-46 121zM707 1221q0 81 45.5 123t115.5 42q76 0 122 -42t46 -123q0 -79 -46.5 -121.5t-121.5 -42.5q-70 0 -115.5 43t-45.5 121z" />
    <glyph glyph-name="divide" unicode="&#xf7;" horiz-adv-x="1028" 
d="M918 424h-836l29 168h835zM305 182q0 51 35 87t86 36t87 -36t36 -87q0 -49 -36 -84t-87 -35t-86 34.5t-35 84.5zM461 821q0 53 35 89t86 36t87 -36.5t36 -88.5q0 -49 -36 -84t-87 -35t-86 34.5t-35 84.5z" />
    <glyph glyph-name="oslash" unicode="&#xf8;" horiz-adv-x="1099" 
d="M600 969q188 0 305 -97l107 99l86 -94l-113 -103q53 -92 53 -225q0 -91 -20.5 -175t-64 -157t-105.5 -126.5t-150.5 -84.5t-193.5 -31q-188 0 -301 88l-105 -94l-86 88l107 99q-58 92 -58 221q0 120 33.5 225t98 188t169.5 131t238 48zM582 727q-70 0 -117.5 -63.5
t-65.5 -171.5q-8 -58 -8 -89l293 269q-30 55 -102 55zM518 209q72 0 118 60.5t64 166.5q9 61 9 88l-291 -264q34 -51 100 -51z" />
    <glyph glyph-name="ugrave" unicode="&#xf9;" 
d="M672 182q-44 -107 -120 -157t-196 -50q-153 0 -224 96.5t-42 264.5l109 610h309l-107 -616q-10 -65 14 -98t77 -33q144 0 178 207l96 540h309l-108 -624q-15 -84 55 -84q19 0 61 10l-49 -232q-83 -26 -162 -26q-106 0 -154.5 47t-45.5 145zM801 1075h-279l-239 320h376z
" />
    <glyph glyph-name="uacute" unicode="&#xfa;" 
d="M672 182q-44 -107 -120 -157t-196 -50q-153 0 -224 96.5t-42 264.5l109 610h309l-107 -616q-10 -65 14 -98t77 -33q144 0 178 207l96 540h309l-108 -624q-15 -84 55 -84q19 0 61 10l-49 -232q-83 -26 -162 -26q-106 0 -154.5 47t-45.5 145zM778 1075h-278l141 320h377z
" />
    <glyph glyph-name="ucircumflex" unicode="&#xfb;" 
d="M672 182q-44 -107 -120 -157t-196 -50q-153 0 -224 96.5t-42 264.5l109 610h309l-107 -616q-10 -65 14 -98t77 -33q144 0 178 207l96 540h309l-108 -624q-15 -84 55 -84q19 0 61 10l-49 -232q-83 -26 -162 -26q-106 0 -154.5 47t-45.5 145zM604 1403h195l225 -334h-268
l-51 66q-14 18 -20.5 34t-6.5 23v6h-10q-5 -22 -52 -63l-71 -66h-281z" />
    <glyph glyph-name="udieresis" unicode="&#xfc;" 
d="M672 182q-44 -107 -120 -157t-196 -50q-153 0 -224 96.5t-42 264.5l109 610h309l-107 -616q-10 -65 14 -98t77 -33q144 0 178 207l96 540h309l-108 -624q-15 -84 55 -84q19 0 61 10l-49 -232q-83 -26 -162 -26q-106 0 -154.5 47t-45.5 145zM272 1221q0 81 46 123t116 42
q76 0 122 -42t46 -123q0 -79 -46.5 -121.5t-121.5 -42.5q-70 0 -116 43t-46 121zM733 1221q0 81 46 123t116 42q76 0 122 -42t46 -123q0 -79 -46.5 -121.5t-121.5 -42.5q-70 0 -116 43t-46 121z" />
    <glyph glyph-name="yacute" unicode="&#xfd;" horiz-adv-x="989" 
d="M393 946l37 -459q5 -83 4 -144t-4 -95l-4 -35h8q30 156 98 285l238 448h322l-578 -1032q-59 -108 -117 -178.5t-118.5 -106t-116 -48.5t-127.5 -13q-122 0 -199 41l90 252q55 -41 119 -41q117 0 188 127l-157 999h317zM713 1075h-279l141 320h377z" />
    <glyph glyph-name="thorn" unicode="&#xfe;" horiz-adv-x="1179" 
d="M461 512l-21 -113q-16 -91 16 -152t105 -61q69 0 121 53t77 132t25 170q0 94 -39.5 143t-107.5 49q-63 0 -109.5 -55.5t-66.5 -165.5zM395 139l-96 -555h-311l313 1784h311l-108 -604q80 205 295 205q144 0 231.5 -100t87.5 -298q0 -169 -56 -303t-166.5 -213.5
t-260.5 -79.5q-96 0 -161.5 41.5t-78.5 122.5z" />
    <glyph glyph-name="ydieresis" unicode="&#xff;" horiz-adv-x="989" 
d="M393 946l37 -459q5 -83 4 -144t-4 -95l-4 -35h8q30 156 98 285l238 448h322l-578 -1032q-59 -108 -117 -178.5t-118.5 -106t-116 -48.5t-127.5 -13q-122 0 -199 41l90 252q55 -41 119 -41q117 0 188 127l-157 999h317zM209 1221q0 81 46 123t116 42q76 0 122 -42t46 -123
q0 -79 -46.5 -121.5t-121.5 -42.5q-70 0 -116 43t-46 121zM670 1221q0 81 45.5 123t115.5 42q76 0 122 -42t46 -123q0 -79 -46.5 -121.5t-121.5 -42.5q-70 0 -115.5 43t-45.5 121z" />
    <glyph glyph-name="Amacron" unicode="&#x100;" horiz-adv-x="1323" 
d="M881 0l-41 225h-445l-114 -225h-332l647 1206h375l229 -1206h-319zM1114 1354h-643l43 245h643zM575 575l-49 -94h269q-21 104 -35.5 220t-19 182.5t-1.5 66.5h-8q-54 -178 -156 -375z" />
    <glyph glyph-name="amacron" unicode="&#x101;" 
d="M666 393l30 158q7 50 4.5 91.5t-27.5 69t-71 27.5q-70 0 -121 -54.5t-73.5 -134t-22.5 -171.5q0 -77 30 -126.5t89 -49.5q68 0 107.5 52t54.5 138zM1073 946l-108 -624q-7 -39 4 -61.5t53 -22.5q19 0 61 10l-49 -232q-83 -26 -162 -26q-111 0 -167 39.5t-68 130.5
q-60 -185 -262 -185q-154 0 -234 103t-80 284q0 164 51.5 300.5t154.5 221.5t239 85q218 0 229 -181l60 158h278zM967 1092h-625l45 245h625z" />
    <glyph glyph-name="Abreve" unicode="&#x102;" horiz-adv-x="1323" 
d="M881 0l-41 225h-445l-114 -225h-332l647 1206h375l229 -1206h-319zM780 1311q-164 0 -225.5 83t-34.5 232h223q-9 -55 7 -79.5t69 -24.5q54 0 79 24.5t34 79.5h223q-58 -315 -375 -315zM575 575l-49 -94h269q-21 104 -35.5 220t-19 182.5t-1.5 66.5h-8
q-54 -178 -156 -375z" />
    <glyph glyph-name="abreve" unicode="&#x103;" 
d="M666 393l30 158q7 50 4.5 91.5t-27.5 69t-71 27.5q-70 0 -121 -54.5t-73.5 -134t-22.5 -171.5q0 -77 30 -126.5t89 -49.5q68 0 107.5 52t54.5 138zM1073 946l-108 -624q-7 -39 4 -61.5t53 -22.5q19 0 61 10l-49 -232q-83 -26 -162 -26q-111 0 -167 39.5t-68 130.5
q-60 -185 -262 -185q-154 0 -234 103t-80 284q0 164 51.5 300.5t154.5 221.5t239 85q218 0 229 -181l60 158h278zM651 1061q-83 0 -141 26.5t-85.5 72t-37 106.5t5.5 129h223q-12 -62 1.5 -90.5t70.5 -28.5t81 28.5t36 90.5h223q-27 -148 -121.5 -241t-255.5 -93z" />
    <glyph glyph-name="Aogonek" unicode="&#x104;" horiz-adv-x="1323" 
d="M494 -217q0 72 32.5 134.5t85.5 103.5t116.5 66t129.5 30l-18 108h-445l-114 -225h-332l647 1206h375l229 -1206h-125q-180 0 -260 -32t-80 -128q0 -36 19 -56t53 -20q33 0 59.5 11t59.5 41l59 -156q-92 -92 -246 -92q-107 0 -176 52.5t-69 162.5zM575 575l-49 -94h269
q-21 104 -35.5 220t-19 182.5t-1.5 66.5h-8q-54 -178 -156 -375z" />
    <glyph glyph-name="aogonek" unicode="&#x105;" 
d="M520 -217q0 86 47 153.5t123 106.5q-44 48 -53 117q-33 -88 -102.5 -136.5t-159.5 -48.5q-154 0 -234 103t-80 284q0 164 51.5 300.5t154.5 221.5t239 85q218 0 229 -181l60 158h278l-108 -624q-7 -39 4 -61.5t53 -22.5q19 0 61 10l-49 -232q-10 -2 -44.5 -9t-48 -10
t-44 -12t-44.5 -16t-35 -20.5t-30.5 -28t-17.5 -35t-8 -45.5q0 -36 19 -56t53 -20q33 0 59 11t59 41l60 -156q-92 -92 -246 -92q-108 0 -177 52.5t-69 162.5zM666 393l30 158q7 50 4.5 91.5t-27.5 69t-71 27.5q-70 0 -121 -54.5t-73.5 -134t-22.5 -171.5q0 -77 30 -126.5
t89 -49.5q68 0 107.5 52t54.5 138z" />
    <glyph glyph-name="Cacute" unicode="&#x106;" horiz-adv-x="1220" 
d="M870 420l267 -139q-77 -158 -207.5 -232t-321.5 -74q-246 0 -376 131.5t-130 372.5q0 172 51 315.5t138 238t203 146.5t247 52q220 0 337.5 -99.5t142.5 -267.5l-324 -104q-8 100 -45.5 150.5t-130.5 50.5t-162 -63.5t-104 -169.5t-35 -239q0 -120 54.5 -185.5
t148.5 -65.5q79 0 138 40.5t109 141.5zM897 1321h-279l134 307h376z" />
    <glyph glyph-name="cacute" unicode="&#x107;" horiz-adv-x="1005" 
d="M645 348l301 -45q-88 -328 -450 -328q-200 0 -317.5 106t-117.5 296q0 119 33.5 224t98.5 188t172 131.5t243 48.5q96 0 170 -29.5t118 -80t66.5 -114.5t22.5 -137l-303 -53q5 64 -20 118t-82 54q-83 0 -136 -97t-53 -241q0 -180 125 -180q102 0 129 139zM743 1075h-278
l141 320h377z" />
    <glyph glyph-name="Ccircumflex" unicode="&#x108;" horiz-adv-x="1220" 
d="M870 420l267 -139q-77 -158 -207.5 -232t-321.5 -74q-246 0 -376 131.5t-130 372.5q0 172 51 315.5t138 238t203 146.5t247 52q220 0 337.5 -99.5t142.5 -267.5l-324 -104q-8 100 -45.5 150.5t-130.5 50.5t-162 -63.5t-104 -169.5t-35 -239q0 -120 54.5 -185.5
t148.5 -65.5q79 0 138 40.5t109 141.5zM709 1628h194l227 -307h-268l-49 61q-13 16 -20 31t-8 22l-1 7h-10q-8 -25 -49 -60l-74 -61h-280z" />
    <glyph glyph-name="ccircumflex" unicode="&#x109;" horiz-adv-x="1005" 
d="M645 348l301 -45q-88 -328 -450 -328q-200 0 -317.5 106t-117.5 296q0 119 33.5 224t98.5 188t172 131.5t243 48.5q96 0 170 -29.5t118 -80t66.5 -114.5t22.5 -137l-303 -53q5 64 -20 118t-82 54q-83 0 -136 -97t-53 -241q0 -180 125 -180q102 0 129 139zM569 1403h195
l225 -334h-268l-51 66q-14 18 -20.5 34t-6.5 23v6h-10q-4 -22 -51 -63l-72 -66h-281z" />
    <glyph glyph-name="Cdotaccent" unicode="&#x10a;" horiz-adv-x="1220" 
d="M870 420l267 -139q-77 -158 -207.5 -232t-321.5 -74q-246 0 -376 131.5t-130 372.5q0 172 51 315.5t138 238t203 146.5t247 52q220 0 337.5 -99.5t142.5 -267.5l-324 -104q-8 100 -45.5 150.5t-130.5 50.5t-162 -63.5t-104 -169.5t-35 -239q0 -120 54.5 -185.5
t148.5 -65.5q79 0 138 40.5t109 141.5zM621 1501q0 83 50.5 126.5t129.5 43.5q83 0 134.5 -43.5t51.5 -126.5q0 -81 -51.5 -124.5t-134.5 -43.5q-79 0 -129.5 44t-50.5 124z" />
    <glyph glyph-name="cdotaccent" unicode="&#x10b;" horiz-adv-x="1005" 
d="M645 348l301 -45q-88 -328 -450 -328q-200 0 -317.5 106t-117.5 296q0 119 33.5 224t98.5 188t172 131.5t243 48.5q96 0 170 -29.5t118 -80t66.5 -114.5t22.5 -137l-303 -53q5 64 -20 118t-82 54q-83 0 -136 -97t-53 -241q0 -180 125 -180q102 0 129 139zM459 1219
q0 82 51 126t129 44q85 0 135.5 -43t50.5 -127q0 -81 -51 -124.5t-135 -43.5q-77 0 -128.5 44t-51.5 124z" />
    <glyph glyph-name="Ccaron" unicode="&#x10c;" horiz-adv-x="1220" 
d="M870 420l267 -139q-77 -158 -207.5 -232t-321.5 -74q-246 0 -376 131.5t-130 372.5q0 172 51 315.5t138 238t203 146.5t247 52q220 0 337.5 -99.5t142.5 -267.5l-324 -104q-8 100 -45.5 150.5t-130.5 50.5t-162 -63.5t-104 -169.5t-35 -239q0 -120 54.5 -185.5
t148.5 -65.5q79 0 138 40.5t109 141.5zM858 1321h-194l-228 307h269l49 -61q13 -16 20 -31t8 -22v-7h11q8 25 49 60l73 61h281z" />
    <glyph glyph-name="ccaron" unicode="&#x10d;" horiz-adv-x="1005" 
d="M645 348l301 -45q-88 -328 -450 -328q-200 0 -317.5 106t-117.5 296q0 119 33.5 224t98.5 188t172 131.5t243 48.5q96 0 170 -29.5t118 -80t66.5 -114.5t22.5 -137l-303 -53q5 64 -20 118t-82 54q-83 0 -136 -97t-53 -241q0 -180 125 -180q102 0 129 139zM702 1069h-194
l-225 334h268l51 -66q14 -18 20.5 -34t6.5 -23v-6h10q4 22 51 63l72 66h280z" />
    <glyph glyph-name="Dcaron" unicode="&#x10e;" horiz-adv-x="1298" 
d="M418 260h108q170 0 273.5 113.5t103.5 322.5q0 250 -270 250h-94zM489 0h-428l211 1206h418q537 0 537 -479q0 -154 -38 -277t-104.5 -206.5t-160.5 -139t-202 -80t-233 -24.5zM811 1321h-195l-227 307h268l50 -61q13 -16 20 -31t7 -22l1 -7h10q9 25 50 60l73 61h281z
" />
    <glyph glyph-name="dcaron" unicode="&#x10f;" horiz-adv-x="1179" 
d="M1589 1430l-121 -367h-217l31 367h307zM680 393l29 158q31 188 -107 188q-70 0 -121 -54.5t-73.5 -134t-22.5 -171.5q0 -77 30 -126.5t89 -49.5q142 0 176 190zM1159 1368l-180 -1046q-7 -39 4 -61.5t53 -22.5q20 0 62 10l-49 -232q-83 -26 -162 -26q-111 0 -167.5 39.5
t-68.5 130.5q-31 -94 -105.5 -139.5t-170.5 -45.5q-154 0 -234 103t-80 284q0 165 52 301t157.5 221t247.5 85q100 0 163 -44.5t69 -136.5l100 580h309z" />
    <glyph glyph-name="Dcroat" unicode="&#x110;" horiz-adv-x="1298" 
d="M489 0h-428l84 487h-135l45 246h133l84 473h418q537 0 537 -479q0 -154 -38 -277t-104.5 -206.5t-160.5 -139t-202 -80t-233 -24.5zM418 260h108q170 0 273.5 113.5t103.5 322.5q0 250 -270 250h-94l-39 -213h221l-45 -246h-219z" />
    <glyph glyph-name="dcroat" unicode="&#x111;" horiz-adv-x="1179" 
d="M1159 1368l-24 -135h153l-33 -178h-151l-125 -733q-7 -39 4 -61.5t53 -22.5q20 0 62 10l-49 -232q-83 -26 -162 -26q-111 0 -167.5 39.5t-68.5 130.5q-31 -94 -105.5 -139.5t-170.5 -45.5q-154 0 -234 103t-80 284q0 165 52 301t157.5 221t247.5 85q100 0 163 -44.5
t69 -136.5l45 267h-275l33 178h272l25 135h309zM680 393l29 158q31 188 -107 188q-70 0 -121 -54.5t-73.5 -134t-22.5 -171.5q0 -77 30 -126.5t89 -49.5q142 0 176 190z" />
    <glyph glyph-name="Emacron" unicode="&#x112;" horiz-adv-x="1083" 
d="M938 266l-45 -266h-832l211 1206h832l-47 -266h-520l-35 -201h456l-45 -256h-456l-39 -217h520zM1018 1354h-643l43 245h643z" />
    <glyph glyph-name="emacron" unicode="&#x113;" horiz-adv-x="1028" 
d="M514 209q55 0 89 27t48 92l291 -70q-42 -147 -149 -215t-304 -68q-202 0 -315 110.5t-113 301.5q0 136 43.5 248.5t116.5 184t167 110.5t198 39q194 0 297.5 -100t103.5 -244q0 -123 -41 -203h-559q-19 -94 16.5 -153.5t110.5 -59.5zM420 582h252q4 24 4 43
q0 120 -103 120q-58 0 -96 -45t-57 -118zM922 1092h-625l45 245h625z" />
    <glyph glyph-name="Ebreve" unicode="&#x114;" horiz-adv-x="1083" 
d="M938 266l-45 -266h-832l211 1206h832l-47 -266h-520l-35 -201h456l-45 -256h-456l-39 -217h520zM682 1311q-164 0 -225.5 83t-34.5 232h223q-9 -55 7 -79.5t69 -24.5q54 0 79 24.5t34 79.5h223q-58 -315 -375 -315z" />
    <glyph glyph-name="ebreve" unicode="&#x115;" horiz-adv-x="1028" 
d="M514 209q55 0 89 27t48 92l291 -70q-42 -147 -149 -215t-304 -68q-202 0 -315 110.5t-113 301.5q0 136 43.5 248.5t116.5 184t167 110.5t198 39q194 0 297.5 -100t103.5 -244q0 -123 -41 -203h-559q-19 -94 16.5 -153.5t110.5 -59.5zM420 582h252q4 24 4 43
q0 120 -103 120q-58 0 -96 -45t-57 -118zM606 1061q-83 0 -141 26.5t-85.5 72t-37 106.5t5.5 129h223q-12 -62 1.5 -90.5t70.5 -28.5t81 28.5t36 90.5h223q-27 -148 -121.5 -241t-255.5 -93z" />
    <glyph glyph-name="Edotaccent" unicode="&#x116;" horiz-adv-x="1083" 
d="M938 266l-45 -266h-832l211 1206h832l-47 -266h-520l-35 -201h456l-45 -256h-456l-39 -217h520zM539 1501q0 83 50.5 126.5t129.5 43.5q83 0 134.5 -43.5t51.5 -126.5q0 -81 -51.5 -124.5t-134.5 -43.5q-79 0 -129.5 44t-50.5 124z" />
    <glyph glyph-name="edotaccent" unicode="&#x117;" horiz-adv-x="1028" 
d="M514 209q55 0 89 27t48 92l291 -70q-42 -147 -149 -215t-304 -68q-202 0 -315 110.5t-113 301.5q0 136 43.5 248.5t116.5 184t167 110.5t198 39q194 0 297.5 -100t103.5 -244q0 -123 -41 -203h-559q-19 -94 16.5 -153.5t110.5 -59.5zM420 582h252q4 24 4 43
q0 120 -103 120q-58 0 -96 -45t-57 -118zM449 1219q0 82 51 126t129 44q85 0 135.5 -43t50.5 -127q0 -81 -51 -124.5t-135 -43.5q-77 0 -128.5 44t-51.5 124z" />
    <glyph glyph-name="Eogonek" unicode="&#x118;" horiz-adv-x="1083" 
d="M391 -217q0 66 33 123.5t88 93.5h-451l211 1206h832l-47 -266h-520l-35 -201h456l-45 -256h-456l-39 -217h520l-45 -266h-64q-93 0 -144.5 -45.5t-51.5 -114.5q0 -36 19 -56t53 -20q33 0 59 11t59 41l60 -156q-92 -92 -246 -92q-108 0 -177 52.5t-69 162.5z" />
    <glyph glyph-name="eogonek" unicode="&#x119;" horiz-adv-x="1028" 
d="M317 -217q0 113 78 201q-159 23 -246.5 129.5t-87.5 273.5q0 136 43.5 248.5t116.5 184t167 110.5t198 39q194 0 297.5 -100t103.5 -244q0 -123 -41 -203h-559q-19 -94 16.5 -153.5t110.5 -59.5q55 0 89 27t48 92l291 -70q-30 -102 -97 -161.5t-181 -102.5
q-107 -40 -107 -146q0 -37 20.5 -60.5t53.5 -23.5t59.5 11t59.5 41l59 -156q-92 -92 -246 -92q-108 0 -177 52.5t-69 162.5zM420 582h252q4 24 4 43q0 120 -103 120q-58 0 -96 -45t-57 -118z" />
    <glyph glyph-name="Ecaron" unicode="&#x11a;" horiz-adv-x="1083" 
d="M938 266l-45 -266h-832l211 1206h832l-47 -266h-520l-35 -201h456l-45 -256h-456l-39 -217h520zM774 1321h-194l-228 307h269l49 -61q13 -16 20 -31t8 -22v-7h11q8 25 49 60l73 61h281z" />
    <glyph glyph-name="ecaron" unicode="&#x11b;" horiz-adv-x="1028" 
d="M514 209q55 0 89 27t48 92l291 -70q-42 -147 -149 -215t-304 -68q-202 0 -315 110.5t-113 301.5q0 136 43.5 248.5t116.5 184t167 110.5t198 39q194 0 297.5 -100t103.5 -244q0 -123 -41 -203h-559q-19 -94 16.5 -153.5t110.5 -59.5zM420 582h252q4 24 4 43
q0 120 -103 120q-58 0 -96 -45t-57 -118zM692 1069h-194l-226 334h269l51 -66q14 -18 20.5 -34t5.5 -23v-6h11q4 22 51 63l72 66h280z" />
    <glyph glyph-name="Gcircumflex" unicode="&#x11c;" horiz-adv-x="1323" 
d="M698 651h533l-115 -651h-180l-31 145q-87 -170 -325 -170q-226 0 -352 132.5t-126 371.5q0 172 51 315.5t138 238t203 146.5t247 52q220 0 337.5 -99.5t142.5 -267.5l-324 -104q-7 94 -45.5 146t-130.5 52t-161.5 -62t-104.5 -165.5t-35 -232.5q0 -130 60.5 -202.5
t176.5 -72.5q94 0 155 44t73 118l4 25h-234zM729 1628h195l227 -307h-268l-49 61q-13 16 -20 31t-8 22l-1 7h-10q-9 -25 -50 -60l-73 -61h-281z" />
    <glyph glyph-name="gcircumflex" unicode="&#x11d;" horiz-adv-x="1114" 
d="M684 414l25 137q14 82 -10 135t-99 53q-53 0 -94.5 -28t-66.5 -76.5t-37.5 -108t-12.5 -127.5q0 -77 30 -126.5t89 -49.5q141 0 176 191zM1085 946l-165 -944q-38 -222 -176.5 -328t-385.5 -106q-357 0 -450 221l227 170q18 -70 82.5 -113t144.5 -43q115 0 175 63t84 179
l24 129q-58 -178 -266 -178q-153 0 -233 103t-80 284q0 165 50.5 296t154 210.5t245.5 79.5q100 0 163 -44.5t69 -136.5l59 158h278zM586 1403h194l226 -334h-269l-51 66q-14 18 -20.5 34t-6.5 23v6h-10q-4 -22 -51 -63l-72 -66h-280z" />
    <glyph glyph-name="Gbreve" unicode="&#x11e;" horiz-adv-x="1323" 
d="M698 651h533l-115 -651h-180l-31 145q-87 -170 -325 -170q-226 0 -352 132.5t-126 371.5q0 172 51 315.5t138 238t203 146.5t247 52q220 0 337.5 -99.5t142.5 -267.5l-324 -104q-7 94 -45.5 146t-130.5 52t-161.5 -62t-104.5 -165.5t-35 -232.5q0 -130 60.5 -202.5
t176.5 -72.5q94 0 155 44t73 118l4 25h-234zM786 1311q-164 0 -225.5 83t-34.5 232h224q-9 -55 6.5 -79.5t68.5 -24.5q54 0 79 24.5t34 79.5h223q-58 -315 -375 -315z" />
    <glyph glyph-name="gbreve" unicode="&#x11f;" horiz-adv-x="1114" 
d="M684 414l25 137q14 82 -10 135t-99 53q-53 0 -94.5 -28t-66.5 -76.5t-37.5 -108t-12.5 -127.5q0 -77 30 -126.5t89 -49.5q141 0 176 191zM1085 946l-165 -944q-38 -222 -176.5 -328t-385.5 -106q-357 0 -450 221l227 170q18 -70 82.5 -113t144.5 -43q115 0 175 63t84 179
l24 129q-58 -178 -266 -178q-153 0 -233 103t-80 284q0 165 50.5 296t154 210.5t245.5 79.5q100 0 163 -44.5t69 -136.5l59 158h278zM635 1061q-83 0 -141 26.5t-85.5 72t-37 106.5t5.5 129h223q-12 -62 1.5 -90.5t70.5 -28.5t80.5 28.5t35.5 90.5h224q-27 -148 -121.5 -241
t-255.5 -93z" />
    <glyph glyph-name="Gdotaccent" unicode="&#x120;" horiz-adv-x="1323" 
d="M698 651h533l-115 -651h-180l-31 145q-87 -170 -325 -170q-226 0 -352 132.5t-126 371.5q0 172 51 315.5t138 238t203 146.5t247 52q220 0 337.5 -99.5t142.5 -267.5l-324 -104q-7 94 -45.5 146t-130.5 52t-161.5 -62t-104.5 -165.5t-35 -232.5q0 -130 60.5 -202.5
t176.5 -72.5q94 0 155 44t73 118l4 25h-234zM641 1501q0 83 50.5 126.5t129.5 43.5q83 0 135 -43.5t52 -126.5q0 -80 -52 -124t-135 -44q-79 0 -129.5 44t-50.5 124z" />
    <glyph glyph-name="gdotaccent" unicode="&#x121;" horiz-adv-x="1114" 
d="M684 414l25 137q14 82 -10 135t-99 53q-53 0 -94.5 -28t-66.5 -76.5t-37.5 -108t-12.5 -127.5q0 -77 30 -126.5t89 -49.5q141 0 176 191zM1085 946l-165 -944q-38 -222 -176.5 -328t-385.5 -106q-357 0 -450 221l227 170q18 -70 82.5 -113t144.5 -43q115 0 175 63t84 179
l24 129q-58 -178 -266 -178q-153 0 -233 103t-80 284q0 165 50.5 296t154 210.5t245.5 79.5q100 0 163 -44.5t69 -136.5l59 158h278zM477 1219q0 82 51 126t129 44q85 0 136 -43.5t51 -126.5q0 -81 -51.5 -124.5t-135.5 -43.5q-77 0 -128.5 44t-51.5 124z" />
    <glyph glyph-name="Gcommaaccent" unicode="&#x122;" horiz-adv-x="1323" 
d="M698 651h533l-115 -651h-180l-31 145q-87 -170 -325 -170q-226 0 -352 132.5t-126 371.5q0 172 51 315.5t138 238t203 146.5t247 52q220 0 337.5 -99.5t142.5 -267.5l-324 -104q-7 94 -45.5 146t-130.5 52t-161.5 -62t-104.5 -165.5t-35 -232.5q0 -130 60.5 -202.5
t176.5 -72.5q94 0 155 44t73 118l4 25h-234zM684 -276q0 -124 -92 -188t-242 -64v98q166 4 166 76q-62 -10 -104.5 20.5t-42.5 97.5q0 69 42 105.5t107 36.5q77 0 121.5 -48t44.5 -134z" />
    <glyph glyph-name="gcommaaccent" unicode="&#x123;" horiz-adv-x="1114" 
d="M684 414l25 137q14 82 -10 135t-99 53q-53 0 -94.5 -28t-66.5 -76.5t-37.5 -108t-12.5 -127.5q0 -77 30 -126.5t89 -49.5q141 0 176 191zM1085 946l-165 -944q-38 -222 -176.5 -328t-385.5 -106q-357 0 -450 221l227 170q18 -70 82.5 -113t144.5 -43q115 0 175 63t84 179
l24 129q-58 -178 -266 -178q-153 0 -233 103t-80 284q0 165 50.5 296t154 210.5t245.5 79.5q100 0 163 -44.5t69 -136.5l59 158h278zM502 1247q0 124 92 188t242 64v-98q-166 -4 -166 -76q62 10 104.5 -21t42.5 -98q0 -69 -42 -105t-107 -36q-77 0 -121.5 48t-44.5 134z" />
    <glyph glyph-name="Hcircumflex" unicode="&#x124;" horiz-adv-x="1339" 
d="M373 0h-312l211 1206h312l-80 -461h424l80 461h311l-211 -1206h-311l84 479h-424zM754 1628h194l228 -307h-269l-49 61q-13 16 -20 31t-8 22l-1 7h-10q-8 -25 -49 -60l-74 -61h-280z" />
    <glyph glyph-name="hcircumflex" unicode="&#x125;" horiz-adv-x="1177" 
d="M1040 647l-53 -325q-7 -39 4 -61.5t53 -22.5q20 0 62 10l-49 -232q-83 -26 -162 -26q-276 0 -229 276l51 295q25 156 -96 156q-58 0 -100 -53t-62 -162l-88 -502h-310l240 1368h311l-108 -614q46 109 115.5 162t183.5 53q112 0 178 -66.5t66 -175.5q0 -36 -7 -80z
M426 1735h195l227 -308h-268l-50 62q-13 16 -20 30.5t-8 21.5v7h-10q-9 -24 -50 -59l-73 -62h-281z" />
    <glyph glyph-name="Hbar" unicode="&#x126;" horiz-adv-x="1384" 
d="M387 0h-311l145 840h-160l43 231h158l25 135h311l-23 -135h424l23 135h311l-24 -135h178l-43 -231h-176l-146 -840h-311l82 459h-424zM512 702h424l22 138h-423z" />
    <glyph glyph-name="hbar" unicode="&#x127;" horiz-adv-x="1177" 
d="M94 1055l33 178h149l25 135h311l-24 -135h274l-33 -178h-272l-53 -301q46 109 115.5 162t183.5 53q112 0 178 -66.5t66 -175.5q0 -36 -7 -80l-53 -325q-7 -39 4 -61.5t53 -22.5q20 0 62 10l-49 -232q-83 -26 -162 -26q-276 0 -229 276l51 295q25 156 -96 156
q-58 0 -100 -53t-62 -162l-88 -502h-310l185 1055h-152z" />
    <glyph glyph-name="Itilde" unicode="&#x128;" horiz-adv-x="604" 
d="M272 1206h312l-211 -1206h-312zM594 1325q-40 0 -70 7t-46.5 16t-45.5 28q-32 21 -46 29.5t-30.5 15t-31.5 6.5q-33 0 -56 -28t-24 -78h-166q-35 148 37 245t196 97q75 0 140 -43q8 -5 22.5 -14.5t20.5 -13.5t17 -10.5t16.5 -9t14 -6t15.5 -4.5t14 -1q67 0 70 96h172
q40 -148 -23.5 -240t-195.5 -92z" />
    <glyph glyph-name="itilde" unicode="&#x129;" horiz-adv-x="600" 
d="M530 1063q-40 0 -70 7.5t-45.5 15.5t-45.5 28q-45 30 -66 40.5t-43 10.5q-33 0 -56 -28t-24 -78h-166q-35 148 37.5 245t196.5 97q47 0 76.5 -10.5t62.5 -32.5q8 -5 22.5 -14.5t20.5 -13.5t17 -10.5t17 -9.5t14.5 -6.5t15.5 -4.5t14 -1q67 0 70 97h172q40 -148 -24 -240
t-196 -92zM510 946l-109 -624q-7 -39 4.5 -61.5t53.5 -22.5q19 0 61 10l-49 -232q-83 -26 -162 -26q-276 0 -229 276l121 680h309z" />
    <glyph glyph-name="Imacron" unicode="&#x12a;" horiz-adv-x="604" 
d="M272 1206h312l-211 -1206h-312zM776 1354h-643l43 245h643z" />
    <glyph glyph-name="imacron" unicode="&#x12b;" horiz-adv-x="600" 
d="M686 1092h-625l45 245h625zM510 946l-109 -624q-7 -39 4.5 -61.5t53.5 -22.5q19 0 61 10l-49 -232q-83 -26 -162 -26q-276 0 -229 276l121 680h309z" />
    <glyph glyph-name="Ibreve" unicode="&#x12c;" horiz-adv-x="604" 
d="M272 1206h312l-211 -1206h-312zM442 1311q-164 0 -225.5 83t-34.5 232h224q-9 -55 6.5 -79.5t68.5 -24.5q54 0 79 24.5t34 79.5h223q-58 -315 -375 -315z" />
    <glyph glyph-name="ibreve" unicode="&#x12d;" horiz-adv-x="600" 
d="M371 1061q-83 0 -141 26.5t-85.5 72t-37 106.5t5.5 129h223q-12 -62 1.5 -90.5t70.5 -28.5t80.5 28.5t35.5 90.5h224q-27 -148 -121.5 -241t-255.5 -93zM510 946l-109 -624q-7 -39 4.5 -61.5t53.5 -22.5q19 0 61 10l-49 -232q-83 -26 -162 -26q-276 0 -229 276l121 680
h309z" />
    <glyph glyph-name="Iogonek" unicode="&#x12e;" horiz-adv-x="604" 
d="M-86 -217q0 83 42.5 150.5t113.5 113.5l202 1159h312l-211 -1206q-104 0 -160.5 -44t-56.5 -116q0 -37 18.5 -56.5t52.5 -19.5q33 0 59.5 11t59.5 41l60 -156q-92 -92 -246 -92q-109 0 -177.5 52.5t-68.5 162.5z" />
    <glyph glyph-name="iogonek" unicode="&#x12f;" horiz-adv-x="600" 
d="M-2 -217q0 159 139 252q-87 69 -57 231l121 680h309l-109 -624q-7 -39 4.5 -61.5t53.5 -22.5q19 0 61 10l-49 -232q-38 -8 -65.5 -16t-61 -22.5t-54.5 -32t-35.5 -44.5t-14.5 -61q0 -37 18.5 -56.5t52.5 -19.5q33 0 59.5 11t59.5 41l59 -156q-92 -92 -245 -92
q-108 0 -177 52.5t-69 162.5zM213 1231q0 82 51 126t129 44q83 0 135 -43.5t52 -126.5q0 -80 -52 -124t-135 -44q-77 0 -128.5 44t-51.5 124z" />
    <glyph glyph-name="Idotaccent" unicode="&#x130;" horiz-adv-x="604" 
d="M272 1206h312l-211 -1206h-312zM297 1501q0 83 50.5 126.5t129.5 43.5q83 0 135 -43.5t52 -126.5q0 -80 -52 -124t-135 -44q-79 0 -129.5 44t-50.5 124z" />
    <glyph glyph-name="dotlessi" unicode="&#x131;" horiz-adv-x="600" 
d="M510 946l-109 -624q-7 -39 4.5 -61.5t53.5 -22.5q19 0 61 10l-49 -232q-83 -26 -162 -26q-276 0 -229 276l121 680h309z" />
    <glyph glyph-name="IJ" unicode="&#x132;" horiz-adv-x="1574" 
d="M272 1206h312l-211 -1206h-312zM1253 1206h312l-150 -856q-35 -206 -150.5 -290.5t-314.5 -84.5q-162 0 -259 63t-142 189l252 168q20 -81 58.5 -122.5t105.5 -41.5t97.5 33.5t45.5 120.5z" />
    <glyph glyph-name="ij" unicode="&#x133;" horiz-adv-x="1130" 
d="M510 946l-109 -624q-7 -39 4.5 -61.5t53.5 -22.5q19 0 61 10l-49 -232q-83 -26 -162 -26q-276 0 -229 276l121 680h309zM213 1231q0 82 51 126t129 44q83 0 135 -43.5t52 -126.5q0 -80 -52 -124t-135 -44q-77 0 -128.5 44t-51.5 124zM1110 946l-186 -1067
q-30 -171 -124 -241t-265 -70q-150 0 -252 57l82 223q63 -53 135 -53q54 0 82.5 30.5t42.5 117.5l176 1003h309zM813 1231q0 82 51 126t129 44q83 0 135 -43.5t52 -126.5q0 -80 -52 -124t-135 -44q-77 0 -128.5 44t-51.5 124z" />
    <glyph glyph-name="Jcircumflex" unicode="&#x134;" horiz-adv-x="974" 
d="M653 1206h312l-150 -856q-35 -206 -150.5 -290.5t-314.5 -84.5q-162 0 -259 63t-142 189l252 168q20 -81 58.5 -122.5t105.5 -41.5t97.5 33.5t45.5 120.5zM764 1628h194l228 -307h-268l-50 61q-13 16 -20 31t-8 22v7h-11q-8 -25 -49 -60l-73 -61h-281z" />
    <glyph glyph-name="jcircumflex" unicode="&#x135;" horiz-adv-x="530" 
d="M510 946l-186 -1067q-30 -171 -124.5 -241t-265.5 -70q-149 0 -251 57l81 223q63 -53 136 -53q54 0 82.5 30.5t42.5 117.5l176 1003h309zM326 1403h194l225 -334h-268l-51 66q-14 18 -20.5 34t-6.5 23v6h-10q-4 -22 -51 -63l-72 -66h-280z" />
    <glyph glyph-name="Kcommaaccent" unicode="&#x136;" horiz-adv-x="1210" 
d="M1112 0h-356l-226 479h-73l-84 -479h-312l211 1206h312l-80 -461h63l342 461h363l-463 -600zM633 -276q0 -124 -92 -188t-242 -64v98q166 4 166 76q-62 -10 -105 20.5t-43 97.5q0 69 42.5 105.5t107.5 36.5q77 0 121.5 -48t44.5 -134z" />
    <glyph glyph-name="kcommaaccent" unicode="&#x137;" horiz-adv-x="1120" 
d="M612 143l-108 250h-64l-69 -393h-310l240 1368h311l-131 -741h47l281 319h373l-410 -442l109 -205q27 -51 66 -60t102 13l-50 -240q-75 -22 -153 -22q-53 0 -93.5 12.5t-77.5 47.5t-63 93zM627 -276q0 -124 -92 -188t-242 -64v98q166 4 166 76q-62 -10 -105 20.5
t-43 97.5q0 69 42.5 105.5t107.5 36.5q77 0 121.5 -48t44.5 -134z" />
    <glyph glyph-name="kgreenlandic" unicode="&#x138;" horiz-adv-x="1120" 
d="M612 143l-108 250h-64l-69 -393h-310l166 946h312l-58 -319h47l281 319h373l-410 -442l109 -205q27 -51 66 -60t102 13l-50 -240q-75 -22 -153 -22q-53 0 -93.5 12.5t-77.5 47.5t-63 93z" />
    <glyph glyph-name="Lacute" unicode="&#x139;" horiz-adv-x="966" 
d="M272 1206h312l-166 -940h446l-45 -266h-758zM584 1321h-279l133 307h377z" />
    <glyph glyph-name="lacute" unicode="&#x13a;" horiz-adv-x="606" 
d="M586 1368l-185 -1046q-7 -39 4.5 -61.5t53.5 -22.5q19 0 61 10l-49 -232q-83 -26 -162 -26q-276 0 -229 276l196 1102h310zM573 1423h-278l133 308h377z" />
    <glyph glyph-name="Lcommaaccent" unicode="&#x13b;" horiz-adv-x="966" 
d="M272 1206h312l-166 -940h446l-45 -266h-758zM559 -276q0 -124 -92 -188t-242 -64v98q166 4 166 76q-62 -10 -104.5 20.5t-42.5 97.5q0 69 42 105.5t107 36.5q77 0 121.5 -48t44.5 -134z" />
    <glyph glyph-name="lcommaaccent" unicode="&#x13c;" horiz-adv-x="606" 
d="M586 1368l-185 -1046q-7 -39 4.5 -61.5t53.5 -22.5q19 0 61 10l-49 -232q-83 -26 -162 -26q-276 0 -229 276l196 1102h310zM385 -276q0 -124 -92 -188t-242 -64v98q166 4 166 76q-62 -10 -104.5 20.5t-42.5 97.5q0 69 42 105.5t107 36.5q77 0 121.5 -48t44.5 -134z" />
    <glyph glyph-name="Lcaron" unicode="&#x13d;" horiz-adv-x="966" 
d="M272 1206h312l-166 -940h446l-45 -266h-758zM1063 1368l-121 -407h-217l31 407h307z" />
    <glyph glyph-name="lcaron" unicode="&#x13e;" horiz-adv-x="606" 
d="M1014 1430l-121 -367h-217l31 367h307zM586 1368l-185 -1046q-7 -39 4.5 -61.5t53.5 -22.5q19 0 61 10l-49 -232q-83 -26 -162 -26q-276 0 -229 276l196 1102h310z" />
    <glyph glyph-name="Ldot" unicode="&#x13f;" horiz-adv-x="966" 
d="M272 1206h312l-166 -940h446l-45 -266h-758zM627 639q0 82 53.5 137t130.5 55q83 0 138 -54.5t55 -137.5q0 -77 -55 -130.5t-138 -53.5q-77 0 -130.5 53.5t-53.5 130.5z" />
    <glyph glyph-name="ldot" unicode="&#x140;" horiz-adv-x="903" 
d="M586 1368l-185 -1046q-7 -39 4.5 -61.5t53.5 -22.5q19 0 61 10l-49 -232q-83 -26 -162 -26q-276 0 -229 276l196 1102h310zM567 674q0 82 54 137t131 55q83 0 137.5 -54.5t54.5 -137.5q0 -77 -55 -131t-137 -54q-76 0 -130.5 54.5t-54.5 130.5z" />
    <glyph glyph-name="Lslash" unicode="&#x141;" horiz-adv-x="985" 
d="M291 1206h311l-74 -418l271 91l-35 -203l-272 -90l-56 -320h447l-45 -266h-758l84 479l-144 -47l35 201l144 47z" />
    <glyph glyph-name="lslash" unicode="&#x142;" horiz-adv-x="630" 
d="M596 1368l-84 -469l180 80l-37 -209l-180 -82l-63 -366q-7 -39 4 -61.5t53 -22.5q19 0 61 10l-49 -232q-83 -26 -162 -26q-276 0 -229 276l47 271l-147 -68l37 213l149 66l111 620h309z" />
    <glyph glyph-name="Nacute" unicode="&#x143;" horiz-adv-x="1349" 
d="M557 1206l268 -536q21 -40 38.5 -84.5t24.5 -69.5l7 -24h8q8 108 35 262l80 452h311l-211 -1206h-274l-275 522q-24 46 -44 95.5t-28 75.5l-8 26h-8q-2 -103 -35 -281l-73 -438h-312l211 1206h285zM926 1321h-279l133 307h377z" />
    <glyph glyph-name="nacute" unicode="&#x144;" horiz-adv-x="1177" 
d="M1040 647l-53 -325q-7 -39 4 -61.5t53 -22.5q20 0 62 10l-49 -232q-83 -26 -162 -26q-276 0 -229 276l51 295q25 156 -96 156q-58 0 -100 -53t-62 -162l-88 -502h-310l166 946h271l4 -192q46 109 116.5 162t184.5 53q112 0 178 -66.5t66 -175.5q0 -36 -7 -80zM799 1075
h-279l142 320h376z" />
    <glyph glyph-name="Ncommaaccent" unicode="&#x145;" horiz-adv-x="1349" 
d="M557 1206l268 -536q21 -40 38.5 -84.5t24.5 -69.5l7 -24h8q8 108 35 262l80 452h311l-211 -1206h-274l-275 522q-24 46 -44 95.5t-28 75.5l-8 26h-8q-2 -103 -35 -281l-73 -438h-312l211 1206h285zM692 -276q0 -124 -92 -188t-242 -64v98q166 4 166 76
q-62 -10 -104.5 20.5t-42.5 97.5q0 69 42 105.5t107 36.5q77 0 121.5 -48t44.5 -134z" />
    <glyph glyph-name="ncommaaccent" unicode="&#x146;" horiz-adv-x="1177" 
d="M1040 647l-53 -325q-7 -39 4 -61.5t53 -22.5q20 0 62 10l-49 -232q-83 -26 -162 -26q-276 0 -229 276l51 295q25 156 -96 156q-58 0 -100 -53t-62 -162l-88 -502h-310l166 946h271l4 -192q46 109 116.5 162t184.5 53q112 0 178 -66.5t66 -175.5q0 -36 -7 -80zM608 -276
q0 -124 -92 -188t-242 -64v98q166 4 166 76q-62 -10 -104.5 20.5t-42.5 97.5q0 69 42 105.5t107 36.5q77 0 121.5 -48t44.5 -134z" />
    <glyph glyph-name="Ncaron" unicode="&#x147;" horiz-adv-x="1349" 
d="M557 1206l268 -536q21 -40 38.5 -84.5t24.5 -69.5l7 -24h8q8 108 35 262l80 452h311l-211 -1206h-274l-275 522q-24 46 -44 95.5t-28 75.5l-8 26h-8q-2 -103 -35 -281l-73 -438h-312l211 1206h285zM887 1321h-195l-227 307h268l49 -61q13 -16 20 -31t8 -22l1 -7h10
q8 25 49 60l74 61h281z" />
    <glyph glyph-name="ncaron" unicode="&#x148;" horiz-adv-x="1177" 
d="M1040 647l-53 -325q-7 -39 4 -61.5t53 -22.5q20 0 62 10l-49 -232q-83 -26 -162 -26q-276 0 -229 276l51 295q25 156 -96 156q-58 0 -100 -53t-62 -162l-88 -502h-310l166 946h271l4 -192q46 109 116.5 162t184.5 53q112 0 178 -66.5t66 -175.5q0 -36 -7 -80zM758 1069
h-195l-225 334h268l51 -66q14 -18 20.5 -34t6.5 -23v-6h10q4 22 51 63l72 66h281z" />
    <glyph glyph-name="Eng" unicode="&#x14a;" horiz-adv-x="1349" 
d="M1329 1206l-221 -1263q-19 -106 -59 -179.5t-101.5 -116t-136 -61t-172.5 -18.5q-145 0 -235.5 44.5t-147.5 127.5l205 233q22 -71 75.5 -110t112.5 -39q78 0 109 37t47 133l10 59l-246 469q-24 46 -44 95.5t-28 75.5l-8 26h-8q-2 -103 -35 -281l-73 -438h-312l211 1206
h285l268 -536q21 -40 38.5 -84.5t24.5 -69.5l7 -24h8q8 108 35 262l80 452h311z" />
    <glyph glyph-name="eng" unicode="&#x14b;" horiz-adv-x="1114" 
d="M1040 647l-133 -768q-30 -171 -124 -241t-265 -70q-150 0 -252 57l82 223q63 -53 135 -53q54 0 82.5 30.5t42.5 117.5l109 618q25 156 -96 156q-58 0 -100 -53t-62 -162l-88 -502h-310l166 946h271l4 -192q46 109 116.5 162t184.5 53q112 0 178 -66.5t66 -175.5
q0 -36 -7 -80z" />
    <glyph glyph-name="Omacron" unicode="&#x14c;" horiz-adv-x="1318" 
d="M608 -25q-244 0 -375 134.5t-131 369.5q0 172 51 315.5t138 238t203 146.5t247 52q246 0 376 -134t130 -372q0 -172 -51 -315t-138.5 -237.5t-203.5 -146t-246 -51.5zM721 961q-138 0 -219.5 -132t-81.5 -329q0 -127 54.5 -194.5t148.5 -67.5q87 0 156 62.5t106 169.5
t37 237q0 120 -54.5 187t-146.5 67zM1108 1354h-643l43 245h643z" />
    <glyph glyph-name="omacron" unicode="&#x14d;" horiz-adv-x="1099" 
d="M600 969q204 0 321 -110t117 -310q0 -91 -20.5 -175t-64 -157t-105.5 -126.5t-150.5 -84.5t-193.5 -31q-197 0 -320 104t-123 298q0 120 33.5 225t98 188t169.5 131t238 48zM582 727q-88 0 -139.5 -98t-51.5 -250q0 -84 33.5 -127t93.5 -43q91 0 142 95.5t51 250.5
q0 85 -33.5 128.5t-95.5 43.5zM938 1092h-625l45 245h625z" />
    <glyph glyph-name="Obreve" unicode="&#x14e;" horiz-adv-x="1318" 
d="M608 -25q-244 0 -375 134.5t-131 369.5q0 172 51 315.5t138 238t203 146.5t247 52q246 0 376 -134t130 -372q0 -172 -51 -315t-138.5 -237.5t-203.5 -146t-246 -51.5zM721 961q-138 0 -219.5 -132t-81.5 -329q0 -127 54.5 -194.5t148.5 -67.5q87 0 156 62.5t106 169.5
t37 237q0 120 -54.5 187t-146.5 67zM774 1311q-164 0 -225.5 83t-34.5 232h223q-9 -55 7 -79.5t69 -24.5q54 0 79 24.5t34 79.5h223q-58 -315 -375 -315z" />
    <glyph glyph-name="obreve" unicode="&#x14f;" horiz-adv-x="1099" 
d="M600 969q204 0 321 -110t117 -310q0 -91 -20.5 -175t-64 -157t-105.5 -126.5t-150.5 -84.5t-193.5 -31q-197 0 -320 104t-123 298q0 120 33.5 225t98 188t169.5 131t238 48zM582 727q-88 0 -139.5 -98t-51.5 -250q0 -84 33.5 -127t93.5 -43q91 0 142 95.5t51 250.5
q0 85 -33.5 128.5t-95.5 43.5zM623 1061q-83 0 -141 26.5t-85.5 72t-37 106.5t5.5 129h223q-15 -55 -0.5 -87t71.5 -32t81 28.5t36 90.5h223q-27 -148 -121 -241t-255 -93z" />
    <glyph glyph-name="Ohungarumlaut" unicode="&#x150;" horiz-adv-x="1318" 
d="M608 -25q-244 0 -375 134.5t-131 369.5q0 172 51 315.5t138 238t203 146.5t247 52q246 0 376 -134t130 -372q0 -172 -51 -315t-138.5 -237.5t-203.5 -146t-246 -51.5zM721 961q-138 0 -219.5 -132t-81.5 -329q0 -127 54.5 -194.5t148.5 -67.5q87 0 156 62.5t106 169.5
t37 237q0 120 -54.5 187t-146.5 67zM688 1321h-213l100 307h312zM1063 1321h-236l142 307h334z" />
    <glyph glyph-name="ohungarumlaut" unicode="&#x151;" horiz-adv-x="1099" 
d="M600 969q204 0 321 -110t117 -310q0 -91 -20.5 -175t-64 -157t-105.5 -126.5t-150.5 -84.5t-193.5 -31q-197 0 -320 104t-123 298q0 120 33.5 225t98 188t169.5 131t238 48zM582 727q-88 0 -139.5 -98t-51.5 -250q0 -84 33.5 -127t93.5 -43q91 0 142 95.5t51 250.5
q0 85 -33.5 128.5t-95.5 43.5zM522 1075h-213l101 320h311zM897 1075h-235l141 320h334z" />
    <glyph glyph-name="OE" unicode="&#x152;" horiz-adv-x="1792" 
d="M608 -25q-244 0 -375 134.5t-131 369.5q0 172 51 315.5t138 238t203 146.5t247 52q101 0 187 -25h884l-47 -266h-553q18 -56 25 -94q6 -33 10 -107h420l-45 -256h-403q-29 -119 -93 -217h521l-45 -266h-822q-86 -25 -172 -25zM721 961q-138 0 -219.5 -132t-81.5 -329
q0 -127 54.5 -194.5t148.5 -67.5q87 0 156 62.5t106 169.5t37 237q0 120 -54.5 187t-146.5 67z" />
    <glyph glyph-name="oe" unicode="&#x153;" horiz-adv-x="1679" 
d="M1155 209q52 0 87.5 31.5t49.5 87.5l291 -70q-81 -283 -444 -283q-100 0 -186.5 36t-123.5 87q-129 -123 -325 -123q-197 0 -320 104t-123 298q0 120 33.5 225t98 188t169.5 131t238 48q200 0 313 -123q58 58 142.5 90.5t171.5 32.5q194 0 297.5 -100t103.5 -244
q0 -123 -41 -203h-551q-14 -91 16.5 -152t102.5 -61zM582 727q-88 0 -139.5 -98t-51.5 -250q0 -84 33.5 -127t93.5 -43q91 0 142 95.5t51 250.5q0 85 -33.5 128.5t-95.5 43.5zM1061 582h252q4 24 4 43q0 120 -103 120q-58 0 -96 -45t-57 -118z" />
    <glyph glyph-name="Racute" unicode="&#x154;" horiz-adv-x="1220" 
d="M1090 0h-338q-41 34 -56 129l-26 170q-10 64 -35 84t-90 20h-103l-69 -403h-312l211 1206h473q205 0 304.5 -74t99.5 -247q0 -86 -26 -153.5t-71 -109t-99 -65.5t-117 -31v-8q81 -13 116 -49.5t49 -116.5l37 -221q15 -86 52 -131zM539 946l-52 -287h160q81 0 131.5 40.5
t50.5 129.5q0 117 -139 117h-151zM827 1321h-278l133 307h377z" />
    <glyph glyph-name="racute" unicode="&#x155;" horiz-adv-x="825" 
d="M877 961l-72 -359q-52 28 -107.5 35t-106.5 -6.5t-89 -59t-51 -116.5l-80 -455h-310l166 946h271l-6 -260q50 149 157.5 228t227.5 47zM672 1075h-279l142 320h376z" />
    <glyph glyph-name="Rcommaaccent" unicode="&#x156;" horiz-adv-x="1220" 
d="M1090 0h-338q-41 34 -56 129l-26 170q-10 64 -35 84t-90 20h-103l-69 -403h-312l211 1206h473q205 0 304.5 -74t99.5 -247q0 -86 -26 -153.5t-71 -109t-99 -65.5t-117 -31v-8q81 -13 116 -49.5t49 -116.5l37 -221q15 -86 52 -131zM539 946l-52 -287h160q81 0 131.5 40.5
t50.5 129.5q0 117 -139 117h-151zM676 -276q0 -124 -92 -188t-242 -64v98q166 4 166 76q-62 -10 -105 20.5t-43 97.5q0 69 42.5 105.5t107.5 36.5q77 0 121.5 -48t44.5 -134z" />
    <glyph glyph-name="rcommaaccent" unicode="&#x157;" horiz-adv-x="825" 
d="M877 961l-72 -359q-52 28 -107.5 35t-106.5 -6.5t-89 -59t-51 -116.5l-80 -455h-310l166 946h271l-6 -260q50 149 157.5 228t227.5 47zM348 -276q0 -124 -92 -188t-242 -64v98q166 4 166 76q-62 -10 -104.5 20.5t-42.5 97.5q0 69 42 105.5t107 36.5q77 0 121.5 -48
t44.5 -134z" />
    <glyph glyph-name="Rcaron" unicode="&#x158;" horiz-adv-x="1220" 
d="M1090 0h-338q-41 34 -56 129l-26 170q-10 64 -35 84t-90 20h-103l-69 -403h-312l211 1206h473q205 0 304.5 -74t99.5 -247q0 -86 -26 -153.5t-71 -109t-99 -65.5t-117 -31v-8q81 -13 116 -49.5t49 -116.5l37 -221q15 -86 52 -131zM539 946l-52 -287h160q81 0 131.5 40.5
t50.5 129.5q0 117 -139 117h-151zM788 1321h-194l-227 307h268l49 -61q13 -16 20 -31t8 -22l1 -7h10q8 25 49 60l74 61h280z" />
    <glyph glyph-name="rcaron" unicode="&#x159;" horiz-adv-x="825" 
d="M877 961l-72 -359q-52 28 -107.5 35t-106.5 -6.5t-89 -59t-51 -116.5l-80 -455h-310l166 946h271l-6 -260q50 149 157.5 228t227.5 47zM631 1069h-195l-225 334h268l51 -66q14 -18 20.5 -34t6.5 -23v-6h10q4 22 51 63l72 66h281z" />
    <glyph glyph-name="Sacute" unicode="&#x15a;" horiz-adv-x="1081" 
d="M20 281l281 112q2 -84 51.5 -137t132.5 -53q160 0 160 116q0 53 -34.5 84.5t-123.5 59.5q-176 53 -246.5 141t-70.5 227q0 85 27 154.5t72 114.5t106.5 75t126.5 43t135 13q404 0 424 -336l-303 -59q4 70 -37.5 106.5t-108.5 36.5q-139 0 -139 -115q0 -46 35 -73t133 -58
q173 -56 245 -138.5t72 -229.5q0 -107 -40.5 -185.5t-112.5 -121.5t-158.5 -63t-191.5 -20q-186 0 -301.5 75t-133.5 231zM793 1321h-279l133 307h377z" />
    <glyph glyph-name="sacute" unicode="&#x15b;" horiz-adv-x="917" 
d="M0 240l250 94q6 -74 47.5 -114t105.5 -40q109 0 109 74q0 37 -28 59.5t-103 42.5q-133 35 -194.5 105.5t-61.5 183.5q0 83 32 146.5t89 101.5t129.5 57t159.5 19q182 0 277 -71t95 -198l-256 -63q0 61 -35 95t-100 34q-44 0 -71 -20.5t-27 -53.5q0 -32 28 -50.5
t121 -47.5q141 -44 196.5 -111.5t55.5 -195.5q0 -159 -117 -235.5t-313 -76.5q-357 0 -389 265zM694 1075h-278l141 320h377z" />
    <glyph glyph-name="Scircumflex" unicode="&#x15c;" horiz-adv-x="1081" 
d="M20 281l281 112q2 -84 51.5 -137t132.5 -53q160 0 160 116q0 53 -34.5 84.5t-123.5 59.5q-176 53 -246.5 141t-70.5 227q0 85 27 154.5t72 114.5t106.5 75t126.5 43t135 13q404 0 424 -336l-303 -59q4 70 -37.5 106.5t-108.5 36.5q-139 0 -139 -115q0 -46 35 -73t133 -58
q173 -56 245 -138.5t72 -229.5q0 -107 -40.5 -185.5t-112.5 -121.5t-158.5 -63t-191.5 -20q-186 0 -301.5 75t-133.5 231zM604 1628h195l227 -307h-268l-49 61q-13 16 -20 31t-8 22l-1 7h-10q-8 -25 -49 -60l-74 -61h-281z" />
    <glyph glyph-name="scircumflex" unicode="&#x15d;" horiz-adv-x="917" 
d="M0 240l250 94q6 -74 47.5 -114t105.5 -40q109 0 109 74q0 37 -28 59.5t-103 42.5q-133 35 -194.5 105.5t-61.5 183.5q0 83 32 146.5t89 101.5t129.5 57t159.5 19q182 0 277 -71t95 -198l-256 -63q0 61 -35 95t-100 34q-44 0 -71 -20.5t-27 -53.5q0 -32 28 -50.5
t121 -47.5q141 -44 196.5 -111.5t55.5 -195.5q0 -159 -117 -235.5t-313 -76.5q-357 0 -389 265zM520 1403h195l225 -334h-268l-51 66q-14 18 -20.5 34t-6.5 23v6h-10q-5 -22 -52 -63l-71 -66h-281z" />
    <glyph glyph-name="Scedilla" unicode="&#x15e;" horiz-adv-x="1081" 
d="M610 -238q0 -94 -68 -144t-175 -50q-74 0 -135 20.5t-91 53.5l54 137q64 -70 129 -70q63 0 63 49q0 58 -86 78l57 146q-145 16 -234.5 90t-103.5 209l281 112q2 -84 51.5 -137t132.5 -53q160 0 160 116q0 53 -34.5 84.5t-123.5 59.5q-176 53 -246.5 141t-70.5 227
q0 85 27 154.5t72 114.5t106.5 75t126.5 43t135 13q404 0 424 -336l-303 -59q4 70 -37.5 106.5t-108.5 36.5q-139 0 -139 -115q0 -46 35 -73t133 -58q173 -56 245 -138.5t72 -229.5q0 -85 -26 -152t-70.5 -110.5t-108 -72.5t-133 -41.5t-151.5 -13.5l-20 -47
q84 -12 122.5 -50t38.5 -116z" />
    <glyph glyph-name="scedilla" unicode="&#x15f;" horiz-adv-x="917" 
d="M555 -238q0 -94 -68.5 -144t-175.5 -50q-74 0 -134.5 20.5t-90.5 53.5l53 137q64 -70 129 -70q64 0 64 49q0 58 -86 78l57 144q-278 30 -303 260l250 94q6 -74 47.5 -114t105.5 -40q109 0 109 74q0 37 -28 59.5t-103 42.5q-133 35 -194.5 105.5t-61.5 183.5
q0 83 32 146.5t89 101.5t129.5 57t159.5 19q182 0 277 -71t95 -198l-256 -63q0 61 -35 95t-100 34q-44 0 -71 -20.5t-27 -53.5q0 -32 28 -50.5t121 -47.5q141 -44 196.5 -111.5t55.5 -195.5q0 -133 -82 -207.5t-227 -95.5q-70 -9 -96 -9l-21 -47q84 -12 123 -50t39 -116z
" />
    <glyph glyph-name="Scaron" unicode="&#x160;" horiz-adv-x="1081" 
d="M20 281l281 112q2 -84 51.5 -137t132.5 -53q160 0 160 116q0 53 -34.5 84.5t-123.5 59.5q-176 53 -246.5 141t-70.5 227q0 85 27 154.5t72 114.5t106.5 75t126.5 43t135 13q404 0 424 -336l-303 -59q4 70 -37.5 106.5t-108.5 36.5q-139 0 -139 -115q0 -46 35 -73t133 -58
q173 -56 245 -138.5t72 -229.5q0 -107 -40.5 -185.5t-112.5 -121.5t-158.5 -63t-191.5 -20q-186 0 -301.5 75t-133.5 231zM754 1321h-195l-227 307h268l49 -61q13 -16 20 -31t8 -22l1 -7h10q8 25 49 60l74 61h281z" />
    <glyph glyph-name="scaron" unicode="&#x161;" horiz-adv-x="917" 
d="M0 240l250 94q6 -74 47.5 -114t105.5 -40q109 0 109 74q0 37 -28 59.5t-103 42.5q-133 35 -194.5 105.5t-61.5 183.5q0 83 32 146.5t89 101.5t129.5 57t159.5 19q182 0 277 -71t95 -198l-256 -63q0 61 -35 95t-100 34q-44 0 -71 -20.5t-27 -53.5q0 -32 28 -50.5
t121 -47.5q141 -44 196.5 -111.5t55.5 -195.5q0 -159 -117 -235.5t-313 -76.5q-357 0 -389 265zM653 1069h-194l-226 334h269l51 -66q14 -18 20.5 -34t6.5 -23v-6h10q4 22 51 63l72 66h280z" />
    <glyph glyph-name="Tcommaaccent" unicode="&#x162;" horiz-adv-x="1046" 
d="M590 0h-309l163 940h-321l47 266h958l-47 -266h-327zM565 -276q0 -124 -92 -188t-242 -64v98q166 4 166 76q-62 -10 -104.5 20.5t-42.5 97.5q0 69 42 105.5t107 36.5q77 0 121.5 -48t44.5 -134z" />
    <glyph glyph-name="tcommaaccent" unicode="&#x163;" horiz-adv-x="763" 
d="M657 291v-256q-45 -27 -118 -43.5t-150 -16.5q-342 0 -278 365l65 373h-135l41 233h137l35 201l313 35l-39 -236h246l-41 -233h-246l-65 -367q-10 -56 10.5 -79t67.5 -23q76 0 157 47zM487 -276q0 -124 -91.5 -188t-241.5 -64v98q165 4 165 76q-62 -10 -104.5 20.5
t-42.5 97.5q0 69 42.5 105.5t107.5 36.5q77 0 121 -48t44 -134z" />
    <glyph glyph-name="Tcaron" unicode="&#x164;" horiz-adv-x="1046" 
d="M590 0h-309l163 940h-321l47 266h958l-47 -266h-327zM760 1321h-195l-227 307h268l49 -61q13 -16 20 -31t8 -22l1 -7h10q8 25 49 60l74 61h281z" />
    <glyph glyph-name="tcaron" unicode="&#x165;" horiz-adv-x="763" 
d="M657 291v-256q-45 -27 -118 -43.5t-150 -16.5q-342 0 -278 365l65 373h-135l41 233h137l35 201l313 35l-39 -236h246l-41 -233h-246l-65 -367q-10 -56 10.5 -79t67.5 -23q76 0 157 47zM967 1454l-121 -407h-217l30 407h308z" />
    <glyph glyph-name="Tbar" unicode="&#x166;" horiz-adv-x="1046" 
d="M590 0h-309l75 432h-192l43 246h192l45 262h-321l47 266h958l-47 -266h-327l-45 -262h209l-44 -246h-208z" />
    <glyph glyph-name="tbar" unicode="&#x167;" horiz-adv-x="819" 
d="M31 393l39 219h133l18 101h-135l41 233h137l35 201l313 35l-39 -236h246l-41 -233h-246l-18 -101h248l-39 -219h-248l-8 -47q-10 -56 10.5 -79t67.5 -23q76 0 157 47v-256q-45 -27 -118 -43.5t-150 -16.5q-342 0 -278 365l8 53h-133z" />
    <glyph glyph-name="Utilde" unicode="&#x168;" horiz-adv-x="1265" 
d="M954 1206h312l-138 -778q-22 -129 -71.5 -218t-125 -140t-166.5 -73t-210 -22q-72 0 -134 11t-119 35t-97 63t-68 94.5t-32.5 129.5t10.5 169l129 729h311l-129 -712q-22 -129 13.5 -196t160.5 -67q51 0 88 13.5t59.5 33.5t39 58t24.5 71.5t18 90.5zM909 1325
q-40 0 -70 7.5t-45.5 15.5t-45.5 28q-45 30 -66.5 40.5t-42.5 10.5q-33 0 -56 -28t-24 -78h-166q-35 148 37.5 245t196.5 97q47 0 76.5 -10.5t62.5 -32.5l19.5 -13t18.5 -12t15.5 -9.5t15.5 -9l13 -6.5t13.5 -5.5t12.5 -2.5t13 -1q66 0 69 96h172q40 -148 -23.5 -240
t-195.5 -92z" />
    <glyph glyph-name="utilde" unicode="&#x169;" 
d="M672 182q-44 -107 -120 -157t-196 -50q-153 0 -224 96.5t-42 264.5l109 610h309l-107 -616q-10 -65 14 -98t77 -33q144 0 178 207l96 540h309l-108 -624q-15 -84 55 -84q19 0 61 10l-49 -232q-83 -26 -162 -26q-106 0 -154.5 47t-45.5 145zM809 1063q-40 0 -70 7
t-46.5 16t-45.5 28q-32 21 -46 29.5t-30.5 15t-31.5 6.5q-33 0 -56 -28t-24 -78h-166q-35 148 37 245t196 97q75 0 140 -43l25.5 -17t23.5 -15.5t19 -11t18.5 -9.5t15.5 -5t18 -2q67 0 70 97h172q40 -148 -23.5 -240t-195.5 -92z" />
    <glyph glyph-name="Umacron" unicode="&#x16a;" horiz-adv-x="1265" 
d="M954 1206h312l-138 -778q-22 -129 -71.5 -218t-125 -140t-166.5 -73t-210 -22q-72 0 -134 11t-119 35t-97 63t-68 94.5t-32.5 129.5t10.5 169l129 729h311l-129 -712q-22 -129 13.5 -196t160.5 -67q51 0 88 13.5t59.5 33.5t39 58t24.5 71.5t18 90.5zM1094 1354h-643
l43 245h643z" />
    <glyph glyph-name="umacron" unicode="&#x16b;" 
d="M672 182q-44 -107 -120 -157t-196 -50q-153 0 -224 96.5t-42 264.5l109 610h309l-107 -616q-10 -65 14 -98t77 -33q144 0 178 207l96 540h309l-108 -624q-15 -84 55 -84q19 0 61 10l-49 -232q-83 -26 -162 -26q-106 0 -154.5 47t-45.5 145zM967 1092h-625l45 245h625z
" />
    <glyph glyph-name="Ubreve" unicode="&#x16c;" horiz-adv-x="1265" 
d="M954 1206h312l-138 -778q-22 -129 -71.5 -218t-125 -140t-166.5 -73t-210 -22q-72 0 -134 11t-119 35t-97 63t-68 94.5t-32.5 129.5t10.5 169l129 729h311l-129 -712q-22 -129 13.5 -196t160.5 -67q51 0 88 13.5t59.5 33.5t39 58t24.5 71.5t18 90.5zM758 1311
q-164 0 -225.5 83t-34.5 232h223q-9 -55 7 -79.5t69 -24.5t78 24.5t34 79.5h224q-58 -315 -375 -315z" />
    <glyph glyph-name="ubreve" unicode="&#x16d;" 
d="M672 182q-44 -107 -120 -157t-196 -50q-153 0 -224 96.5t-42 264.5l109 610h309l-107 -616q-10 -65 14 -98t77 -33q144 0 178 207l96 540h309l-108 -624q-15 -84 55 -84q19 0 61 10l-49 -232q-83 -26 -162 -26q-106 0 -154.5 47t-45.5 145zM651 1061q-83 0 -141 26.5
t-85.5 72t-37 106.5t5.5 129h223q-12 -62 1.5 -90.5t70.5 -28.5t81 28.5t36 90.5h223q-27 -148 -121.5 -241t-255.5 -93z" />
    <glyph glyph-name="Uring" unicode="&#x16e;" horiz-adv-x="1265" 
d="M954 1206h312l-138 -778q-22 -129 -71.5 -218t-125 -140t-166.5 -73t-210 -22q-72 0 -134 11t-119 35t-97 63t-68 94.5t-32.5 129.5t10.5 169l129 729h311l-129 -712q-22 -129 13.5 -196t160.5 -67q51 0 88 13.5t59.5 33.5t39 58t24.5 71.5t18 90.5zM565 1501
q0 105 71.5 178.5t186.5 73.5q96 0 155.5 -60.5t59.5 -150.5q0 -109 -70.5 -182.5t-181.5 -73.5q-107 0 -164 59.5t-57 155.5zM813 1618q-44 0 -71 -31.5t-27 -77.5q0 -37 21 -59.5t59 -22.5q47 0 73.5 32t26.5 79q0 35 -21.5 57.5t-60.5 22.5z" />
    <glyph glyph-name="uring" unicode="&#x16f;" 
d="M672 182q-44 -107 -120 -157t-196 -50q-153 0 -224 96.5t-42 264.5l109 610h309l-107 -616q-10 -65 14 -98t77 -33q144 0 178 207l96 540h309l-108 -624q-15 -84 55 -84q19 0 61 10l-49 -232q-83 -26 -162 -26q-106 0 -154.5 47t-45.5 145zM449 1243q0 105 71.5 178.5
t186.5 73.5q96 0 155.5 -60.5t59.5 -150.5q0 -109 -70.5 -182.5t-181.5 -73.5q-107 0 -164 59.5t-57 155.5zM696 1360q-44 0 -71 -31.5t-27 -77.5q0 -37 21 -59.5t59 -22.5q47 0 73.5 32t26.5 79q0 35 -21.5 57.5t-60.5 22.5z" />
    <glyph glyph-name="Uhungarumlaut" unicode="&#x170;" horiz-adv-x="1265" 
d="M954 1206h312l-138 -778q-22 -129 -71.5 -218t-125 -140t-166.5 -73t-210 -22q-72 0 -134 11t-119 35t-97 63t-68 94.5t-32.5 129.5t10.5 169l129 729h311l-129 -712q-22 -129 13.5 -196t160.5 -67q51 0 88 13.5t59.5 33.5t39 58t24.5 71.5t18 90.5zM674 1321h-213
l100 307h311zM1049 1321h-236l141 307h334z" />
    <glyph glyph-name="uhungarumlaut" unicode="&#x171;" 
d="M672 182q-44 -107 -120 -157t-196 -50q-153 0 -224 96.5t-42 264.5l109 610h309l-107 -616q-10 -65 14 -98t77 -33q144 0 178 207l96 540h309l-108 -624q-15 -84 55 -84q19 0 61 10l-49 -232q-83 -26 -162 -26q-106 0 -154.5 47t-45.5 145zM551 1075h-213l100 320h312z
M926 1075h-236l141 320h334z" />
    <glyph glyph-name="Uogonek" unicode="&#x172;" horiz-adv-x="1269" 
d="M332 -217q0 118 84 205q-81 15 -142 49t-105.5 93.5t-56 144.5t6.5 202l129 729h311l-129 -712q-22 -129 13.5 -196t160.5 -67q51 0 88 13.5t60 33.5t39.5 58t25 72t17.5 90l124 708h312l-137 -778q-40 -224 -159 -328t-317 -120q-84 -47 -84 -140q0 -36 19 -56t53 -20
q33 0 59.5 11t59.5 41l59 -156q-92 -92 -245 -92q-108 0 -177 52.5t-69 162.5z" />
    <glyph glyph-name="uogonek" unicode="&#x173;" 
d="M1075 946l-108 -624q-7 -39 4 -61.5t53 -22.5q19 0 61 10l-49 -232q-10 -2 -44.5 -9t-48 -10t-44 -12t-44.5 -16t-35 -20.5t-30.5 -28t-17.5 -35t-8 -45.5q0 -36 19 -56t53 -20q33 0 59 11t59 41l60 -156q-92 -92 -246 -92q-108 0 -177 52.5t-69 162.5q0 84 54.5 151
t134.5 109q-48 52 -39 139q-44 -107 -120 -157t-196 -50q-153 0 -224 96.5t-42 264.5l109 610h309l-107 -616q-10 -65 14 -98t77 -33q144 0 178 207l96 540h309z" />
    <glyph glyph-name="Wcircumflex" unicode="&#x174;" horiz-adv-x="1794" 
d="M1206 1206l25 -633q3 -75 0 -161.5t-7 -135.5l-5 -49h8q45 182 104 344l230 635h325l-461 -1206h-442l-35 557q-4 70 -4 151t2 127l2 46h-8q-28 -160 -94 -326l-219 -555h-424l-39 1206h317l15 -633q2 -75 -1 -161.5t-7 -135.5l-3 -49h9q41 180 102 344l240 635h370z
M952 1628h195l227 -307h-268l-49 61q-13 16 -20 31t-8 22l-1 7h-10q-8 -25 -49 -60l-74 -61h-281z" />
    <glyph glyph-name="wcircumflex" unicode="&#x175;" horiz-adv-x="1470" 
d="M944 946l25 -356q9 -98 7 -180t-8 -136l-7 -53h8q34 175 112 365l146 360h325l-409 -946h-361l-37 301q-4 75 -2 143t7 116l4 48h-9q-35 -162 -96 -309l-117 -299h-358l-92 946h311l27 -360q6 -84 6 -175.5t-3 -140.5l-3 -49h8q33 179 111 369l143 356h262zM786 1403h195
l225 -334h-268l-51 66q-14 18 -20.5 34t-6.5 23v6h-10q-4 -22 -51 -63l-72 -66h-281z" />
    <glyph glyph-name="Ycircumflex" unicode="&#x176;" horiz-adv-x="1136" 
d="M461 1206l78 -256q23 -75 36 -153.5t15 -120.5l2 -41h8q5 17 14.5 46.5t48.5 112.5t87 156l170 256h329l-532 -823l-66 -383h-311l66 383l-273 823h328zM655 1628h195l227 -307h-268l-49 61q-13 16 -20 31t-8 22l-1 7h-10q-8 -25 -49 -60l-74 -61h-281z" />
    <glyph glyph-name="ycircumflex" unicode="&#x177;" horiz-adv-x="989" 
d="M393 946l37 -459q5 -83 4 -144t-4 -95l-4 -35h8q30 156 98 285l238 448h322l-578 -1032q-59 -108 -117 -178.5t-118.5 -106t-116 -48.5t-127.5 -13q-122 0 -199 41l90 252q55 -41 119 -41q117 0 188 127l-157 999h317zM539 1403h194l225 -334h-268l-51 66
q-14 18 -20.5 34t-6.5 23v6h-10q-4 -22 -51 -63l-72 -66h-280z" />
    <glyph glyph-name="Ydieresis" unicode="&#x178;" horiz-adv-x="1136" 
d="M461 1206l78 -256q23 -75 36 -153.5t15 -120.5l2 -41h8q5 17 14.5 46.5t48.5 112.5t87 156l170 256h329l-532 -823l-66 -383h-311l66 383l-273 823h328zM340 1487q0 81 46 123.5t116 42.5q75 0 121.5 -42t46.5 -124q0 -79 -46.5 -121.5t-121.5 -42.5q-70 0 -116 43
t-46 121zM801 1487q0 81 46 123.5t116 42.5q75 0 121 -42t46 -124q0 -79 -46 -121.5t-121 -42.5q-70 0 -116 43t-46 121z" />
    <glyph glyph-name="Zacute" unicode="&#x179;" horiz-adv-x="1134" 
d="M53 229l520 582q37 41 75.5 75t58.5 48l20 14v8q-74 -16 -174 -16h-365l48 266h929l-45 -217l-545 -594q-37 -41 -75.5 -75t-57.5 -48l-20 -14v-8q74 16 174 16h418l-45 -266h-959zM838 1321h-279l133 307h377z" />
    <glyph glyph-name="zacute" unicode="&#x17a;" horiz-adv-x="960" 
d="M47 168l350 412q36 42 75 76t60 48l21 13v8q-76 -16 -176 -16h-223l51 237h745l-20 -180l-367 -404q-37 -41 -75.5 -75t-57.5 -48l-20 -14v-8q74 16 174 16h260l-43 -233h-781zM711 1075h-279l141 320h377z" />
    <glyph glyph-name="Zdotaccent" unicode="&#x17b;" horiz-adv-x="1134" 
d="M53 229l520 582q37 41 75.5 75t58.5 48l20 14v8q-74 -16 -174 -16h-365l48 266h929l-45 -217l-545 -594q-37 -41 -75.5 -75t-57.5 -48l-20 -14v-8q74 16 174 16h418l-45 -266h-959zM561 1501q0 83 50.5 126.5t129.5 43.5q83 0 135 -43.5t52 -126.5q0 -80 -52 -124
t-135 -44q-79 0 -129.5 44t-50.5 124z" />
    <glyph glyph-name="zdotaccent" unicode="&#x17c;" horiz-adv-x="960" 
d="M47 168l350 412q36 42 75 76t60 48l21 13v8q-76 -16 -176 -16h-223l51 237h745l-20 -180l-367 -404q-37 -41 -75.5 -75t-57.5 -48l-20 -14v-8q74 16 174 16h260l-43 -233h-781zM426 1219q0 82 51 126t129 44q85 0 136 -43.5t51 -126.5q0 -81 -51.5 -124.5t-135.5 -43.5
q-77 0 -128.5 44t-51.5 124z" />
    <glyph glyph-name="Zcaron" unicode="&#x17d;" horiz-adv-x="1134" 
d="M53 229l520 582q37 41 75.5 75t58.5 48l20 14v8q-74 -16 -174 -16h-365l48 266h929l-45 -217l-545 -594q-37 -41 -75.5 -75t-57.5 -48l-20 -14v-8q74 16 174 16h418l-45 -266h-959zM797 1321h-195l-227 307h268l49 -61q13 -16 20 -31t8 -22l1 -7h10q8 25 49 60l74 61h281
z" />
    <glyph glyph-name="zcaron" unicode="&#x17e;" horiz-adv-x="960" 
d="M47 168l350 412q36 42 75 76t60 48l21 13v8q-76 -16 -176 -16h-223l51 237h745l-20 -180l-367 -404q-37 -41 -75.5 -75t-57.5 -48l-20 -14v-8q74 16 174 16h260l-43 -233h-781zM670 1069h-195l-225 334h268l51 -66q14 -18 20.5 -34t6.5 -23v-6h10q4 22 51 63l72 66h281z
" />
    <glyph glyph-name="Schwa" unicode="&#x18f;" horiz-adv-x="1259" 
d="M664 950q-81 0 -135 -46t-72 -120l-299 90q110 357 538 357q227 0 359.5 -139.5t132.5 -376.5q0 -175 -47.5 -316.5t-130 -233t-193.5 -141t-239 -49.5q-123 0 -217 36t-149 98.5t-82.5 139t-27.5 163.5q0 146 50 256h696q14 123 -35 202.5t-149 79.5zM817 465h-389
q-1 -5 -3 -17t-3.5 -23.5t-1.5 -21.5q0 -180 149 -180q195 0 248 242z" />
    <glyph glyph-name="florin" unicode="&#x192;" horiz-adv-x="997" 
d="M20 -248l160 488h-137l57 225h142l59 188q114 357 467 357q84 0 167.5 -31.5t139.5 -106.5l-201 -229q-43 102 -133 102q-54 0 -85 -31.5t-54 -99.5l-51 -149h242l-58 -225h-246l-161 -488h-308z" />
    <glyph glyph-name="Khook" unicode="&#x198;" horiz-adv-x="1210" 
d="M809 606l303 -606h-356l-226 479h-73l-84 -479h-312l211 1206h312l-80 -461h63l144 252q47 83 89 130.5t102.5 75.5t141.5 28q101 0 162 -42t103 -122l-168 -211q-37 62 -84 62q-24 0 -45.5 -19t-50.5 -63z" />
    <glyph glyph-name="khook" unicode="&#x199;" horiz-adv-x="1120" 
d="M551 1022l-70 -395h47l281 319h373l-410 -442l109 -205q27 -51 66 -60t102 13l-50 -240q-75 -22 -153 -22q-53 0 -93.5 12.5t-77.5 47.5t-63 93l-108 250h-64l-69 -393h-310l179 1022q32 184 148.5 273t283.5 89q144 0 264 -53l-90 -250q-70 49 -164 49q-112 0 -131 -108
z" />
    <glyph glyph-name="Ezh" unicode="&#x1b7;" horiz-adv-x="1042" 
d="M483 940h-348l47 266h881l-37 -217l-434 -461l-2 -6q73 -9 130.5 -36t92 -63.5t57 -83.5t31 -91.5t8.5 -91.5q0 -167 -75.5 -286.5t-200 -177t-283.5 -57.5q-226 0 -349 94t-124 271l254 135q1 -130 61 -197t168 -67q106 0 173 62t67 180q0 229 -342 241l37 207l209 250
q36 43 74 77t58 47l21 13v8q-74 -16 -174 -16z" />
    <glyph glyph-name="Acaron" unicode="&#x1cd;" horiz-adv-x="1323" 
d="M881 0l-41 225h-445l-114 -225h-332l647 1206h375l229 -1206h-319zM872 1321h-194l-227 307h268l49 -61q13 -16 20 -31t8 -22l1 -7h6q-2 2 4.5 9t21 20.5t28.5 26t36.5 32.5t36.5 33h280zM575 575l-49 -94h269q-21 104 -35.5 220t-19 182.5t-1.5 66.5h-8
q-54 -178 -156 -375z" />
    <glyph glyph-name="acaron" unicode="&#x1ce;" 
d="M666 393l30 158q7 50 4.5 91.5t-27.5 69t-71 27.5q-70 0 -121 -54.5t-73.5 -134t-22.5 -171.5q0 -77 30 -126.5t89 -49.5q68 0 107.5 52t54.5 138zM1073 946l-108 -624q-7 -39 4 -61.5t53 -22.5q19 0 61 10l-49 -232q-83 -26 -162 -26q-111 0 -167 39.5t-68 130.5
q-60 -185 -262 -185q-154 0 -234 103t-80 284q0 164 51.5 300.5t154.5 221.5t239 85q218 0 229 -181l60 158h278zM737 1069h-194l-226 334h269l51 -66q14 -18 20.5 -34t6.5 -23v-6h10q4 22 51 63l72 66h280z" />
    <glyph glyph-name="Icaron" unicode="&#x1cf;" horiz-adv-x="604" 
d="M272 1206h312l-211 -1206h-312zM535 1321h-195l-227 307h268l49 -61q13 -16 20 -31t8 -22l1 -7h10q8 25 49 60l74 61h280z" />
    <glyph glyph-name="icaron" unicode="&#x1d0;" horiz-adv-x="600" 
d="M457 1069h-195l-225 334h268l51 -66q14 -18 20.5 -34t6.5 -23v-6h10q4 22 51 63l72 66h281zM510 946l-109 -624q-7 -39 4.5 -61.5t53.5 -22.5q19 0 61 10l-49 -232q-83 -26 -162 -26q-276 0 -229 276l121 680h309z" />
    <glyph glyph-name="Ocaron" unicode="&#x1d1;" horiz-adv-x="1318" 
d="M608 -25q-244 0 -375 134.5t-131 369.5q0 172 51 315.5t138 238t203 146.5t247 52q246 0 376 -134t130 -372q0 -172 -51 -315t-138.5 -237.5t-203.5 -146t-246 -51.5zM721 961q-138 0 -219.5 -132t-81.5 -329q0 -127 54.5 -194.5t148.5 -67.5q87 0 156 62.5t106 169.5
t37 237q0 120 -54.5 187t-146.5 67zM866 1321h-194l-228 307h269l49 -61q13 -16 20 -31t8 -22l1 -7h10q8 25 49 60l74 61h280z" />
    <glyph glyph-name="ocaron" unicode="&#x1d2;" horiz-adv-x="1099" 
d="M600 969q204 0 321 -110t117 -310q0 -91 -20.5 -175t-64 -157t-105.5 -126.5t-150.5 -84.5t-193.5 -31q-197 0 -320 104t-123 298q0 120 33.5 225t98 188t169.5 131t238 48zM582 727q-88 0 -139.5 -98t-51.5 -250q0 -84 33.5 -127t93.5 -43q91 0 142 95.5t51 250.5
q0 85 -33.5 128.5t-95.5 43.5zM709 1069h-195l-225 334h268l51 -66q14 -18 20.5 -34t6.5 -23v-6h10q4 22 51 63l72 66h281z" />
    <glyph glyph-name="Ucaron" unicode="&#x1d3;" horiz-adv-x="1265" 
d="M954 1206h312l-138 -778q-22 -129 -71.5 -218t-125 -140t-166.5 -73t-210 -22q-72 0 -134 11t-119 35t-97 63t-68 94.5t-32.5 129.5t10.5 169l129 729h311l-129 -712q-22 -129 13.5 -196t160.5 -67q51 0 88 13.5t59.5 33.5t39 58t24.5 71.5t18 90.5zM852 1321h-195
l-227 307h268l50 -61q13 -16 20 -31t8 -22v-7h10q9 25 50 60l73 61h281z" />
    <glyph glyph-name="ucaron" unicode="&#x1d4;" 
d="M672 182q-44 -107 -120 -157t-196 -50q-153 0 -224 96.5t-42 264.5l109 610h309l-107 -616q-10 -65 14 -98t77 -33q144 0 178 207l96 540h309l-108 -624q-15 -84 55 -84q19 0 61 10l-49 -232q-83 -26 -162 -26q-106 0 -154.5 47t-45.5 145zM737 1069h-194l-226 334h269
l51 -66q14 -18 20.5 -34t6.5 -23v-6h10q4 22 51 63l72 66h280z" />
    <glyph glyph-name="uni01D9" unicode="&#x1d9;" horiz-adv-x="1265" 
d="M954 1206h312l-138 -778q-22 -129 -71.5 -218t-125 -140t-166.5 -73t-210 -22q-72 0 -134 11t-119 35t-97 63t-68 94.5t-32.5 129.5t10.5 169l129 729h311l-129 -712q-24 -128 12.5 -195.5t161.5 -67.5q37 0 66 7t50 17.5t38 31t27.5 39t20 50t15 56.5t12.5 66zM387 1425
q0 81 46 123.5t116 42.5q75 0 121.5 -42t46.5 -124q0 -79 -46.5 -121t-121.5 -42q-70 0 -116 42.5t-46 120.5zM848 1425q0 81 46 123.5t116 42.5q75 0 121.5 -42t46.5 -124q0 -79 -46.5 -121t-121.5 -42q-70 0 -116 42.5t-46 120.5zM895 1599h-195l-227 308h268l50 -62
q13 -16 20 -30.5t7 -21.5l1 -7h10q9 24 50 59l73 62h281z" />
    <glyph glyph-name="uni01DA" unicode="&#x1da;" 
d="M672 182q-44 -107 -120 -157t-196 -50q-153 0 -224 96.5t-42 264.5l109 610h309l-107 -616q-10 -65 14 -98t77 -33q144 0 178 207l96 540h309l-108 -624q-15 -84 55 -84q19 0 61 10l-49 -232q-83 -26 -162 -26q-106 0 -154.5 47t-45.5 145zM264 1161q0 81 46 123.5
t116 42.5q75 0 121.5 -42t46.5 -124q0 -79 -46.5 -121.5t-121.5 -42.5q-70 0 -116 43t-46 121zM725 1161q0 81 46 123.5t116 42.5q75 0 121.5 -42t46.5 -124q0 -79 -46.5 -121.5t-121.5 -42.5q-70 0 -116 43t-46 121zM772 1335h-194l-228 307h268l50 -61q13 -16 20 -30.5
t8 -21.5v-7h11q8 24 49 59l73 61h281z" />
    <glyph glyph-name="uni004100A800AF" unicode="&#x1de;" horiz-adv-x="1323" 
d="M881 0l-41 225h-445l-114 -225h-332l647 1206h375l229 -1206h-319zM1176 1649h-644l43 245h644zM412 1421q0 81 45.5 123.5t115.5 42.5q75 0 121.5 -42t46.5 -124q0 -79 -46.5 -121.5t-121.5 -42.5q-70 0 -115.5 43t-45.5 121zM872 1421q0 81 46 123.5t116 42.5
q75 0 121.5 -42t46.5 -124q0 -79 -46.5 -121.5t-121.5 -42.5q-70 0 -116 43t-46 121zM575 575l-49 -94h269q-21 104 -35.5 220t-19 182.5t-1.5 66.5h-8q-54 -178 -156 -375z" />
    <glyph glyph-name="adieresismacron" unicode="&#x1df;" 
d="M666 393l30 158q7 50 4.5 91.5t-27.5 69t-71 27.5q-70 0 -121 -54.5t-73.5 -134t-22.5 -171.5q0 -77 30 -126.5t89 -49.5q68 0 107.5 52t54.5 138zM1073 946l-108 -624q-7 -39 4 -61.5t53 -22.5q19 0 61 10l-49 -232q-83 -26 -162 -26q-111 0 -167 39.5t-68 130.5
q-60 -185 -262 -185q-154 0 -234 103t-80 284q0 164 51.5 300.5t154.5 221.5t239 85q218 0 229 -181l60 158h278zM1040 1448h-624l45 246h624zM283 1196q0 81 45.5 123.5t115.5 42.5q75 0 121.5 -42t46.5 -124q0 -79 -46.5 -121.5t-121.5 -42.5q-70 0 -115.5 43t-45.5 121z
M743 1196q0 81 46 123.5t116 42.5q75 0 121.5 -42t46.5 -124q0 -79 -46.5 -121.5t-121.5 -42.5q-70 0 -116 43t-46 121z" />
    <glyph glyph-name="AEmacron" unicode="&#x1e2;" horiz-adv-x="1898" 
d="M877 0l38 225h-442l-174 -225h-350l938 1206h1032l-47 -266h-520l-35 -201h457l-45 -256h-457l-39 -217h520l-45 -266h-831zM1671 1354h-643l43 245h643zM1049 971l-379 -490h291l38 226q16 89 30.5 155t20.5 88l7 21h-8z" />
    <glyph glyph-name="aemacron" unicode="&#x1e3;" horiz-adv-x="1540" 
d="M1026 209q52 0 87.5 31.5t49.5 87.5l291 -70q-42 -147 -149 -215t-304 -68q-229 0 -342 138q-38 -62 -121 -100t-198 -38q-142 0 -220.5 64.5t-78.5 179.5q0 167 137.5 255.5t415.5 82.5q5 25 27 84q3 100 -78 100q-51 0 -85.5 -35t-37.5 -98l-295 58q36 148 154 225.5
t296 77.5q175 0 254 -76q124 76 269 76q194 0 297.5 -100t103.5 -244q0 -127 -43 -211h-551q-13 -85 18.5 -145t102.5 -60zM1192 1092h-625l45 245h625zM924 557h254q10 30 10 68q0 120 -103 120q-61 0 -102.5 -48.5t-58.5 -139.5zM573 377v35q-211 -9 -211 -138
q0 -79 78 -79q99 0 150 51q-17 70 -17 131z" />
    <glyph glyph-name="Gstroke" unicode="&#x1e4;" horiz-adv-x="1349" 
d="M707 692h532l-43 -239h113l-27 -154h-113l-53 -299h-180l-31 145q-87 -170 -325 -170q-226 0 -352 132.5t-126 371.5q0 172 51 315.5t138 238t203 146.5t247 52q220 0 337.5 -99.5t142.5 -267.5l-324 -104q-7 94 -45.5 146t-130.5 52t-161.5 -62t-104.5 -165.5
t-35 -232.5q0 -131 63.5 -207t184.5 -76q81 0 123 19.5t75 64.5h-231l27 154h235l16 77h-233z" />
    <glyph glyph-name="gstroke" unicode="&#x1e5;" horiz-adv-x="1114" 
d="M1085 946l-165 -944l-13 -57h121l-12 -72h-131q-115 -305 -527 -305q-357 0 -450 221l227 170q18 -70 82.5 -113t144.5 -43q114 0 181 70h-213l12 72h248q21 55 31 100l24 129q-58 -178 -266 -178q-153 0 -233 103t-80 284q0 165 50.5 296t154 210.5t245.5 79.5
q100 0 163 -44.5t69 -136.5l59 158h278zM684 414l25 137q14 82 -10 135t-99 53q-53 0 -94.5 -28t-66.5 -76.5t-37.5 -108t-12.5 -127.5q0 -77 30 -126.5t89 -49.5q141 0 176 191z" />
    <glyph glyph-name="Gcaron" unicode="&#x1e6;" horiz-adv-x="1323" 
d="M698 651h533l-115 -651h-180l-31 145q-87 -170 -325 -170q-226 0 -352 132.5t-126 371.5q0 172 51 315.5t138 238t203 146.5t247 52q220 0 337.5 -99.5t142.5 -267.5l-324 -104q-7 94 -45.5 146t-130.5 52t-161.5 -62t-104.5 -165.5t-35 -232.5q0 -130 60.5 -202.5
t176.5 -72.5q94 0 155 44t73 118l4 25h-234zM879 1321h-195l-227 307h268l49 -61q13 -16 20 -31t8 -22l1 -7h10q8 25 49 60l74 61h281z" />
    <glyph glyph-name="gcaron" unicode="&#x1e7;" horiz-adv-x="1114" 
d="M684 414l25 137q14 82 -10 135t-99 53q-53 0 -94.5 -28t-66.5 -76.5t-37.5 -108t-12.5 -127.5q0 -77 30 -126.5t89 -49.5q141 0 176 191zM1085 946l-165 -944q-38 -222 -176.5 -328t-385.5 -106q-357 0 -450 221l227 170q18 -70 82.5 -113t144.5 -43q115 0 175 63t84 179
l24 129q-58 -178 -266 -178q-153 0 -233 103t-80 284q0 165 50.5 296t154 210.5t245.5 79.5q100 0 163 -44.5t69 -136.5l59 158h278zM719 1069h-195l-225 334h268l51 -66q14 -18 20.5 -34t6.5 -23v-6h10q5 22 52 63l71 66h281z" />
    <glyph glyph-name="Kcaron" unicode="&#x1e8;" horiz-adv-x="1210" 
d="M1112 0h-356l-226 479h-73l-84 -479h-312l211 1206h312l-80 -461h63l342 461h363l-463 -600zM825 1321h-194l-228 307h269l49 -61q13 -16 20 -31t8 -22l1 -7h10q8 25 49 60l74 61h280z" />
    <glyph glyph-name="kcaron" unicode="&#x1e9;" horiz-adv-x="1120" 
d="M612 143l-108 250h-64l-69 -393h-310l240 1368h311l-131 -741h47l281 319h373l-410 -442l109 -205q27 -51 66 -60t102 13l-50 -240q-75 -22 -153 -22q-53 0 -93.5 12.5t-77.5 47.5t-63 93zM559 1436h-194l-228 307h269l49 -62q13 -16 20 -30.5t7 -21.5l1 -7h11
q8 24 49 59l73 62h281z" />
    <glyph glyph-name="Oogonek" unicode="&#x1ea;" horiz-adv-x="1318" 
d="M305 -217q0 133 101 221q-148 49 -226 172t-78 303q0 172 51 315.5t138 238t203 146.5t247 52q246 0 376 -134t130 -372q0 -168 -48.5 -308t-131.5 -233.5t-193.5 -147.5t-236.5 -59q-90 -44 -90 -137q0 -37 18.5 -56.5t52.5 -19.5q33 0 59.5 11t59.5 41l60 -156
q-92 -92 -246 -92q-108 0 -177 52.5t-69 162.5zM721 961q-138 0 -219.5 -132t-81.5 -329q0 -127 54.5 -194.5t148.5 -67.5q87 0 156 62.5t106 169.5t37 237q0 120 -54.5 187t-146.5 67z" />
    <glyph glyph-name="oogonek" unicode="&#x1eb;" horiz-adv-x="1097" 
d="M219 -217q0 130 98 221q-119 40 -187.5 134.5t-68.5 238.5q0 120 33.5 225t98 188t169.5 131t238 48q204 0 321 -110t117 -310q0 -111 -31 -209.5t-90.5 -177.5t-155 -128.5t-216.5 -56.5q-84 -47 -84 -137q0 -37 18.5 -56.5t52.5 -19.5q33 0 59.5 11t59.5 41l60 -156
q-92 -92 -246 -92q-108 0 -177 52.5t-69 162.5zM582 727q-88 0 -139.5 -98t-51.5 -250q0 -84 33.5 -127t93.5 -43q91 0 142 95.5t51 250.5q0 85 -33.5 128.5t-95.5 43.5z" />
    <glyph glyph-name="uni004F02DB00AF" unicode="&#x1ec;" horiz-adv-x="1318" 
d="M1108 1354h-643l43 245h643zM305 -217q0 133 101 221q-148 49 -226 172t-78 303q0 172 51 315.5t138 238t203 146.5t247 52q246 0 376 -134t130 -372q0 -168 -48.5 -308t-131.5 -233.5t-193.5 -147.5t-236.5 -59q-90 -44 -90 -137q0 -37 18.5 -56.5t52.5 -19.5
q33 0 59.5 11t59.5 41l60 -156q-92 -92 -246 -92q-108 0 -177 52.5t-69 162.5zM721 961q-138 0 -219.5 -132t-81.5 -329q0 -127 54.5 -194.5t148.5 -67.5q87 0 156 62.5t106 169.5t37 237q0 120 -54.5 187t-146.5 67z" />
    <glyph glyph-name="oogonekmacron" unicode="&#x1ed;" horiz-adv-x="1097" 
d="M938 1092h-625l45 245h625zM219 -217q0 130 98 221q-119 40 -187.5 134.5t-68.5 238.5q0 120 33.5 225t98 188t169.5 131t238 48q204 0 321 -110t117 -310q0 -111 -31 -209.5t-90.5 -177.5t-155 -128.5t-216.5 -56.5q-84 -47 -84 -137q0 -37 18.5 -56.5t52.5 -19.5
q33 0 59.5 11t59.5 41l60 -156q-92 -92 -246 -92q-108 0 -177 52.5t-69 162.5zM582 727q-88 0 -139.5 -98t-51.5 -250q0 -84 33.5 -127t93.5 -43q91 0 142 95.5t51 250.5q0 85 -33.5 128.5t-95.5 43.5z" />
    <glyph glyph-name="Ezhcaron" unicode="&#x1ee;" horiz-adv-x="1042" 
d="M483 940h-348l47 266h881l-37 -217l-434 -461l-2 -6q73 -9 130.5 -36t92 -63.5t57 -83.5t31 -91.5t8.5 -91.5q0 -167 -75.5 -286.5t-200 -177t-283.5 -57.5q-226 0 -349 94t-124 271l254 135q1 -130 61 -197t168 -67q106 0 173 62t67 180q0 229 -342 241l37 207l209 250
q36 43 74 77t58 47l21 13v8q-74 -16 -174 -16zM715 1321h-195l-227 307h268l49 -61q13 -16 20 -31t8 -22l1 -7h10q8 25 49 60l74 61h281z" />
    <glyph glyph-name="ezhcaron" unicode="&#x1ef;" horiz-adv-x="878" 
d="M229 465l86 96q40 44 80 81.5t60 53.5l20 15v8q-60 -10 -160 -10h-221l41 237h744l-33 -188l-344 -334l-2 -6q260 -50 260 -332q0 -77 -25.5 -142.5t-70 -112t-105 -79.5t-130 -49t-144.5 -16q-190 0 -280.5 72t-106.5 214l270 111q-10 -83 29 -125.5t112 -42.5
q66 0 109 40.5t43 111.5q0 40 -8.5 69t-33.5 61t-81 53.5t-141 31.5zM606 1069h-194l-226 334h269l51 -66q14 -18 20.5 -34t5.5 -23v-6h11q4 22 51 63l72 66h280z" />
    <glyph glyph-name="jcaron" unicode="&#x1f0;" horiz-adv-x="530" 
d="M459 1069h-195l-225 334h268l51 -66q14 -18 20.5 -34t6.5 -23v-6h10q4 22 51 63l72 66h281zM510 946l-186 -1067q-30 -171 -124.5 -241t-265.5 -70q-149 0 -251 57l81 223q63 -53 136 -53q54 0 82.5 30.5t42.5 117.5l176 1003h309z" />
    <glyph glyph-name="jcaron" unicode="&#xe10c;" horiz-adv-x="530" 
d="M459 1069h-195l-225 334h268l51 -66q14 -18 20.5 -34t6.5 -23v-6h10q4 22 51 63l72 66h281zM510 946l-186 -1067q-30 -171 -124.5 -241t-265.5 -70q-149 0 -251 57l81 223q63 -53 136 -53q54 0 82.5 30.5t42.5 117.5l176 1003h309z" />
    <glyph glyph-name="Gacute" unicode="&#x1f4;" horiz-adv-x="1323" 
d="M698 651h533l-115 -651h-180l-31 145q-87 -170 -325 -170q-226 0 -352 132.5t-126 371.5q0 172 51 315.5t138 238t203 146.5t247 52q220 0 337.5 -99.5t142.5 -267.5l-324 -104q-7 94 -45.5 146t-130.5 52t-161.5 -62t-104.5 -165.5t-35 -232.5q0 -130 60.5 -202.5
t176.5 -72.5q94 0 155 44t73 118l4 25h-234zM918 1321h-279l133 307h377z" />
    <glyph glyph-name="gacute" unicode="&#x1f5;" horiz-adv-x="1114" 
d="M684 414l25 137q14 82 -10 135t-99 53q-53 0 -94.5 -28t-66.5 -76.5t-37.5 -108t-12.5 -127.5q0 -77 30 -126.5t89 -49.5q141 0 176 191zM1085 946l-165 -944q-38 -222 -176.5 -328t-385.5 -106q-357 0 -450 221l227 170q18 -70 82.5 -113t144.5 -43q115 0 175 63t84 179
l24 129q-58 -178 -266 -178q-153 0 -233 103t-80 284q0 165 50.5 296t154 210.5t245.5 79.5q100 0 163 -44.5t69 -136.5l59 158h278zM760 1075h-279l142 320h376z" />
    <glyph glyph-name="Ngrave" unicode="&#x1f8;" horiz-adv-x="1349" 
d="M557 1206l268 -536q21 -40 38.5 -84.5t24.5 -69.5l7 -24h8q8 108 35 262l80 452h311l-211 -1206h-274l-275 522q-24 46 -44 95.5t-28 75.5l-8 26h-8q-2 -103 -35 -281l-73 -438h-312l211 1206h285zM954 1321h-278l-232 307h377z" />
    <glyph glyph-name="ngrave" unicode="&#x1f9;" horiz-adv-x="1177" 
d="M1040 647l-53 -325q-7 -39 4 -61.5t53 -22.5q20 0 62 10l-49 -232q-83 -26 -162 -26q-276 0 -229 276l51 295q25 156 -96 156q-58 0 -100 -53t-62 -162l-88 -502h-310l166 946h271l4 -192q46 109 116.5 162t184.5 53q112 0 178 -66.5t66 -175.5q0 -36 -7 -80zM821 1075
h-278l-240 320h377z" />
    <glyph glyph-name="uni004102DA00B4" unicode="&#x1fa;" horiz-adv-x="1323" 
d="M881 0l-41 225h-445l-114 -225h-332l647 1206h375l229 -1206h-319zM573 1464q0 105 71.5 178.5t186.5 73.5q96 0 156 -60.5t60 -150.5q0 -109 -70.5 -182.5t-181.5 -73.5q-107 0 -164.5 59.5t-57.5 155.5zM997 1763h-278l133 308h377zM575 575l-49 -94h269
q-21 104 -35.5 220t-19 182.5t-1.5 66.5h-8q-54 -178 -156 -375zM821 1581q-44 0 -71 -31t-27 -77q0 -37 21 -59.5t59 -22.5q47 0 73.5 31.5t26.5 78.5q0 35 -21.5 57.5t-60.5 22.5z" />
    <glyph glyph-name="aringacute" unicode="&#x1fb;" 
d="M666 393l30 158q7 50 4.5 91.5t-27.5 69t-71 27.5q-70 0 -121 -54.5t-73.5 -134t-22.5 -171.5q0 -77 30 -126.5t89 -49.5q68 0 107.5 52t54.5 138zM1073 946l-108 -624q-7 -39 4 -61.5t53 -22.5q19 0 61 10l-49 -232q-83 -26 -162 -26q-111 0 -167 39.5t-68 130.5
q-60 -185 -262 -185q-154 0 -234 103t-80 284q0 164 51.5 300.5t154.5 221.5t239 85q218 0 229 -181l60 158h278zM440 1223q0 105 71.5 178.5t186.5 73.5q96 0 155.5 -60.5t59.5 -150.5q0 -109 -70 -182.5t-181 -73.5q-107 0 -164.5 59.5t-57.5 155.5zM688 1339
q-44 0 -71 -31t-27 -77q0 -37 21 -59.5t59 -22.5q47 0 73.5 32t26.5 79q0 35 -21.5 57t-60.5 22zM850 1538h-279l134 307h376z" />
    <glyph glyph-name="AEacute" unicode="&#x1fc;" horiz-adv-x="1898" 
d="M877 0l38 225h-442l-174 -225h-350l938 1206h1032l-47 -266h-520l-35 -201h457l-45 -256h-457l-39 -217h520l-45 -266h-831zM1468 1321h-278l133 307h377zM1049 971l-379 -490h291l38 226q16 89 30.5 155t20.5 88l7 21h-8z" />
    <glyph glyph-name="aeacute" unicode="&#x1fd;" horiz-adv-x="1540" 
d="M1026 209q52 0 87.5 31.5t49.5 87.5l291 -70q-42 -147 -149 -215t-304 -68q-229 0 -342 138q-38 -62 -121 -100t-198 -38q-142 0 -220.5 64.5t-78.5 179.5q0 167 137.5 255.5t415.5 82.5q5 25 27 84q3 100 -78 100q-51 0 -85.5 -35t-37.5 -98l-295 58q36 148 154 225.5
t296 77.5q175 0 254 -76q124 76 269 76q194 0 297.5 -100t103.5 -244q0 -127 -43 -211h-551q-13 -85 18.5 -145t102.5 -60zM1004 1075h-279l141 320h377zM924 557h254q10 30 10 68q0 120 -103 120q-61 0 -102.5 -48.5t-58.5 -139.5zM573 377v35q-211 -9 -211 -138
q0 -79 78 -79q99 0 150 51q-17 70 -17 131z" />
    <glyph glyph-name="Oslashacute" unicode="&#x1fe;" horiz-adv-x="1318" 
d="M156 -25l-97 82l117 123q-74 121 -74 299q0 172 51 315.5t138 238t203 146.5t247 52q209 0 340 -103l97 103l100 -82l-111 -117q80 -124 80 -307q0 -172 -51 -315t-138.5 -237.5t-203.5 -146t-246 -51.5q-217 0 -348 109zM922 707q0 28 -7 63l-442 -463q51 -69 150 -69
q87 0 156 62.5t106 169.5t37 237zM920 1321h-279l133 307h377zM721 961q-138 0 -219.5 -132t-81.5 -329q0 -44 2 -62l438 461q-56 62 -139 62z" />
    <glyph glyph-name="oslashacute" unicode="&#x1ff;" horiz-adv-x="1099" 
d="M600 969q188 0 305 -97l107 99l86 -94l-113 -103q53 -92 53 -225q0 -91 -20.5 -175t-64 -157t-105.5 -126.5t-150.5 -84.5t-193.5 -31q-188 0 -301 88l-105 -94l-86 88l107 99q-58 92 -58 221q0 120 33.5 225t98 188t169.5 131t238 48zM788 1075h-278l141 320h377z
M582 727q-70 0 -117.5 -63.5t-65.5 -171.5q-8 -58 -8 -89l293 269q-30 55 -102 55zM518 209q72 0 118 60.5t64 166.5q9 61 9 88l-291 -264q34 -51 100 -51z" />
    <glyph glyph-name="Adoublegrave" unicode="&#x200;" horiz-adv-x="1323" 
d="M881 0l-41 225h-445l-114 -225h-332l647 1206h375l229 -1206h-319zM705 1321h-236l-240 307h334zM1057 1321h-213l-199 307h311zM575 575l-49 -94h269q-21 104 -35.5 220t-19 182.5t-1.5 66.5h-8q-54 -178 -156 -375z" />
    <glyph glyph-name="edoublegrave" unicode="&#x201;" horiz-adv-x="1028" 
d="M514 209q55 0 89 27t48 92l291 -70q-42 -147 -149 -215t-304 -68q-202 0 -315 110.5t-113 301.5q0 136 43.5 248.5t116.5 184t167 110.5t198 39q194 0 297.5 -100t103.5 -244q0 -123 -41 -203h-559q-19 -94 16.5 -153.5t110.5 -59.5zM420 582h252q4 24 4 43
q0 120 -103 120q-58 0 -96 -45t-57 -118zM901 1075h-213l-199 320h312zM549 1075h-236l-239 320h334z" />
    <glyph glyph-name="edoublegrave" unicode="&#x205;" horiz-adv-x="1028" 
d="M514 209q55 0 89 27t48 92l291 -70q-42 -147 -149 -215t-304 -68q-202 0 -315 110.5t-113 301.5q0 136 43.5 248.5t116.5 184t167 110.5t198 39q194 0 297.5 -100t103.5 -244q0 -123 -41 -203h-559q-19 -94 16.5 -153.5t110.5 -59.5zM420 582h252q4 24 4 43
q0 120 -103 120q-58 0 -96 -45t-57 -118zM901 1075h-213l-199 320h312zM549 1075h-236l-239 320h334z" />
    <glyph glyph-name="Ainvertedbreve" unicode="&#x202;" horiz-adv-x="1323" 
d="M881 0l-41 225h-445l-114 -225h-332l647 1206h375l229 -1206h-319zM840 1642q164 0 225.5 -83t34.5 -232h-223q9 55 -7 80t-69 25t-78.5 -25t-34.5 -80h-223q58 315 375 315zM575 575l-49 -94h269q-21 104 -35.5 220t-19 182.5t-1.5 66.5h-8q-54 -178 -156 -375z" />
    <glyph glyph-name="ainvertedbreve" unicode="&#x203;" 
d="M666 393l30 158q7 50 4.5 91.5t-27.5 69t-71 27.5q-70 0 -121 -54.5t-73.5 -134t-22.5 -171.5q0 -77 30 -126.5t89 -49.5q68 0 107.5 52t54.5 138zM1073 946l-108 -624q-7 -39 4 -61.5t53 -22.5q19 0 61 10l-49 -232q-83 -26 -162 -26q-111 0 -167 39.5t-68 130.5
q-60 -185 -262 -185q-154 0 -234 103t-80 284q0 164 51.5 300.5t154.5 221.5t239 85q218 0 229 -181l60 158h278zM709 1413q83 0 141 -26.5t85.5 -72t37 -106.5t-5.5 -129h-224q15 55 0.5 87t-71.5 32t-81 -28.5t-36 -90.5h-223q27 148 121.5 241t255.5 93z" />
    <glyph glyph-name="Edoublegrave" unicode="&#x204;" horiz-adv-x="1083" 
d="M938 266l-45 -266h-832l211 1206h832l-47 -266h-520l-35 -201h456l-45 -256h-456l-39 -217h520zM958 1321h-213l-198 307h311zM606 1321h-235l-240 307h334z" />
    <glyph glyph-name="Einvertedbreve" unicode="&#x206;" horiz-adv-x="1083" 
d="M938 266l-45 -266h-832l211 1206h832l-47 -266h-520l-35 -201h456l-45 -256h-456l-39 -217h520zM741 1642q164 0 225.5 -83t34.5 -232h-223q9 55 -7 80t-69 25t-78 -25t-34 -80h-223q58 315 374 315z" />
    <glyph glyph-name="einvertedbreve" unicode="&#x207;" horiz-adv-x="1028" 
d="M514 209q55 0 89 27t48 92l291 -70q-42 -147 -149 -215t-304 -68q-202 0 -315 110.5t-113 301.5q0 136 43.5 248.5t116.5 184t167 110.5t198 39q194 0 297.5 -100t103.5 -244q0 -123 -41 -203h-559q-19 -94 16.5 -153.5t110.5 -59.5zM420 582h252q4 24 4 43
q0 120 -103 120q-58 0 -96 -45t-57 -118zM664 1413q83 0 141 -26.5t85.5 -72t37 -106.5t-5.5 -129h-224q15 55 0.5 87t-71.5 32t-81 -28.5t-36 -90.5h-223q27 148 121.5 241t255.5 93z" />
    <glyph glyph-name="Idoublegrave" unicode="&#x208;" horiz-adv-x="604" 
d="M272 1206h312l-211 -1206h-312zM719 1321h-213l-199 307h311zM367 1321h-236l-240 307h334z" />
    <glyph glyph-name="idoublegrave" unicode="&#x209;" horiz-adv-x="600" 
d="M510 946l-109 -624q-7 -39 4.5 -61.5t53.5 -22.5q19 0 61 10l-49 -232q-83 -26 -162 -26q-276 0 -229 276l121 680h309zM666 1075h-213l-199 320h311zM313 1075h-235l-240 320h334z" />
    <glyph glyph-name="Iinvertedbreve" unicode="&#x20a;" horiz-adv-x="604" 
d="M272 1206h312l-211 -1206h-312zM502 1642q164 0 225.5 -83t34.5 -232h-223q9 55 -7 80t-69 25t-78.5 -25t-34.5 -80h-223q58 315 375 315z" />
    <glyph glyph-name="iinvertedbreve" unicode="&#x20b;" horiz-adv-x="600" 
d="M510 946l-109 -624q-7 -39 4.5 -61.5t53.5 -22.5q19 0 61 10l-49 -232q-83 -26 -162 -26q-276 0 -229 276l121 680h309zM428 1413q83 0 141 -26.5t85.5 -72t37 -106.5t-5.5 -129h-223q12 62 -1.5 90.5t-70.5 28.5t-81 -28.5t-36 -90.5h-223q27 148 121.5 241t255.5 93z
" />
    <glyph glyph-name="Odoublegrave" unicode="&#x20c;" horiz-adv-x="1318" 
d="M608 -25q-244 0 -375 134.5t-131 369.5q0 172 51 315.5t138 238t203 146.5t247 52q246 0 376 -134t130 -372q0 -172 -51 -315t-138.5 -237.5t-203.5 -146t-246 -51.5zM721 961q-138 0 -219.5 -132t-81.5 -329q0 -127 54.5 -194.5t148.5 -67.5q87 0 156 62.5t106 169.5
t37 237q0 120 -54.5 187t-146.5 67zM1051 1321h-213l-199 307h311zM698 1321h-235l-240 307h334z" />
    <glyph glyph-name="odoublegrave" unicode="&#x20d;" horiz-adv-x="1099" 
d="M600 969q204 0 321 -110t117 -310q0 -91 -20.5 -175t-64 -157t-105.5 -126.5t-150.5 -84.5t-193.5 -31q-197 0 -320 104t-123 298q0 120 33.5 225t98 188t169.5 131t238 48zM582 727q-88 0 -139.5 -98t-51.5 -250q0 -84 33.5 -127t93.5 -43q91 0 142 95.5t51 250.5
q0 85 -33.5 128.5t-95.5 43.5zM918 1075h-213l-199 320h311zM565 1075h-235l-240 320h334z" />
    <glyph glyph-name="Oinvertedbreve" unicode="&#x20e;" horiz-adv-x="1318" 
d="M608 -25q-244 0 -375 134.5t-131 369.5q0 172 51 315.5t138 238t203 146.5t247 52q246 0 376 -134t130 -372q0 -172 -51 -315t-138.5 -237.5t-203.5 -146t-246 -51.5zM721 961q-138 0 -219.5 -132t-81.5 -329q0 -127 54.5 -194.5t148.5 -67.5q87 0 156 62.5t106 169.5
t37 237q0 120 -54.5 187t-146.5 67zM834 1642q164 0 225.5 -83t34.5 -232h-224q9 55 -6.5 80t-68.5 25t-78.5 -25t-34.5 -80h-223q58 315 375 315z" />
    <glyph glyph-name="oinvertedbreve" unicode="&#x20f;" horiz-adv-x="1099" 
d="M600 969q204 0 321 -110t117 -310q0 -91 -20.5 -175t-64 -157t-105.5 -126.5t-150.5 -84.5t-193.5 -31q-197 0 -320 104t-123 298q0 120 33.5 225t98 188t169.5 131t238 48zM582 727q-88 0 -139.5 -98t-51.5 -250q0 -84 33.5 -127t93.5 -43q91 0 142 95.5t51 250.5
q0 85 -33.5 128.5t-95.5 43.5zM680 1413q83 0 141 -26.5t85.5 -72t37 -106.5t-5.5 -129h-223q12 62 -1.5 90.5t-70.5 28.5t-81 -28.5t-36 -90.5h-223q27 148 121.5 241t255.5 93z" />
    <glyph glyph-name="Rinvertedbreve" unicode="&#x212;" horiz-adv-x="1220" 
d="M1090 0h-338q-41 34 -56 129l-26 170q-10 64 -35 84t-90 20h-103l-69 -403h-312l211 1206h473q205 0 304.5 -74t99.5 -247q0 -86 -26 -153.5t-71 -109t-99 -65.5t-117 -31v-8q81 -13 116 -49.5t49 -116.5l37 -221q15 -86 52 -131zM539 946l-52 -287h160q81 0 131.5 40.5
t50.5 129.5q0 117 -139 117h-151zM756 1642q164 0 225.5 -83t34.5 -232h-223q9 55 -7 80t-69 25t-78.5 -25t-34.5 -80h-223q58 315 375 315z" />
    <glyph glyph-name="rinvertedbreve" unicode="&#x213;" horiz-adv-x="825" 
d="M877 961l-72 -359q-52 28 -107.5 35t-106.5 -6.5t-89 -59t-51 -116.5l-80 -455h-310l166 946h271l-6 -260q50 149 157.5 228t227.5 47zM600 1413q83 0 141 -26.5t85.5 -72t37 -106.5t-5.5 -129h-223q12 62 -1.5 90.5t-70.5 28.5t-81 -28.5t-36 -90.5h-223
q27 148 121.5 241t255.5 93z" />
    <glyph glyph-name="Udoublegrave" unicode="&#x214;" horiz-adv-x="1265" 
d="M954 1206h312l-138 -778q-22 -129 -71.5 -218t-125 -140t-166.5 -73t-210 -22q-72 0 -134 11t-119 35t-97 63t-68 94.5t-32.5 129.5t10.5 169l129 729h311l-129 -712q-22 -129 13.5 -196t160.5 -67q51 0 88 13.5t59.5 33.5t39 58t24.5 71.5t18 90.5zM1034 1321h-213
l-198 307h311zM682 1321h-236l-239 307h334z" />
    <glyph glyph-name="udoublegrave" unicode="&#x215;" 
d="M672 182q-44 -107 -120 -157t-196 -50q-153 0 -224 96.5t-42 264.5l109 610h309l-107 -616q-10 -65 14 -98t77 -33q144 0 178 207l96 540h309l-108 -624q-15 -84 55 -84q19 0 61 10l-49 -232q-83 -26 -162 -26q-106 0 -154.5 47t-45.5 145zM946 1075h-213l-198 320h311z
M594 1075h-236l-239 320h334z" />
    <glyph glyph-name="Uinvertedbreve" unicode="&#x216;" horiz-adv-x="1265" 
d="M954 1206h312l-138 -778q-22 -129 -71.5 -218t-125 -140t-166.5 -73t-210 -22q-72 0 -134 11t-119 35t-97 63t-68 94.5t-32.5 129.5t10.5 169l129 729h311l-129 -712q-22 -129 13.5 -196t160.5 -67q51 0 88 13.5t59.5 33.5t39 58t24.5 71.5t18 90.5zM819 1642
q164 0 225.5 -83t34.5 -232h-223q9 55 -7 80t-69 25t-78 -25t-34 -80h-224q58 315 375 315z" />
    <glyph glyph-name="uinvertedbreve" unicode="&#x217;" 
d="M672 182q-44 -107 -120 -157t-196 -50q-153 0 -224 96.5t-42 264.5l109 610h309l-107 -616q-10 -65 14 -98t77 -33q144 0 178 207l96 540h309l-108 -624q-15 -84 55 -84q19 0 61 10l-49 -232q-83 -26 -162 -26q-106 0 -154.5 47t-45.5 145zM709 1413q83 0 141 -26.5
t85.5 -72t37 -106.5t-5.5 -129h-224q15 55 0.5 87t-71.5 32t-81 -28.5t-36 -90.5h-223q27 148 121.5 241t255.5 93z" />
    <glyph glyph-name="Scommaaccent" unicode="&#x218;" horiz-adv-x="1081" 
d="M20 281l281 112q2 -84 51.5 -137t132.5 -53q160 0 160 116q0 53 -34.5 84.5t-123.5 59.5q-176 53 -246.5 141t-70.5 227q0 85 27 154.5t72 114.5t106.5 75t126.5 43t135 13q404 0 424 -336l-303 -59q4 70 -37.5 106.5t-108.5 36.5q-139 0 -139 -115q0 -46 35 -73t133 -58
q173 -56 245 -138.5t72 -229.5q0 -107 -40.5 -185.5t-112.5 -121.5t-158.5 -63t-191.5 -20q-186 0 -301.5 75t-133.5 231zM559 -276q0 -124 -92 -188t-242 -64v98q166 4 166 76q-62 -10 -104.5 20.5t-42.5 97.5q0 69 42 105.5t107 36.5q77 0 121.5 -48t44.5 -134z" />
    <glyph glyph-name="scommaaccent" unicode="&#x219;" horiz-adv-x="917" 
d="M0 240l250 94q6 -74 47.5 -114t105.5 -40q109 0 109 74q0 37 -28 59.5t-103 42.5q-133 35 -194.5 105.5t-61.5 183.5q0 83 32 146.5t89 101.5t129.5 57t159.5 19q182 0 277 -71t95 -198l-256 -63q0 61 -35 95t-100 34q-44 0 -71 -20.5t-27 -53.5q0 -32 28 -50.5
t121 -47.5q141 -44 196.5 -111.5t55.5 -195.5q0 -159 -117 -235.5t-313 -76.5q-357 0 -389 265zM504 -276q0 -124 -92 -188t-242 -64v98q166 4 166 76q-62 -10 -105 20.5t-43 97.5q0 69 42.5 105.5t107.5 36.5q77 0 121.5 -48t44.5 -134z" />
    <glyph glyph-name="Hcaron" unicode="&#x21e;" horiz-adv-x="1339" 
d="M373 0h-312l211 1206h312l-80 -461h424l80 461h311l-211 -1206h-311l84 479h-424zM903 1321h-194l-228 307h269l49 -61q13 -16 20 -31t7 -22l1 -7h11q8 25 49 60l74 61h280z" />
    <glyph glyph-name="hcaron" unicode="&#x21f;" horiz-adv-x="1177" 
d="M1040 647l-53 -325q-7 -39 4 -61.5t53 -22.5q20 0 62 10l-49 -232q-83 -26 -162 -26q-276 0 -229 276l51 295q25 156 -96 156q-58 0 -100 -53t-62 -162l-88 -502h-310l240 1368h311l-108 -614q46 109 115.5 162t183.5 53q112 0 178 -66.5t66 -175.5q0 -36 -7 -80z
M559 1432h-194l-228 307h269l49 -62q13 -16 20 -30.5t7 -21.5l1 -7h11q8 24 49 59l73 62h281z" />
    <glyph glyph-name="Adotabove" unicode="&#x226;" horiz-adv-x="1323" 
d="M881 0l-41 225h-445l-114 -225h-332l647 1206h375l229 -1206h-319zM635 1501q0 83 50.5 126.5t129.5 43.5q83 0 134.5 -43.5t51.5 -126.5q0 -81 -51.5 -124.5t-134.5 -43.5q-79 0 -129.5 44t-50.5 124zM575 575l-49 -94h269q-21 104 -35.5 220t-19 182.5t-1.5 66.5h-8
q-54 -178 -156 -375z" />
    <glyph glyph-name="adotabove" unicode="&#x227;" 
d="M666 393l30 158q7 50 4.5 91.5t-27.5 69t-71 27.5q-70 0 -121 -54.5t-73.5 -134t-22.5 -171.5q0 -77 30 -126.5t89 -49.5q68 0 107.5 52t54.5 138zM1073 946l-108 -624q-7 -39 4 -61.5t53 -22.5q19 0 61 10l-49 -232q-83 -26 -162 -26q-111 0 -167 39.5t-68 130.5
q-60 -185 -262 -185q-154 0 -234 103t-80 284q0 164 51.5 300.5t154.5 221.5t239 85q218 0 229 -181l60 158h278zM494 1219q0 82 51 126t129 44q85 0 135.5 -43t50.5 -127q0 -81 -51 -124.5t-135 -43.5q-77 0 -128.5 44t-51.5 124z" />
    <glyph glyph-name="Otildemacron" unicode="&#x22c;" horiz-adv-x="1318" 
d="M608 -25q-244 0 -375 134.5t-131 369.5q0 172 51 315.5t138 238t203 146.5t247 52q246 0 376 -134t130 -372q0 -172 -51 -315t-138.5 -237.5t-203.5 -146t-246 -51.5zM721 961q-138 0 -219.5 -132t-81.5 -329q0 -127 54.5 -194.5t148.5 -67.5q87 0 156 62.5t106 169.5
t37 237q0 120 -54.5 187t-146.5 67zM926 1284q-40 0 -70 7t-46.5 16t-45.5 28q-45 30 -66.5 40.5t-42.5 10.5q-33 0 -56 -28t-24 -78h-165q-35 148 37 245t196 97q47 0 76.5 -10.5t62.5 -32.5l19.5 -13t18.5 -12t15.5 -9.5t15.5 -9l13 -6.5t13.5 -5.5t12.5 -2.5t13 -1
q67 0 70 96h172q40 -148 -23.5 -240t-195.5 -92zM1165 1686h-643l43 245h643z" />
    <glyph glyph-name="otildemacron" unicode="&#x22d;" horiz-adv-x="1099" 
d="M600 969q204 0 321 -110t117 -310q0 -91 -20.5 -175t-64 -157t-105.5 -126.5t-150.5 -84.5t-193.5 -31q-197 0 -320 104t-123 298q0 120 33.5 225t98 188t169.5 131t238 48zM582 727q-88 0 -139.5 -98t-51.5 -250q0 -84 33.5 -127t93.5 -43q91 0 142 95.5t51 250.5
q0 85 -33.5 128.5t-95.5 43.5zM795 1018q-40 0 -70 7t-46.5 16t-45.5 28q-45 30 -66 40.5t-43 10.5q-33 0 -56 -28t-24 -78h-165q-35 148 37 245t196 97q47 0 76.5 -10.5t62.5 -32.5q8 -5 22.5 -14.5t20.5 -13.5t17 -10.5t17 -9.5t14.5 -6.5t15.5 -4.5t14 -1q67 0 70 97h172
q40 -148 -23.5 -240t-195.5 -92zM1012 1432h-625l45 245h625z" />
    <glyph glyph-name="Odotabove" unicode="&#x22e;" horiz-adv-x="1318" 
d="M608 -25q-244 0 -375 134.5t-131 369.5q0 172 51 315.5t138 238t203 146.5t247 52q246 0 376 -134t130 -372q0 -172 -51 -315t-138.5 -237.5t-203.5 -146t-246 -51.5zM721 961q-138 0 -219.5 -132t-81.5 -329q0 -127 54.5 -194.5t148.5 -67.5q87 0 156 62.5t106 169.5
t37 237q0 120 -54.5 187t-146.5 67zM629 1501q0 83 50.5 126.5t129.5 43.5q83 0 134.5 -43.5t51.5 -126.5q0 -81 -51.5 -124.5t-134.5 -43.5q-79 0 -129.5 44t-50.5 124z" />
    <glyph glyph-name="odotabove" unicode="&#x22f;" horiz-adv-x="1099" 
d="M600 969q204 0 321 -110t117 -310q0 -91 -20.5 -175t-64 -157t-105.5 -126.5t-150.5 -84.5t-193.5 -31q-197 0 -320 104t-123 298q0 120 33.5 225t98 188t169.5 131t238 48zM582 727q-88 0 -139.5 -98t-51.5 -250q0 -84 33.5 -127t93.5 -43q91 0 142 95.5t51 250.5
q0 85 -33.5 128.5t-95.5 43.5zM524 1219q0 82 51.5 126t129.5 44q85 0 135.5 -43t50.5 -127q0 -81 -51 -124.5t-135 -43.5q-78 0 -129.5 44t-51.5 124z" />
    <glyph glyph-name="odotabovemacron" unicode="&#x231;" horiz-adv-x="1099" 
d="M600 969q204 0 321 -110t117 -310q0 -91 -20.5 -175t-64 -157t-105.5 -126.5t-150.5 -84.5t-193.5 -31q-197 0 -320 104t-123 298q0 120 33.5 225t98 188t169.5 131t238 48zM582 727q-88 0 -139.5 -98t-51.5 -250q0 -84 33.5 -127t93.5 -43q91 0 142 95.5t51 250.5
q0 85 -33.5 128.5t-95.5 43.5zM983 1403h-625l45 246h625zM455 1178q0 82 51 126t129 44q85 0 135.5 -43t50.5 -127q0 -81 -51 -124.5t-135 -43.5q-77 0 -128.5 44t-51.5 124z" />
    <glyph glyph-name="odotabovemacron" unicode="&#xe11e;" horiz-adv-x="1099" 
d="M600 969q204 0 321 -110t117 -310q0 -91 -20.5 -175t-64 -157t-105.5 -126.5t-150.5 -84.5t-193.5 -31q-197 0 -320 104t-123 298q0 120 33.5 225t98 188t169.5 131t238 48zM582 727q-88 0 -139.5 -98t-51.5 -250q0 -84 33.5 -127t93.5 -43q91 0 142 95.5t51 250.5
q0 85 -33.5 128.5t-95.5 43.5zM983 1403h-625l45 246h625zM455 1178q0 82 51 126t129 44q85 0 135.5 -43t50.5 -127q0 -81 -51 -124.5t-135 -43.5q-77 0 -128.5 44t-51.5 124z" />
    <glyph glyph-name="Ymacron" unicode="&#x232;" horiz-adv-x="1136" 
d="M461 1206l78 -256q23 -75 36 -153.5t15 -120.5l2 -41h8q5 17 14.5 46.5t48.5 112.5t87 156l170 256h329l-532 -823l-66 -383h-311l66 383l-273 823h328zM1047 1354h-644l43 245h644z" />
    <glyph glyph-name="ymacron" unicode="&#x233;" horiz-adv-x="989" 
d="M393 946l37 -459q5 -83 4 -144t-4 -95l-4 -35h8q30 156 98 285l238 448h322l-578 -1032q-59 -108 -117 -178.5t-118.5 -106t-116 -48.5t-127.5 -13q-122 0 -199 41l90 252q55 -41 119 -41q117 0 188 127l-157 999h317zM903 1092h-624l45 245h624z" />
    <glyph glyph-name="dotlessj" unicode="&#x237;" horiz-adv-x="530" 
d="M510 946l-186 -1067q-30 -171 -124.5 -241t-265.5 -70q-149 0 -251 57l81 223q63 -53 136 -53q54 0 82.5 30.5t42.5 117.5l176 1003h309z" />
    <glyph glyph-name="schwa" unicode="&#x259;" horiz-adv-x="1048" 
d="M535 735q-52 0 -88 -31.5t-50 -87.5l-291 70q102 283 453 283q201 0 314.5 -109t113.5 -293q0 -140 -43 -254t-116.5 -187t-167 -112t-197.5 -39q-194 0 -298 100t-104 244q0 123 41 203h551q14 91 -16 152t-102 61zM629 362h-252q-4 -24 -4 -43q0 -120 102 -120
q58 0 96.5 45.5t57.5 117.5z" />
    <glyph glyph-name="ezh" unicode="&#x292;" horiz-adv-x="878" 
d="M229 465l86 96q40 44 80 81.5t60 53.5l20 15v8q-60 -10 -160 -10h-221l41 237h744l-33 -188l-344 -334l-2 -6q260 -50 260 -332q0 -77 -25.5 -142.5t-70 -112t-105 -79.5t-130 -49t-144.5 -16q-190 0 -280.5 72t-106.5 214l270 111q-10 -83 29 -125.5t112 -42.5
q66 0 109 40.5t43 111.5q0 40 -8.5 69t-33.5 61t-81 53.5t-141 31.5z" />
    <glyph glyph-name="circumflex" unicode="&#x2c6;" horiz-adv-x="1087" 
d="M504 1403h194l226 -334h-269l-51 66q-14 18 -20.5 34t-5.5 23v6h-11q-4 -22 -51 -63l-72 -66h-280z" />
    <glyph glyph-name="caron" unicode="&#x2c7;" horiz-adv-x="1087" 
d="M584 1069h-195l-225 334h268l51 -66q14 -18 20.5 -34t6.5 -23v-6h10q4 22 51 63l72 66h281z" />
    <glyph glyph-name="breve" unicode="&#x2d8;" horiz-adv-x="970" 
d="M430 1061q-83 0 -141 26.5t-85.5 72t-37 106.5t5.5 129h223q-12 -62 1.5 -90.5t70.5 -28.5t81 28.5t36 90.5h223q-27 -148 -121.5 -241t-255.5 -93z" />
    <glyph glyph-name="dotaccent" unicode="&#x2d9;" horiz-adv-x="694" 
d="M164 1219q0 82 51 126t129 44q85 0 135.5 -43t50.5 -127q0 -81 -51 -124.5t-135 -43.5q-77 0 -128.5 44t-51.5 124z" />
    <glyph glyph-name="ring" unicode="&#x2da;" horiz-adv-x="800" 
d="M164 1243q0 105 71.5 178.5t186.5 73.5q96 0 155.5 -60.5t59.5 -150.5q0 -109 -70.5 -182.5t-181.5 -73.5q-107 0 -164 59.5t-57 155.5zM412 1360q-44 0 -71.5 -31.5t-27.5 -77.5q0 -37 21 -59.5t59 -22.5q47 0 74 32t27 79q0 35 -21.5 57.5t-60.5 22.5z" />
    <glyph glyph-name="ogonek" unicode="&#x2db;" horiz-adv-x="819" 
d="M164 -217q0 61 23.5 115.5t63.5 93.5t91 68t106.5 43.5t110.5 15.5l64 -119q-103 0 -160 -44.5t-57 -115.5q0 -37 18.5 -56.5t52.5 -19.5q33 0 59.5 11t59.5 41l59 -156q-92 -92 -245 -92q-108 0 -177 52.5t-69 162.5z" />
    <glyph glyph-name="tilde" unicode="&#x2dc;" horiz-adv-x="1091" 
d="M692 1063q-40 0 -70 7t-46.5 16t-45.5 28q-32 21 -46 29.5t-30.5 15t-31.5 6.5q-33 0 -56 -28t-24 -78h-166q-35 148 37.5 245t196.5 97q47 0 76.5 -10.5t62.5 -32.5q8 -5 22.5 -14.5t20.5 -13.5t17 -10.5t17 -9.5t14.5 -6.5t15.5 -4.5t14 -1q66 0 69 97h172
q40 -148 -23.5 -240t-195.5 -92z" />
    <glyph glyph-name="hungarumlaut" unicode="&#x2dd;" horiz-adv-x="1155" 
d="M377 1075h-213l100 320h311zM752 1075h-236l141 320h334z" />
    <glyph glyph-name="uni0312" unicode="&#x312;" horiz-adv-x="751" 
d="M164 1499q0 124 92 188t242 64v-98q-166 -4 -166 -76q62 10 104.5 -21t42.5 -98q0 -69 -42 -105t-107 -36q-77 0 -121.5 48t-44.5 134z" />
    <glyph glyph-name="uni0320" unicode="&#x320;" horiz-adv-x="997" 
d="M788 -401h-624l45 245h625z" />
    <glyph glyph-name="uni0323" unicode="&#x323;" horiz-adv-x="694" 
d="M164 -264q0 83 50.5 126.5t129.5 43.5q83 0 134.5 -43.5t51.5 -126.5q0 -81 -51.5 -124.5t-134.5 -43.5q-79 0 -129.5 44t-50.5 124z" />
    <glyph glyph-name="uni0329" unicode="&#x329;" horiz-adv-x="630" 
d="M164 -449v369h303v-346z" />
    <glyph glyph-name="pi" unicode="&#x3c0;" horiz-adv-x="1431" 
d="M391 985h1000l-39 -225h-197l-86 -475q-9 -50 5.5 -70t47.5 -20q35 0 60.5 23t64.5 81l103 -162q-99 -162 -316 -162q-156 0 -219.5 82.5t-32.5 253.5l82 449h-170l-233 -760h-309l239 760h-22q-106 0 -113 -115h-225q11 176 93 258t267 82z" />
    <glyph glyph-name="pi" unicode="&#x3d6;" horiz-adv-x="1431" 
d="M391 985h1000l-39 -225h-197l-86 -475q-9 -50 5.5 -70t47.5 -20q35 0 60.5 23t64.5 81l103 -162q-99 -162 -316 -162q-156 0 -219.5 82.5t-32.5 253.5l82 449h-170l-233 -760h-309l239 760h-22q-106 0 -113 -115h-225q11 176 93 258t267 82z" />
    <glyph glyph-name="uni0E3F" unicode="&#xe3f;" horiz-adv-x="1163" 
d="M838 508v-10q104 -9 158.5 -63t54.5 -150q0 -69 -20.5 -119t-56.5 -82t-92 -51t-118.5 -26t-145.5 -7h-59l-37 -217h-102l37 217h-396l172 985h398l35 191h102l-35 -191q180 0 264 -51t84 -180q0 -111 -64.5 -173t-178.5 -73zM662 412h-29l-37 -201h22q65 0 104.5 30
t39.5 81q0 46 -23.5 68t-76.5 22zM469 575h90l35 205h-90zM440 412l-34 -201h88l36 201h-90zM780 694q0 81 -84 86l-34 -205q53 0 85.5 32.5t32.5 86.5z" />
    <glyph glyph-name="Ddotbelow" unicode="&#x1e0c;" horiz-adv-x="1298" 
d="M418 260h108q170 0 273.5 113.5t103.5 322.5q0 250 -270 250h-94zM489 0h-428l211 1206h418q537 0 537 -479q0 -154 -38 -277t-104.5 -206.5t-160.5 -139t-202 -80t-233 -24.5zM264 -264q0 83 50.5 126.5t129.5 43.5q83 0 135 -43.5t52 -126.5q0 -80 -52 -124t-135 -44
q-79 0 -129.5 44t-50.5 124z" />
    <glyph glyph-name="ddotbelow" unicode="&#x1e0d;" horiz-adv-x="1179" 
d="M680 393l29 158q31 188 -107 188q-70 0 -121 -54.5t-73.5 -134t-22.5 -171.5q0 -77 30 -126.5t89 -49.5q142 0 176 190zM1159 1368l-180 -1046q-7 -39 4 -61.5t53 -22.5q20 0 62 10l-49 -232q-83 -26 -162 -26q-111 0 -167.5 39.5t-68.5 130.5q-31 -94 -105.5 -139.5
t-170.5 -45.5q-154 0 -234 103t-80 284q0 165 52 301t157.5 221t247.5 85q100 0 163 -44.5t69 -136.5l100 580h309zM262 -264q0 83 50.5 126.5t129.5 43.5q83 0 135 -43.5t52 -126.5q0 -80 -52 -124t-135 -44q-79 0 -129.5 44t-50.5 124z" />
    <glyph glyph-name="Dcedilla" unicode="&#x1e10;" horiz-adv-x="1298" 
d="M670 -238q0 -94 -68.5 -144t-175.5 -50q-74 0 -134.5 20.5t-90.5 53.5l53 137q64 -70 129 -70q63 0 63 49q0 58 -86 78l66 164h-365l211 1206h418q537 0 537 -479q0 -149 -35 -269t-96.5 -202t-149.5 -138t-188.5 -84t-218.5 -34l-31 -72q84 -12 123 -50t39 -116z
M418 260h108q170 0 273.5 113.5t103.5 322.5q0 250 -270 250h-94z" />
    <glyph glyph-name="dcedilla" unicode="&#x1e11;" horiz-adv-x="1179" 
d="M668 -238q0 -94 -68.5 -144t-175.5 -50q-74 0 -134.5 20.5t-90.5 53.5l53 137q64 -70 129 -70q63 0 63 49q0 58 -86 78l58 141q-7 0 -20.5 -1t-20.5 -1q-154 0 -234 103t-80 284q0 165 52 301t157.5 221t247.5 85q38 0 88 -11q135 -34 144 -170l100 580h309l-180 -1046
q-7 -39 4 -61.5t53 -22.5q20 0 62 10l-49 -232q-83 -26 -162 -26q-110 0 -167 40t-69 130q-33 -94 -106 -142l-39 -90q84 -12 123 -50t39 -116zM680 393l29 158q6 50 3 91.5t-31.5 69t-78.5 27.5q-70 0 -121 -54.5t-73.5 -134t-22.5 -171.5q0 -77 30 -126.5t89 -49.5
q142 0 176 190z" />
    <glyph glyph-name="Hdotbelow" unicode="&#x1e24;" horiz-adv-x="1339" 
d="M373 0h-312l211 1206h312l-80 -461h424l80 461h311l-211 -1206h-311l84 479h-424zM354 -264q0 83 51 126.5t130 43.5q83 0 134.5 -43.5t51.5 -126.5q0 -81 -51.5 -124.5t-134.5 -43.5q-79 0 -130 44t-51 124z" />
    <glyph glyph-name="hdotbelow" unicode="&#x1e25;" horiz-adv-x="1177" 
d="M1040 647l-53 -325q-7 -39 4 -61.5t53 -22.5q20 0 62 10l-49 -232q-83 -26 -162 -26q-276 0 -229 276l51 295q25 156 -96 156q-58 0 -100 -53t-62 -162l-88 -502h-310l240 1368h311l-108 -614q46 109 115.5 162t183.5 53q112 0 178 -66.5t66 -175.5q0 -36 -7 -80z
M313 -264q0 83 51 126.5t130 43.5q83 0 134.5 -43.5t51.5 -126.5q0 -81 -51.5 -124.5t-134.5 -43.5q-79 0 -130 44t-51 124z" />
    <glyph glyph-name="Ldotbelow" unicode="&#x1e36;" horiz-adv-x="966" 
d="M272 1206h312l-166 -940h446l-45 -266h-758zM205 -264q0 83 50.5 126.5t129.5 43.5q83 0 134.5 -43.5t51.5 -126.5q0 -81 -51.5 -124.5t-134.5 -43.5q-79 0 -129.5 44t-50.5 124z" />
    <glyph glyph-name="ldotbelow" unicode="&#x1e37;" horiz-adv-x="606" 
d="M586 1368l-185 -1046q-7 -39 4.5 -61.5t53.5 -22.5q19 0 61 10l-49 -232q-83 -26 -162 -26q-276 0 -229 276l196 1102h310zM31 -264q0 83 50.5 126.5t129.5 43.5q83 0 134.5 -43.5t51.5 -126.5q0 -81 -51.5 -124.5t-134.5 -43.5q-79 0 -129.5 44t-50.5 124z" />
    <glyph glyph-name="uni004C032300AF" unicode="&#x1e38;" horiz-adv-x="966" 
d="M272 1206h312l-166 -940h446l-45 -266h-758zM205 -264q0 83 50.5 126.5t129.5 43.5q83 0 134.5 -43.5t51.5 -126.5q0 -81 -51.5 -124.5t-134.5 -43.5q-79 0 -129.5 44t-50.5 124zM778 1354h-643l43 245h643z" />
    <glyph glyph-name="ldotbelowmacron" unicode="&#x1e39;" horiz-adv-x="606" 
d="M586 1368l-185 -1046q-7 -39 4.5 -61.5t53.5 -22.5q19 0 61 10l-49 -232q-83 -26 -162 -26q-276 0 -229 276l196 1102h310zM31 -264q0 83 50.5 126.5t129.5 43.5q83 0 134.5 -43.5t51.5 -126.5q0 -81 -51.5 -124.5t-134.5 -43.5q-79 0 -129.5 44t-50.5 124zM768 1481
h-643l43 245h643z" />
    <glyph glyph-name="Mdotbelow" unicode="&#x1e42;" horiz-adv-x="1513" 
d="M791 272h-136l-102 230q-18 41 -34.5 89.5t-24.5 76.5l-7 28h-8q1 -82 -22 -217l-84 -479h-312l211 1206h303l144 -356q23 -57 38 -107t19 -71l4 -21h8q29 70 127 199l275 356h303l-211 -1206h-311l84 479q10 60 22 114.5t19 78.5l6 24h-8q-45 -102 -119 -194zM432 -264
q0 83 50.5 126.5t129.5 43.5q83 0 135 -43.5t52 -126.5q0 -80 -52 -124t-135 -44q-79 0 -129.5 44t-50.5 124z" />
    <glyph glyph-name="mdotbelow" unicode="&#x1e43;" horiz-adv-x="1685" 
d="M909 0h-313l96 561q25 156 -84 156q-63 0 -95.5 -49.5t-53.5 -165.5l-88 -502h-310l166 946h271l4 -192q42 111 105 163t173 52q117 0 178.5 -58.5t61.5 -167.5q66 226 293 226q115 0 178 -65.5t63 -176.5q0 -43 -6 -80l-53 -325q-7 -39 4 -61.5t53 -22.5q20 0 62 10
l-49 -232q-83 -26 -162 -26q-276 0 -229 276l51 295q25 156 -84 156q-63 0 -97 -50t-53 -165zM524 -264q0 83 51 126.5t130 43.5q83 0 134.5 -43.5t51.5 -126.5q0 -81 -51.5 -124.5t-134.5 -43.5q-79 0 -130 44t-51 124z" />
    <glyph glyph-name="Ndotaccent" unicode="&#x1e44;" horiz-adv-x="1349" 
d="M557 1206l268 -536q21 -40 38.5 -84.5t24.5 -69.5l7 -24h8q8 108 35 262l80 452h311l-211 -1206h-274l-275 522q-24 46 -44 95.5t-28 75.5l-8 26h-8q-2 -103 -35 -281l-73 -438h-312l211 1206h285zM649 1501q0 83 50.5 126.5t129.5 43.5q83 0 135 -43.5t52 -126.5
q0 -80 -52 -124t-135 -44q-79 0 -129.5 44t-50.5 124z" />
    <glyph glyph-name="ndotaccent" unicode="&#x1e45;" horiz-adv-x="1177" 
d="M1040 647l-53 -325q-7 -39 4 -61.5t53 -22.5q20 0 62 10l-49 -232q-83 -26 -162 -26q-276 0 -229 276l51 295q25 156 -96 156q-58 0 -100 -53t-62 -162l-88 -502h-310l166 946h271l4 -192q46 109 116.5 162t184.5 53q112 0 178 -66.5t66 -175.5q0 -36 -7 -80zM516 1219
q0 82 51 126t129 44q85 0 136 -43.5t51 -126.5q0 -81 -51.5 -124.5t-135.5 -43.5q-77 0 -128.5 44t-51.5 124z" />
    <glyph glyph-name="Ndotbelow" unicode="&#x1e46;" horiz-adv-x="1349" 
d="M557 1206l268 -536q21 -40 38.5 -84.5t24.5 -69.5l7 -24h8q8 108 35 262l80 452h311l-211 -1206h-274l-275 522q-24 46 -44 95.5t-28 75.5l-8 26h-8q-2 -103 -35 -281l-73 -438h-312l211 1206h285zM338 -264q0 83 50.5 126.5t129.5 43.5q83 0 135 -43.5t52 -126.5
q0 -80 -52 -124t-135 -44q-79 0 -129.5 44t-50.5 124z" />
    <glyph glyph-name="ndotbelow" unicode="&#x1e47;" horiz-adv-x="1177" 
d="M1040 647l-53 -325q-7 -39 4 -61.5t53 -22.5q20 0 62 10l-49 -232q-83 -26 -162 -26q-276 0 -229 276l51 295q25 156 -96 156q-58 0 -100 -53t-62 -162l-88 -502h-310l166 946h271l4 -192q46 109 116.5 162t184.5 53q112 0 178 -66.5t66 -175.5q0 -36 -7 -80zM254 -264
q0 83 50.5 126.5t129.5 43.5q83 0 135 -43.5t52 -126.5q0 -80 -52 -124t-135 -44q-79 0 -129.5 44t-50.5 124z" />
    <glyph glyph-name="Rdotbelow" unicode="&#x1e5a;" horiz-adv-x="1220" 
d="M1090 0h-338q-41 34 -56 129l-26 170q-10 64 -35 84t-90 20h-103l-69 -403h-312l211 1206h473q205 0 304.5 -74t99.5 -247q0 -86 -26 -153.5t-71 -109t-99 -65.5t-117 -31v-8q81 -13 116 -49.5t49 -116.5l37 -221q15 -86 52 -131zM539 946l-52 -287h160q81 0 131.5 40.5
t50.5 129.5q0 117 -139 117h-151zM301 -264q0 83 50.5 126.5t129.5 43.5q83 0 135 -43.5t52 -126.5q0 -80 -52 -124t-135 -44q-79 0 -129.5 44t-50.5 124z" />
    <glyph glyph-name="rdotbelow" unicode="&#x1e5b;" horiz-adv-x="825" 
d="M877 961l-72 -359q-52 28 -107.5 35t-106.5 -6.5t-89 -59t-51 -116.5l-80 -455h-310l166 946h271l-6 -260q50 149 157.5 228t227.5 47zM-2 -264q0 83 50.5 126.5t129.5 43.5q83 0 135 -43.5t52 -126.5q0 -80 -52 -124t-135 -44q-79 0 -129.5 44t-50.5 124z" />
    <glyph glyph-name="Rdotbelowmacron" unicode="&#x1e5c;" horiz-adv-x="1220" 
d="M1090 0h-338q-41 34 -56 129l-26 170q-10 64 -35 84t-90 20h-103l-69 -403h-312l211 1206h473q205 0 304.5 -74t99.5 -247q0 -86 -26 -153.5t-71 -109t-99 -65.5t-117 -31v-8q81 -13 116 -49.5t49 -116.5l37 -221q15 -86 52 -131zM539 946l-52 -287h160q81 0 131.5 40.5
t50.5 129.5q0 117 -139 117h-151zM301 -264q0 83 50.5 126.5t129.5 43.5q83 0 135 -43.5t52 -126.5q0 -80 -52 -124t-135 -44q-79 0 -129.5 44t-50.5 124zM1030 1354h-643l43 245h643z" />
    <glyph glyph-name="rdotbelowmacron" unicode="&#x1e5d;" horiz-adv-x="825" 
d="M877 961l-72 -359q-52 28 -107.5 35t-106.5 -6.5t-89 -59t-51 -116.5l-80 -455h-310l166 946h271l-6 -260q50 149 157.5 228t227.5 47zM860 1092h-624l45 245h624zM-2 -264q0 83 50.5 126.5t129.5 43.5q83 0 135 -43.5t52 -126.5q0 -80 -52 -124t-135 -44
q-79 0 -129.5 44t-50.5 124z" />
    <glyph glyph-name="Sdotbelow" unicode="&#x1e62;" horiz-adv-x="1081" 
d="M20 281l281 112q2 -84 51.5 -137t132.5 -53q160 0 160 116q0 53 -34.5 84.5t-123.5 59.5q-176 53 -246.5 141t-70.5 227q0 85 27 154.5t72 114.5t106.5 75t126.5 43t135 13q404 0 424 -336l-303 -59q4 70 -37.5 106.5t-108.5 36.5q-139 0 -139 -115q0 -46 35 -73t133 -58
q173 -56 245 -138.5t72 -229.5q0 -107 -40.5 -185.5t-112.5 -121.5t-158.5 -63t-191.5 -20q-186 0 -301.5 75t-133.5 231zM205 -264q0 83 50.5 126.5t129.5 43.5q83 0 134.5 -43.5t51.5 -126.5q0 -81 -51.5 -124.5t-134.5 -43.5q-79 0 -129.5 44t-50.5 124z" />
    <glyph glyph-name="sdotbelow" unicode="&#x1e63;" horiz-adv-x="917" 
d="M0 240l250 94q6 -74 47.5 -114t105.5 -40q109 0 109 74q0 37 -28 59.5t-103 42.5q-133 35 -194.5 105.5t-61.5 183.5q0 83 32 146.5t89 101.5t129.5 57t159.5 19q182 0 277 -71t95 -198l-256 -63q0 61 -35 95t-100 34q-44 0 -71 -20.5t-27 -53.5q0 -32 28 -50.5
t121 -47.5q141 -44 196.5 -111.5t55.5 -195.5q0 -159 -117 -235.5t-313 -76.5q-357 0 -389 265zM150 -264q0 83 50.5 126.5t129.5 43.5q83 0 134.5 -43.5t51.5 -126.5q0 -81 -51.5 -124.5t-134.5 -43.5q-79 0 -129.5 44t-50.5 124z" />
    <glyph glyph-name="Tdotbelow" unicode="&#x1e6c;" horiz-adv-x="1046" 
d="M590 0h-309l163 940h-321l47 266h958l-47 -266h-327zM211 -264q0 83 50.5 126.5t129.5 43.5q83 0 135 -43.5t52 -126.5q0 -80 -52 -124t-135 -44q-79 0 -129.5 44t-50.5 124z" />
    <glyph glyph-name="tdotbelow" unicode="&#x1e6d;" horiz-adv-x="763" 
d="M657 291v-256q-45 -27 -118 -43.5t-150 -16.5q-342 0 -278 365l65 373h-135l41 233h137l35 201l313 35l-39 -236h246l-41 -233h-246l-65 -367q-10 -56 10.5 -79t67.5 -23q76 0 157 47zM135 -264q0 83 50.5 126.5t129.5 43.5q83 0 135 -43.5t52 -126.5q0 -80 -52 -124
t-135 -44q-79 0 -129.5 44t-50.5 124z" />
    <glyph glyph-name="Wgrave" unicode="&#x1e80;" horiz-adv-x="1794" 
d="M1206 1206l25 -633q3 -75 0 -161.5t-7 -135.5l-5 -49h8q45 182 104 344l230 635h325l-461 -1206h-442l-35 557q-4 70 -4 151t2 127l2 46h-8q-28 -160 -94 -326l-219 -555h-424l-39 1206h317l15 -633q2 -75 -1 -161.5t-7 -135.5l-3 -49h9q41 180 102 344l240 635h370z
M1169 1321h-278l-232 307h377z" />
    <glyph glyph-name="wgrave" unicode="&#x1e81;" horiz-adv-x="1470" 
d="M944 946l25 -356q9 -98 7 -180t-8 -136l-7 -53h8q34 175 112 365l146 360h325l-409 -946h-361l-37 301q-4 75 -2 143t7 116l4 48h-9q-35 -162 -96 -309l-117 -299h-358l-92 946h311l27 -360q6 -84 6 -175.5t-3 -140.5l-3 -49h8q33 179 111 369l143 356h262zM983 1075
h-278l-240 320h377z" />
    <glyph glyph-name="Wacute" unicode="&#x1e82;" horiz-adv-x="1794" 
d="M1206 1206l25 -633q3 -75 0 -161.5t-7 -135.5l-5 -49h8q45 182 104 344l230 635h325l-461 -1206h-442l-35 557q-4 70 -4 151t2 127l2 46h-8q-28 -160 -94 -326l-219 -555h-424l-39 1206h317l15 -633q2 -75 -1 -161.5t-7 -135.5l-3 -49h9q41 180 102 344l240 635h370z
M1141 1321h-279l133 307h377z" />
    <glyph glyph-name="wacute" unicode="&#x1e83;" horiz-adv-x="1470" 
d="M944 946l25 -356q9 -98 7 -180t-8 -136l-7 -53h8q34 175 112 365l146 360h325l-409 -946h-361l-37 301q-4 75 -2 143t7 116l4 48h-9q-35 -162 -96 -309l-117 -299h-358l-92 946h311l27 -360q6 -84 6 -175.5t-3 -140.5l-3 -49h8q33 179 111 369l143 356h262zM961 1075
h-279l141 320h377z" />
    <glyph glyph-name="Wdieresis" unicode="&#x1e84;" horiz-adv-x="1794" 
d="M1206 1206l25 -633q3 -75 0 -161.5t-7 -135.5l-5 -49h8q45 182 104 344l230 635h325l-461 -1206h-442l-35 557q-4 70 -4 151t2 127l2 46h-8q-28 -160 -94 -326l-219 -555h-424l-39 1206h317l15 -633q2 -75 -1 -161.5t-7 -135.5l-3 -49h9q41 180 102 344l240 635h370z
M637 1487q0 81 46 123.5t116 42.5q75 0 121.5 -42t46.5 -124q0 -79 -46.5 -121.5t-121.5 -42.5q-70 0 -116 43t-46 121zM1098 1487q0 81 46 123.5t116 42.5q75 0 121 -42t46 -124q0 -79 -46 -121.5t-121 -42.5q-70 0 -116 43t-46 121z" />
    <glyph glyph-name="wdieresis" unicode="&#x1e85;" horiz-adv-x="1470" 
d="M944 946l25 -356q9 -98 7 -180t-8 -136l-7 -53h8q34 175 112 365l146 360h325l-409 -946h-361l-37 301q-4 75 -2 143t7 116l4 48h-9q-35 -162 -96 -309l-117 -299h-358l-92 946h311l27 -360q6 -84 6 -175.5t-3 -140.5l-3 -49h8q33 179 111 369l143 356h262zM455 1221
q0 81 45.5 123t115.5 42q76 0 122 -42t46 -123q0 -79 -46.5 -121.5t-121.5 -42.5q-70 0 -115.5 43t-45.5 121zM915 1221q0 81 46 123t116 42q76 0 122 -42t46 -123q0 -79 -46.5 -121.5t-121.5 -42.5q-70 0 -116 43t-46 121z" />
    <glyph glyph-name="Idotbelow" unicode="&#x1eca;" horiz-adv-x="604" 
d="M272 1206h312l-211 -1206h-312zM-14 -264q0 83 50.5 126.5t129.5 43.5q83 0 134.5 -43.5t51.5 -126.5q0 -81 -51.5 -124.5t-134.5 -43.5q-79 0 -129.5 44t-50.5 124z" />
    <glyph glyph-name="idotbelow" unicode="&#x1ecb;" horiz-adv-x="600" 
d="M510 946l-109 -624q-7 -39 4.5 -61.5t53.5 -22.5q19 0 61 10l-49 -232q-83 -26 -162 -26q-276 0 -229 276l121 680h309zM213 1231q0 82 51 126t129 44q83 0 135 -43.5t52 -126.5q0 -80 -52 -124t-135 -44q-77 0 -128.5 44t-51.5 124zM-25 -264q0 83 51 126.5t130 43.5
q83 0 134.5 -43.5t51.5 -126.5q0 -81 -51.5 -124.5t-134.5 -43.5q-79 0 -130 44t-51 124z" />
    <glyph glyph-name="Odotbelow" unicode="&#x1ecc;" horiz-adv-x="1318" 
d="M608 -25q-244 0 -375 134.5t-131 369.5q0 172 51 315.5t138 238t203 146.5t247 52q246 0 376 -134t130 -372q0 -172 -51 -315t-138.5 -237.5t-203.5 -146t-246 -51.5zM721 961q-138 0 -219.5 -132t-81.5 -329q0 -127 54.5 -194.5t148.5 -67.5q87 0 156 62.5t106 169.5
t37 237q0 120 -54.5 187t-146.5 67zM317 -264q0 83 51 126.5t130 43.5q83 0 134.5 -43.5t51.5 -126.5q0 -81 -51.5 -124.5t-134.5 -43.5q-79 0 -130 44t-51 124z" />
    <glyph glyph-name="odotbelow" unicode="&#x1ecd;" horiz-adv-x="1099" 
d="M600 969q204 0 321 -110t117 -310q0 -91 -20.5 -175t-64 -157t-105.5 -126.5t-150.5 -84.5t-193.5 -31q-197 0 -320 104t-123 298q0 120 33.5 225t98 188t169.5 131t238 48zM582 727q-88 0 -139.5 -98t-51.5 -250q0 -84 33.5 -127t93.5 -43q91 0 142 95.5t51 250.5
q0 85 -33.5 128.5t-95.5 43.5zM205 -264q0 83 50.5 126.5t129.5 43.5q83 0 134.5 -43.5t51.5 -126.5q0 -81 -51.5 -124.5t-134.5 -43.5q-79 0 -129.5 44t-50.5 124z" />
    <glyph glyph-name="Udotbelow" unicode="&#x1ee4;" horiz-adv-x="1265" 
d="M954 1206h312l-138 -778q-22 -129 -71.5 -218t-125 -140t-166.5 -73t-210 -22q-72 0 -134 11t-119 35t-97 63t-68 94.5t-32.5 129.5t10.5 169l129 729h311l-129 -712q-22 -129 13.5 -196t160.5 -67q51 0 88 13.5t59.5 33.5t39 58t24.5 71.5t18 90.5zM303 -264
q0 83 50.5 126.5t129.5 43.5q83 0 135 -43.5t52 -126.5q0 -80 -52 -124t-135 -44q-79 0 -129.5 44t-50.5 124z" />
    <glyph glyph-name="udotbelow" unicode="&#x1ee5;" 
d="M672 182q-44 -107 -120 -157t-196 -50q-153 0 -224 96.5t-42 264.5l109 610h309l-107 -616q-10 -65 14 -98t77 -33q144 0 178 207l96 540h309l-108 -624q-15 -84 55 -84q19 0 61 10l-49 -232q-83 -26 -162 -26q-106 0 -154.5 47t-45.5 145zM233 -264q0 83 51 126.5
t130 43.5q83 0 134.5 -43.5t51.5 -126.5q0 -81 -51.5 -124.5t-134.5 -43.5q-79 0 -130 44t-51 124z" />
    <glyph glyph-name="Ygrave" unicode="&#x1ef2;" horiz-adv-x="1136" 
d="M461 1206l78 -256q23 -75 36 -153.5t15 -120.5l2 -41h8q5 17 14.5 46.5t48.5 112.5t87 156l170 256h329l-532 -823l-66 -383h-311l66 383l-273 823h328zM872 1321h-278l-232 307h377z" />
    <glyph glyph-name="ygrave" unicode="&#x1ef3;" horiz-adv-x="989" 
d="M393 946l37 -459q5 -83 4 -144t-4 -95l-4 -35h8q30 156 98 285l238 448h322l-578 -1032q-59 -108 -117 -178.5t-118.5 -106t-116 -48.5t-127.5 -13q-122 0 -199 41l90 252q55 -41 119 -41q117 0 188 127l-157 999h317zM735 1075h-278l-240 320h377z" />
    <glyph glyph-name="Ytilde" unicode="&#x1ef8;" horiz-adv-x="1136" 
d="M461 1206l78 -256q23 -75 36 -153.5t15 -120.5l2 -41h8q5 17 14.5 46.5t48.5 112.5t87 156l170 256h329l-532 -823l-66 -383h-311l66 383l-273 823h328zM864 1325q-40 0 -70 7t-46.5 16t-45.5 28q-32 21 -46 29.5t-30.5 15t-31.5 6.5q-33 0 -56 -28t-24 -78h-166
q-35 148 37.5 245t196.5 97q47 0 76.5 -10.5t62.5 -32.5l19.5 -13t18.5 -12t15.5 -9.5t15.5 -9l13 -6.5t13.5 -5.5t12.5 -2.5t13 -1q66 0 69 96h172q40 -148 -23.5 -240t-195.5 -92z" />
    <glyph glyph-name="ytilde" unicode="&#x1ef9;" horiz-adv-x="989" 
d="M393 946l37 -459q5 -83 4 -144t-4 -95l-4 -35h8q30 156 98 285l238 448h322l-578 -1032q-59 -108 -117 -178.5t-118.5 -106t-116 -48.5t-127.5 -13q-122 0 -199 41l90 252q55 -41 119 -41q117 0 188 127l-157 999h317zM745 1063q-40 0 -70 7.5t-45.5 15.5t-45.5 28
q-45 30 -66.5 40.5t-42.5 10.5q-33 0 -56 -28t-24 -78h-166q-35 148 37.5 245t196.5 97q47 0 76.5 -10.5t62.5 -32.5q8 -5 22.5 -14.5t20.5 -13.5t17 -10.5t17 -9.5t14.5 -6.5t15.5 -4.5t14 -1q67 0 70 97h172q40 -148 -24 -240t-196 -92z" />
    <glyph glyph-name="enspace" unicode="&#x2002;" horiz-adv-x="921" 
 />
    <glyph glyph-name="emspace" unicode="&#x2003;" horiz-adv-x="1843" 
 />
    <glyph glyph-name="threeperemspace" unicode="&#x2004;" horiz-adv-x="614" 
 />
    <glyph glyph-name="fourperemspace" unicode="&#x2005;" horiz-adv-x="460" 
 />
    <glyph glyph-name="sixperemspace" unicode="&#x2006;" horiz-adv-x="307" 
 />
    <glyph glyph-name="figurespace" unicode="&#x2007;" horiz-adv-x="1050" 
 />
    <glyph glyph-name="punctuationspace" unicode="&#x2008;" horiz-adv-x="350" 
 />
    <glyph glyph-name="thinspace" unicode="&#x2009;" horiz-adv-x="184" 
 />
    <glyph glyph-name="hairspace" unicode="&#x200a;" horiz-adv-x="92" 
 />
    <glyph glyph-name="zerowidthspace" unicode="&#x200b;" horiz-adv-x="0" 
 />
    <glyph glyph-name="figuredash" unicode="&#x2012;" horiz-adv-x="1167" 
d="M123 422l35 201h886l-34 -201h-887z" />
    <glyph glyph-name="endash" unicode="&#x2013;" horiz-adv-x="1058" 
d="M123 422l35 201h778l-35 -201h-778z" />
    <glyph glyph-name="emdash" unicode="&#x2014;" horiz-adv-x="2082" 
d="M123 422l35 201h1802l-35 -201h-1802z" />
    <glyph glyph-name="uni2015" unicode="&#x2015;" horiz-adv-x="2560" 
d="M143 422l35 201h2239l-35 -201h-2239z" />
    <glyph glyph-name="doublebar" unicode="&#x2016;" horiz-adv-x="970" 
d="M229 -416h-239l313 1784h240zM668 -416h-240l313 1784h240z" />
    <glyph glyph-name="quoteleft" unicode="&#x2018;" horiz-adv-x="524" 
d="M154 1026q0 79 25 142t67 105.5t100.5 70.5t123 40.5t136.5 12.5v-121q-108 -3 -185 -48.5t-77 -117.5q79 11 138 -27t59 -122t-53.5 -128.5t-133.5 -44.5q-93 0 -146.5 65.5t-53.5 172.5z" />
    <glyph glyph-name="quoteright" unicode="&#x2019;" horiz-adv-x="524" 
d="M565 1159q0 -79 -25 -142t-67 -105.5t-100.5 -70.5t-123 -40.5t-136.5 -12.5v121q108 3 185 48.5t77 117.5q-79 -11 -138 27.5t-59 122.5q0 83 53.5 127.5t133.5 44.5q93 0 146.5 -65.5t53.5 -172.5z" />
    <glyph glyph-name="quotesinglbase" unicode="&#x201a;" horiz-adv-x="524" 
d="M381 100q0 -98 -37.5 -171.5t-102.5 -115.5t-143.5 -62.5t-169.5 -20.5v120q108 3 185 48.5t77 117.5q-78 -11 -137 27.5t-59 122.5t53 128t133 44q93 0 147 -65.5t54 -172.5z" />
    <glyph glyph-name="reversequoteleft" unicode="&#x201b;" horiz-adv-x="489" 
d="M115 1176q0 107 53.5 172t146.5 65q80 0 133.5 -44.5t53.5 -127.5q0 -84 -59 -122t-138 -27q0 -72 77 -117.5t185 -48.5v-121q-72 0 -136.5 12.5t-123 40.5t-100.5 70.5t-67 105.5t-25 142z" />
    <glyph glyph-name="quotedblleft" unicode="&#x201c;" horiz-adv-x="1015" 
d="M154 1026q0 79 25 142t67 105.5t100.5 70.5t123 40.5t136.5 12.5v-121q-108 -3 -185 -48.5t-77 -117.5q79 11 138 -27t59 -122t-53.5 -128.5t-133.5 -44.5q-93 0 -146.5 65.5t-53.5 172.5zM645 1026q0 98 37.5 171.5t102.5 116t143.5 63t169.5 20.5v-121
q-108 -3 -185 -48.5t-77 -117.5q79 11 137.5 -27t58.5 -122t-53 -128.5t-133 -44.5q-93 0 -147 65.5t-54 172.5z" />
    <glyph glyph-name="quotedblright" unicode="&#x201d;" horiz-adv-x="1015" 
d="M565 1159q0 -79 -25 -142t-67 -105.5t-100.5 -70.5t-123 -40.5t-136.5 -12.5v121q108 3 185 48.5t77 117.5q-79 -11 -138 27.5t-59 122.5q0 83 53.5 127.5t133.5 44.5q93 0 146.5 -65.5t53.5 -172.5zM1057 1159q0 -98 -37.5 -171.5t-102.5 -116t-143.5 -63t-169.5 -20.5
v121q108 3 185 48.5t77 117.5q-78 -11 -137 27.5t-59 122.5t53 128t133 44q93 0 147 -65.5t54 -172.5z" />
    <glyph glyph-name="quotedblbase" unicode="&#x201e;" horiz-adv-x="1015" 
d="M381 96q0 -98 -37.5 -171.5t-102.5 -115.5t-143.5 -62.5t-169.5 -20.5v120q108 3 185 48.5t77 117.5q-78 -11 -137 27.5t-59 122.5t53 128t133 44q93 0 147 -65.5t54 -172.5zM872 96q0 -79 -25 -142t-67 -105t-100.5 -70t-123 -40.5t-136.5 -12.5v120q108 3 185 48.5
t77 117.5q-79 -11 -138 27.5t-59 122.5q0 83 53.5 127.5t133.5 44.5q93 0 146.5 -65.5t53.5 -172.5z" />
    <glyph glyph-name="reversequotedblleft" unicode="&#x201f;" horiz-adv-x="915" 
d="M115 1176q0 107 53.5 172t146.5 65q80 0 133.5 -44.5t53.5 -127.5q0 -84 -59 -122t-138 -27q0 -72 77 -117.5t185 -48.5v-121q-72 0 -136.5 12.5t-123 40.5t-100.5 70.5t-67 105.5t-25 142zM541 1176q0 107 53.5 172t146.5 65q80 0 133.5 -44.5t53.5 -127.5
q0 -84 -59 -122t-138 -27q0 -72 77 -117.5t185 -48.5v-121q-72 0 -136.5 12.5t-123 40.5t-100.5 70.5t-67 105.5t-25 142z" />
    <glyph glyph-name="dagger" unicode="&#x2020;" horiz-adv-x="1138" 
d="M528 498l-364 -23l49 273l354 -21l64 479h299l-105 -479l363 21l-49 -273l-355 23l-120 -805h-297z" />
    <glyph glyph-name="daggerdbl" unicode="&#x2021;" horiz-adv-x="1140" 
d="M803 600l-45 -262l362 20l-47 -272l-356 23l-53 -416h-295l96 416l-369 -23l47 272l359 -20l45 262l-365 -22l49 274l357 -23l45 377h297l-86 -377l364 23l-49 -274z" />
    <glyph glyph-name="bullet" unicode="&#x2022;" horiz-adv-x="765" 
d="M113 537q0 107 78.5 185.5t185.5 78.5q109 0 187.5 -78.5t78.5 -185.5q0 -109 -78.5 -188t-187.5 -79q-107 0 -185.5 79t-78.5 188z" />
    <glyph glyph-name="ellipsis" unicode="&#x2026;" horiz-adv-x="1806" 
d="M61 174q0 82 54 137.5t131 55.5q83 0 137.5 -55t54.5 -138q0 -77 -55 -130.5t-137 -53.5q-77 0 -131 54t-54 130zM664 174q0 83 53.5 138t130.5 55q83 0 137.5 -55t54.5 -138q0 -77 -55 -130.5t-137 -53.5q-76 0 -130 54t-54 130zM1266 174q0 83 53.5 138t130.5 55
q83 0 137.5 -55t54.5 -138q0 -77 -55 -130.5t-137 -53.5q-76 0 -130 54t-54 130z" />
    <glyph glyph-name="perthousand" unicode="&#x2030;" horiz-adv-x="2603" 
d="M379 469q-141 0 -209 82t-68 221q0 117 42 218.5t128 167t199 65.5q135 0 207 -86.5t72 -225.5q0 -189 -99.5 -315.5t-271.5 -126.5zM451 1032q-36 0 -63.5 -27t-41.5 -69t-20.5 -83t-6.5 -77q0 -55 21.5 -89t62.5 -34q35 0 62 27.5t41.5 69t21.5 82.5t7 75
q0 125 -84 125zM426 0l836 1206h188l-842 -1206h-182zM1393 -14q-141 0 -209 82t-68 221q0 117 42 218t128 166.5t199 65.5q135 0 206.5 -86t71.5 -225q0 -189 -99 -315.5t-271 -126.5zM1464 549q-36 0 -63 -27t-41 -69.5t-20.5 -83t-6.5 -76.5q0 -55 21.5 -89t62.5 -34
q35 0 61.5 27.5t41 69.5t21.5 82.5t7 74.5q0 125 -84 125zM2130 -14q-141 0 -209 82t-68 221q0 117 42 218t128 166.5t199 65.5q135 0 207 -86t72 -225q0 -189 -99.5 -315.5t-271.5 -126.5zM2202 549q-36 0 -63 -27t-41 -69.5t-20.5 -83t-6.5 -76.5q0 -55 21 -89t62 -34
q35 0 62 27.5t41.5 69t21.5 82.5t7 75q0 125 -84 125z" />
    <glyph glyph-name="tripleprime" unicode="&#x2034;" horiz-adv-x="1202" 
d="M164 844l92 524h291l-203 -524h-180zM543 844l92 524h291l-203 -524h-180zM922 844l92 524h291l-203 -524h-180z" />
    <glyph glyph-name="guilsinglleft" unicode="&#x2039;" horiz-adv-x="727" 
d="M326 485v-8q39 -23 86 -84l155 -200l-178 -142l-338 434l492 435l133 -150l-234 -211q-31 -27 -60 -45.5t-42 -23.5z" />
    <glyph glyph-name="guilsinglright" unicode="&#x203a;" horiz-adv-x="727" 
d="M401 485v9q-39 23 -86 84l-155 200l178 142l338 -435l-492 -434l-133 150l234 211q31 27 60 45.5t43 22.5z" />
    <glyph glyph-name="fraction" unicode="&#x2044;" horiz-adv-x="368" 
d="M-328 0l836 1206h188l-841 -1206h-183z" />
    <glyph glyph-name="uni2070" unicode="&#x2070;" horiz-adv-x="749" 
d="M328 469q-141 0 -209 82t-68 221q0 117 42 218.5t128 167t199 65.5q135 0 206.5 -86.5t71.5 -225.5q0 -189 -99 -315.5t-271 -126.5zM399 1032q-36 0 -63 -27t-41 -69t-20.5 -83t-6.5 -77q0 -55 21.5 -89t62.5 -34q35 0 61.5 27.5t41 69.5t21.5 82.5t7 74.5
q0 125 -84 125z" />
    <glyph glyph-name="uni2074" unicode="&#x2074;" horiz-adv-x="761" 
d="M342 483l23 131h-355l27 148l440 444h213l-76 -434h97l-29 -158h-96l-23 -131h-221zM397 768l21 119q5 31 14 68t15 58l6 21h-9q-26 -51 -71 -98l-72 -76q-24 -24 -52.5 -48t-45.5 -36l-17 -12v-8q49 12 117 12h94z" />
    <glyph glyph-name="uni2075" unicode="&#x2075;" horiz-adv-x="694" 
d="M86 786l90 420h488l-31 -180h-320l-34 -131q51 57 145 57q92 0 145.5 -54.5t53.5 -149.5q0 -74 -26.5 -129t-73.5 -87t-104.5 -47.5t-125.5 -15.5q-258 0 -283 178l205 70q0 -41 25 -63.5t69 -22.5q46 0 74.5 25.5t28.5 76.5q0 84 -72 84q-41 0 -72 -31h-182z" />
    <glyph glyph-name="uni2076" unicode="&#x2076;" horiz-adv-x="718" 
d="M698 1110l-168 -129q-23 66 -94 66q-61 0 -106.5 -52t-59.5 -157h9q53 100 176 100q92 0 141 -56t49 -143q0 -129 -86.5 -199.5t-228.5 -70.5q-135 0 -207 76.5t-72 204.5q0 98 24 178.5t64 134.5t93 90.5t109.5 53t115.5 16.5q90 0 147 -25.5t94 -87.5zM279 702
q0 -29 17.5 -49t53.5 -20q45 0 74 27t29 69q0 31 -18.5 51.5t-53.5 20.5q-40 0 -71 -27.5t-31 -71.5z" />
    <glyph glyph-name="uni2077" unicode="&#x2077;" horiz-adv-x="681" 
d="M420 1026h-176l-21 -113h-182l51 293h610l-28 -166l-365 -557h-254z" />
    <glyph glyph-name="uni2078" unicode="&#x2078;" horiz-adv-x="741" 
d="M334 469q-151 0 -222 53.5t-71 143.5q0 84 56.5 132t150.5 56v6q-65 14 -98 57.5t-33 98.5q0 100 84 153.5t225 53.5q134 0 204 -52.5t70 -138.5q0 -74 -46.5 -118.5t-121.5 -55.5v-6q132 -37 132 -164q0 -100 -94 -159.5t-236 -59.5zM412 1075q-40 0 -66.5 -21.5
t-26.5 -54.5q0 -27 18.5 -44t51.5 -17q42 0 69 20t27 60q0 23 -17.5 40t-55.5 17zM371 782q-51 0 -82 -23t-31 -65q0 -34 22.5 -52.5t63.5 -18.5q48 0 79.5 24.5t31.5 67.5q0 32 -23 49.5t-61 17.5z" />
    <glyph glyph-name="uni2079" unicode="&#x2079;" horiz-adv-x="700" 
d="M-20 582l167 129q10 -30 43 -48t74 -18q63 0 109 50t57 159h-8q-27 -51 -66.5 -75.5t-103.5 -24.5q-92 0 -144.5 56t-52.5 142q0 129 87 200t229 71q134 0 206 -76.5t72 -204.5q0 -122 -31.5 -215.5t-86.5 -148.5t-123 -82t-148 -27q-213 0 -280 113zM422 993
q0 29 -18 49.5t-54 20.5q-45 0 -73.5 -27t-28.5 -69q0 -31 18 -51.5t53 -20.5q41 0 72 27t31 71z" />
    <glyph glyph-name="uni207A" unicode="&#x207a;" horiz-adv-x="913" 
d="M109 930h284l47 276h148l-47 -276h290l-26 -148h-291l-53 -299h-148l54 299h-285z" />
    <glyph glyph-name="uni207B" unicode="&#x207b;" horiz-adv-x="913" 
d="M805 782h-723l27 148h722z" />
    <glyph glyph-name="uni207C" unicode="&#x207c;" horiz-adv-x="960" 
d="M805 655h-723l24 146h723zM854 934h-723l25 145h723z" />
    <glyph glyph-name="uni207D" unicode="&#x207d;" horiz-adv-x="499" 
d="M330 1303h170q-256 -297 -256 -590q0 -167 92 -340h-166q-26 51 -41.5 87.5t-31 106.5t-15.5 146q0 157 65.5 310.5t182.5 279.5z" />
    <glyph glyph-name="uni207E" unicode="&#x207e;" horiz-adv-x="499" 
d="M170 373h-170q256 297 256 590q0 167 -92 340h166q26 -51 41.5 -87.5t31 -106.5t15.5 -146q0 -157 -65.5 -310.5t-182.5 -279.5z" />
    <glyph glyph-name="n.superior" unicode="&#x207f;" horiz-adv-x="886" 
d="M797 1018l-41 -217q-12 -56 43 -56q15 0 47 7l-37 -154q-62 -16 -121 -16q-207 0 -172 182l37 197q18 102 -72 102q-92 0 -121 -143l-65 -332h-234l125 626h203l4 -127q34 72 86.5 108t138.5 36q84 0 133.5 -44.5t49.5 -117.5q0 -23 -4 -51z" />
    <glyph glyph-name="uni2080" unicode="&#x2080;" horiz-adv-x="749" 
d="M328 -14q-141 0 -209 82t-68 221q0 117 42 218t128 166.5t199 65.5q135 0 206.5 -86t71.5 -225q0 -189 -99 -315.5t-271 -126.5zM399 549q-36 0 -63 -27t-41 -69.5t-20.5 -83t-6.5 -76.5q0 -55 21.5 -89t62.5 -34q35 0 61.5 27.5t41 69.5t21.5 82.5t7 74.5q0 125 -84 125
z" />
    <glyph glyph-name="uni2081" unicode="&#x2081;" horiz-adv-x="655" 
d="M586 0h-576l29 162h186l64 362l-207 -14l31 172l428 41l-99 -561h172z" />
    <glyph glyph-name="uni2082" unicode="&#x2082;" horiz-adv-x="677" 
d="M600 172l-31 -172h-579l24 139q92 54 145.5 86.5t109.5 71.5t83.5 66.5t45.5 57.5t18 60q0 76 -82 76q-85 0 -107 -121l-180 62q15 105 94 173t221 68q126 0 200.5 -58.5t74.5 -166.5q0 -60 -26.5 -111t-63.5 -85t-92 -63t-97 -44.5t-94 -30.5v-8h336z" />
    <glyph glyph-name="uni2083" unicode="&#x2083;" horiz-adv-x="657" 
d="M414 367l-2 -5q174 -22 174 -165q0 -102 -87 -156.5t-229 -54.5q-118 0 -190 47.5t-82 138.5l188 64q3 -46 21.5 -69.5t62.5 -23.5q37 0 60.5 16.5t23.5 45.5q0 18 -5 31.5t-19.5 27.5t-47.5 21.5t-83 7.5l22 123q170 5 170 88q0 30 -17 45.5t-42 15.5q-71 0 -90 -76
l-164 68q59 182 287 182q116 0 183.5 -48t67.5 -142q0 -76 -52 -122t-150 -60z" />
    <glyph glyph-name="uni2084" unicode="&#x2084;" horiz-adv-x="761" 
d="M342 0l23 131h-355l27 148l440 444h213l-76 -434h97l-29 -158h-96l-23 -131h-221zM397 285l21 118q5 31 14 68t15 59l6 21h-9q-26 -51 -71 -98l-72 -76q-24 -24 -52.5 -48t-45.5 -36l-17 -12v-9q49 13 117 13h94z" />
    <glyph glyph-name="uni2085" unicode="&#x2085;" horiz-adv-x="694" 
d="M86 303l90 420h488l-31 -180h-320l-34 -131q51 57 145 57q92 0 145.5 -55t53.5 -150q0 -73 -26.5 -128.5t-73.5 -87t-104.5 -47t-125.5 -15.5q-258 0 -283 178l205 69q0 -41 25 -63.5t69 -22.5q46 0 74.5 26t28.5 77q0 84 -72 84q-41 0 -72 -31h-182z" />
    <glyph glyph-name="uni2086" unicode="&#x2086;" horiz-adv-x="718" 
d="M698 627l-168 -129q-22 65 -94 65q-61 0 -106.5 -52t-59.5 -157h9q54 101 176 101q92 0 141 -56t49 -143q0 -129 -86.5 -199.5t-228.5 -70.5q-135 0 -207 76t-72 204q0 98 24 178.5t64 134.5t93 90.5t109.5 53t115.5 16.5q90 0 147 -25t94 -87zM279 219q0 -29 17.5 -49
t53.5 -20q45 0 74 27t29 69q0 31 -18.5 51t-53.5 20q-41 0 -71.5 -27t-30.5 -71z" />
    <glyph glyph-name="uni2087" unicode="&#x2087;" horiz-adv-x="702" 
d="M430 543h-176l-21 -113h-182l51 293h611l-29 -166l-365 -557h-253z" />
    <glyph glyph-name="uni2088" unicode="&#x2088;" horiz-adv-x="741" 
d="M334 -14q-151 0 -222 53t-71 143q0 85 57 133t150 56v6q-65 14 -98 57t-33 98q0 100 84 153.5t225 53.5q134 0 204 -52t70 -138q0 -74 -46.5 -118.5t-121.5 -55.5v-6q132 -37 132 -164q0 -100 -94 -159.5t-236 -59.5zM412 592q-40 0 -66.5 -21.5t-26.5 -54.5
q0 -27 18.5 -44t51.5 -17q42 0 69 20t27 60q0 23 -17.5 40t-55.5 17zM371 299q-51 0 -82 -23t-31 -65q0 -34 22.5 -53t63.5 -19q48 0 79.5 24.5t31.5 67.5q0 32 -23 50t-61 18z" />
    <glyph glyph-name="uni2089" unicode="&#x2089;" horiz-adv-x="700" 
d="M-20 98l167 129q10 -30 43 -47.5t74 -17.5q63 0 109 50t57 159h-8q-27 -52 -66.5 -76.5t-103.5 -24.5q-92 0 -144.5 56.5t-52.5 142.5q0 129 87 199.5t229 70.5q135 0 206.5 -76t71.5 -204q0 -122 -31.5 -215.5t-86.5 -148.5t-123 -82t-148 -27q-214 0 -280 112zM422 510
q0 29 -18 49.5t-54 20.5q-44 0 -73 -27t-29 -70q0 -31 18 -51t53 -20q41 0 72 27t31 71z" />
    <glyph glyph-name="uni208A" unicode="&#x208a;" horiz-adv-x="913" 
d="M109 446h284l47 277h148l-47 -277h290l-26 -147h-291l-53 -299h-148l54 299h-285z" />
    <glyph glyph-name="uni208B" unicode="&#x208b;" horiz-adv-x="913" 
d="M805 299h-723l27 147h722z" />
    <glyph glyph-name="uni208C" unicode="&#x208c;" horiz-adv-x="960" 
d="M805 172h-723l24 145h723zM854 451h-723l25 145h723z" />
    <glyph glyph-name="uni208D" unicode="&#x208d;" horiz-adv-x="499" 
d="M330 819h170q-256 -297 -256 -590q0 -167 92 -340h-166q-26 51 -41.5 87.5t-31 106.5t-15.5 146q0 157 65.5 310.5t182.5 279.5z" />
    <glyph glyph-name="uni208E" unicode="&#x208e;" horiz-adv-x="499" 
d="M170 -111h-170q256 297 256 590q0 167 -92 340h166q26 -51 41.5 -87.5t31 -106.5t15.5 -146q0 -157 -65.5 -310.5t-182.5 -279.5z" />
    <glyph glyph-name="uni20A1" unicode="&#x20a1;" horiz-adv-x="1073" 
d="M387 -193l64 173q-37 3 -72 12l-60 -166l-96 37l60 164q-95 49 -148 142.5t-53 229.5q0 122 35.5 230t103 193.5t177 135.5t247.5 50l60 161l96 -36l-49 -134q34 -5 69 -16l49 131l97 -35l-54 -139q110 -76 140 -231l-254 -82l-144 -389q74 30 119 137l211 -144
q-70 -124 -172.5 -186t-255.5 -68l-74 -204zM471 240q42 -17 70 -17l184 498q-23 30 -61 41zM367 414q0 -53 22 -99l164 447q-83 -27 -134.5 -121.5t-51.5 -226.5z" />
    <glyph glyph-name="uni20A2" unicode="&#x20a2;" horiz-adv-x="1060" 
d="M940 594l-47 -238q-47 25 -96 26t-89 -30t-51 -94l-12 -65q54 14 89 49.5t63 95.5l196 -123q-71 -126 -185 -183t-288 -57q-199 0 -318.5 108.5t-119.5 315.5q0 122 35.5 230t103 193.5t176.5 135.5t246 50q185 0 277.5 -75t119.5 -212l-231 -96q-5 70 -46 114.5
t-124 44.5q-121 0 -191.5 -104t-70.5 -270q0 -130 69 -187l64 361h178l-4 -172q34 98 106 150.5t150 31.5z" />
    <glyph glyph-name="franc" unicode="&#x20a3;" horiz-adv-x="1007" 
d="M745 287h-251l-50 -287h-307l49 287h-145l20 108h144l16 97h-143l18 108h146l67 385h740l-43 -246h-433l-24 -139h252l-19 -108h-252l-18 -97h254z" />
    <glyph glyph-name="lira" unicode="&#x20a4;" horiz-adv-x="1042" 
d="M766 336h-246q-37 -69 -96 -90h246q25 0 44 3t42 12t43.5 29.5t38.5 51.5l184 -123q-33 -104 -125.5 -161.5t-212.5 -57.5h-653l43 246h84q47 0 77 25t41 65h-194l20 108h179q-2 20 -11 56h-151l18 108h103q-7 40 -7 84q0 150 119.5 233t298.5 83q77 0 139 -14t114 -45
t81 -88t29 -136l-279 -47q0 52 -28.5 75t-85.5 23q-53 0 -86 -30.5t-33 -77.5q0 -39 8 -60h311l-18 -108h-262q4 -32 4 -56h241z" />
    <glyph glyph-name="uni20A6" unicode="&#x20a6;" horiz-adv-x="1482" 
d="M1411 532h-176l-21 -116h179l-19 -109h-178l-53 -307h-275l-229 399q-26 45 -45 94t-25 75l-6 26h-8q-4 -111 -35 -289l-53 -305h-305l53 307h-174l18 109h174l21 116h-172l20 109h170l62 344h325l197 -367q21 -40 37.5 -82t22.5 -64l6 -21h8q6 110 33 264l47 270h305
l-62 -344h179z" />
    <glyph glyph-name="peseta" unicode="&#x20a7;" horiz-adv-x="2441" 
d="M1493 248l244 82q10 -74 58.5 -114t109.5 -40q48 0 77 19t29 57q0 43 -29.5 66.5t-109.5 43.5q-115 28 -175 75.5t-81 117.5h-176l-97 -555h-309l96 555h-116q-16 -87 -59 -151t-106.5 -101.5t-138.5 -55.5t-163 -18h-139l-39 -229h-308l172 985h404q293 0 364 -184h623
q21 56 63 97.5t97 64.5t113.5 34t123.5 11q191 0 285 -73t94 -206l-260 -65q0 60 -39 94.5t-98 34.5q-52 0 -81.5 -21.5t-29.5 -60.5q0 -35 30 -56t130 -49q156 -43 213 -115.5t57 -193.5q0 -163 -116.5 -242.5t-315.5 -79.5q-195 0 -291.5 68t-105.5 205zM500 743l-49 -272
h110q76 0 121 40t45 120q0 59 -30 85.5t-95 26.5h-102z" />
    <glyph glyph-name="uni20A8" unicode="&#x20a8;" horiz-adv-x="1746" 
d="M498 743l-39 -231h137q147 0 147 137q0 47 -24.5 70.5t-81.5 23.5h-139zM1290 -25q-321 0 -499 136l-119 90q-8 6 -25.5 20t-26 20t-26.5 16t-34 14.5t-41 8t-54 3.5h-47l-49 -283h-308l172 985h455q183 0 269.5 -74.5t86.5 -208.5q0 -144 -81 -219t-215 -86v-8
q133 -5 229 -72l115 -79q80 -54 129 -78.5t96 -24.5q33 0 53.5 13t20.5 38q0 30 -18 49.5t-73 38.5q-115 39 -158.5 98t-43.5 152q0 69 28 120t75 78.5t100.5 40.5t113.5 13q147 0 219 -54.5t72 -154.5l-199 -55q0 45 -28 70.5t-72 25.5q-35 0 -57.5 -16t-22.5 -43
q0 -25 23.5 -41.5t101.5 -42.5q97 -33 142.5 -85t45.5 -138q0 -267 -350 -267z" />
    <glyph glyph-name="uni20A9" unicode="&#x20a9;" horiz-adv-x="1832" 
d="M1763 549h-207l-47 -117h236l-21 -108h-260l-131 -324h-377l-38 397q-6 69 -6 143.5t3 113.5l3 40h-9q-33 -162 -88 -299l-162 -395h-376l-19 324h-233l20 108h207l-8 117h-176l18 108h152l-19 328h305l17 -471q2 -61 0 -133.5t-5 -114.5l-3 -43h6q29 156 82 289l182 473
h319l31 -467q3 -72 1 -136.5t-6 -109.5l-5 -45h6q29 156 82 289l184 469h314l-136 -328h183z" />
    <glyph glyph-name="uni20AA" unicode="&#x20aa;" horiz-adv-x="1720" 
d="M1157 328h-252l58 325q9 55 -13.5 83t-87.5 28h-362l-133 -764h-306l172 985h707q331 0 279 -311zM1384 985h306l-119 -674q-55 -311 -385 -311h-699l115 655h250l-76 -434h365q51 0 85.5 28.5t43.5 76.5z" />
    <glyph glyph-name="Euro" unicode="&#x20ac;" horiz-adv-x="1146" 
d="M752 532h-271q-10 -48 -10 -88h252l-41 -108h-199q32 -117 164 -117q70 0 109 40.5t73 117.5l250 -146q-73 -130 -184.5 -193t-280.5 -63q-183 0 -296.5 91.5t-131.5 269.5h-145l20 108h123q1 17 11 88h-119l20 109h125q56 167 186 267t330 100q100 0 175 -22.5
t121.5 -64.5t73.5 -93.5t40 -118.5l-273 -97q-5 61 -47 102.5t-112 41.5q-62 0 -112 -30t-81 -85h271z" />
    <glyph glyph-name="uni20AE" unicode="&#x20ae;" horiz-adv-x="1028" 
d="M846 512l-205 -35l-16 -96l202 35l-18 -109l-203 -35l-47 -272h-309l39 219l-217 -35l20 109l215 35l17 96l-215 -35l18 109l215 34l37 207h-301l43 246h917l-43 -246h-307l-26 -153l202 35z" />
    <glyph glyph-name="uni20B1" unicode="&#x20b1;" horiz-adv-x="1255" 
d="M420 0h-307l96 553h-148l19 109h147l58 323h403q387 0 387 -323h139l-18 -109h-131q-16 -87 -59 -151t-106.5 -101t-138.5 -54.5t-163 -17.5h-139zM610 451q53 0 94.5 26.5t59.5 75.5h-248l-16 -102h110zM553 760l-18 -98h241q-16 98 -121 98h-102z" />
    <glyph glyph-name="afii61289" unicode="&#x2113;" horiz-adv-x="845" 
d="M80 244l-62 116l172 119v473q0 225 83.5 321.5t248.5 96.5q287 0 287 -262q0 -116 -24.5 -214t-72.5 -178t-103.5 -141.5t-131.5 -125.5v-56q0 -89 29.5 -123t91.5 -34q67 0 133 32l-18 -256q-122 -37 -224 -37q-59 0 -110.5 13.5t-95 42.5t-68.5 81.5t-25 123.5v79z
M477 1010v-389q61 61 96 116t58.5 146.5t23.5 216.5q0 108 -90 108q-47 0 -67.5 -47t-20.5 -151z" />
    <glyph glyph-name="afii61352" unicode="&#x2116;" horiz-adv-x="2332" 
d="M1497 0l37 215h674l-37 -215h-674zM1956 975q146 0 230.5 -73.5t84.5 -205.5q0 -77 -24 -144.5t-70 -121t-120.5 -84.5t-168.5 -31q-142 0 -230.5 69t-88.5 198q0 79 24 149t70.5 125t122 87t170.5 32zM1937 799q-59 0 -93 -59t-34 -152q0 -51 22.5 -78t61.5 -27
q60 0 93.5 57.5t33.5 153.5q0 51 -22.5 78t-61.5 27zM1409 877l-152 -877h-274l-274 522q-24 46 -44 95.5t-28 75.5l-8 26h-8q-4 -103 -35 -281l-31 -174q-28 -159 -102.5 -224t-229.5 -65q-123 0 -203 45l62 242q48 -33 92 -33q36 0 55 19.5t27 62.5l156 895h284l269 -536
q21 -40 38 -84.5t24 -69.5l7 -24h8q8 108 35 262l33 188q27 155 108 222t224 67q123 0 203 -45l-64 -260q-46 32 -92 32q-36 0 -54 -19t-26 -62z" />
    <glyph glyph-name="published" unicode="&#x2117;" horiz-adv-x="1429" 
d="M735 807l-37 -213h68q58 0 92.5 31.5t34.5 93.5q0 47 -22 67.5t-72 20.5h-64zM635 227h-242l135 768h297q301 0 301 -256q0 -89 -29 -155t-81.5 -104t-117.5 -56t-144 -18h-90zM113 602q0 179 84 323.5t227 225t315 80.5q128 0 244 -47.5t200.5 -129.5t134.5 -200
t50 -252t-50 -251.5t-134.5 -199.5t-200.5 -129t-244 -47t-243.5 47t-199.5 129t-133.5 199.5t-49.5 251.5zM176 602q0 -163 77 -294t206 -202t284 -71q115 0 218.5 42t179.5 115.5t121 180t45 229.5q0 162 -76.5 293.5t-205 203.5t-282.5 72q-115 0 -219.5 -42.5t-181 -117
t-121.5 -181t-45 -228.5z" />
    <glyph glyph-name="servicemark" unicode="&#x2120;" horiz-adv-x="1370" 
d="M92 829l152 41q6 -37 31.5 -57t60.5 -20q63 0 63 38q0 19 -17 29.5t-67 22.5q-93 22 -130.5 62t-37.5 104q0 47 22 82t59 53.5t78.5 27.5t88.5 9q114 0 170 -38t56 -106l-154 -35q0 31 -24.5 50.5t-59.5 19.5q-26 0 -41.5 -11t-15.5 -28q0 -19 18.5 -30.5t79.5 -28.5
q89 -24 124.5 -61.5t35.5 -98.5q0 -84 -69.5 -124t-186.5 -40q-224 0 -236 139zM1247 698h-166l54 265h-9l-106 -138h-92l-45 138h-11l-53 -265h-166l103 508h170l80 -198h2l159 198h183z" />
    <glyph glyph-name="trademark" unicode="&#x2122;" horiz-adv-x="1333" 
d="M371 698h-166l76 375h-138l27 133h440l-26 -133h-138zM1210 698h-166l54 265h-8l-107 -138h-92l-45 138h-10l-54 -265h-166l103 508h170l80 -198h2l159 198h183z" />
    <glyph glyph-name="estimated" unicode="&#x212e;" horiz-adv-x="1325" 
d="M662 1231q145 0 257.5 -53t179.5 -143t100.5 -199.5t33.5 -233.5v-53h-883v-346q119 -119 312 -119q266 0 376 213h136q-62 -149 -190.5 -235.5t-321.5 -86.5q-116 0 -211.5 35t-161 94.5t-111 140t-66 170.5t-20.5 187q0 98 21 188t66 171t110.5 140.5t161 94.5
t211.5 35zM662 1122q-197 0 -312 -118v-349h625v349q-115 118 -313 118z" />
    <glyph glyph-name="uni2153" unicode="&#x2153;" horiz-adv-x="1843" 
d="M600 483h-575l28 162h187l63 363l-207 -15l31 172l428 41l-98 -561h172zM410 0l835 1206h189l-842 -1206h-182zM1520 367l-2 -5q174 -22 174 -165q0 -102 -87 -156.5t-229 -54.5q-118 0 -190 47.5t-82 138.5l188 64q3 -46 21.5 -69.5t62.5 -23.5q37 0 60.5 16.5
t23.5 45.5q0 18 -5 31.5t-19.5 27.5t-47.5 21.5t-83 7.5l22 123q170 5 170 88q0 30 -17 45.5t-42 15.5q-71 0 -90 -76l-164 68q59 182 286 182q116 0 184 -48t68 -142q0 -76 -52 -122t-150 -60z" />
    <glyph glyph-name="uni2154" unicode="&#x2154;" horiz-adv-x="1843" 
d="M625 655l-31 -172h-580l25 140q225 132 313 202t88 140q0 75 -82 75q-85 0 -106 -120l-180 61q15 105 94 173.5t221 68.5q126 0 200.5 -59t74.5 -167q0 -60 -26.5 -111t-63 -84.5t-92 -63t-97.5 -44.5t-94 -30v-9h336zM410 0l835 1206h189l-842 -1206h-182zM1520 367
l-2 -5q174 -22 174 -165q0 -102 -87 -156.5t-229 -54.5q-118 0 -190 47.5t-82 138.5l188 64q3 -46 21.5 -69.5t62.5 -23.5q37 0 60.5 16.5t23.5 45.5q0 18 -5 31.5t-19.5 27.5t-47.5 21.5t-83 7.5l22 123q170 5 170 88q0 30 -17 45.5t-42 15.5q-71 0 -90 -76l-164 68
q59 182 286 182q116 0 184 -48t68 -142q0 -76 -52 -122t-150 -60z" />
    <glyph glyph-name="uni215B" unicode="&#x215b;" horiz-adv-x="1843" 
d="M600 483h-575l28 162h187l63 363l-207 -15l31 172l428 41l-98 -561h172zM410 0l835 1206h189l-842 -1206h-182zM1440 -14q-151 0 -222 53t-71 143q0 85 57 133t150 56v6q-65 14 -98 57t-33 98q0 100 84 153.5t225 53.5q134 0 204 -52t70 -138q0 -74 -46.5 -118.5
t-121.5 -55.5v-6q131 -36 131 -164q0 -100 -93.5 -159.5t-235.5 -59.5zM1518 592q-40 0 -66.5 -21.5t-26.5 -54.5q0 -27 18.5 -44t51.5 -17q42 0 69 20t27 60q0 23 -17.5 40t-55.5 17zM1477 299q-51 0 -82 -23t-31 -65q0 -34 22.5 -53t63.5 -19q48 0 79.5 24.5t31.5 67.5
q0 32 -23 50t-61 18z" />
    <glyph glyph-name="uni215C" unicode="&#x215c;" horiz-adv-x="1843" 
d="M455 850l-2 -4q174 -22 174 -166q0 -102 -87 -156.5t-229 -54.5q-118 0 -190 47.5t-82 138.5l188 64q3 -45 21.5 -68.5t62.5 -23.5q38 0 61 16t23 45q0 18 -5 31.5t-19.5 27.5t-47.5 21.5t-83 7.5l22 123q170 5 170 88q0 30 -17 46t-42 16q-71 0 -90 -76l-164 67
q29 90 102.5 136.5t184.5 46.5q116 0 183.5 -48.5t67.5 -142.5q0 -76 -52 -122t-150 -60zM410 0l835 1206h189l-842 -1206h-182zM1440 -14q-151 0 -222 53t-71 143q0 85 57 133t150 56v6q-65 14 -98 57t-33 98q0 100 84 153.5t225 53.5q134 0 204 -52t70 -138
q0 -74 -46.5 -118.5t-121.5 -55.5v-6q131 -36 131 -164q0 -100 -93.5 -159.5t-235.5 -59.5zM1518 592q-40 0 -66.5 -21.5t-26.5 -54.5q0 -27 18.5 -44t51.5 -17q42 0 69 20t27 60q0 23 -17.5 40t-55.5 17zM1477 299q-51 0 -82 -23t-31 -65q0 -34 22.5 -53t63.5 -19
q48 0 79.5 24.5t31.5 67.5q0 32 -23 50t-61 18z" />
    <glyph glyph-name="uni215D" unicode="&#x215d;" horiz-adv-x="1843" 
d="M106 786l91 420h487l-31 -180h-319l-35 -131q51 57 145 57q92 0 145.5 -54.5t53.5 -149.5q0 -74 -26.5 -129t-73.5 -87t-104.5 -47.5t-125.5 -15.5q-257 0 -282 178l205 70q0 -41 25 -63.5t69 -22.5q46 0 74 25.5t28 76.5q0 84 -72 84q-40 0 -71 -31h-183zM410 0
l835 1206h189l-842 -1206h-182zM1440 -14q-151 0 -222 53t-71 143q0 85 57 133t150 56v6q-65 14 -98 57t-33 98q0 100 84 153.5t225 53.5q134 0 204 -52t70 -138q0 -74 -46.5 -118.5t-121.5 -55.5v-6q131 -36 131 -164q0 -100 -93.5 -159.5t-235.5 -59.5zM1518 592
q-40 0 -66.5 -21.5t-26.5 -54.5q0 -27 18.5 -44t51.5 -17q42 0 69 20t27 60q0 23 -17.5 40t-55.5 17zM1477 299q-51 0 -82 -23t-31 -65q0 -34 22.5 -53t63.5 -19q48 0 79.5 24.5t31.5 67.5q0 32 -23 50t-61 18z" />
    <glyph glyph-name="uni215E" unicode="&#x215e;" horiz-adv-x="1740" 
d="M453 1026h-177l-20 -113h-182l51 293h610l-28 -166l-365 -557h-254zM307 0l836 1206h188l-842 -1206h-182zM1337 -14q-151 0 -222 53t-71 143q0 85 57 133t150 56v6q-65 14 -98 57t-33 98q0 100 84.5 153.5t225.5 53.5q134 0 204 -52t70 -138q0 -74 -46.5 -118.5
t-121.5 -55.5v-6q131 -36 131 -164q0 -100 -94 -159.5t-236 -59.5zM1415 592q-40 0 -66 -21t-26 -55q0 -27 18.5 -44t51.5 -17q42 0 69 20t27 60q0 23 -18 40t-56 17zM1374 299q-51 0 -81.5 -23t-30.5 -65q0 -34 22.5 -53t63.5 -19q48 0 79 24.5t31 67.5q0 32 -23 50t-61 18
z" />
    <glyph glyph-name="arrowleft" unicode="&#x2190;" horiz-adv-x="1468" 
d="M516 733h860v-258h-860l318 -317l-181 -183l-598 629l594 627l182 -184z" />
    <glyph glyph-name="arrowup" unicode="&#x2191;" horiz-adv-x="1402" 
d="M831 770v-770h-258v770l-317 -317l-182 182l628 596l627 -594l-184 -182z" />
    <glyph glyph-name="arrowright" unicode="&#x2192;" horiz-adv-x="1468" 
d="M55 733h860l-315 314l182 184l594 -627l-596 -629l-182 183l317 317h-860v258z" />
    <glyph glyph-name="arrowdown" unicode="&#x2193;" horiz-adv-x="1402" 
d="M571 436v770h258v-770l318 318l182 -181l-629 -598l-626 594l184 183z" />
    <glyph glyph-name="uni2196" unicode="&#x2196;" horiz-adv-x="1400" 
d="M1182 0l-783 782v-583h-252v1007h981v-241h-546l782 -783z" />
    <glyph glyph-name="uni2197" unicode="&#x2197;" horiz-adv-x="1400" 
d="M1001 782l-782 -782l-182 182l782 783h-547v241h981v-1007h-252v583z" />
    <glyph glyph-name="uni2198" unicode="&#x2198;" horiz-adv-x="1400" 
d="M219 1206l782 -780v582h252v-1008h-981v244h547l-782 780z" />
    <glyph glyph-name="uni2199" unicode="&#x2199;" horiz-adv-x="1400" 
d="M399 426l783 780l182 -182l-782 -780h546v-244h-981v1008h252v-582z" />
    <glyph glyph-name="partialdiff" unicode="&#x2202;" horiz-adv-x="1095" 
d="M471 1386q563 -151 563 -788q0 -130 -33.5 -242t-97.5 -197.5t-167 -134.5t-234 -49q-127 0 -225 43t-157 133.5t-59 217.5q0 116 32.5 219t94 183.5t158 127.5t215.5 47q77 0 121 -31h8q-70 121 -192.5 200t-321.5 130zM580 711q-87 0 -139 -96t-52 -244
q0 -83 33.5 -125.5t93.5 -42.5q90 0 141.5 94t51.5 246q0 82 -33.5 125t-95.5 43z" />
    <glyph glyph-name="increment" unicode="&#x2206;" horiz-adv-x="1282" 
d="M844 256l-56 317q-16 89 -25.5 183.5t-10.5 143.5l-2 50h-9q-55 -178 -155 -375l-166 -319h424zM1210 0h-1251l647 1206h375z" />
    <glyph glyph-name="product" unicode="&#x220f;" horiz-adv-x="1304" 
d="M274 -416h-305l285 1622h1040l-284 -1622h-305l237 1346h-430z" />
    <glyph glyph-name="summation" unicode="&#x2211;" horiz-adv-x="956" 
d="M971 940h-293q-40 0 -71 1.5t-43 2.5l-11 2v-8q47 -43 78 -127l74 -207l-154 -209q-33 -44 -61.5 -75.5t-41.5 -40.5l-12 -9v-8q35 4 135 4h281l-45 -266h-868l442 606l-231 600h868z" />
    <glyph glyph-name="minus" unicode="&#x2212;" horiz-adv-x="1028" 
d="M918 424h-836l29 168h835z" />
    </font>
</defs>
</svg>
