<?xml version="1.0" standalone="no"?>
<!DOCTYPE svg PUBLIC "-//W3C//DTD SVG 1.1//EN" "http://www.w3.org/Graphics/SVG/1.1/DTD/svg11.dtd" >
<svg xmlns="http://www.w3.org/2000/svg" xmlns:xlink="http://www.w3.org/1999/xlink" version="1.1">
<metadata>
Created by FontForge 20170731 at Fri Sep 17 22:21:31 2021
 By Aleksey,,,
Copyright (c) 2004-9 by Kris Sowersby. All rights reserved.
</metadata>
<defs>
<font id="National-Light" horiz-adv-x="997" >
  <font-face 
    font-family="National Light"
    font-weight="460"
    font-stretch="normal"
    units-per-em="2048"
    panose-1="0 0 0 0 0 0 0 0 0 0"
    ascent="1638"
    descent="-410"
    x-height="946"
    cap-height="1206"
    bbox="-186 -526 2425 1898"
    underline-thickness="102"
    underline-position="-307"
    unicode-range="U+0020-F778"
  />
<missing-glyph horiz-adv-x="1546" 
d="M170 0v1206h1206v-1206h-1206zM772 541l-453 -453h908zM319 1118l453 -454l455 454h-908zM834 602l454 -452v907zM711 602l-453 455v-907z" />
    <glyph glyph-name="f_b" unicode="fb" horiz-adv-x="1574" 
d="M750 0h-68v1243q-87 53 -188 53q-94 0 -150.5 -57.5t-56.5 -181.5v-111h221v-86h-221v-860h-105v860h-137v86h137v115q0 86 26.5 150t71.5 100t98 53.5t114 17.5q116 0 206 -51l64 37h24v-631q29 108 116 168t202 60q176 0 277.5 -122t101.5 -351q0 -231 -109 -370.5
t-295 -139.5q-120 0 -197.5 54t-105.5 138zM786 547v-176q0 -77 24.5 -138t65 -97t89 -54.5t100.5 -18.5q138 0 224.5 106.5t86.5 313.5q0 193 -78 292t-213 99q-128 0 -213.5 -85t-85.5 -242z" />
    <glyph glyph-name="f_f_b" unicode="ffb" horiz-adv-x="2076" 
d="M1286 547v-176q0 -77 24.5 -138t65 -97t89 -54.5t100.5 -18.5q138 0 224.5 106.5t86.5 313.5q0 193 -78 292t-213 99q-128 0 -213.5 -85t-85.5 -242zM1262 1368h24v-631q30 108 116.5 168t201.5 60q175 0 276.5 -122t101.5 -351q0 -231 -108.5 -370.5t-294.5 -139.5
q-120 0 -197.5 54t-105.5 138l-25 -174h-69v1243q-87 53 -189 53q-94 0 -150.5 -57.5t-56.5 -181.5v-111h222v-86h-222v-860h-104v860h-395v-860h-105v860h-137v86h137v119q0 153 74 226t195 73q94 0 167 -45l-28 -90q-64 45 -144 45q-76 0 -117.5 -52t-41.5 -155v-121h395
v115q0 86 26 150t71 100t98 53.5t114 17.5q121 0 207 -51z" />
    <glyph glyph-name="f_f_h" unicode="ffh" horiz-adv-x="2029" 
d="M1262 1368h24v-637q30 107 109.5 170.5t195.5 63.5q132 0 211.5 -74t79.5 -225v-666h-104v639q0 112 -54.5 172.5t-154.5 60.5q-122 0 -202.5 -85t-80.5 -250v-537h-104v1243q-87 53 -189 53q-94 0 -150.5 -57.5t-56.5 -181.5v-111h222v-86h-222v-860h-104v860h-395v-860
h-105v860h-137v86h137v119q0 153 74 226t195 73q94 0 167 -45l-28 -90q-64 45 -144 45q-76 0 -117.5 -52t-41.5 -155v-121h395v115q0 86 26 150t71 100t98 53.5t114 17.5q121 0 207 -51z" />
    <glyph glyph-name="f_f_j" unicode="ffj" horiz-adv-x="1443" 
d="M786 860v-860h-104v860h-395v-860h-105v860h-137v86h137v119q0 153 74 226t195 73q94 0 167 -45l-28 -90q-64 45 -144 45q-76 0 -117.5 -52t-41.5 -155v-121h395v107q0 71 17 127.5t45.5 94t67.5 62t82 35t91 10.5q141 0 229 -63l-40 -86q-87 61 -189 61
q-199 0 -199 -247v-101h500v-1028q0 -181 -87 -260t-261 -74v88q123 -6 183.5 50.5t60.5 185.5v952h-396z" />
    <glyph glyph-name="f_f_k" unicode="ffk" horiz-adv-x="1904" 
d="M1262 1368h24v-829h74l362 407h129l-401 -442l440 -504h-133l-389 453h-82v-453h-104v1243q-87 53 -189 53q-94 0 -150.5 -57.5t-56.5 -181.5v-111h222v-86h-222v-860h-104v860h-395v-860h-105v860h-137v86h137v119q0 153 74 226t195 73q94 0 167 -45l-28 -90
q-64 45 -144 45q-76 0 -117.5 -52t-41.5 -155v-121h395v115q0 86 26 150t71 100t98 53.5t114 17.5q121 0 207 -51z" />
    <glyph glyph-name="f_h" unicode="fh" horiz-adv-x="1529" 
d="M762 1368h24v-637q29 106 109 170t197 64q132 0 211 -74t79 -225v-666h-104v639q0 112 -54.5 172.5t-154.5 60.5q-122 0 -202.5 -85t-80.5 -250v-537h-104v1243q-87 53 -188 53q-94 0 -150.5 -57.5t-56.5 -181.5v-111h221v-86h-221v-860h-105v860h-137v86h137v115
q0 86 26.5 150t71.5 100t98 53.5t114 17.5q116 0 206 -51z" />
    <glyph glyph-name="f_j" unicode="fj" horiz-adv-x="944" 
d="M682 -92v952h-395v-860h-105v860h-137v86h137v107q0 71 17 127.5t45.5 94t67.5 62t82 35t91 10.5q133 0 228 -67l-39 -86q-85 63 -189 63q-198 0 -198 -245v-101h499v-1028q0 -181 -87 -260t-261 -74v88q123 -6 183.5 50.5t60.5 185.5z" />
    <glyph glyph-name="f_k" unicode="fk" horiz-adv-x="1404" 
d="M762 1368h24v-829h74l363 407h129l-402 -442l441 -504h-134l-389 453h-82v-453h-104v1243q-87 53 -188 53q-94 0 -150.5 -57.5t-56.5 -181.5v-111h221v-86h-221v-860h-105v860h-137v86h137v115q0 86 26.5 150t71.5 100t98 53.5t114 17.5q116 0 206 -51z" />
    <glyph glyph-name="ff" unicode="ff" horiz-adv-x="1026" 
d="M682 860h-395v-860h-105v860h-137v86h137v119q0 153 74 226t195 73q94 0 167 -45l-28 -90q-64 45 -144 45q-76 0 -117.5 -52t-41.5 -155v-121h395v133q0 154 76 228.5t200 74.5q106 0 179 -45l-27 -90q-68 45 -149 45q-175 0 -175 -219v-127h242v-86h-242v-860h-104v860z
" />
    <glyph glyph-name="ffi" unicode="ffi" horiz-adv-x="1443" 
d="M682 946v107q0 71 17 127.5t45.5 94t67.5 62t82 35t91 10.5q141 0 229 -63l-40 -86q-87 61 -189 61q-199 0 -199 -247v-101h500v-946h-104v860h-396v-860h-104v860h-395v-860h-105v860h-137v86h137v119q0 153 74 226t195 73q94 0 167 -45l-28 -90q-64 45 -144 45
q-76 0 -117.5 -52t-41.5 -155v-121h395z" />
    <glyph glyph-name="ffl" unicode="ffl" horiz-adv-x="1495" 
d="M1262 1368h24v-1186q0 -102 88 -102q31 0 64 10v-90q-44 -10 -84 -10q-80 0 -126 45.5t-46 132.5v1075q-87 53 -189 53q-94 0 -150.5 -57.5t-56.5 -181.5v-111h222v-86h-222v-860h-104v860h-395v-860h-105v860h-137v86h137v119q0 153 74 226t195 73q94 0 167 -45l-28 -90
q-64 45 -144 45q-76 0 -117.5 -52t-41.5 -155v-121h395v115q0 86 26 150t71 100t98 53.5t114 17.5q121 0 207 -51z" />
    <glyph glyph-name="fi" unicode="fi" horiz-adv-x="944" 
d="M182 860h-137v86h137v107q0 71 17 127.5t45.5 94t67.5 62t82 35t91 10.5q133 0 228 -67l-39 -86q-85 63 -189 63q-198 0 -198 -245v-101h499v-946h-104v860h-395v-860h-105v860z" />
    <glyph glyph-name="fl" unicode="fl" horiz-adv-x="995" 
d="M762 1368h24v-1186q0 -102 88 -102q32 0 62 10v-90q-41 -10 -82 -10q-80 0 -126 45.5t-46 132.5v1075q-87 53 -188 53q-94 0 -150.5 -57.5t-56.5 -181.5v-111h221v-86h-221v-860h-105v860h-137v86h137v115q0 86 26.5 150t71.5 100t98 53.5t114 17.5q116 0 206 -51z" />
    <glyph glyph-name=".notdef" horiz-adv-x="1546" 
d="M170 0v1206h1206v-1206h-1206zM772 541l-453 -453h908zM319 1118l453 -454l455 454h-908zM834 602l454 -452v907zM711 602l-453 455v-907z" />
    <glyph glyph-name=".null" horiz-adv-x="0" 
 />
    <glyph glyph-name="nonmarkingreturn" horiz-adv-x="682" 
 />
    <glyph glyph-name="space" unicode=" " horiz-adv-x="423" 
 />
    <glyph glyph-name="exclam" unicode="!" horiz-adv-x="460" 
d="M162 1206h135l-31 -866h-71zM150 74q0 35 22.5 58.5t56.5 23.5q35 0 58.5 -23.5t23.5 -58.5q0 -34 -23.5 -57t-58.5 -23q-34 0 -56.5 23t-22.5 57z" />
    <glyph glyph-name="quotedbl" unicode="&#x22;" horiz-adv-x="591" 
d="M131 844v524h121l-51 -524h-70zM362 844v524h121l-53 -524h-68z" />
    <glyph glyph-name="numbersign" unicode="#" horiz-adv-x="1253" 
d="M1120 326h-329l-99 -326h-88l98 326h-258l-98 -326h-88l98 326h-266v84h291l65 223h-315v84h340l82 268h88l-80 -268h256l82 268h88l-80 -268h254v-84h-278l-68 -223h305v-84zM537 633l-68 -223h258l66 223h-256z" />
    <glyph glyph-name="dollar" unicode="$" horiz-adv-x="874" 
d="M412 -217v199q-148 5 -237 70.5t-109 191.5l104 16q15 -91 78 -142t164 -57v396l-60 12q-248 51 -248 266q0 67 25 118t69 82t97.5 48t116.5 21v172h73v-175q268 -12 301 -256l-104 -14q-23 165 -197 187v-375l37 -6q271 -54 271 -285q0 -124 -82.5 -191.5t-225.5 -76.5
v-201h-73zM690 246q0 76 -42.5 121t-129.5 67l-33 8v-379q97 9 151 55t54 128zM207 743q0 -75 44.5 -118.5t135.5 -61.5l25 -4v361q-93 -5 -149 -50t-56 -127z" />
    <glyph glyph-name="percent" unicode="%" horiz-adv-x="1675" 
d="M352 471q-133 0 -204.5 103.5t-71.5 271.5q0 166 74 270.5t202 104.5q127 0 201 -104.5t74 -270.5q0 -168 -72.5 -271.5t-202.5 -103.5zM352 1141q-89 0 -137.5 -81.5t-48.5 -215.5q0 -131 49.5 -215t136.5 -84q86 0 135.5 84t49.5 215q0 134 -49 215.5t-136 81.5zM465 0
l663 1208h84l-661 -1208h-86zM1325 -12q-132 0 -204 103t-72 271q0 166 74 270.5t202 104.5t202.5 -104.5t74.5 -270.5q0 -167 -73.5 -270.5t-203.5 -103.5zM1325 657q-87 0 -136.5 -82t-49.5 -215q0 -131 49.5 -214t136.5 -83t136.5 83t49.5 214q0 133 -49.5 215t-136.5 82
z" />
    <glyph glyph-name="ampersand" unicode="&#x26;" horiz-adv-x="1085" 
d="M1053 49l-74 -67l-158 163q-148 -163 -387 -163q-172 0 -273.5 79.5t-101.5 231.5q0 227 277 354l-49 53q-121 125 -121 254q0 124 81 197.5t214 73.5q139 0 217 -73.5t78 -190.5q0 -113 -64.5 -188.5t-202.5 -143.5l326 -340q72 114 82 301l98 -23q-21 -214 -112 -344z
M162 295q0 -108 75 -168.5t197 -60.5q202 0 330 141l-369 379q-116 -54 -174.5 -120.5t-58.5 -170.5zM461 1143q-90 0 -143.5 -49.5t-53.5 -135.5q0 -55 26 -102.5t85 -110.5l55 -59q117 56 171 116t54 152q0 84 -48.5 136.5t-145.5 52.5z" />
    <glyph glyph-name="quotesingle" unicode="'" horiz-adv-x="362" 
d="M131 844v524h121l-51 -524h-70z" />
    <glyph glyph-name="parenleft" unicode="(" horiz-adv-x="659" 
d="M266 477q0 -266 88 -467t273 -424h-121q-106 126 -177.5 248t-119 289.5t-47.5 353.5t47.5 353.5t119 289.5t177.5 248h121q-91 -110 -152.5 -202.5t-111.5 -201t-73.5 -228.5t-23.5 -259z" />
    <glyph glyph-name="parenright" unicode=")" horiz-adv-x="659" 
d="M395 477q0 139 -23.5 259t-73 228.5t-111 201t-152.5 202.5h119q164 -192 254 -405t90 -486t-90 -486t-254 -405h-119q90 109 152 202.5t111.5 202t73 228.5t23.5 258z" />
    <glyph glyph-name="asterisk" unicode="*" horiz-adv-x="696" 
d="M395 1206l-14 -217l199 84l28 -90l-213 -47l144 -170l-78 -53l-113 184l-112 -186l-76 57l141 168l-213 47l31 88l198 -82l-16 217h94z" />
    <glyph glyph-name="plus" unicode="+" horiz-adv-x="1038" 
d="M100 543h379v368h72v-368h385v-70h-385v-397h-72v397h-379v70z" />
    <glyph glyph-name="comma" unicode="," horiz-adv-x="501" 
d="M350 23q0 -104 -59 -159t-168 -61v58q136 13 139 129q0 14 -2 18q-13 -10 -31 -10q-33 0 -53 21.5t-20 54.5q0 38 24 60t64 22q44 0 75 -35.5t31 -97.5z" />
    <glyph glyph-name="hyphen" unicode="-" horiz-adv-x="763" 
d="M152 500v90h458v-90h-458z" />
    <glyph glyph-name="period" unicode="." horiz-adv-x="503" 
d="M166 80q0 37 24.5 61.5t61.5 24.5t61.5 -24.5t24.5 -61.5t-24.5 -61.5t-61.5 -24.5t-61.5 24.5t-24.5 61.5z" />
    <glyph glyph-name="slash" unicode="/" horiz-adv-x="776" 
d="M29 -416l561 1786h100l-563 -1786h-98z" />
    <glyph glyph-name="zero" unicode="0" horiz-adv-x="1161" 
d="M582 -18q-114 0 -207 40t-153 109t-92 161.5t-32 199.5q0 108 32 200.5t92 162t152.5 109.5t207.5 40q150 0 260.5 -69t165.5 -184t55 -259q0 -220 -128.5 -365t-352.5 -145zM582 911q-179 0 -278 -117t-99 -302q0 -187 99 -303.5t278 -116.5q178 0 276 116.5t98 303.5
q0 185 -98.5 302t-275.5 117z" />
    <glyph glyph-name="one" unicode="1" horiz-adv-x="659" 
d="M434 0h-104v881l-289 -66v90l393 94v-999z" />
    <glyph glyph-name="two" unicode="2" horiz-adv-x="888" 
d="M815 90v-90h-743v90q577 245 577 588q0 117 -65.5 177t-171.5 60q-100 0 -163.5 -60t-76.5 -183l-98 20q12 87 45.5 149.5t82 97t102.5 50t116 15.5q93 0 167 -31.5t122.5 -106t48.5 -184.5q0 -105 -48 -202.5t-127.5 -170.5t-173.5 -127.5t-194 -85.5v-6h600z" />
    <glyph glyph-name="three" unicode="3" horiz-adv-x="890" 
d="M436 391v-8q153 -11 251.5 -100.5t98.5 -229.5q0 -102 -53 -180t-137.5 -117t-185.5 -39q-171 0 -274 77.5t-118 209.5l101 19q39 -222 289 -222q122 0 198 68.5t76 185.5q0 126 -98 199.5t-301 83.5v88q187 15 277.5 83t90.5 196q0 102 -68 156t-171 54
q-98 0 -163.5 -53t-86.5 -160l-99 23q24 127 115 203t238 76q69 0 129 -18t108.5 -53t76.5 -93.5t28 -134.5q0 -129 -88 -215t-234 -99z" />
    <glyph glyph-name="four" unicode="4" horiz-adv-x="1003" 
d="M643 -268v379h-612v73l612 801h105v-786h200v-88h-200v-379h-105zM293 199h350v471q0 55 2 104t4 70l2 22h-6q-37 -65 -121 -180l-266 -350q-33 -43 -62 -77t-42 -47l-13 -13v-6q52 6 152 6z" />
    <glyph glyph-name="five" unicode="5" horiz-adv-x="888" 
d="M156 324l26 661h580v-92h-488l-22 -498q77 88 221 88q153 0 248.5 -98.5t95.5 -280.5q0 -187 -110.5 -288t-292.5 -101q-160 0 -257.5 79.5t-111.5 211.5l92 19q17 -111 92 -169.5t189 -58.5q134 0 216.5 77t82.5 226q0 141 -74.5 222t-200.5 81q-114 0 -204 -79h-82z
" />
    <glyph glyph-name="six" unicode="6" horiz-adv-x="1015" 
d="M905 989l-94 -37q-64 185 -248 185q-159 0 -256.5 -146.5t-103.5 -421.5v-90h4q23 137 114 213t224 76q177 0 281 -109t104 -282q0 -109 -44.5 -197t-138 -143t-221.5 -55q-232 0 -342 200q-75 144 -75 387q0 162 36.5 289.5t100 206.5t145 119.5t176.5 40.5
q126 0 212 -60t126 -176zM242 371q0 -133 81 -218t209 -85q133 0 214 84.5t81 218.5q0 137 -81.5 222t-213.5 85q-130 0 -210 -85t-80 -222z" />
    <glyph glyph-name="seven" unicode="7" horiz-adv-x="892" 
d="M709 893h-562v-178h-100v270h772v-76l-463 -1177h-104z" />
    <glyph glyph-name="eight" unicode="8" horiz-adv-x="987" 
d="M494 -18q-176 0 -285 87t-109 238q0 114 66 194t178 107v8q-103 30 -160 103.5t-57 185.5q0 144 101 232t266 88t265.5 -88t100.5 -232q0 -112 -57 -185.5t-160 -103.5v-8q114 -26 180 -106t66 -195q0 -151 -109 -238t-286 -87zM494 1145q-122 0 -192.5 -65t-70.5 -175
q0 -121 71.5 -184.5t191.5 -63.5q121 0 191.5 63.5t70.5 184.5q0 110 -69.5 175t-192.5 65zM494 571q-129 0 -211 -66.5t-82 -187.5q0 -119 80.5 -187.5t212.5 -68.5q133 0 212.5 68.5t79.5 187.5q0 121 -81.5 187.5t-210.5 66.5z" />
    <glyph glyph-name="nine" unicode="9" horiz-adv-x="1009" 
d="M68 -43l94 37q64 -195 270 -195q95 0 167 46.5t116 131.5t67 196t25 247v90h-6q-18 -144 -110 -222.5t-226 -78.5q-177 0 -282 110.5t-105 280.5q0 81 25 153t73 128.5t125.5 89.5t175.5 33q203 0 318 -150q106 -145 106 -436q0 -333 -123.5 -517t-347.5 -184
q-140 0 -231.5 61.5t-130.5 178.5zM768 608q0 136 -82.5 223t-210.5 87q-134 0 -216.5 -86.5t-82.5 -223.5q0 -140 81 -226.5t218 -86.5q129 0 211 87.5t82 225.5z" />
    <glyph glyph-name="colon" unicode=":" horiz-adv-x="503" 
d="M166 80q0 37 24.5 61.5t61.5 24.5t61.5 -24.5t24.5 -61.5t-24.5 -61.5t-61.5 -24.5t-61.5 24.5t-24.5 61.5zM166 803q0 37 24.5 61.5t61.5 24.5t61.5 -24.5t24.5 -61.5t-24.5 -61.5t-61.5 -24.5t-61.5 24.5t-24.5 61.5z" />
    <glyph glyph-name="semicolon" unicode=";" horiz-adv-x="501" 
d="M156 803q0 37 25 61.5t63 24.5q37 0 61.5 -24.5t24.5 -61.5t-24.5 -61.5t-61.5 -24.5q-38 0 -63 24.5t-25 61.5zM350 23q0 -104 -59 -159t-168 -61v58q136 13 139 129q0 14 -2 18q-13 -10 -31 -10q-33 0 -53 21.5t-20 54.5q0 38 24 60t64 22q44 0 75 -35.5t31 -97.5z" />
    <glyph glyph-name="less" unicode="&#x3c;" horiz-adv-x="794" 
d="M664 885l-455 -379l455 -383l-46 -53l-518 436l518 434z" />
    <glyph glyph-name="equal" unicode="=" horiz-adv-x="1038" 
d="M936 336h-836v70h836v-70zM936 596h-836v72h836v-72z" />
    <glyph glyph-name="greater" unicode="&#x3e;" horiz-adv-x="794" 
d="M573 506l-452 379l43 55l516 -434l-516 -436l-45 53z" />
    <glyph glyph-name="question" unicode="?" horiz-adv-x="792" 
d="M106 920l-90 32q26 124 116 198.5t239 74.5q166 0 265 -95t99 -251q0 -88 -31 -159t-83.5 -114.5t-116.5 -66.5t-135 -25v-192h-99v262h58q135 0 218 71.5t83 216.5q0 129 -71.5 197t-192.5 68q-104 0 -171.5 -55.5t-87.5 -161.5zM240 74q0 35 23.5 58.5t58.5 23.5
q34 0 56.5 -23.5t22.5 -58.5q0 -34 -22.5 -57t-56.5 -23q-35 0 -58.5 23t-23.5 57z" />
    <glyph glyph-name="at" unicode="@" horiz-adv-x="1773" 
d="M1118 334v166q0 85 -37.5 144t-92 84.5t-118.5 25.5q-126 0 -199 -87t-73 -270q0 -164 70.5 -249t193.5 -85q65 0 121 27.5t95 91t40 152.5zM1214 821v-622q0 -68 33 -103t92 -35q123 0 180.5 118.5t57.5 330.5q0 193 -86.5 336t-238.5 217t-351 74q-150 0 -279 -49
t-225.5 -140.5t-151.5 -232.5t-55 -316q0 -110 22 -205t61 -168t95 -132t122.5 -99.5t144 -68t159 -40t169.5 -12.5q212 0 376 62l21 -84q-186 -62 -399 -62q-136 0 -258 25.5t-235 85.5t-194.5 151t-130.5 231t-49 316q0 241 96 426.5t281 290.5t434 105q152 0 278.5 -36.5
t216 -101t151 -154t91 -194.5t29.5 -223q0 -526 -338 -526q-95 0 -153 46.5t-62 137.5q-30 -94 -104 -141t-180 -47q-147 0 -241.5 106t-94.5 307q0 212 96.5 326.5t269.5 114.5q96 0 164 -46.5t90 -113.5l33 145h63z" />
    <glyph glyph-name="A" unicode="A" horiz-adv-x="1095" 
d="M961 0l-144 383h-541l-143 -383h-113l459 1206h142l454 -1206h-114zM444 836l-135 -361h473l-133 359q-31 82 -55.5 157t-33.5 109l-9 35h-8q-29 -115 -99 -299z" />
    <glyph glyph-name="B" unicode="B" horiz-adv-x="1026" 
d="M664 627v-6q115 -6 194.5 -80.5t79.5 -204.5q0 -336 -424 -336h-336v1206h332q192 0 283.5 -75.5t91.5 -229.5q0 -118 -60 -188t-161 -86zM287 659h227q123 0 192.5 55.5t69.5 172.5q0 120 -69.5 173.5t-208.5 53.5h-211v-455zM287 569v-477h237q307 0 307 248
q0 109 -75.5 169t-227.5 60h-241z" />
    <glyph glyph-name="C" unicode="C" horiz-adv-x="1130" 
d="M991 299l78 -61q-70 -130 -178.5 -193t-269.5 -63q-240 0 -381.5 161t-141.5 457t148 460.5t393 164.5q315 0 430 -287l-96 -47q-43 119 -129.5 180.5t-210.5 61.5q-200 0 -311 -142t-111 -391q0 -247 107 -384.5t307 -137.5q131 0 218.5 53t147.5 168z" />
    <glyph glyph-name="D" unicode="D" horiz-adv-x="1189" 
d="M287 92h213q225 0 352 132t127 388t-123 379t-346 123h-223v-1022zM510 0h-332v1206h334q131 0 234.5 -33t182 -102t121 -184.5t42.5 -270.5q0 -130 -30.5 -235t-84 -175t-128 -117t-159 -68t-180.5 -21z" />
    <glyph glyph-name="E" unicode="E" horiz-adv-x="970" 
d="M864 94v-94h-686v1206h686v-94h-577v-461h514v-94h-514v-463h577z" />
    <glyph glyph-name="F" unicode="F" horiz-adv-x="892" 
d="M287 0h-109v1206h658v-94h-549v-461h485v-94h-485v-557z" />
    <glyph glyph-name="G" unicode="G" horiz-adv-x="1216" 
d="M645 590h434v-590h-94l-14 207q-32 -104 -129 -164.5t-221 -60.5q-240 0 -381.5 161.5t-141.5 456.5q0 296 148 460.5t393 164.5q163 0 269 -70.5t161 -216.5l-96 -47q-43 119 -129.5 180.5t-210.5 61.5q-200 0 -311 -142t-111 -391q0 -244 107.5 -385t306.5 -141
q69 0 129 18t109.5 55.5t78.5 102t29 149.5v93h-326v98z" />
    <glyph glyph-name="H" unicode="H" horiz-adv-x="1269" 
d="M287 0h-109v1206h109v-549h696v549h107v-1206h-107v561h-696v-561z" />
    <glyph glyph-name="I" unicode="I" horiz-adv-x="464" 
d="M178 1206h109v-1206h-109v1206z" />
    <glyph glyph-name="J" unicode="J" horiz-adv-x="872" 
d="M627 1206h106v-854q0 -81 -18.5 -145t-50.5 -106t-77.5 -69t-96 -38.5t-109.5 -11.5q-265 0 -363 241l88 56q44 -108 110.5 -156.5t168.5 -48.5q124 0 183 74t59 231v827z" />
    <glyph glyph-name="K" unicode="K" horiz-adv-x="1024" 
d="M993 0h-135l-469 561h-102v-561h-109v1206h109v-549h106l441 549h129l-482 -592z" />
    <glyph glyph-name="L" unicode="L" horiz-adv-x="892" 
d="M178 1206h109v-1112h561v-94h-670v1206z" />
    <glyph glyph-name="M" unicode="M" horiz-adv-x="1439" 
d="M762 301h-84l-297 553q-33 62 -57 115.5t-32 76.5l-7 23h-6q6 -76 6 -221v-848h-107v1206h133l353 -669q19 -36 33.5 -68.5t18.5 -46.5l5 -14h6q14 47 57 129l351 669h127v-1206h-107v848q0 64 1.5 119.5t3.5 78.5l1 23h-6q-22 -76 -96 -215z" />
    <glyph glyph-name="N" unicode="N" horiz-adv-x="1288" 
d="M295 1206l573 -839q35 -50 69 -106t51 -87l16 -31h6q-6 119 -6 254v809h106v-1206h-115l-575 840q-34 48 -67.5 104t-50.5 88l-17 31h-9q9 -119 9 -254v-809h-107v1206h117z" />
    <glyph glyph-name="O" unicode="O" horiz-adv-x="1245" 
d="M623 -18q-243 0 -384 162.5t-141 457.5q0 296 141.5 459.5t383.5 163.5t383 -163.5t141 -459.5q0 -295 -140.5 -457.5t-383.5 -162.5zM623 1130q-199 0 -305.5 -139.5t-106.5 -388.5t106.5 -387.5t305.5 -138.5t306 139t107 387q0 249 -107 388.5t-306 139.5z" />
    <glyph glyph-name="P" unicode="P" horiz-adv-x="972" 
d="M287 1114v-549h213q158 0 228.5 69.5t70.5 211.5q0 268 -301 268h-211zM287 0h-109v1206h324q409 0 409 -356q0 -183 -101 -279t-300 -96h-223v-475z" />
    <glyph glyph-name="Q" unicode="Q" horiz-adv-x="1245" 
d="M1026 -180l-29 -94q-30 -5 -53 -5q-156 0 -253.5 70t-135.5 195q-214 22 -335.5 182.5t-121.5 433.5q0 296 141.5 459.5t383.5 163.5t383 -163.5t141 -459.5q0 -281 -129.5 -444t-351.5 -174q80 -170 303 -170q30 0 57 6zM623 1130q-199 0 -305.5 -139.5t-106.5 -388.5
t106.5 -388.5t305.5 -139.5t306 139.5t107 388.5t-107 388.5t-306 139.5z" />
    <glyph glyph-name="R" unicode="R" horiz-adv-x="1085" 
d="M1012 0h-119q-39 44 -57 121l-50 215q-26 107 -89.5 150.5t-182.5 43.5h-227v-530h-109v1206h373q395 0 395 -332q0 -136 -80.5 -215.5t-199.5 -85.5v-4q91 -9 143 -55.5t78 -146.5l57 -234q20 -79 68 -133zM287 1114v-491h262q285 0 285 245q0 246 -285 246h-262z" />
    <glyph glyph-name="S" unicode="S" horiz-adv-x="952" 
d="M63 303l103 21q43 -256 301 -256q131 0 206 58t75 169q0 104 -64.5 162t-228.5 112q-47 15 -77 25.5t-71 28t-66.5 34.5t-54 43t-45 54.5t-27 67.5t-10.5 85q0 85 30.5 149t83 100t114 53.5t131.5 17.5q350 0 385 -318l-105 -16q-34 246 -278 246q-114 0 -184 -56.5
t-70 -167.5q0 -32 7.5 -59t19 -47.5t34 -39t43.5 -32t57.5 -28.5t66.5 -25.5t79 -26.5q63 -21 108 -39.5t91.5 -48t74.5 -64t46 -85t18 -113.5q0 -159 -107.5 -242t-283.5 -83q-353 0 -402 321z" />
    <glyph glyph-name="T" unicode="T" horiz-adv-x="952" 
d="M530 0h-108v1112h-393v94h895v-94h-394v-1112z" />
    <glyph glyph-name="U" unicode="U" horiz-adv-x="1175" 
d="M930 1206h106v-794q0 -91 -24.5 -164t-66 -122t-99.5 -82t-122 -47.5t-136 -14.5q-92 0 -170.5 24t-142 73.5t-100 134.5t-36.5 198v794h109v-772q0 -186 94 -274t246 -88t247 87.5t95 270.5v776z" />
    <glyph glyph-name="V" unicode="V" horiz-adv-x="1052" 
d="M145 1206l306 -880q26 -77 45 -140t24 -88l6 -24h6q13 78 72 250l307 882h111l-424 -1206h-145l-424 1206h116z" />
    <glyph glyph-name="W" unicode="W" horiz-adv-x="1615" 
d="M872 1206l226 -825q22 -81 40 -158.5t26 -114.5l7 -38h9q22 123 73 309l226 827h108l-338 -1206h-151l-219 801q-23 82 -40 157.5t-23 110.5l-5 35h-6q-17 -113 -68 -303l-219 -801h-151l-338 1206h114l226 -823q23 -84 41 -162t25 -115l7 -36h7q22 127 73 311l232 825
h118z" />
    <glyph glyph-name="X" unicode="X" horiz-adv-x="1028" 
d="M879 0l-279 410q-32 46 -53 80t-26 44l-5 11h-6q-14 -31 -86 -137l-274 -408h-121l424 616l-400 590h125l250 -375q33 -50 54 -85t26 -44l4 -10h6q12 28 84 137l250 377h117l-396 -579l424 -627h-118z" />
    <glyph glyph-name="Y" unicode="Y" horiz-adv-x="960" 
d="M152 1206l241 -442q33 -60 56.5 -107.5t30.5 -65.5l7 -18h7q18 56 90 191l233 442h113l-389 -723v-483h-107v483l-405 723h123z" />
    <glyph glyph-name="Z" unicode="Z" horiz-adv-x="952" 
d="M891 1133l-594 -887q-29 -44 -56 -81.5t-39 -52.5l-12 -16v-6q43 4 172 4h541v-94h-846v63l594 898q30 44 57 81.5t38 52.5l12 15v6q-43 -4 -172 -4h-506v94h811v-73z" />
    <glyph glyph-name="bracketleft" unicode="[" horiz-adv-x="643" 
d="M281 1288v-1622h299v-82h-398v1786h398v-82h-299z" />
    <glyph glyph-name="backslash" unicode="\" horiz-adv-x="776" 
d="M184 1370l561 -1786h-98l-561 1786h98z" />
    <glyph glyph-name="bracketright" unicode="]" horiz-adv-x="643" 
d="M362 -334v1622h-299v82h398v-1786h-398v82h299z" />
    <glyph glyph-name="asciicircum" unicode="^" horiz-adv-x="983" 
d="M793 676l-201 387q-33 63 -57 118t-31 79l-8 24h-7q-22 -80 -98 -221l-205 -387h-106l371 692h81l371 -692h-110z" />
    <glyph glyph-name="underscore" unicode="_" horiz-adv-x="929" 
d="M111 -178v88h708v-88h-708z" />
    <glyph glyph-name="grave" unicode="`" horiz-adv-x="641" 
d="M463 1092h-88l-203 278h145z" />
    <glyph glyph-name="a" unicode="a" horiz-adv-x="927" 
d="M653 297v156q-50 6 -98 6q-369 0 -369 -213q0 -83 52.5 -131.5t150.5 -48.5q106 0 185 62t79 169zM758 674v-477q0 -64 19 -91.5t57 -27.5q27 0 43 8v-86q-32 -8 -64 -8q-146 0 -154 168q-32 -88 -110.5 -133t-179.5 -45q-132 0 -209.5 67.5t-77.5 186.5q0 147 113.5 224
t339.5 77q68 0 118 -7v132q0 215 -221 215q-205 0 -221 -191l-96 14q5 72 34.5 125.5t76.5 83t100.5 43t115.5 13.5q68 0 122.5 -15t99.5 -48t69.5 -91t24.5 -137z" />
    <glyph glyph-name="b" unicode="b" horiz-adv-x="1050" 
d="M260 547v-176q0 -77 24.5 -138t65 -97t89 -54.5t100.5 -18.5q138 0 224.5 106.5t86.5 313.5q0 193 -78 292t-213 99q-128 0 -213.5 -85t-85.5 -242zM250 174l-25 -174h-69v1368h104v-631q30 108 116.5 168t201.5 60q175 0 276.5 -122t101.5 -351q0 -231 -108.5 -370.5
t-294.5 -139.5q-120 0 -197.5 54t-105.5 138z" />
    <glyph glyph-name="c" unicode="c" horiz-adv-x="915" 
d="M754 262l88 -18q-24 -135 -117.5 -198.5t-237.5 -63.5q-183 0 -288 125t-105 362q0 235 108 365.5t298 130.5q151 0 235 -76t96 -225l-96 -15q-28 225 -241 225q-144 0 -221.5 -108.5t-77.5 -298.5q0 -185 81 -292t220 -107q208 0 258 194z" />
    <glyph glyph-name="d" unicode="d" horiz-adv-x="1050" 
d="M791 385v193q0 76 -25 135.5t-67 94.5t-90.5 53t-100.5 18q-141 0 -225 -102t-84 -316q0 -192 80.5 -292.5t218.5 -100.5q54 0 104.5 19.5t93 56.5t68.5 99.5t27 141.5zM791 776v592h104v-1368h-90l-14 199q-34 -107 -119 -162t-201 -55q-164 0 -270.5 124t-106.5 353
q0 244 108.5 375t303.5 131q106 0 184 -55t101 -134z" />
    <glyph glyph-name="e" unicode="e" horiz-adv-x="937" 
d="M502 66q102 0 163 44.5t87 141.5l92 -21q-48 -249 -350 -249q-187 0 -293.5 125.5t-106.5 363.5q0 233 108.5 363.5t297.5 130.5q167 0 256.5 -104t89.5 -273q0 -59 -12 -121h-639q0 -190 81 -295.5t226 -105.5zM199 553h542q2 18 2 55q0 119 -65.5 195t-183.5 76
q-130 0 -205.5 -85t-89.5 -241z" />
    <glyph glyph-name="f" unicode="f" horiz-adv-x="526" 
d="M182 860h-137v86h137v133q0 154 76.5 228.5t200.5 74.5q105 0 178 -45l-29 -90q-71 49 -147 49q-174 0 -174 -219v-131h241v-86h-241v-860h-105v860z" />
    <glyph glyph-name="g" unicode="g" horiz-adv-x="942" 
d="M455 965q177 0 274 -105q75 41 84 168l94 -31q-14 -144 -137 -190q41 -71 41 -172q0 -152 -99 -238t-255 -86q-77 0 -138 21q-79 -37 -79 -111q0 -98 137 -98h215q145 0 228 -62t83 -190q0 -69 -28.5 -122.5t-74 -87t-109 -55t-128 -30t-135.5 -8.5q-82 0 -150.5 13
t-127 41.5t-92 81.5t-33.5 126q0 104 69.5 168t181.5 70q-61 4 -95 41.5t-34 95.5q0 109 119 147q-78 39 -122 112t-44 171q0 153 97 241.5t258 88.5zM125 -162q0 -67 42.5 -110.5t110 -61.5t158.5 -18q76 0 139 11t116 34.5t82.5 66t29.5 101.5q0 80 -53.5 124t-159.5 44
h-201q-123 0 -193.5 -47t-70.5 -144zM203 637q0 -113 67.5 -179.5t184.5 -66.5q116 0 184 64.5t68 181.5t-68 181.5t-184 64.5q-118 -2 -185 -66.5t-67 -179.5z" />
    <glyph glyph-name="h" unicode="h" horiz-adv-x="1003" 
d="M262 1368v-637q30 107 109.5 170.5t195.5 63.5q132 0 211.5 -74t79.5 -225v-666h-104v639q0 112 -54.5 172.5t-154.5 60.5q-122 0 -202.5 -85t-80.5 -250v-537h-104v1368h104z" />
    <glyph glyph-name="i" unicode="i" horiz-adv-x="419" 
d="M133 1237q0 34 22 57t54 23q34 0 57 -23t23 -57q0 -32 -23 -54t-57 -22q-32 0 -54 22t-22 54zM158 946h104v-946h-104v946z" />
    <glyph glyph-name="j" unicode="j" horiz-adv-x="419" 
d="M158 946h104v-1028q0 -181 -87 -260t-261 -74v88q123 -6 183.5 50.5t60.5 185.5v1038zM133 1237q0 34 23 57t55 23t55 -23t23 -57q0 -32 -23 -54t-55 -22t-55 22t-23 54z" />
    <glyph glyph-name="k" unicode="k" horiz-adv-x="878" 
d="M426 504l440 -504h-133l-389 453h-82v-453h-104v1368h104v-829h74l362 407h129z" />
    <glyph glyph-name="l" unicode="l" horiz-adv-x="460" 
d="M399 90v-90q-44 -10 -82 -10q-81 0 -127.5 45.5t-46.5 132.5v1200h105v-1186q0 -102 88 -102q30 0 63 10z" />
    <glyph glyph-name="m" unicode="m" horiz-adv-x="1552" 
d="M819 729q30 112 112 174t193 62q130 0 205.5 -72.5t75.5 -220.5v-672h-105v639q0 113 -50 173t-148 60q-114 0 -191 -88t-77 -247v-537h-105v639q0 113 -50.5 173t-146.5 60q-115 0 -192.5 -88t-77.5 -247v-537h-104v946h80l14 -215q30 111 111 172.5t192 61.5
q238 0 264 -236z" />
    <glyph glyph-name="n" unicode="n" horiz-adv-x="1007" 
d="M238 946l14 -217q33 109 116 172.5t201 63.5q131 0 210 -74t79 -225v-666h-104v639q0 113 -54 173t-155 60q-121 0 -202 -85.5t-81 -249.5v-537h-104v946h80z" />
    <glyph glyph-name="o" unicode="o" 
d="M498 -18q-189 0 -296.5 128.5t-107.5 366.5q0 236 107.5 362t296.5 126q191 0 298 -126t107 -362q0 -239 -107 -367t-298 -128zM498 877q-147 0 -224 -101t-77 -299q0 -202 77 -306.5t224 -104.5q148 0 225.5 104.5t77.5 306.5q0 198 -77 299t-226 101z" />
    <glyph glyph-name="p" unicode="p" horiz-adv-x="1052" 
d="M262 547v-176q0 -77 24.5 -138t65 -97t89.5 -54.5t102 -18.5q138 0 223.5 106t85.5 314q0 193 -78 292t-213 99q-127 0 -212.5 -85t-86.5 -242zM262 168v-584h-104v1362h80l14 -209q34 110 126 169t204 59q174 0 275 -122t101 -351q0 -231 -108 -370.5t-295 -139.5
q-115 0 -190 52.5t-103 133.5z" />
    <glyph glyph-name="q" unicode="q" horiz-adv-x="1052" 
d="M791 387v191q0 76 -25 135.5t-67 94.5t-90.5 53t-100.5 18q-141 0 -225 -102t-84 -316q0 -192 80.5 -292.5t218.5 -100.5q54 0 104.5 19.5t93 56.5t68.5 100t27 143zM791 778l32 168h72v-1362h-104v615q-34 -107 -119 -162t-201 -55q-164 0 -270.5 124t-106.5 353
q0 244 108.5 375t303.5 131q104 0 182 -54.5t103 -132.5z" />
    <glyph glyph-name="r" unicode="r" horiz-adv-x="673" 
d="M633 952l-10 -114q-32 14 -88 14q-119 0 -196 -102.5t-77 -257.5v-492h-104v946h86l14 -268q22 131 103 208t208 77q35 0 64 -11z" />
    <glyph glyph-name="s" unicode="s" horiz-adv-x="817" 
d="M59 219l99 29q15 -93 80 -139t168 -46q235 0 235 168q0 77 -45 121t-143 68l-123 31q-120 29 -178 87.5t-58 163.5q0 70 26 122t71.5 82t100.5 44.5t118 14.5q141 0 222 -59.5t99 -190.5l-100 -13q-12 93 -66.5 137t-154.5 44q-101 0 -159 -43.5t-58 -126.5
q0 -73 39 -111.5t130 -60.5l121 -31q129 -34 192.5 -92.5t63.5 -175.5q0 -131 -89.5 -195.5t-243.5 -64.5q-294 0 -347 237z" />
    <glyph glyph-name="t" unicode="t" horiz-adv-x="628" 
d="M565 129l29 -84q-72 -63 -203 -63q-111 0 -170 61t-59 178v639h-137v86h137v201l104 14v-215h283v-86h-285v-620q0 -168 139 -168q51 0 87 13t75 44z" />
    <glyph glyph-name="u" unicode="u" 
d="M752 0l-15 207q-31 -109 -110.5 -167t-196.5 -58q-136 0 -212.5 75t-76.5 236v653h105v-641q0 -244 211 -244q115 0 196.5 90.5t81.5 245.5v549h105v-946h-88z" />
    <glyph glyph-name="v" unicode="v" horiz-adv-x="854" 
d="M369 0l-344 946h114l228 -647q22 -63 37.5 -120.5t20.5 -84.5l5 -26h6q13 90 60 229l223 649h108l-335 -946h-123z" />
    <glyph glyph-name="w" unicode="w" horiz-adv-x="1292" 
d="M705 946l167 -594q24 -84 39.5 -153.5t18.5 -96.5l4 -28h6q8 88 59 278l162 594h107l-267 -946h-127l-161 563q-24 84 -40 153t-20 96l-4 28h-6q-10 -89 -63 -277l-158 -563h-127l-270 946h108l164 -594q23 -82 38.5 -151.5t20.5 -98.5l4 -28h7q8 92 59 278l168 594h111z
" />
    <glyph glyph-name="x" unicode="x" horiz-adv-x="827" 
d="M682 0l-190 281q-31 46 -49.5 79t-21.5 42l-3 10h-8q-6 -24 -80 -133l-189 -279h-112l327 481l-309 465h121l168 -258q31 -49 51 -83t25 -43l4 -9h6q8 27 76 133l170 260h114l-309 -463l326 -483h-117z" />
    <glyph glyph-name="y" unicode="y" horiz-adv-x="854" 
d="M137 946l228 -651q21 -61 36.5 -117t20.5 -82l6 -26h6q19 86 64 221l223 655h108l-350 -995q-71 -203 -151.5 -290t-198.5 -87q-70 0 -133 29l12 90q56 -33 123 -33q84 0 138 66.5t112 234.5l-356 985h112z" />
    <glyph glyph-name="z" unicode="z" horiz-adv-x="792" 
d="M723 874l-440 -634q-30 -44 -58 -81.5t-41 -52.5l-12 -16v-6q49 4 178 4h393v-88h-694v59l443 646q30 44 57.5 81.5t40.5 52.5l12 15v6q-49 -4 -178 -4h-352v90h651v-72z" />
    <glyph glyph-name="braceleft" unicode="{" horiz-adv-x="804" 
d="M190 524q67 0 106.5 38t39.5 136v412q0 133 55.5 203.5t181.5 70.5q98 0 181 -34l-23 -80q-76 35 -143 35q-156 0 -156 -199v-418q0 -104 -38 -149.5t-113 -53.5v-6q74 -8 112.5 -54.5t38.5 -148.5v-417q0 -199 156 -199q67 0 143 35l23 -80q-85 -35 -181 -35
q-126 0 -181.5 71t-55.5 204v411q0 98 -39.5 136t-106.5 38h-90v84h90z" />
    <glyph glyph-name="bar" unicode="|" horiz-adv-x="522" 
d="M307 -416h-94v1786h94v-1786z" />
    <glyph glyph-name="braceright" unicode="}" horiz-adv-x="804" 
d="M614 524h88v-84h-88q-67 0 -106 -38t-39 -136v-411q0 -133 -56 -204t-182 -71q-95 0 -180 35l23 80q76 -35 143 -35q156 0 156 199v417q0 102 38.5 148.5t112.5 54.5v6q-75 8 -113 53.5t-38 149.5v418q0 199 -156 199q-67 0 -143 -35l-23 80q83 34 180 34
q127 0 182.5 -70.5t55.5 -203.5v-412q0 -98 39 -136t106 -38z" />
    <glyph glyph-name="asciitilde" unicode="~" horiz-adv-x="892" 
d="M590 424q-27 0 -57 10.5t-44.5 19t-50.5 31.5q-5 3 -20.5 13t-20.5 13.5t-17 10.5t-19 10t-17 6.5t-19 5t-18 1.5q-88 0 -65 -121h-70q-33 90 4.5 153.5t120.5 63.5q33 0 65 -11t47.5 -20.5t53.5 -34.5q30 -22 45 -31.5t35.5 -17.5t40.5 -8q84 0 67 125h72
q32 -94 -6 -156.5t-127 -62.5z" />
    <glyph glyph-name="nbspace" unicode="&#xa0;" horiz-adv-x="313" 
 />
    <glyph glyph-name="exclamdown" unicode="&#xa1;" horiz-adv-x="460" 
d="M297 -254h-135l33 866h71zM150 879q0 35 22.5 58.5t56.5 23.5q35 0 58.5 -23.5t23.5 -58.5t-23.5 -57.5t-58.5 -22.5q-34 0 -56.5 22.5t-22.5 57.5z" />
    <glyph glyph-name="cent" unicode="&#xa2;" horiz-adv-x="1013" 
d="M506 -217v201q-185 12 -294.5 141.5t-109.5 363.5q0 229 109 363t295 149v175h74v-172q129 -4 214.5 -62.5t135.5 -173.5l-96 -51q-68 184 -254 196v-843q95 4 159.5 47t108.5 131l82 -55q-110 -199 -350 -211v-199h-74zM209 496q0 -184 77.5 -294.5t219.5 -127.5v837
q-144 -17 -220.5 -126t-76.5 -289z" />
    <glyph glyph-name="sterling" unicode="&#xa3;" horiz-adv-x="1026" 
d="M680 424h-307q35 -99 35 -154q0 -69 -28.5 -115.5t-76.5 -64.5h381q73 0 117.5 24.5t58.5 88.5l86 -41q-42 -162 -250 -162h-575v94h59q56 0 91.5 46.5t35.5 121.5q0 67 -45 162h-172v74h143q-36 99 -36 194q0 81 28.5 143t77.5 98t109 53.5t129 17.5q281 0 323 -267
l-98 -16q-19 100 -75 148.5t-159 48.5q-106 0 -168.5 -56.5t-62.5 -169.5q0 -84 45 -194h334v-74z" />
    <glyph glyph-name="currency" unicode="&#xa4;" horiz-adv-x="925" 
d="M655 844l150 149l51 -51l-158 -158q41 -80 41 -188q0 -107 -37 -186l154 -152l-51 -51l-143 141q-76 -82 -199 -82q-126 0 -199 82l-143 -141l-51 51l153 152q-37 73 -37 186q0 110 39 190l-155 156l51 51l147 -149q75 78 195 78t192 -78zM463 850q-182 0 -182 -252
q0 -262 182 -262t182 262q0 252 -182 252z" />
    <glyph glyph-name="yen" unicode="&#xa5;" horiz-adv-x="931" 
d="M825 301h-305v-301h-104v301h-312v74h308l-74 131h-234v74h193l-234 405h119l201 -356q31 -56 52 -99t27 -58l5 -15h6q16 49 84 172l201 356h112l-233 -405h188v-74h-229l-76 -131h305v-74z" />
    <glyph glyph-name="brokenbar" unicode="&#xa6;" horiz-adv-x="522" 
d="M307 569h-94v801h94v-801zM307 -416h-94v801h94v-801z" />
    <glyph glyph-name="section" unicode="&#xa7;" horiz-adv-x="884" 
d="M109 31l108 14q28 -180 242 -180q94 0 155.5 41.5t61.5 124.5q0 72 -42.5 116.5t-131.5 69.5l-137 37q-119 33 -178.5 93.5t-59.5 158.5q0 80 45 136.5t119 84.5q-160 69 -160 234q0 69 26.5 122t71.5 83t98 44.5t113 14.5q149 0 230.5 -58t99.5 -190l-104 -12
q-23 176 -224 176q-97 0 -154 -43.5t-57 -128.5q0 -70 39 -110t125 -66l129 -41q59 -18 99.5 -36.5t77.5 -48t55 -72.5t18 -101q0 -79 -44 -137.5t-118 -80.5q71 -26 116.5 -88.5t45.5 -146.5q0 -131 -93 -195.5t-235 -64.5q-298 0 -337 250zM676 479q0 76 -51 118t-154 73
l-115 32q-56 -23 -92.5 -70.5t-36.5 -111.5q0 -77 47 -117.5t152 -70.5l123 -31q52 21 89.5 68t37.5 110z" />
    <glyph glyph-name="dieresis" unicode="&#xa8;" horiz-adv-x="854" 
d="M172 1219q0 32 23 54.5t55 22.5q34 0 56 -22t22 -55t-22.5 -55.5t-55.5 -22.5q-32 0 -55 23t-23 55zM524 1217q0 33 22.5 55t55.5 22t55.5 -22t22.5 -55q0 -31 -23 -53.5t-55 -22.5t-55 22.5t-23 53.5z" />
    <glyph glyph-name="copyright" unicode="&#xa9;" horiz-adv-x="1445" 
d="M961 422l69 -51q-50 -83 -123.5 -122.5t-179.5 -39.5q-161 0 -259.5 101.5t-98.5 293.5q0 188 99.5 292.5t264.5 104.5q112 0 183.5 -45t113.5 -137l-84 -47q-29 75 -81.5 111.5t-133.5 36.5q-127 0 -196.5 -82.5t-69.5 -233.5q0 -150 69.5 -231.5t200.5 -81.5
q80 0 133 31t93 100zM100 602q0 177 84 320.5t226 223t313 79.5q170 0 312.5 -79.5t226.5 -223t84 -320.5q0 -133 -49.5 -249t-133.5 -197t-198.5 -127.5t-241.5 -46.5q-171 0 -313 78.5t-226 221.5t-84 320zM154 602q0 -163 77 -295t206.5 -204t285.5 -72q157 0 287 72.5
t207 204t77 294.5t-77 295.5t-207.5 205.5t-286.5 73q-155 0 -285 -73t-207 -205.5t-77 -295.5z" />
    <glyph glyph-name="ordfeminine" unicode="&#xaa;" horiz-adv-x="694" 
d="M446 786v99q-32 4 -51 4q-116 0 -172.5 -32t-56.5 -101q0 -52 31.5 -81.5t91.5 -29.5q63 0 110 38t47 103zM539 1036v-309q0 -70 47 -70q17 0 39 13v-72q-20 -14 -64 -14q-101 0 -112 106q-19 -57 -70 -84.5t-117 -27.5q-86 0 -138 44.5t-52 122.5q0 97 76.5 150
t230.5 53q17 0 67 -4v72q0 139 -133 139q-57 0 -93 -28.5t-40 -84.5l-86 11q7 92 71 135t154 43q97 0 158.5 -46.5t61.5 -148.5z" />
    <glyph glyph-name="guillemotleft" unicode="&#xab;" horiz-adv-x="894" 
d="M483 481v-8q25 -12 103 -104l219 -260l-62 -54l-358 422l358 422l64 -61l-221 -256q-36 -41 -61.5 -66t-33.5 -30zM188 481v-8q25 -12 101 -104l221 -260l-64 -54l-358 422l358 422l64 -61l-221 -256q-35 -41 -60 -66t-33 -30z" />
    <glyph glyph-name="logicalnot" unicode="&#xac;" horiz-adv-x="1019" 
d="M842 575h-742v70h820v-385h-78v315z" />
    <glyph glyph-name="uni00AD" unicode="&#xad;" horiz-adv-x="763" 
d="M152 500v90h458v-90h-458z" />
    <glyph glyph-name="registered" unicode="&#xae;" horiz-adv-x="1445" 
d="M1034 246h-98q-27 34 -39 82l-27 112q-25 113 -172 113h-127v-307h-92v739h266q122 0 189 -54t67 -161q0 -88 -54 -135.5t-142 -50.5q62 -8 99 -36.5t54 -88.5l31 -121q13 -53 45 -92zM571 909v-284h150q190 0 190 143q0 141 -180 141h-160zM100 602q0 177 84 320.5
t226 223t313 79.5q170 0 312.5 -79.5t226.5 -223t84 -320.5q0 -133 -49.5 -249t-133.5 -197t-198.5 -127.5t-241.5 -46.5q-171 0 -313 78.5t-226 221.5t-84 320zM156 602q0 -163 76.5 -294.5t205.5 -204t285 -72.5t286 72.5t206.5 204t76.5 294.5q0 164 -76.5 296
t-206.5 205t-286 73q-155 0 -284.5 -73t-206 -205.5t-76.5 -295.5z" />
    <glyph glyph-name="macron" unicode="&#xaf;" horiz-adv-x="837" 
d="M645 1155h-455v88h455v-88z" />
    <glyph glyph-name="degree" unicode="&#xb0;" horiz-adv-x="534" 
d="M82 1044q0 78 52 132.5t132 54.5q81 0 134 -54.5t53 -132.5q0 -77 -53 -130.5t-134 -53.5t-132.5 53t-51.5 131zM150 1044q0 -54 31.5 -88t84.5 -34t85 34.5t32 87.5q0 54 -32 89.5t-85 35.5t-84.5 -35.5t-31.5 -89.5z" />
    <glyph glyph-name="plusminus" unicode="&#xb1;" horiz-adv-x="1038" 
d="M100 670h379v295h72v-295h385v-72h-385v-322h-72v322h-379v72zM936 113h-836v71h836v-71z" />
    <glyph glyph-name="twosuperior" unicode="&#xb2;" horiz-adv-x="593" 
d="M549 557v-74h-504v70q72 49 117.5 82.5t100.5 81.5t86.5 87.5t53 88t21.5 96.5q0 73 -40 112.5t-108 39.5q-73 0 -111 -46t-38 -112l-78 31q0 83 64.5 145t175.5 62q98 0 162.5 -58t64.5 -168q0 -59 -26 -118t-63.5 -104t-89 -88.5t-92.5 -70.5t-85 -51v-6h389z" />
    <glyph glyph-name="threesuperior" unicode="&#xb3;" horiz-adv-x="593" 
d="M322 862v-6q97 -6 150.5 -55.5t53.5 -132.5q0 -92 -69 -144.5t-178 -52.5q-110 0 -176.5 46.5t-79.5 121.5l81 29q12 -59 59 -93t116 -34q71 0 114 34.5t43 98.5q0 146 -239 149v66q217 9 217 139q0 57 -36.5 88t-98.5 31q-58 0 -97 -30t-51 -89l-80 27q16 74 76 120
t156 46t157.5 -46t61.5 -137q0 -73 -46 -121t-134 -55z" />
    <glyph glyph-name="acute" unicode="&#xb4;" horiz-adv-x="641" 
d="M264 1092h-86l146 278h143z" />
    <glyph glyph-name="mu" unicode="&#xb5;" horiz-adv-x="1003" 
d="M752 0l-15 213q-32 -112 -111 -171.5t-188 -59.5q-68 0 -118.5 23t-73.5 65v-486h-105v1362h105v-633q0 -122 53 -183.5t150 -61.5q51 0 101 20t92.5 58.5t68.5 102t26 142.5v555h103v-946h-88z" />
    <glyph glyph-name="paragraph" unicode="&#xb6;" horiz-adv-x="950" 
d="M700 1120v-1200q0 -127 -61.5 -190.5t-173.5 -63.5q-107 0 -199 60l39 96q73 -64 158 -64q129 0 129 148v567h-82q-215 0 -327.5 91t-112.5 267q0 186 125 280.5t362 94.5h305v-86h-162z" />
    <glyph glyph-name="periodcentered" unicode="&#xb7;" horiz-adv-x="520" 
d="M172 545q0 37 25.5 61.5t62.5 24.5t61.5 -24.5t24.5 -61.5q0 -38 -24.5 -63t-61.5 -25t-62.5 25t-25.5 63z" />
    <glyph glyph-name="periodcentered" unicode="&#x22c5;" horiz-adv-x="520" 
d="M172 545q0 37 25.5 61.5t62.5 24.5t61.5 -24.5t24.5 -61.5q0 -38 -24.5 -63t-61.5 -25t-62.5 25t-25.5 63z" />
    <glyph glyph-name="cedilla" unicode="&#xb8;" horiz-adv-x="714" 
d="M543 -258q0 -80 -53.5 -121t-137.5 -41q-115 0 -180 82l39 68q58 -80 141 -80q101 0 101 92q0 48 -41.5 75.5t-122.5 30.5l20 162h62l-15 -104q89 -8 138 -50.5t49 -113.5z" />
    <glyph glyph-name="onesuperior" unicode="&#xb9;" horiz-adv-x="587" 
d="M565 483h-506v72h220v561l-226 -35v76l318 53v-655h194v-72z" />
    <glyph glyph-name="ordmasculine" unicode="&#xba;" horiz-adv-x="731" 
d="M365 578q-129 0 -203 84.5t-74 242.5q0 159 73.5 242.5t203.5 83.5t204 -84t74 -242q0 -157 -74 -242t-204 -85zM365 1159q-183 0 -183 -252q0 -260 183 -260q182 0 182 260q0 252 -182 252z" />
    <glyph glyph-name="guillemotright" unicode="&#xbb;" horiz-adv-x="894" 
d="M412 473v8q-23 9 -101 101l-221 256l64 61l358 -422l-358 -422l-64 54l221 260q34 41 59 67t34 32zM709 473v8q-25 9 -103 101l-221 256l64 61l358 -422l-358 -422l-62 54l219 260q35 41 60.5 67t33.5 32z" />
    <glyph glyph-name="onequarter" unicode="&#xbc;" horiz-adv-x="1599" 
d="M588 483h-504v72h219v561l-225 -35v76l315 53v-655h195v-72zM465 0l663 1208h84l-663 -1208h-84zM1329 0v195h-375v67l371 461h94v-459h123v-69h-123v-195h-90zM1331 262v256q0 33 2 63.5t4 44.5l2 15h-6q-20 -45 -71 -113l-142 -176q-22 -27 -43.5 -49t-32.5 -31l-10 -8
v-6q31 4 101 4h196z" />
    <glyph glyph-name="onehalf" unicode="&#xbd;" horiz-adv-x="1638" 
d="M588 483h-504v72h219v561l-225 -35v76l315 53v-655h195v-72zM465 0l663 1208h84l-663 -1208h-84zM1538 74v-74h-504v70q72 49 117.5 82.5t100.5 81.5t86.5 87.5t53 88t21.5 96.5q0 72 -39.5 111.5t-107.5 39.5q-73 0 -111.5 -45.5t-40.5 -111.5l-76 30q0 83 64.5 145
t175.5 62q97 0 162 -57.5t65 -167.5q0 -59 -26 -118t-63.5 -104t-89 -88.5t-92.5 -70.5t-85 -51v-6h389z" />
    <glyph glyph-name="threequarters" unicode="&#xbe;" horiz-adv-x="1554" 
d="M356 862v-6q97 -6 152 -55.5t55 -132.5q0 -91 -70 -144t-178 -53q-111 0 -177 46.5t-79 121.5l80 29q12 -58 59.5 -92.5t116.5 -34.5q71 0 113.5 34.5t42.5 98.5q0 72 -57 110t-183 39v66q218 9 218 139q0 57 -37 88t-99 31q-121 0 -145 -119l-80 27q16 74 75.5 120
t155.5 46q95 0 157.5 -46.5t62.5 -136.5q0 -73 -47 -121t-136 -55zM422 0l663 1208h82l-661 -1208h-84zM1286 0v195h-375v67l371 461h92v-459h123v-69h-123v-195h-88zM1288 262v256q0 33 1.5 63.5t2.5 44.5l2 15h-6q-18 -45 -71 -113l-142 -176q-22 -27 -43.5 -49t-31.5 -31
l-11 -8v-6q33 4 103 4h196z" />
    <glyph glyph-name="questiondown" unicode="&#xbf;" horiz-adv-x="792" 
d="M676 31l92 -33q-26 -124 -115.5 -198t-238.5 -74q-167 0 -266 95.5t-99 252.5q0 88 31 158.5t83 113.5t116 66t135 24v195h98v-262h-55q-135 0 -218 -72t-83 -217q0 -129 71 -196.5t193 -67.5q104 0 170.5 55t85.5 160zM545 877q0 -34 -23.5 -57t-58.5 -23t-58.5 23
t-23.5 57q0 35 23.5 58t58.5 23t58.5 -23t23.5 -58z" />
    <glyph glyph-name="Agrave" unicode="&#xc0;" horiz-adv-x="1095" 
d="M961 0l-144 383h-541l-143 -383h-113l459 1206h142l454 -1206h-114zM444 836l-135 -361h473l-133 359q-31 82 -55.5 157t-33.5 109l-9 35h-8q-29 -115 -99 -299zM600 1315h-92l-182 248h143z" />
    <glyph glyph-name="Aacute" unicode="&#xc1;" horiz-adv-x="1095" 
d="M961 0l-144 383h-541l-143 -383h-113l459 1206h142l454 -1206h-114zM444 836l-135 -361h473l-133 359q-31 82 -55.5 157t-33.5 109l-9 35h-8q-29 -115 -99 -299zM590 1315h-92l131 248h143z" />
    <glyph glyph-name="Acircumflex" unicode="&#xc2;" horiz-adv-x="1095" 
d="M961 0l-144 383h-541l-143 -383h-113l459 1206h142l454 -1206h-114zM444 836l-135 -361h473l-133 359q-31 82 -55.5 157t-33.5 109l-9 35h-8q-29 -115 -99 -299zM514 1571h64l235 -256h-119l-88 96q-17 21 -32 41t-21 30l-6 9h-4q-19 -33 -58 -80l-88 -96h-118z" />
    <glyph glyph-name="Atilde" unicode="&#xc3;" horiz-adv-x="1095" 
d="M961 0l-144 383h-541l-143 -383h-113l459 1206h142l454 -1206h-114zM444 836l-135 -361h473l-133 359q-31 82 -55.5 157t-33.5 109l-9 35h-8q-29 -115 -99 -299zM686 1325q-28 0 -56 10.5t-42.5 19.5t-46.5 31q-8 5 -24.5 16t-22.5 15.5t-19 11.5t-20.5 9.5t-18.5 5
t-22 2.5q-93 0 -70 -121h-68q-33 88 5.5 151.5t121.5 63.5q46 0 80.5 -15.5t79.5 -47.5q4 -3 14.5 -10.5t13.5 -10t11.5 -8.5t12 -7.5t10.5 -6t11 -6t10 -4t11 -3t11 -1.5t12 -1q87 0 68 125h71q32 -94 -6 -156.5t-127 -62.5z" />
    <glyph glyph-name="Adieresis" unicode="&#xc4;" horiz-adv-x="1095" 
d="M961 0l-144 383h-541l-143 -383h-113l459 1206h142l454 -1206h-114zM444 836l-135 -361h473l-133 359q-31 82 -55.5 157t-33.5 109l-9 35h-8q-29 -115 -99 -299zM295 1413q0 32 23 55t55 23t54 -23t22 -55t-22 -55t-54 -23t-55 23t-23 55zM645 1411q0 33 22.5 55.5
t55.5 22.5q34 0 56 -22t22 -56q0 -33 -22.5 -55.5t-55.5 -22.5q-32 0 -55 23t-23 55z" />
    <glyph glyph-name="Aring" unicode="&#xc5;" horiz-adv-x="1095" 
d="M961 0l-144 383h-541l-143 -383h-113l459 1206h142l454 -1206h-114zM444 836l-135 -361h473l-133 359q-31 82 -55.5 157t-33.5 109l-9 35h-8q-29 -115 -99 -299zM547 1288q-85 0 -133.5 50t-48.5 128q0 72 50 122t132 50t132 -50t50 -122q0 -78 -48.5 -128t-133.5 -50z
M547 1583q-54 0 -85.5 -33.5t-31.5 -87.5q0 -51 30.5 -81.5t86.5 -30.5t86.5 30.5t30.5 81.5q0 54 -31.5 87.5t-85.5 33.5z" />
    <glyph glyph-name="AE" unicode="&#xc6;" horiz-adv-x="1638" 
d="M1532 0h-686v387h-465l-244 -387h-117l771 1206h741v-94h-580v-461h516v-94h-516v-463h580v-94zM852 1126l-416 -649h410v342q-1 90 2 167t6 108l4 32h-6z" />
    <glyph glyph-name="Ccedilla" unicode="&#xc7;" horiz-adv-x="1130" 
d="M821 -258q0 -80 -52.5 -121t-135.5 -41q-119 0 -180 82l36 68q58 -80 144 -80q98 0 98 92q0 48 -41.5 75.5t-122.5 30.5l19 134q-226 12 -357 172.5t-131 445.5q0 296 148 460.5t393 164.5q315 0 430 -287l-96 -47q-43 119 -129.5 180.5t-210.5 61.5q-200 0 -311 -142
t-111 -391q0 -247 107 -384.5t307 -137.5q131 0 218.5 53t147.5 168l78 -61q-68 -126 -170.5 -189t-251.5 -67l-12 -76q88 -8 137 -50.5t49 -113.5z" />
    <glyph glyph-name="Egrave" unicode="&#xc8;" horiz-adv-x="970" 
d="M864 94v-94h-686v1206h686v-94h-577v-461h514v-94h-514v-463h577zM571 1315h-92l-182 248h143z" />
    <glyph glyph-name="Eacute" unicode="&#xc9;" horiz-adv-x="970" 
d="M864 94v-94h-686v1206h686v-94h-577v-461h514v-94h-514v-463h577zM561 1315h-92l131 248h143z" />
    <glyph glyph-name="Ecircumflex" unicode="&#xca;" horiz-adv-x="970" 
d="M864 94v-94h-686v1206h686v-94h-577v-461h514v-94h-514v-463h577zM487 1571h64l235 -256h-118l-86 96q-18 21 -33 41t-21 30l-6 9h-4q-18 -33 -59 -80l-86 -96h-119z" />
    <glyph glyph-name="Edieresis" unicode="&#xcb;" horiz-adv-x="970" 
d="M864 94v-94h-686v1206h686v-94h-577v-461h514v-94h-514v-463h577zM266 1413q0 32 23 55t55 23t55 -23t23 -55t-23 -55t-55 -23t-55 23t-23 55zM616 1411q0 33 22.5 55.5t55.5 22.5q34 0 56 -22t22 -56q0 -33 -22.5 -55.5t-55.5 -22.5q-32 0 -55 23t-23 55z" />
    <glyph glyph-name="Igrave" unicode="&#xcc;" horiz-adv-x="464" 
d="M178 1206h109v-1206h-109v1206zM283 1315h-93l-180 248h142z" />
    <glyph glyph-name="Iacute" unicode="&#xcd;" horiz-adv-x="464" 
d="M178 1206h109v-1206h-109v1206zM272 1315h-92l131 248h144z" />
    <glyph glyph-name="Icircumflex" unicode="&#xce;" horiz-adv-x="464" 
d="M178 1206h109v-1206h-109v1206zM201 1571h63l234 -256h-119l-86 96q-18 21 -33 41t-21 30l-6 9h-4q-18 -33 -59 -80l-86 -96h-119z" />
    <glyph glyph-name="Idieresis" unicode="&#xcf;" horiz-adv-x="464" 
d="M178 1206h109v-1206h-109v1206zM-23 1413q0 32 23 55t55 23q33 0 55.5 -22.5t22.5 -55.5t-22.5 -55.5t-55.5 -22.5q-32 0 -55 23t-23 55zM330 1411q0 33 22.5 55.5t55.5 22.5q32 0 54.5 -22.5t22.5 -55.5q0 -32 -22.5 -55t-54.5 -23t-55 23t-23 55z" />
    <glyph glyph-name="Eth" unicode="&#xd0;" horiz-adv-x="1198" 
d="M516 0h-332v557h-125v94h125v555h334q131 0 234.5 -33t182 -102t121 -184.5t42.5 -270.5q0 -130 -30.5 -235t-84 -175t-128 -117t-159 -68t-180.5 -21zM293 92h213q225 0 352 132t127 388t-122.5 379t-344.5 123h-225v-463h280v-94h-280v-465z" />
    <glyph glyph-name="Ntilde" unicode="&#xd1;" horiz-adv-x="1288" 
d="M782 1325q-11 0 -22.5 1.5t-19.5 3t-19.5 7t-16.5 7t-18.5 9.5t-16 10t-17.5 12t-17 11q-4 3 -17.5 12.5t-17.5 12t-15 9.5t-16 9.5t-14 6.5t-15.5 5.5t-15 3t-16.5 1.5q-42 0 -61 -29.5t-7 -91.5h-67q-33 88 5 151.5t122 63.5q32 0 62 -10t47 -20t50 -33
q31 -23 44.5 -32.5t33 -17.5t39.5 -8q87 0 68 125h71q31 -94 -6.5 -156.5t-126.5 -62.5zM295 1206l573 -839q35 -50 69 -106t51 -87l16 -31h6q-6 119 -6 254v809h106v-1206h-115l-575 840q-34 48 -67.5 104t-50.5 88l-17 31h-9q9 -119 9 -254v-809h-107v1206h117z" />
    <glyph glyph-name="Ograve" unicode="&#xd2;" horiz-adv-x="1245" 
d="M623 -18q-243 0 -384 162.5t-141 457.5q0 296 141.5 459.5t383.5 163.5t383 -163.5t141 -459.5q0 -295 -140.5 -457.5t-383.5 -162.5zM623 1130q-199 0 -305.5 -139.5t-106.5 -388.5t106.5 -387.5t305.5 -138.5t306 139t107 387q0 249 -107 388.5t-306 139.5zM674 1315
h-92l-183 248h144z" />
    <glyph glyph-name="Oacute" unicode="&#xd3;" horiz-adv-x="1245" 
d="M623 -18q-243 0 -384 162.5t-141 457.5q0 296 141.5 459.5t383.5 163.5t383 -163.5t141 -459.5q0 -295 -140.5 -457.5t-383.5 -162.5zM623 1130q-199 0 -305.5 -139.5t-106.5 -388.5t106.5 -387.5t305.5 -138.5t306 139t107 387q0 249 -107 388.5t-306 139.5zM664 1315
h-93l131 248h144z" />
    <glyph glyph-name="Ocircumflex" unicode="&#xd4;" horiz-adv-x="1245" 
d="M623 -18q-243 0 -384 162.5t-141 457.5q0 296 141.5 459.5t383.5 163.5t383 -163.5t141 -459.5q0 -295 -140.5 -457.5t-383.5 -162.5zM623 1130q-199 0 -305.5 -139.5t-106.5 -388.5t106.5 -387.5t305.5 -138.5t306 139t107 387q0 249 -107 388.5t-306 139.5zM592 1571
h63l234 -256h-119l-86 96q-18 21 -33 41t-21 30l-5 9h-4q-19 -33 -60 -80l-86 -96h-119z" />
    <glyph glyph-name="Otilde" unicode="&#xd5;" horiz-adv-x="1245" 
d="M623 -18q-243 0 -384 162.5t-141 457.5q0 296 141.5 459.5t383.5 163.5t383 -163.5t141 -459.5q0 -295 -140.5 -457.5t-383.5 -162.5zM623 1130q-199 0 -305.5 -139.5t-106.5 -388.5t106.5 -387.5t305.5 -138.5t306 139t107 387q0 249 -107 388.5t-306 139.5zM762 1325
q-9 0 -18 1t-16 2t-16 4.5t-14.5 5t-15 6.5t-13.5 7t-14 8.5t-13 8.5t-14 9t-14 9q-4 3 -17.5 12.5t-17.5 12t-15 9.5t-16 9.5t-14 6.5t-15.5 5.5t-15 3t-16.5 1.5q-90 0 -67 -121h-68q-33 88 4.5 151.5t120.5 63.5q33 0 63.5 -9.5t48 -20.5t50.5 -33q31 -23 44.5 -32.5
t33 -17.5t39.5 -8q86 0 67 125h72q31 -94 -7 -156.5t-126 -62.5z" />
    <glyph glyph-name="Odieresis" unicode="&#xd6;" horiz-adv-x="1245" 
d="M623 -18q-243 0 -384 162.5t-141 457.5q0 296 141.5 459.5t383.5 163.5t383 -163.5t141 -459.5q0 -295 -140.5 -457.5t-383.5 -162.5zM623 1130q-199 0 -305.5 -139.5t-106.5 -388.5t106.5 -387.5t305.5 -138.5t306 139t107 387q0 249 -107 388.5t-306 139.5zM369 1413
q0 32 22.5 55t54.5 23q33 0 55.5 -22.5t22.5 -55.5t-22.5 -55.5t-55.5 -22.5q-32 0 -54.5 23t-22.5 55zM721 1411q0 33 22.5 55.5t55.5 22.5t55.5 -22.5t22.5 -55.5q0 -32 -23 -55t-55 -23t-55 23t-23 55z" />
    <glyph glyph-name="multiply" unicode="&#xd7;" horiz-adv-x="919" 
d="M115 219l291 291l-287 285l49 51l289 -287l295 293l49 -49l-295 -293l299 -297l-49 -51l-299 297l-293 -291z" />
    <glyph glyph-name="Oslash" unicode="&#xd8;" horiz-adv-x="1245" 
d="M137 -20l-61 55l133 151q-111 157 -111 416q0 296 141.5 459.5t383.5 163.5q222 0 362 -140l119 136l63 -58l-127 -149q107 -156 107 -412q0 -295 -140.5 -457.5t-383.5 -162.5q-227 0 -363 139zM623 1130q-199 0 -304.5 -139.5t-105.5 -388.5q0 -198 72 -330l630 732
q-108 126 -292 126zM1032 602q0 199 -71 326l-629 -729q105 -123 291 -123q199 0 304 138.5t105 387.5z" />
    <glyph glyph-name="Ugrave" unicode="&#xd9;" horiz-adv-x="1175" 
d="M930 1206h106v-794q0 -91 -24.5 -164t-66 -122t-99.5 -82t-122 -47.5t-136 -14.5q-92 0 -170.5 24t-142 73.5t-100 134.5t-36.5 198v794h109v-772q0 -186 94 -274t246 -88t247 87.5t95 270.5v776zM639 1315h-92l-182 248h143z" />
    <glyph glyph-name="Uacute" unicode="&#xda;" horiz-adv-x="1175" 
d="M930 1206h106v-794q0 -91 -24.5 -164t-66 -122t-99.5 -82t-122 -47.5t-136 -14.5q-92 0 -170.5 24t-142 73.5t-100 134.5t-36.5 198v794h109v-772q0 -186 94 -274t246 -88t247 87.5t95 270.5v776zM629 1315h-92l131 248h143z" />
    <glyph glyph-name="Ucircumflex" unicode="&#xdb;" horiz-adv-x="1175" 
d="M930 1206h106v-794q0 -91 -24.5 -164t-66 -122t-99.5 -82t-122 -47.5t-136 -14.5q-92 0 -170.5 24t-142 73.5t-100 134.5t-36.5 198v794h109v-772q0 -186 94 -274t246 -88t247 87.5t95 270.5v776zM557 1571h61l236 -256h-119l-86 96q-18 21 -33 41t-20 30l-6 9h-4
q-19 -33 -60 -80l-86 -96h-118z" />
    <glyph glyph-name="Udieresis" unicode="&#xdc;" horiz-adv-x="1175" 
d="M930 1206h106v-794q0 -91 -24.5 -164t-66 -122t-99.5 -82t-122 -47.5t-136 -14.5q-92 0 -170.5 24t-142 73.5t-100 134.5t-36.5 198v794h109v-772q0 -186 94 -274t246 -88t247 87.5t95 270.5v776zM334 1413q0 32 23 55t55 23t54.5 -23t22.5 -55t-22.5 -55t-54.5 -23
t-55 23t-23 55zM686 1411q0 34 22 56t54 22q34 0 56 -22t22 -56q0 -33 -22.5 -55.5t-55.5 -22.5q-32 0 -54 23t-22 55z" />
    <glyph glyph-name="Yacute" unicode="&#xdd;" horiz-adv-x="960" 
d="M152 1206l241 -442q33 -60 56.5 -107.5t30.5 -65.5l7 -18h7q18 56 90 191l233 442h113l-389 -723v-483h-107v483l-405 723h123zM520 1315h-92l131 248h143z" />
    <glyph glyph-name="Thorn" unicode="&#xde;" horiz-adv-x="972" 
d="M287 889v-539h209q159 0 231 67.5t72 207.5q0 264 -305 264h-207zM287 0h-109v1206h109v-227h211q413 0 413 -348q0 -183 -102.5 -277t-302.5 -94h-219v-260z" />
    <glyph glyph-name="germandbls" unicode="&#xdf;" horiz-adv-x="1060" 
d="M158 0v942q0 219 100.5 329.5t284.5 110.5q167 0 256.5 -84.5t89.5 -224.5q0 -133 -73.5 -207.5t-188.5 -89.5v-6q149 -8 246.5 -112.5t97.5 -270.5q0 -195 -82.5 -300t-249.5 -105q-203 0 -277 159l70 62q61 -140 207 -140q225 0 225 326q0 154 -94.5 245t-261.5 91h-88
v86h72q132 0 211 63t79 185q0 112 -61 175.5t-180 63.5q-279 0 -279 -366v-932h-104z" />
    <glyph glyph-name="agrave" unicode="&#xe0;" horiz-adv-x="927" 
d="M502 1092h-88l-203 278h145zM653 297v156q-50 6 -98 6q-369 0 -369 -213q0 -83 52.5 -131.5t150.5 -48.5q106 0 185 62t79 169zM758 674v-477q0 -64 19 -91.5t57 -27.5q27 0 43 8v-86q-32 -8 -64 -8q-146 0 -154 168q-32 -88 -110.5 -133t-179.5 -45q-132 0 -209.5 67.5
t-77.5 186.5q0 147 113.5 224t339.5 77q68 0 118 -7v132q0 215 -221 215q-205 0 -221 -191l-96 14q5 72 34.5 125.5t76.5 83t100.5 43t115.5 13.5q68 0 122.5 -15t99.5 -48t69.5 -91t24.5 -137z" />
    <glyph glyph-name="aacute" unicode="&#xe1;" horiz-adv-x="927" 
d="M483 1092h-88l146 278h145zM653 297v156q-50 6 -98 6q-369 0 -369 -213q0 -83 52.5 -131.5t150.5 -48.5q106 0 185 62t79 169zM758 674v-477q0 -64 19 -91.5t57 -27.5q27 0 43 8v-86q-32 -8 -64 -8q-146 0 -154 168q-32 -88 -110.5 -133t-179.5 -45q-132 0 -209.5 67.5
t-77.5 186.5q0 147 113.5 224t339.5 77q68 0 118 -7v132q0 215 -221 215q-205 0 -221 -191l-96 14q5 72 34.5 125.5t76.5 83t100.5 43t115.5 13.5q68 0 122.5 -15t99.5 -48t69.5 -91t24.5 -137z" />
    <glyph glyph-name="acircumflex" unicode="&#xe2;" horiz-adv-x="927" 
d="M418 1370h59l236 -278h-111l-92 108q-18 22 -33 43t-21 31l-5 10h-7q-18 -35 -59 -84l-90 -108h-113zM653 297v156q-50 6 -98 6q-369 0 -369 -213q0 -83 52.5 -131.5t150.5 -48.5q106 0 185 62t79 169zM758 674v-477q0 -64 19 -91.5t57 -27.5q27 0 43 8v-86
q-32 -8 -64 -8q-146 0 -154 168q-32 -88 -110.5 -133t-179.5 -45q-132 0 -209.5 67.5t-77.5 186.5q0 147 113.5 224t339.5 77q68 0 118 -7v132q0 215 -221 215q-205 0 -221 -191l-96 14q5 72 34.5 125.5t76.5 83t100.5 43t115.5 13.5q68 0 122.5 -15t99.5 -48t69.5 -91
t24.5 -137z" />
    <glyph glyph-name="atilde" unicode="&#xe3;" horiz-adv-x="927" 
d="M588 1104q-28 0 -55.5 9.5t-44.5 19.5t-46 30q-4 3 -17.5 12.5t-17.5 12t-15 9.5t-16 9.5t-14 6.5t-15.5 5.5t-15 3t-16.5 1.5q-42 0 -61 -29.5t-8 -91.5h-68q-33 89 5.5 151t121.5 62q32 0 62.5 -10.5t48 -21.5t49.5 -34q4 -2 16 -10.5t15 -10.5t12.5 -8.5t13 -8
t11.5 -6t12 -5.5t11 -3t13 -2.5t13 -0.5q86 0 69 125h70q32 -95 -5.5 -155t-127.5 -60zM653 297v156q-50 6 -98 6q-369 0 -369 -213q0 -83 52.5 -131.5t150.5 -48.5q106 0 185 62t79 169zM758 674v-477q0 -64 19 -91.5t57 -27.5q27 0 43 8v-86q-32 -8 -64 -8
q-146 0 -154 168q-32 -88 -110.5 -133t-179.5 -45q-132 0 -209.5 67.5t-77.5 186.5q0 147 113.5 224t339.5 77q68 0 118 -7v132q0 215 -221 215q-205 0 -221 -191l-96 14q5 72 34.5 125.5t76.5 83t100.5 43t115.5 13.5q68 0 122.5 -15t99.5 -48t69.5 -91t24.5 -137z" />
    <glyph glyph-name="adieresis" unicode="&#xe4;" horiz-adv-x="927" 
d="M195 1219q0 32 22.5 54.5t54.5 22.5t55 -22.5t23 -54.5t-23 -55t-55 -23t-54.5 23t-22.5 55zM545 1217q0 33 22.5 55t55.5 22q34 0 55.5 -21.5t21.5 -55.5q0 -31 -22 -53.5t-55 -22.5q-32 0 -55 22.5t-23 53.5zM653 297v156q-50 6 -98 6q-369 0 -369 -213
q0 -83 52.5 -131.5t150.5 -48.5q106 0 185 62t79 169zM758 674v-477q0 -64 19 -91.5t57 -27.5q27 0 43 8v-86q-32 -8 -64 -8q-146 0 -154 168q-32 -88 -110.5 -133t-179.5 -45q-132 0 -209.5 67.5t-77.5 186.5q0 147 113.5 224t339.5 77q68 0 118 -7v132q0 215 -221 215
q-205 0 -221 -191l-96 14q5 72 34.5 125.5t76.5 83t100.5 43t115.5 13.5q68 0 122.5 -15t99.5 -48t69.5 -91t24.5 -137z" />
    <glyph glyph-name="aring" unicode="&#xe5;" horiz-adv-x="927" 
d="M449 1079q-85 0 -134 50t-49 126q0 73 50 122.5t133 49.5q82 0 132 -49.5t50 -122.5q0 -76 -49 -126t-133 -50zM449 1372q-54 0 -85.5 -33.5t-31.5 -85.5q0 -51 30.5 -82.5t86.5 -31.5q55 0 85.5 31.5t30.5 82.5q0 52 -31 85.5t-85 33.5zM653 297v156q-50 6 -98 6
q-369 0 -369 -213q0 -83 52.5 -131.5t150.5 -48.5q106 0 185 62t79 169zM758 674v-477q0 -64 19 -91.5t57 -27.5q27 0 43 8v-86q-32 -8 -64 -8q-146 0 -154 168q-32 -88 -110.5 -133t-179.5 -45q-132 0 -209.5 67.5t-77.5 186.5q0 147 113.5 224t339.5 77q68 0 118 -7v132
q0 215 -221 215q-205 0 -221 -191l-96 14q5 72 34.5 125.5t76.5 83t100.5 43t115.5 13.5q68 0 122.5 -15t99.5 -48t69.5 -91t24.5 -137z" />
    <glyph glyph-name="ae" unicode="&#xe6;" horiz-adv-x="1486" 
d="M1049 66q102 0 162.5 44.5t86.5 141.5l93 -21q-48 -249 -349 -249q-231 0 -335 186q-34 -84 -123.5 -135t-210.5 -51q-136 0 -213.5 67t-77.5 191q0 160 137.5 235t425.5 78q6 64 25 127q-9 102 -70 149.5t-158 47.5q-98 0 -160 -46t-71 -145l-96 14q5 72 34.5 125.5
t76.5 83t100.5 43t115.5 13.5q225 0 285 -168q105 168 320 168q167 0 256.5 -104t89.5 -273q0 -54 -13 -121h-639q0 -189 82.5 -295t225.5 -106zM383 66q101 0 179 52t106 148q-24 80 -27 183v18q-232 -2 -343.5 -52.5t-111.5 -170.5q0 -79 52 -128.5t145 -49.5zM745 553
h543q2 18 2 55q0 118 -66 194.5t-184 76.5q-130 0 -205.5 -85t-89.5 -241z" />
    <glyph glyph-name="ccedilla" unicode="&#xe7;" horiz-adv-x="915" 
d="M690 -258q0 -80 -53 -121t-137 -41q-116 0 -181 82l39 68q58 -80 142 -80q100 0 100 92q0 48 -41.5 75.5t-122.5 30.5l17 136q-168 11 -263.5 135t-95.5 350q0 235 108 365.5t298 130.5q151 0 235 -76t96 -225l-96 -15q-28 225 -241 225q-144 0 -221.5 -108.5
t-77.5 -298.5q0 -185 81 -292t220 -107q208 0 258 194l88 -18q-22 -128 -108.5 -192t-219.5 -70l-10 -76q88 -8 137 -50.5t49 -113.5z" />
    <glyph glyph-name="egrave" unicode="&#xe8;" horiz-adv-x="937" 
d="M502 66q102 0 163 44.5t87 141.5l92 -21q-48 -249 -350 -249q-187 0 -293.5 125.5t-106.5 363.5q0 233 108.5 363.5t297.5 130.5q167 0 256.5 -104t89.5 -273q0 -59 -12 -121h-639q0 -190 81 -295.5t226 -105.5zM199 553h542q2 18 2 55q0 119 -65.5 195t-183.5 76
q-130 0 -205.5 -85t-89.5 -241zM553 1092h-86l-203 278h146z" />
    <glyph glyph-name="eacute" unicode="&#xe9;" horiz-adv-x="937" 
d="M502 66q102 0 163 44.5t87 141.5l92 -21q-48 -249 -350 -249q-187 0 -293.5 125.5t-106.5 363.5q0 233 108.5 363.5t297.5 130.5q167 0 256.5 -104t89.5 -273q0 -59 -12 -121h-639q0 -190 81 -295.5t226 -105.5zM199 553h542q2 18 2 55q0 119 -65.5 195t-183.5 76
q-130 0 -205.5 -85t-89.5 -241zM535 1092h-86l145 278h143z" />
    <glyph glyph-name="ecircumflex" unicode="&#xea;" horiz-adv-x="937" 
d="M502 66q102 0 163 44.5t87 141.5l92 -21q-48 -249 -350 -249q-187 0 -293.5 125.5t-106.5 363.5q0 233 108.5 363.5t297.5 130.5q167 0 256.5 -104t89.5 -273q0 -59 -12 -121h-639q0 -190 81 -295.5t226 -105.5zM199 553h542q2 18 2 55q0 119 -65.5 195t-183.5 76
q-130 0 -205.5 -85t-89.5 -241zM473 1370h57l236 -278h-111l-92 108q-17 22 -32 43t-21 31l-6 10h-6q-19 -35 -60 -84l-90 -108h-112z" />
    <glyph glyph-name="edieresis" unicode="&#xeb;" horiz-adv-x="937" 
d="M502 66q102 0 163 44.5t87 141.5l92 -21q-48 -249 -350 -249q-187 0 -293.5 125.5t-106.5 363.5q0 233 108.5 363.5t297.5 130.5q167 0 256.5 -104t89.5 -273q0 -59 -12 -121h-639q0 -190 81 -295.5t226 -105.5zM199 553h542q2 18 2 55q0 119 -65.5 195t-183.5 76
q-130 0 -205.5 -85t-89.5 -241zM246 1219q0 32 23 54.5t55 22.5q33 0 55 -22t22 -55t-22 -55.5t-55 -22.5q-32 0 -55 23t-23 55zM598 1217q0 33 22.5 55t55.5 22t55.5 -22t22.5 -55q0 -31 -23 -53.5t-55 -22.5t-55 22.5t-23 53.5z" />
    <glyph glyph-name="igrave" unicode="&#xec;" horiz-adv-x="419" 
d="M262 1092h-88l-203 278h146zM158 946h104v-946h-104v946z" />
    <glyph glyph-name="iacute" unicode="&#xed;" horiz-adv-x="419" 
d="M248 1092h-88l145 278h146zM158 946h104v-946h-104v946z" />
    <glyph glyph-name="icircumflex" unicode="&#xee;" horiz-adv-x="419" 
d="M158 946h104v-946h-104v946zM180 1370h60l235 -278h-110l-93 108q-18 22 -33 43t-21 31l-5 10h-6q-19 -35 -60 -84l-90 -108h-112z" />
    <glyph glyph-name="idieresis" unicode="&#xef;" horiz-adv-x="419" 
d="M-43 1219q0 32 23 54.5t55 22.5t55 -22.5t23 -54.5t-23 -55t-55 -23t-55 23t-23 55zM307 1217q0 33 22.5 55t55.5 22q34 0 56 -21.5t22 -55.5q0 -31 -22.5 -53.5t-55.5 -22.5q-32 0 -55 22.5t-23 53.5zM158 946h104v-946h-104v946z" />
    <glyph glyph-name="eth" unicode="&#xf0;" horiz-adv-x="999" 
d="M260 1040l-18 62l270 65q-89 84 -252 154l76 55q156 -65 278 -180l211 51l19 -63l-174 -43q112 -127 173.5 -294.5t61.5 -342.5q0 -261 -107 -391.5t-300 -130.5q-189 0 -296.5 126.5t-107.5 360.5q0 233 104.5 358t282.5 125q179 0 267 -133h6q-63 171 -189 297z
M799 469q0 194 -78 296.5t-225 102.5q-146 0 -222.5 -102t-76.5 -297t77 -299t224 -104q148 0 224.5 104t76.5 299z" />
    <glyph glyph-name="ntilde" unicode="&#xf1;" horiz-adv-x="1007" 
d="M238 946l14 -217q33 109 116 172.5t201 63.5q131 0 210 -74t79 -225v-666h-104v639q0 113 -54 173t-155 60q-121 0 -202 -85.5t-81 -249.5v-537h-104v946h80zM653 1104q-28 0 -56.5 10t-42.5 18.5t-48 30.5q-5 3 -18 12t-17.5 12l-15 10t-15.5 9.5t-14 6.5t-15 5.5t-14 3
t-16 1.5q-93 0 -70 -121h-67q-33 90 5 151.5t122 61.5q30 0 58 -9t45 -19.5t46 -30.5q2 -2 3.5 -2.5t3 -2t3.5 -2.5q31 -22 44.5 -31t33 -16.5t39.5 -7.5q87 0 68 125h71q31 -95 -6.5 -155t-126.5 -60z" />
    <glyph glyph-name="ograve" unicode="&#xf2;" 
d="M498 -18q-189 0 -296.5 128.5t-107.5 366.5q0 236 107.5 362t296.5 126q191 0 298 -126t107 -362q0 -239 -107 -367t-298 -128zM498 877q-147 0 -224 -101t-77 -299q0 -202 77 -306.5t224 -104.5q148 0 225.5 104.5t77.5 306.5q0 198 -77 299t-226 101zM551 1092h-86
l-203 278h146z" />
    <glyph glyph-name="oacute" unicode="&#xf3;" 
d="M498 -18q-189 0 -296.5 128.5t-107.5 366.5q0 236 107.5 362t296.5 126q191 0 298 -126t107 -362q0 -239 -107 -367t-298 -128zM498 877q-147 0 -224 -101t-77 -299q0 -202 77 -306.5t224 -104.5q148 0 225.5 104.5t77.5 306.5q0 198 -77 299t-226 101zM532 1092h-86
l146 278h143z" />
    <glyph glyph-name="ocircumflex" unicode="&#xf4;" 
d="M498 -18q-189 0 -296.5 128.5t-107.5 366.5q0 236 107.5 362t296.5 126q191 0 298 -126t107 -362q0 -239 -107 -367t-298 -128zM498 877q-147 0 -224 -101t-77 -299q0 -202 77 -306.5t224 -104.5q148 0 225.5 104.5t77.5 306.5q0 198 -77 299t-226 101zM469 1370h59
l236 -278h-113l-90 108q-18 22 -33 43t-20 31l-6 10h-6q-19 -35 -60 -84l-92 -108h-111z" />
    <glyph glyph-name="otilde" unicode="&#xf5;" 
d="M498 -18q-189 0 -296.5 128.5t-107.5 366.5q0 236 107.5 362t296.5 126q191 0 298 -126t107 -362q0 -239 -107 -367t-298 -128zM498 877q-147 0 -224 -101t-77 -299q0 -202 77 -306.5t224 -104.5q148 0 225.5 104.5t77.5 306.5q0 198 -77 299t-226 101zM637 1104
q-29 0 -57 10t-43 18.5t-48 30.5q-6 4 -20.5 14t-19.5 13.5t-16.5 10.5t-17.5 9.5t-15 6.5t-17.5 5t-17.5 1q-93 0 -70 -121h-68q-33 90 5 151.5t122 61.5q32 0 63 -11t45.5 -20.5t51.5 -34.5q31 -22 44.5 -31t33 -16.5t39.5 -7.5q86 0 67 125h72q31 -95 -6.5 -155
t-126.5 -60z" />
    <glyph glyph-name="odieresis" unicode="&#xf6;" 
d="M498 -18q-189 0 -296.5 128.5t-107.5 366.5q0 236 107.5 362t296.5 126q191 0 298 -126t107 -362q0 -239 -107 -367t-298 -128zM498 877q-147 0 -224 -101t-77 -299q0 -202 77 -306.5t224 -104.5q148 0 225.5 104.5t77.5 306.5q0 198 -77 299t-226 101zM244 1219
q0 32 23 54.5t55 22.5q33 0 55 -22t22 -55t-22 -55.5t-55 -22.5q-32 0 -55 23t-23 55zM596 1217q0 33 22.5 55t55.5 22t55.5 -22t22.5 -55q0 -31 -23 -53.5t-55 -22.5t-55 22.5t-23 53.5z" />
    <glyph glyph-name="divide" unicode="&#xf7;" horiz-adv-x="1038" 
d="M936 473h-836v70h836v-70zM442 152q0 29 20.5 50t49.5 21t50.5 -21t21.5 -50t-21.5 -49.5t-50.5 -20.5t-49.5 20.5t-20.5 49.5zM442 850q0 31 20.5 52.5t49.5 21.5t50.5 -21.5t21.5 -52.5q0 -29 -21.5 -49.5t-50.5 -20.5t-49.5 20.5t-20.5 49.5z" />
    <glyph glyph-name="oslash" unicode="&#xf8;" 
d="M135 -20l-65 53l102 119q-78 122 -78 325q0 236 107.5 362t296.5 126q177 0 282 -111l92 109l66 -54l-107 -123q72 -119 72 -309q0 -239 -107 -367t-298 -128q-170 0 -273 100zM498 877q-147 0 -224 -101t-77 -299q0 -152 47 -248l473 555q-81 93 -219 93zM801 477
q0 137 -43 228l-471 -551q79 -88 211 -88q148 0 225.5 104.5t77.5 306.5z" />
    <glyph glyph-name="ugrave" unicode="&#xf9;" 
d="M752 0l-15 207q-31 -109 -110.5 -167t-196.5 -58q-136 0 -212.5 75t-76.5 236v653h105v-641q0 -244 211 -244q115 0 196.5 90.5t81.5 245.5v549h105v-946h-88zM545 1092h-88l-203 278h145z" />
    <glyph glyph-name="uacute" unicode="&#xfa;" 
d="M752 0l-15 207q-31 -109 -110.5 -167t-196.5 -58q-136 0 -212.5 75t-76.5 236v653h105v-641q0 -244 211 -244q115 0 196.5 90.5t81.5 245.5v549h105v-946h-88zM526 1092h-88l146 278h143z" />
    <glyph glyph-name="ucircumflex" unicode="&#xfb;" 
d="M752 0l-15 207q-31 -109 -110.5 -167t-196.5 -58q-136 0 -212.5 75t-76.5 236v653h105v-641q0 -244 211 -244q115 0 196.5 90.5t81.5 245.5v549h105v-946h-88zM461 1370h59l236 -278h-113l-90 108q-18 22 -33 43t-20 31l-6 10h-7q-18 -35 -59 -84l-92 -108h-111z" />
    <glyph glyph-name="udieresis" unicode="&#xfc;" 
d="M752 0l-15 207q-31 -109 -110.5 -167t-196.5 -58q-136 0 -212.5 75t-76.5 236v653h105v-641q0 -244 211 -244q115 0 196.5 90.5t81.5 245.5v549h105v-946h-88zM238 1219q0 32 22 54.5t53 22.5q33 0 55.5 -22t22.5 -55t-22.5 -55.5t-55.5 -22.5q-31 0 -53 23t-22 55z
M588 1217q0 33 22.5 55t55.5 22t55 -22t22 -55q0 -31 -22.5 -53.5t-54.5 -22.5t-55 22.5t-23 53.5z" />
    <glyph glyph-name="yacute" unicode="&#xfd;" horiz-adv-x="854" 
d="M137 946l228 -651q21 -61 36.5 -117t20.5 -82l6 -26h6q19 84 64 221l223 655h108l-350 -995q-71 -203 -151.5 -290t-198.5 -87q-70 0 -133 29l12 90q56 -33 123 -33q84 0 138 66.5t112 234.5l-356 985h112zM467 1092h-88l145 278h146z" />
    <glyph glyph-name="thorn" unicode="&#xfe;" horiz-adv-x="1052" 
d="M262 547v-176q0 -77 24.5 -138t65 -97t89.5 -54.5t102 -18.5q138 0 223.5 106t85.5 314q0 193 -78 292t-213 99q-127 0 -212.5 -85t-86.5 -242zM262 168v-584h-104v1784h104v-618q31 104 119 159.5t201 55.5q174 0 275 -122t101 -351q0 -231 -108 -370.5t-295 -139.5
q-115 0 -190 52.5t-103 133.5z" />
    <glyph glyph-name="ydieresis" unicode="&#xff;" horiz-adv-x="854" 
d="M137 946l228 -651q21 -61 36.5 -117t20.5 -82l6 -26h6q19 84 64 221l223 655h108l-350 -995q-71 -203 -151.5 -290t-198.5 -87q-70 0 -133 29l12 90q56 -33 123 -33q84 0 138 66.5t112 234.5l-356 985h112zM178 1219q0 32 23 54.5t55 22.5t55 -22.5t23 -54.5t-23 -55
t-55 -23t-55 23t-23 55zM530 1217q0 33 22.5 55t55.5 22q32 0 54 -22t22 -55q0 -31 -22 -53.5t-54 -22.5t-55 22.5t-23 53.5z" />
    <glyph glyph-name="Amacron" unicode="&#x100;" horiz-adv-x="1095" 
d="M961 0l-144 383h-541l-143 -383h-113l459 1206h142l454 -1206h-114zM444 836l-135 -361h473l-133 359q-31 82 -55.5 157t-33.5 109l-9 35h-8q-29 -115 -99 -299zM774 1366h-455v84h455v-84z" />
    <glyph glyph-name="amacron" unicode="&#x101;" horiz-adv-x="927" 
d="M672 1155h-455v88h455v-88zM653 297v156q-50 6 -98 6q-369 0 -369 -213q0 -83 52.5 -131.5t150.5 -48.5q106 0 185 62t79 169zM758 674v-477q0 -64 19 -91.5t57 -27.5q27 0 43 8v-86q-32 -8 -64 -8q-146 0 -154 168q-32 -88 -110.5 -133t-179.5 -45q-132 0 -209.5 67.5
t-77.5 186.5q0 147 113.5 224t339.5 77q68 0 118 -7v132q0 215 -221 215q-205 0 -221 -191l-96 14q5 72 34.5 125.5t76.5 83t100.5 43t115.5 13.5q68 0 122.5 -15t99.5 -48t69.5 -91t24.5 -137z" />
    <glyph glyph-name="Abreve" unicode="&#x102;" horiz-adv-x="1095" 
d="M961 0l-144 383h-541l-143 -383h-113l459 1206h142l454 -1206h-114zM444 836l-135 -361h473l-133 359q-31 82 -55.5 157t-33.5 109l-9 35h-8q-29 -115 -99 -299zM547 1307q-117 0 -181.5 66t-64.5 186h86q5 -87 43.5 -128.5t116.5 -41.5q79 0 117.5 41.5t44.5 128.5h84
q0 -120 -64.5 -186t-181.5 -66z" />
    <glyph glyph-name="abreve" unicode="&#x103;" horiz-adv-x="927" 
d="M449 1083q-117 0 -182.5 69.5t-65.5 195.5h86q5 -91 43 -137t119 -46q80 0 117 46t42 137h86q0 -126 -64 -195.5t-181 -69.5zM653 297v156q-50 6 -98 6q-369 0 -369 -213q0 -83 52.5 -131.5t150.5 -48.5q106 0 185 62t79 169zM758 674v-477q0 -64 19 -91.5t57 -27.5
q27 0 43 8v-86q-32 -8 -64 -8q-146 0 -154 168q-32 -88 -110.5 -133t-179.5 -45q-132 0 -209.5 67.5t-77.5 186.5q0 147 113.5 224t339.5 77q68 0 118 -7v132q0 215 -221 215q-205 0 -221 -191l-96 14q5 72 34.5 125.5t76.5 83t100.5 43t115.5 13.5q68 0 122.5 -15t99.5 -48
t69.5 -91t24.5 -137z" />
    <glyph glyph-name="Aogonek" unicode="&#x104;" horiz-adv-x="1095" 
d="M721 -231q0 96 63.5 163.5t159.5 108.5l-127 342h-541l-143 -383h-113l459 1206h142l454 -1206q-122 -19 -189 -75.5t-67 -145.5q0 -54 27 -84.5t76 -30.5q78 0 129 78l43 -51q-62 -103 -187 -103q-86 0 -136 48t-50 133zM444 836l-135 -361h473l-133 359
q-31 82 -55.5 157t-33.5 109l-9 35h-8q-29 -115 -99 -299z" />
    <glyph glyph-name="aogonek" unicode="&#x105;" horiz-adv-x="927" 
d="M532 -233q0 85 55 149t138 102q-63 28 -66 142q-31 -86 -110.5 -132t-179.5 -46q-132 0 -209.5 67.5t-77.5 186.5q0 147 113.5 224t339.5 77q68 0 118 -7v132q0 215 -221 215q-205 0 -221 -191l-96 14q5 72 34.5 125.5t76.5 83t100.5 43t115.5 13.5q68 0 122.5 -15
t99.5 -48t69.5 -91t24.5 -137v-477q0 -64 19 -91.5t57 -27.5q27 0 43 8v-86q-101 -20 -173.5 -76t-72.5 -145q0 -55 26 -85t76 -30q79 0 127 78l43 -51q-58 -103 -184 -103q-88 0 -137.5 47t-49.5 132zM653 297v156q-50 6 -98 6q-369 0 -369 -213q0 -83 52.5 -131.5
t150.5 -48.5q106 0 185 62t79 169z" />
    <glyph glyph-name="Cacute" unicode="&#x106;" horiz-adv-x="1130" 
d="M991 299l78 -61q-70 -130 -178.5 -193t-269.5 -63q-240 0 -381.5 161t-141.5 457t148 460.5t393 164.5q315 0 430 -287l-96 -47q-43 119 -129.5 180.5t-210.5 61.5q-200 0 -311 -142t-111 -391q0 -247 107 -384.5t307 -137.5q131 0 218.5 53t147.5 168zM666 1315h-93
l132 248h143z" />
    <glyph glyph-name="cacute" unicode="&#x107;" horiz-adv-x="915" 
d="M754 262l88 -18q-24 -135 -117.5 -198.5t-237.5 -63.5q-183 0 -288 125t-105 362q0 235 108 365.5t298 130.5q151 0 235 -76t96 -225l-96 -15q-28 225 -241 225q-144 0 -221.5 -108.5t-77.5 -298.5q0 -185 81 -292t220 -107q208 0 258 194zM539 1092h-86l145 278h143z
" />
    <glyph glyph-name="Ccircumflex" unicode="&#x108;" horiz-adv-x="1130" 
d="M991 299l78 -61q-70 -130 -178.5 -193t-269.5 -63q-240 0 -381.5 161t-141.5 457t148 460.5t393 164.5q315 0 430 -287l-96 -47q-43 119 -129.5 180.5t-210.5 61.5q-200 0 -311 -142t-111 -391q0 -247 107 -384.5t307 -137.5q131 0 218.5 53t147.5 168zM604 1571h64
l235 -256h-119l-86 96q-18 21 -33 41t-21 30l-5 9h-4q-19 -33 -60 -80l-86 -96h-118z" />
    <glyph glyph-name="ccircumflex" unicode="&#x109;" horiz-adv-x="915" 
d="M754 262l88 -18q-24 -135 -117.5 -198.5t-237.5 -63.5q-183 0 -288 125t-105 362q0 235 108 365.5t298 130.5q151 0 235 -76t96 -225l-96 -15q-28 225 -241 225q-144 0 -221.5 -108.5t-77.5 -298.5q0 -185 81 -292t220 -107q208 0 258 194zM471 1370h59l236 -278h-111
l-92 108q-18 22 -33 43t-20 31l-6 10h-6q-19 -35 -60 -84l-90 -108h-112z" />
    <glyph glyph-name="Cdotaccent" unicode="&#x10a;" horiz-adv-x="1130" 
d="M991 299l78 -61q-70 -130 -178.5 -193t-269.5 -63q-240 0 -381.5 161t-141.5 457t148 460.5t393 164.5q315 0 430 -287l-96 -47q-43 119 -129.5 180.5t-210.5 61.5q-200 0 -311 -142t-111 -391q0 -247 107 -384.5t307 -137.5q131 0 218.5 53t147.5 168zM553 1411
q0 33 22.5 56.5t53.5 23.5q34 0 57 -23t23 -57q0 -32 -23 -55t-57 -23q-31 0 -53.5 23t-22.5 55z" />
    <glyph glyph-name="cdotaccent" unicode="&#x10b;" horiz-adv-x="915" 
d="M754 262l88 -18q-24 -135 -117.5 -198.5t-237.5 -63.5q-183 0 -288 125t-105 362q0 235 108 365.5t298 130.5q151 0 235 -76t96 -225l-96 -15q-28 225 -241 225q-144 0 -221.5 -108.5t-77.5 -298.5q0 -185 81 -292t220 -107q208 0 258 194zM424 1214q0 34 22 57t54 23
q34 0 56 -23t22 -57q0 -32 -22 -54.5t-56 -22.5q-32 0 -54 22.5t-22 54.5z" />
    <glyph glyph-name="Ccaron" unicode="&#x10c;" horiz-adv-x="1130" 
d="M991 299l78 -61q-70 -130 -178.5 -193t-269.5 -63q-240 0 -381.5 161t-141.5 457t148 460.5t393 164.5q315 0 430 -287l-96 -47q-43 119 -129.5 180.5t-210.5 61.5q-200 0 -311 -142t-111 -391q0 -247 107 -384.5t307 -137.5q131 0 218.5 53t147.5 168zM659 1309h-63
l-236 258h119l86 -99q18 -21 33 -40t21 -28l6 -9h4q18 30 59 77l88 99h117z" />
    <glyph glyph-name="ccaron" unicode="&#x10d;" horiz-adv-x="915" 
d="M754 262l88 -18q-24 -135 -117.5 -198.5t-237.5 -63.5q-183 0 -288 125t-105 362q0 235 108 365.5t298 130.5q151 0 235 -76t96 -225l-96 -15q-28 225 -241 225q-144 0 -221.5 -108.5t-77.5 -298.5q0 -185 81 -292t220 -107q208 0 258 194zM530 1092h-59l-235 278h112
l90 -113q18 -22 33 -42.5t21 -30.5l6 -10h6q18 34 59 83l92 113h111z" />
    <glyph glyph-name="Dcaron" unicode="&#x10e;" horiz-adv-x="1189" 
d="M287 92h213q225 0 352 132t127 388t-123 379t-346 123h-223v-1022zM510 0h-332v1206h334q131 0 234.5 -33t182 -102t121 -184.5t42.5 -270.5q0 -130 -30.5 -235t-84 -175t-128 -117t-159 -68t-180.5 -21zM563 1309h-63l-234 258h117l88 -99q18 -21 33 -40t20 -28l6 -9h5
q18 30 59 77l86 99h119z" />
    <glyph glyph-name="dcaron" unicode="&#x10f;" horiz-adv-x="1050" 
d="M1176 1368l-80 -358h-76l33 358h123zM791 385v193q0 76 -25 135.5t-67 94.5t-90.5 53t-100.5 18q-141 0 -225 -102t-84 -316q0 -192 80.5 -292.5t218.5 -100.5q54 0 104.5 19.5t93 56.5t68.5 99.5t27 141.5zM788 776v592h107v-1368h-90l-14 199q-34 -107 -119 -162
t-201 -55q-164 0 -270.5 124t-106.5 353q0 244 108.5 375t303.5 131q106 0 182.5 -55t99.5 -134z" />
    <glyph glyph-name="Dcroat" unicode="&#x110;" horiz-adv-x="1198" 
d="M516 0h-332v557h-125v94h125v555h334q131 0 234.5 -33t182 -102t121 -184.5t42.5 -270.5q0 -130 -30.5 -235t-84 -175t-128 -117t-159 -68t-180.5 -21zM293 92h213q225 0 352 132t127 388t-122.5 379t-344.5 123h-225v-463h280v-94h-280v-465z" />
    <glyph glyph-name="dcroat" unicode="&#x111;" horiz-adv-x="1050" 
d="M467 1108v84h321v176h107v-176h145v-84h-145v-1108h-90l-14 199q-34 -107 -119 -162t-201 -55q-164 0 -270.5 124t-106.5 353q0 244 108.5 375t303.5 131q106 0 182.5 -55t99.5 -134v332h-321zM791 385v193q0 76 -25 135.5t-67 94.5t-90.5 53t-100.5 18q-141 0 -225 -102
t-84 -316q0 -192 80.5 -292.5t218.5 -100.5q54 0 104.5 19.5t93 56.5t68.5 99.5t27 141.5z" />
    <glyph glyph-name="Emacron" unicode="&#x112;" horiz-adv-x="970" 
d="M864 94v-94h-686v1206h686v-94h-577v-461h514v-94h-514v-463h577zM748 1366h-455v84h455v-84z" />
    <glyph glyph-name="emacron" unicode="&#x113;" horiz-adv-x="937" 
d="M502 66q102 0 163 44.5t87 141.5l92 -21q-48 -249 -350 -249q-187 0 -293.5 125.5t-106.5 363.5q0 233 108.5 363.5t297.5 130.5q167 0 256.5 -104t89.5 -273q0 -59 -12 -121h-639q0 -190 81 -295.5t226 -105.5zM199 553h542q2 18 2 55q0 119 -65.5 195t-183.5 76
q-130 0 -205.5 -85t-89.5 -241zM727 1155h-455v88h455v-88z" />
    <glyph glyph-name="Ebreve" unicode="&#x114;" horiz-adv-x="970" 
d="M864 94v-94h-686v1206h686v-94h-577v-461h514v-94h-514v-463h577zM528 1307q-116 0 -179.5 66t-63.5 186h84q5 -87 43 -128.5t116 -41.5q79 0 118 41.5t44 128.5h86q0 -120 -65.5 -186t-182.5 -66z" />
    <glyph glyph-name="ebreve" unicode="&#x115;" horiz-adv-x="937" 
d="M502 66q102 0 163 44.5t87 141.5l92 -21q-48 -249 -350 -249q-187 0 -293.5 125.5t-106.5 363.5q0 233 108.5 363.5t297.5 130.5q167 0 256.5 -104t89.5 -273q0 -59 -12 -121h-639q0 -190 81 -295.5t226 -105.5zM199 553h542q2 18 2 55q0 119 -65.5 195t-183.5 76
q-130 0 -205.5 -85t-89.5 -241zM498 1083q-117 0 -182.5 69.5t-65.5 195.5h86q5 -91 43 -137t119 -46q80 0 117 46t42 137h86q0 -126 -64 -195.5t-181 -69.5z" />
    <glyph glyph-name="Edotaccent" unicode="&#x116;" horiz-adv-x="970" 
d="M864 94v-94h-686v1206h686v-94h-577v-461h514v-94h-514v-463h577zM436 1411q0 34 23 57t55 23q34 0 56 -23t22 -57q0 -33 -22.5 -55.5t-55.5 -22.5q-32 0 -55 23t-23 55z" />
    <glyph glyph-name="edotaccent" unicode="&#x117;" horiz-adv-x="937" 
d="M502 66q102 0 163 44.5t87 141.5l92 -21q-48 -249 -350 -249q-187 0 -293.5 125.5t-106.5 363.5q0 233 108.5 363.5t297.5 130.5q167 0 256.5 -104t89.5 -273q0 -59 -12 -121h-639q0 -190 81 -295.5t226 -105.5zM199 553h542q2 18 2 55q0 119 -65.5 195t-183.5 76
q-130 0 -205.5 -85t-89.5 -241zM424 1214q0 34 22 57t54 23q34 0 56 -23t22 -57q0 -32 -22 -54.5t-56 -22.5q-32 0 -54 22.5t-22 54.5z" />
    <glyph glyph-name="Eogonek" unicode="&#x118;" horiz-adv-x="970" 
d="M864 94v-94q-105 -23 -165 -78.5t-60 -142.5q0 -54 26.5 -84.5t75.5 -30.5q81 0 129 78l43 -51q-58 -103 -184 -103q-88 0 -137 47t-49 132q0 149 151 233h-516v1206h686v-94h-577v-461h514v-94h-514v-463h577z" />
    <glyph glyph-name="eogonek" unicode="&#x119;" horiz-adv-x="937" 
d="M385 -233q0 132 113 217q-38 0 -58 2q-163 18 -254.5 141.5t-91.5 343.5q0 233 108.5 363.5t297.5 130.5q167 0 256.5 -104t89.5 -273q0 -59 -12 -121h-639q0 -190 81 -295.5t226 -105.5q102 0 163 44.5t87 141.5l92 -21q-19 -93 -69 -144t-128 -83q-81 -34 -122.5 -93.5
t-41.5 -131.5q0 -55 26.5 -85t76.5 -30q79 0 127 78l45 -51q-62 -103 -187 -103q-87 0 -136.5 47.5t-49.5 131.5zM199 553h542q2 18 2 55q0 119 -65.5 195t-183.5 76q-130 0 -205.5 -85t-89.5 -241z" />
    <glyph glyph-name="Ecaron" unicode="&#x11a;" horiz-adv-x="970" 
d="M864 94v-94h-686v1206h686v-94h-577v-461h514v-94h-514v-463h577zM561 1309h-61l-236 258h119l86 -99q18 -21 33 -40t20 -28l6 -9h4q19 30 60 77l86 99h119z" />
    <glyph glyph-name="ecaron" unicode="&#x11b;" horiz-adv-x="937" 
d="M502 66q102 0 163 44.5t87 141.5l92 -21q-48 -249 -350 -249q-187 0 -293.5 125.5t-106.5 363.5q0 233 108.5 363.5t297.5 130.5q167 0 256.5 -104t89.5 -273q0 -59 -12 -121h-639q0 -190 81 -295.5t226 -105.5zM199 553h542q2 18 2 55q0 119 -65.5 195t-183.5 76
q-130 0 -205.5 -85t-89.5 -241zM530 1092h-59l-235 278h110l92 -113q18 -22 33 -42.5t21 -30.5l6 -10h6q18 34 59 83l90 113h113z" />
    <glyph glyph-name="Gcircumflex" unicode="&#x11c;" horiz-adv-x="1216" 
d="M645 590h434v-590h-94l-14 207q-32 -104 -129 -164.5t-221 -60.5q-240 0 -381.5 161.5t-141.5 456.5q0 296 148 460.5t393 164.5q163 0 269 -70.5t161 -216.5l-96 -47q-43 119 -129.5 180.5t-210.5 61.5q-200 0 -311 -142t-111 -391q0 -244 107.5 -385t306.5 -141
q69 0 129 18t109.5 55.5t78.5 102t29 149.5v93h-326v98zM604 1571h64l235 -256h-119l-86 96q-18 21 -33 41t-21 30l-5 9h-4q-19 -33 -60 -80l-88 -96h-116z" />
    <glyph glyph-name="gcircumflex" unicode="&#x11d;" horiz-adv-x="942" 
d="M455 965q177 0 274 -105q75 41 84 168l94 -31q-14 -144 -137 -190q41 -71 41 -172q0 -152 -99 -238t-255 -86q-77 0 -138 21q-79 -37 -79 -111q0 -98 137 -98h215q145 0 228 -62t83 -190q0 -69 -28.5 -122.5t-74 -87t-109 -55t-128 -30t-135.5 -8.5q-82 0 -150.5 13
t-127 41.5t-92 81.5t-33.5 126q0 104 69.5 168t181.5 70q-61 4 -95 41.5t-34 95.5q0 109 119 147q-78 39 -122 112t-44 171q0 153 97 241.5t258 88.5zM125 -162q0 -67 42.5 -110.5t110 -61.5t158.5 -18q76 0 139 11t116 34.5t82.5 66t29.5 101.5q0 80 -53.5 124t-159.5 44
h-201q-123 0 -193.5 -47t-70.5 -144zM203 637q0 -113 67.5 -179.5t184.5 -66.5q116 0 184 64.5t68 181.5t-68 181.5t-184 64.5q-118 -2 -185 -66.5t-67 -179.5zM442 1370h58l235 -278h-110l-93 108q-18 22 -33 43t-21 31l-5 10h-6q-18 -35 -59 -84l-91 -108h-112z" />
    <glyph glyph-name="Gbreve" unicode="&#x11e;" horiz-adv-x="1216" 
d="M645 590h434v-590h-94l-14 207q-32 -104 -129 -164.5t-221 -60.5q-240 0 -381.5 161.5t-141.5 456.5q0 296 148 460.5t393 164.5q163 0 269 -70.5t161 -216.5l-96 -47q-43 119 -129.5 180.5t-210.5 61.5q-200 0 -311 -142t-111 -391q0 -244 107.5 -385t306.5 -141
q69 0 129 18t109.5 55.5t78.5 102t29 149.5v93h-326v98zM637 1307q-117 0 -181.5 66t-64.5 186h86q5 -87 43 -128.5t117 -41.5q78 0 116.5 41.5t43.5 128.5h86q0 -120 -64.5 -186t-181.5 -66z" />
    <glyph glyph-name="gbreve" unicode="&#x11f;" horiz-adv-x="942" 
d="M455 965q177 0 274 -105q75 41 84 168l94 -31q-14 -144 -137 -190q41 -71 41 -172q0 -152 -99 -238t-255 -86q-77 0 -138 21q-79 -37 -79 -111q0 -98 137 -98h215q145 0 228 -62t83 -190q0 -69 -28.5 -122.5t-74 -87t-109 -55t-128 -30t-135.5 -8.5q-82 0 -150.5 13
t-127 41.5t-92 81.5t-33.5 126q0 104 69.5 168t181.5 70q-61 4 -95 41.5t-34 95.5q0 109 119 147q-78 39 -122 112t-44 171q0 153 97 241.5t258 88.5zM125 -162q0 -67 42.5 -110.5t110 -61.5t158.5 -18q76 0 139 11t116 34.5t82.5 66t29.5 101.5q0 80 -53.5 124t-159.5 44
h-201q-123 0 -193.5 -47t-70.5 -144zM203 637q0 -113 67.5 -179.5t184.5 -66.5q116 0 184 64.5t68 181.5t-68 181.5t-184 64.5q-118 -2 -185 -66.5t-67 -179.5zM467 1083q-118 0 -183 69.5t-65 195.5h86q5 -91 43 -137t119 -46t118 46t42 137h86q0 -126 -64.5 -195.5
t-181.5 -69.5z" />
    <glyph glyph-name="Gdotaccent" unicode="&#x120;" horiz-adv-x="1216" 
d="M645 590h434v-590h-94l-14 207q-32 -104 -129 -164.5t-221 -60.5q-240 0 -381.5 161.5t-141.5 456.5q0 296 148 460.5t393 164.5q163 0 269 -70.5t161 -216.5l-96 -47q-43 119 -129.5 180.5t-210.5 61.5q-200 0 -311 -142t-111 -391q0 -244 107.5 -385t306.5 -141
q69 0 129 18t109.5 55.5t78.5 102t29 149.5v93h-326v98zM559 1430q0 34 21.5 55.5t54.5 21.5q34 0 56 -21.5t22 -55.5q0 -33 -22.5 -55.5t-55.5 -22.5q-32 0 -54 23t-22 55z" />
    <glyph glyph-name="gdotaccent" unicode="&#x121;" horiz-adv-x="942" 
d="M455 965q177 0 274 -105q75 41 84 168l94 -31q-14 -144 -137 -190q41 -71 41 -172q0 -152 -99 -238t-255 -86q-77 0 -138 21q-79 -37 -79 -111q0 -98 137 -98h215q145 0 228 -62t83 -190q0 -69 -28.5 -122.5t-74 -87t-109 -55t-128 -30t-135.5 -8.5q-82 0 -150.5 13
t-127 41.5t-92 81.5t-33.5 126q0 104 69.5 168t181.5 70q-61 4 -95 41.5t-34 95.5q0 109 119 147q-78 39 -122 112t-44 171q0 153 97 241.5t258 88.5zM125 -162q0 -67 42.5 -110.5t110 -61.5t158.5 -18q76 0 139 11t116 34.5t82.5 66t29.5 101.5q0 80 -53.5 124t-159.5 44
h-201q-123 0 -193.5 -47t-70.5 -144zM203 637q0 -113 67.5 -179.5t184.5 -66.5q116 0 184 64.5t68 181.5t-68 181.5t-184 64.5q-118 -2 -185 -66.5t-67 -179.5zM385 1217q0 34 22 56.5t54 22.5q34 0 56 -22.5t22 -56.5q0 -31 -22.5 -53.5t-55.5 -22.5q-32 0 -54 22.5
t-22 53.5z" />
    <glyph glyph-name="Gcommaaccent" unicode="&#x122;" horiz-adv-x="1216" 
d="M645 590h434v-590h-94l-14 207q-32 -104 -129 -164.5t-221 -60.5q-240 0 -381.5 161.5t-141.5 456.5q0 296 148 460.5t393 164.5q163 0 269 -70.5t161 -216.5l-96 -47q-43 119 -129.5 180.5t-210.5 61.5q-200 0 -311 -142t-111 -391q0 -244 107.5 -385t306.5 -141
q69 0 129 18t109.5 55.5t78.5 102t29 149.5v93h-326v98zM754 -297q0 -178 -195 -178v53q58 2 87 23t30 73q0 9 -4 17q-12 -8 -27 -8q-30 0 -48.5 18.5t-18.5 48.5q0 34 22 54t57 20q39 0 68 -32.5t29 -88.5z" />
    <glyph glyph-name="gcommaaccent" unicode="&#x123;" horiz-adv-x="942" 
d="M455 965q177 0 274 -105q75 41 84 168l94 -31q-14 -144 -137 -190q41 -71 41 -172q0 -152 -99 -238t-255 -86q-77 0 -138 21q-79 -37 -79 -111q0 -98 137 -98h215q145 0 228 -62t83 -190q0 -69 -28.5 -122.5t-74 -87t-109 -55t-128 -30t-135.5 -8.5q-82 0 -150.5 13
t-127 41.5t-92 81.5t-33.5 126q0 104 69.5 168t181.5 70q-61 4 -95 41.5t-34 95.5q0 109 119 147q-78 39 -122 112t-44 171q0 153 97 241.5t258 88.5zM125 -162q0 -67 42.5 -110.5t110 -61.5t158.5 -18q76 0 139 11t116 34.5t82.5 66t29.5 101.5q0 80 -53.5 124t-159.5 44
h-201q-123 0 -193.5 -47t-70.5 -144zM203 637q0 -113 67.5 -179.5t184.5 -66.5q116 0 184 64.5t68 181.5t-68 181.5t-184 64.5q-118 -2 -185 -66.5t-67 -179.5zM356 1235q0 178 195 178v-53q-58 -2 -87 -23t-30 -73q0 -13 2 -17q16 8 29 8q30 0 47.5 -18.5t17.5 -48.5
q0 -34 -21 -54t-56 -20q-39 0 -68 32.5t-29 88.5z" />
    <glyph glyph-name="Hcircumflex" unicode="&#x124;" horiz-adv-x="1269" 
d="M287 0h-109v1206h109v-549h696v549h107v-1206h-107v561h-696v-561zM602 1571h64l235 -256h-119l-86 96q-18 21 -33 41t-21 30l-5 9h-4q-19 -33 -60 -80l-86 -96h-118z" />
    <glyph glyph-name="hcircumflex" unicode="&#x125;" horiz-adv-x="1003" 
d="M260 1368v-637q30 107 109.5 170.5t195.5 63.5q132 0 211.5 -74t79.5 -225v-666h-104v639q0 112 -54.5 172.5t-154.5 60.5q-122 0 -202.5 -85t-80.5 -250v-537h-104v1368h104zM178 1686h64l235 -259h-119l-86 99q-18 20 -33 39.5t-21 28.5l-5 10h-4q-18 -33 -59 -78
l-87 -99h-118z" />
    <glyph glyph-name="Hbar" unicode="&#x126;" horiz-adv-x="1296" 
d="M49 868v97h141v241h107v-241h696v241h109v-241h145v-97h-145v-868h-109v561h-696v-561h-107v868h-141zM297 657h696v211h-696v-211z" />
    <glyph glyph-name="hbar" unicode="&#x127;" horiz-adv-x="1003" 
d="M260 1368v-176h322v-84h-322v-377q30 107 109.5 170.5t195.5 63.5q132 0 211.5 -74t79.5 -225v-666h-104v639q0 112 -54.5 172.5t-154.5 60.5q-122 0 -202.5 -85t-80.5 -250v-537h-104v1108h-148v84h148v176h104z" />
    <glyph glyph-name="Itilde" unicode="&#x128;" horiz-adv-x="464" 
d="M178 1206h109v-1206h-109v1206zM373 1325q-9 0 -18 1t-16 2t-16 4.5t-14.5 5t-15 6.5t-13.5 7t-14 8.5t-13 8.5t-14 9t-14 9q-4 3 -17.5 12.5t-17.5 12t-15 9.5t-16 9.5t-14 6.5t-15.5 5.5t-15 3t-16.5 1.5q-90 0 -67 -121h-68q-33 88 4.5 151.5t120.5 63.5
q33 0 63.5 -9.5t48 -20.5t50.5 -33q31 -23 44.5 -32.5t33 -17.5t39.5 -8q86 0 67 125h72q31 -94 -7 -156.5t-126 -62.5z" />
    <glyph glyph-name="itilde" unicode="&#x129;" horiz-adv-x="419" 
d="M350 1104q-28 0 -55.5 9.5t-44 19.5t-45.5 30q-4 3 -17.5 12.5t-17.5 12t-15 9.5t-16 9.5t-14 6.5t-15.5 5.5t-15 3t-16.5 1.5q-42 0 -61.5 -29.5t-8.5 -91.5h-67q-33 89 5.5 151t121.5 62q32 0 62.5 -10.5t47 -21t49.5 -34.5q4 -2 16 -10.5t15 -10.5t12.5 -8.5t13 -8
t11.5 -6t12 -5.5t11 -3t13 -2.5t13 -0.5q87 0 70 125h69q32 -95 -5.5 -155t-127.5 -60zM158 946h104v-946h-104v946z" />
    <glyph glyph-name="Imacron" unicode="&#x12a;" horiz-adv-x="464" 
d="M178 1206h109v-1206h-109v1206zM459 1366h-453v84h453v-84z" />
    <glyph glyph-name="imacron" unicode="&#x12b;" horiz-adv-x="419" 
d="M418 1155h-416v88h416v-88zM158 946h104v-946h-104v946z" />
    <glyph glyph-name="Ibreve" unicode="&#x12c;" horiz-adv-x="464" 
d="M178 1206h109v-1206h-109v1206zM231 1307q-116 0 -179.5 66t-63.5 186h84q5 -87 43 -128.5t116 -41.5q79 0 118 41.5t44 128.5h84q0 -120 -64.5 -186t-181.5 -66z" />
    <glyph glyph-name="Iogonek" unicode="&#x12e;" horiz-adv-x="464" 
d="M-23 -233q0 169 201 264v1175h109v-1206q-88 -25 -149.5 -81t-61.5 -140q0 -55 26 -85t76 -30q79 0 127 78l43 -51q-58 -103 -184 -103q-88 0 -137.5 47t-49.5 132z" />
    <glyph glyph-name="iogonek" unicode="&#x12f;" horiz-adv-x="419" 
d="M-47 -233q0 91 57.5 157.5t147.5 108.5v913h104v-946q-88 -25 -149.5 -81t-61.5 -140q0 -54 27 -84.5t76 -30.5q79 0 127 78l45 -51q-62 -103 -187 -103q-87 0 -136.5 47.5t-49.5 131.5zM133 1237q0 34 22 57t54 23q34 0 57 -23t23 -57q0 -32 -23 -54t-57 -22
q-32 0 -54 22t-22 54z" />
    <glyph glyph-name="Idotaccent" unicode="&#x130;" horiz-adv-x="464" 
d="M178 1206h109v-1206h-109v1206zM154 1411q0 34 22.5 57t54.5 23q34 0 56 -23t22 -57q0 -33 -22.5 -55.5t-55.5 -22.5q-32 0 -54.5 23t-22.5 55z" />
    <glyph glyph-name="dotlessi" unicode="&#x131;" horiz-adv-x="419" 
d="M158 946h104v-946h-104v946z" />
    <glyph glyph-name="IJ" unicode="&#x132;" horiz-adv-x="1308" 
d="M193 1206h106v-1206h-106v1206zM1044 1206h107v-854q0 -81 -18.5 -145t-50.5 -106t-77.5 -69t-96 -38.5t-109.5 -11.5q-265 0 -363 241l88 56q44 -108 110.5 -156.5t168.5 -48.5q124 0 182.5 74t58.5 231v827z" />
    <glyph glyph-name="ij" unicode="&#x133;" horiz-adv-x="944" 
d="M152 1237q0 34 21.5 57t53.5 23q34 0 57 -23t23 -57q0 -32 -23 -54t-57 -22q-32 0 -53.5 22t-21.5 54zM176 946h105v-946h-105v946zM639 946h104v-1028q0 -181 -87 -260t-261 -74v88q123 -6 183.5 50.5t60.5 185.5v1038zM614 1237q0 34 23 57t55 23t55 -23t23 -57
q0 -32 -23 -54t-55 -22t-55 22t-23 54z" />
    <glyph glyph-name="Jcircumflex" unicode="&#x134;" horiz-adv-x="872" 
d="M627 1206h106v-854q0 -81 -18.5 -145t-50.5 -106t-77.5 -69t-96 -38.5t-109.5 -11.5q-265 0 -363 241l88 56q44 -108 110.5 -156.5t168.5 -48.5q124 0 183 74t59 231v827zM649 1571h64l233 -256h-117l-88 96q-18 21 -33 41t-20 30l-6 9h-4q-19 -33 -60 -80l-86 -96h-118z
" />
    <glyph glyph-name="jcircumflex" unicode="&#x135;" horiz-adv-x="419" 
d="M158 946h104v-1028q0 -181 -87 -260t-261 -74v88q123 -6 183.5 50.5t60.5 185.5v1038zM182 1370h60l235 -278h-110l-93 108q-18 22 -33 43t-21 31l-5 10h-6q-18 -35 -59 -84l-91 -108h-112z" />
    <glyph glyph-name="Kcommaaccent" unicode="&#x136;" horiz-adv-x="1024" 
d="M993 0h-135l-469 561h-102v-561h-109v1206h109v-549h106l441 549h129l-482 -592zM608 -297q0 -178 -196 -178v53q59 2 87.5 23t28.5 73q0 13 -2 17q-16 -8 -26 -8q-30 0 -49 18.5t-19 48.5q0 34 21.5 54t58.5 20q39 0 67.5 -32.5t28.5 -88.5z" />
    <glyph glyph-name="kcommaaccent" unicode="&#x137;" horiz-adv-x="878" 
d="M424 504l440 -504h-133l-389 453h-82v-453h-104v1368h104v-829h74l362 407h129zM561 -297q0 -178 -196 -178v53q59 2 87.5 23t28.5 73q0 13 -2 17q-12 -8 -26 -8q-31 0 -49.5 18.5t-18.5 48.5q0 34 21.5 54t58.5 20q39 0 67.5 -32.5t28.5 -88.5z" />
    <glyph glyph-name="kgreenlandic" unicode="&#x138;" horiz-adv-x="878" 
d="M424 504l440 -504h-133l-389 453h-82v-453h-104v946h102v-407h76l362 407h129z" />
    <glyph glyph-name="Lacute" unicode="&#x139;" horiz-adv-x="892" 
d="M178 1206h109v-1112h561v-94h-670v1206zM291 1315h-92l131 248h143z" />
    <glyph glyph-name="lacute" unicode="&#x13a;" horiz-adv-x="460" 
d="M399 90v-90q-44 -10 -82 -10q-81 0 -127.5 45.5t-46.5 132.5v1200h105v-1186q0 -102 88 -102q30 0 63 10zM240 1458h-93l132 248h143z" />
    <glyph glyph-name="Lcommaaccent" unicode="&#x13b;" horiz-adv-x="892" 
d="M178 1206h109v-1112h561v-94h-670v1206zM621 -297q0 -178 -195 -178v53q58 2 87 23t30 73q0 9 -4 17q-12 -8 -27 -8q-30 0 -48 18.5t-18 48.5q0 34 21.5 54t56.5 20q39 0 68 -32.5t29 -88.5z" />
    <glyph glyph-name="lcommaaccent" unicode="&#x13c;" horiz-adv-x="460" 
d="M399 90v-90q-44 -10 -82 -10q-81 0 -127.5 45.5t-46.5 132.5v1200h105v-1186q0 -102 88 -102q30 0 63 10zM371 -297q0 -178 -195 -178v53q58 2 87 23t30 73q0 13 -2 17q-16 -8 -29 -8q-30 0 -47.5 18.5t-17.5 48.5q0 34 21 54t56 20q39 0 68 -32.5t29 -88.5z" />
    <glyph glyph-name="Lcaron" unicode="&#x13d;" horiz-adv-x="892" 
d="M178 1206h109v-1112h561v-94h-670v1206zM748 1231l-78 -359h-78l33 359h123z" />
    <glyph glyph-name="lcaron" unicode="&#x13e;" horiz-adv-x="460" 
d="M528 1368l-77 -358h-78l33 358h122zM399 90v-90q-44 -10 -82 -10q-81 0 -127.5 45.5t-46.5 132.5v1200h105v-1186q0 -102 88 -102q30 0 63 10z" />
    <glyph glyph-name="Ldot" unicode="&#x13f;" horiz-adv-x="892" 
d="M178 1206h109v-1112h561v-94h-670v1206zM543 618q0 37 24.5 62t61.5 25t61.5 -25t24.5 -62q0 -38 -24.5 -63t-61.5 -25t-61.5 25t-24.5 63z" />
    <glyph glyph-name="ldot" unicode="&#x140;" horiz-adv-x="534" 
d="M399 90v-90q-44 -10 -82 -10q-81 0 -127.5 45.5t-46.5 132.5v1200h105v-1186q0 -102 88 -102q30 0 63 10zM379 662q0 37 24.5 61.5t61.5 24.5q38 0 63 -24.5t25 -61.5t-25 -62t-63 -25q-37 0 -61.5 25t-24.5 62z" />
    <glyph glyph-name="Lslash" unicode="&#x141;" horiz-adv-x="901" 
d="M57 442v95l131 57v612h107v-569l313 143v-98l-313 -141v-447h561v-94h-668v500z" />
    <glyph glyph-name="lslash" unicode="&#x142;" horiz-adv-x="468" 
d="M41 610v97l115 61v600h104v-545l154 82v-102l-154 -80v-541q0 -102 90 -102q29 0 62 10v-90q-44 -10 -82 -10q-81 0 -127.5 45.5t-46.5 132.5v502z" />
    <glyph glyph-name="Nacute" unicode="&#x143;" horiz-adv-x="1288" 
d="M684 1315h-92l131 248h143zM295 1206l573 -839q35 -50 69 -106t51 -87l16 -31h6q-6 119 -6 254v809h106v-1206h-115l-575 840q-34 48 -67.5 104t-50.5 88l-17 31h-9q9 -119 9 -254v-809h-107v1206h117z" />
    <glyph glyph-name="nacute" unicode="&#x144;" horiz-adv-x="1007" 
d="M238 946l14 -217q33 109 116 172.5t201 63.5q131 0 210 -74t79 -225v-666h-104v639q0 113 -54 173t-155 60q-121 0 -202 -85.5t-81 -249.5v-537h-104v946h80zM549 1092h-86l145 278h144z" />
    <glyph glyph-name="Ncommaaccent" unicode="&#x145;" horiz-adv-x="1288" 
d="M752 -297q0 -178 -195 -178v53q58 2 87 23t30 73q0 9 -4 17q-12 -8 -27 -8q-30 0 -47.5 18.5t-17.5 48.5q0 34 21 54t56 20q39 0 68 -32.5t29 -88.5zM295 1206l573 -839q35 -50 69 -106t51 -87l16 -31h6q-6 119 -6 254v809h106v-1206h-115l-575 840q-34 48 -67.5 104
t-50.5 88l-17 31h-9q9 -119 9 -254v-809h-107v1206h117z" />
    <glyph glyph-name="ncommaaccent" unicode="&#x146;" horiz-adv-x="1007" 
d="M238 946l14 -217q33 109 116 172.5t201 63.5q131 0 210 -74t79 -225v-666h-104v639q0 113 -54 173t-155 60q-121 0 -202 -85.5t-81 -249.5v-537h-104v946h80zM612 -297q0 -178 -196 -178v53q59 2 87.5 23t28.5 73q0 13 -2 17q-16 -8 -26 -8q-30 0 -49 18.5t-19 48.5
q0 34 21.5 54t58.5 20q39 0 67.5 -32.5t28.5 -88.5z" />
    <glyph glyph-name="Ncaron" unicode="&#x147;" horiz-adv-x="1288" 
d="M676 1309h-64l-235 258h119l86 -99q18 -21 33 -40t21 -28l5 -9h4q19 30 60 77l88 99h116zM295 1206l573 -839q35 -50 69 -106t51 -87l16 -31h6q-6 119 -6 254v809h106v-1206h-115l-575 840q-34 48 -67.5 104t-50.5 88l-17 31h-9q9 -119 9 -254v-809h-107v1206h117z" />
    <glyph glyph-name="ncaron" unicode="&#x148;" horiz-adv-x="1007" 
d="M238 946l14 -217q33 109 116 172.5t201 63.5q131 0 210 -74t79 -225v-666h-104v639q0 113 -54 173t-155 60q-121 0 -202 -85.5t-81 -249.5v-537h-104v946h80zM543 1092h-60l-235 278h110l93 -113q18 -22 33 -42.5t20 -30.5l6 -10h6q18 34 59 83l91 113h112z" />
    <glyph glyph-name="Eng" unicode="&#x14a;" horiz-adv-x="1288" 
d="M1110 1206v-1263q0 -102 -27.5 -176t-77.5 -116t-112.5 -61.5t-140.5 -19.5q-166 0 -279 113l66 79q93 -100 223 -100q124 0 181.5 74t57.5 231v23l-583 850q-33 47 -66 101.5t-50 84.5l-17 31h-9q11 -113 11 -248v-809h-109v1206h117l575 -839q32 -47 65.5 -101.5
t50.5 -85.5l18 -30h6q-9 112 -9 247v809h109z" />
    <glyph glyph-name="eng" unicode="&#x14b;" horiz-adv-x="1007" 
d="M262 0h-104v946h80l14 -217q33 109 116 172.5t201 63.5q131 0 210 -74t79 -225v-748q0 -182 -86.5 -260.5t-261.5 -73.5v88q124 -6 184 50t60 184v733q0 113 -54 173t-155 60q-121 0 -202 -85.5t-81 -249.5v-537z" />
    <glyph glyph-name="Omacron" unicode="&#x14c;" horiz-adv-x="1245" 
d="M623 -18q-243 0 -384 162.5t-141 457.5q0 296 141.5 459.5t383.5 163.5t383 -163.5t141 -459.5q0 -295 -140.5 -457.5t-383.5 -162.5zM623 1130q-199 0 -305.5 -139.5t-106.5 -388.5t106.5 -387.5t305.5 -138.5t306 139t107 387q0 249 -107 388.5t-306 139.5zM850 1366
h-453v84h453v-84z" />
    <glyph glyph-name="omacron" unicode="&#x14d;" 
d="M498 -18q-189 0 -296.5 128.5t-107.5 366.5q0 236 107.5 362t296.5 126q191 0 298 -126t107 -362q0 -239 -107 -367t-298 -128zM498 877q-147 0 -224 -101t-77 -299q0 -202 77 -306.5t224 -104.5q148 0 225.5 104.5t77.5 306.5q0 198 -77 299t-226 101zM727 1155h-455v88
h455v-88z" />
    <glyph glyph-name="Obreve" unicode="&#x14e;" horiz-adv-x="1245" 
d="M623 -18q-243 0 -384 162.5t-141 457.5q0 296 141.5 459.5t383.5 163.5t383 -163.5t141 -459.5q0 -295 -140.5 -457.5t-383.5 -162.5zM623 1130q-199 0 -305.5 -139.5t-106.5 -388.5t106.5 -387.5t305.5 -138.5t306 139t107 387q0 249 -107 388.5t-306 139.5zM623 1307
q-116 0 -180 66t-64 186h84q5 -87 43.5 -128.5t116.5 -41.5q79 0 117.5 41.5t43.5 128.5h84q0 -120 -64 -186t-181 -66z" />
    <glyph glyph-name="obreve" unicode="&#x14f;" 
d="M498 -18q-189 0 -296.5 128.5t-107.5 366.5q0 236 107.5 362t296.5 126q191 0 298 -126t107 -362q0 -239 -107 -367t-298 -128zM498 877q-147 0 -224 -101t-77 -299q0 -202 77 -306.5t224 -104.5q148 0 225.5 104.5t77.5 306.5q0 198 -77 299t-226 101zM498 1083
q-117 0 -181.5 69.5t-64.5 195.5h86q5 -91 42 -137t118 -46t118.5 46t42.5 137h86q0 -126 -64.5 -195.5t-182.5 -69.5z" />
    <glyph glyph-name="Ohungarumlaut" unicode="&#x150;" horiz-adv-x="1245" 
d="M623 -18q-243 0 -384 162.5t-141 457.5q0 296 141.5 459.5t383.5 163.5t383 -163.5t141 -459.5q0 -295 -140.5 -457.5t-383.5 -162.5zM623 1130q-199 0 -305.5 -139.5t-106.5 -388.5t106.5 -387.5t305.5 -138.5t306 139t107 387q0 249 -107 388.5t-306 139.5zM526 1315
h-80l134 248h137zM778 1315h-82l146 248h139z" />
    <glyph glyph-name="ohungarumlaut" unicode="&#x151;" 
d="M498 -18q-189 0 -296.5 128.5t-107.5 366.5q0 236 107.5 362t296.5 126q191 0 298 -126t107 -362q0 -239 -107 -367t-298 -128zM498 877q-147 0 -224 -101t-77 -299q0 -202 77 -306.5t224 -104.5q148 0 225.5 104.5t77.5 306.5q0 198 -77 299t-226 101zM401 1092h-79
l135 278h135zM653 1092h-82l146 278h139z" />
    <glyph glyph-name="OE" unicode="&#x152;" horiz-adv-x="1738" 
d="M623 -18q-243 0 -384 162.5t-141 457.5q0 296 141.5 459.5t383.5 163.5q78 0 149 -19h860v-94h-688q189 -144 201 -461h424v-94h-424q-12 -322 -201 -463h688v-94h-860q-68 -18 -149 -18zM623 1130q-199 0 -304.5 -139.5t-105.5 -388.5t105.5 -387.5t304.5 -138.5
t304 138.5t105 387.5t-105.5 388.5t-303.5 139.5z" />
    <glyph glyph-name="oe" unicode="&#x153;" horiz-adv-x="1646" 
d="M1208 66q104 0 165 44.5t87 141.5l92 -21q-48 -249 -350 -249q-129 0 -220.5 60.5t-131.5 184.5q-36 -122 -127.5 -183.5t-224.5 -61.5q-189 0 -296.5 128.5t-107.5 366.5q0 236 107.5 362t296.5 126q133 0 226.5 -62.5t127.5 -183.5q41 119 134 182.5t220 63.5
q168 0 258 -104t90 -273q0 -67 -14 -121h-637q-1 -189 80.5 -295t224.5 -106zM498 877q-147 0 -224 -101t-77 -299q0 -202 77 -306.5t224 -104.5q148 0 225.5 104.5t77.5 306.5q0 198 -77 299t-226 101zM905 553h545q2 18 2 55q0 118 -66 194.5t-184 76.5q-131 0 -207 -85.5
t-90 -240.5z" />
    <glyph glyph-name="Racute" unicode="&#x154;" horiz-adv-x="1085" 
d="M1012 0h-119q-39 44 -57 121l-50 215q-26 107 -89.5 150.5t-182.5 43.5h-227v-530h-109v1206h373q395 0 395 -332q0 -136 -80.5 -215.5t-199.5 -85.5v-4q91 -9 143 -55.5t78 -146.5l57 -234q20 -79 68 -133zM287 1114v-491h262q285 0 285 245q0 246 -285 246h-262z
M563 1315h-92l131 248h143z" />
    <glyph glyph-name="racute" unicode="&#x155;" horiz-adv-x="673" 
d="M412 1092h-86l145 278h143zM633 952l-10 -114q-32 14 -88 14q-119 0 -196 -102.5t-77 -257.5v-492h-104v946h86l14 -268q22 131 103 208t208 77q35 0 64 -11z" />
    <glyph glyph-name="Rcommaaccent" unicode="&#x156;" horiz-adv-x="1085" 
d="M1012 0h-119q-39 44 -57 121l-50 215q-26 107 -89.5 150.5t-182.5 43.5h-227v-530h-109v1206h373q395 0 395 -332q0 -136 -80.5 -215.5t-199.5 -85.5v-4q91 -9 143 -55.5t78 -146.5l57 -234q20 -79 68 -133zM287 1114v-491h262q285 0 285 245q0 246 -285 246h-262z
M631 -297q0 -178 -197 -178v53q59 2 88 23t29 73q0 13 -2 17q-16 -8 -29 -8q-29 0 -47 19t-18 48q0 34 21.5 54t58.5 20q38 0 67 -33t29 -88z" />
    <glyph glyph-name="rcommaaccent" unicode="&#x157;" horiz-adv-x="673" 
d="M303 -297q0 -178 -194 -178v53q58 2 86.5 23t29.5 73q0 9 -4 17q-12 -8 -26 -8q-31 0 -49.5 18.5t-18.5 48.5q0 33 22 53.5t58 20.5q39 0 67.5 -32.5t28.5 -88.5zM633 952l-10 -114q-32 14 -88 14q-119 0 -196 -102.5t-77 -257.5v-492h-104v946h86l14 -268
q22 131 103 208t208 77q35 0 64 -11z" />
    <glyph glyph-name="Rcaron" unicode="&#x158;" horiz-adv-x="1085" 
d="M1012 0h-119q-39 44 -57 121l-50 215q-26 107 -89.5 150.5t-182.5 43.5h-227v-530h-109v1206h373q395 0 395 -332q0 -136 -80.5 -215.5t-199.5 -85.5v-4q91 -9 143 -55.5t78 -146.5l57 -234q20 -79 68 -133zM287 1114v-491h262q285 0 285 245q0 246 -285 246h-262z
M545 1309h-64l-235 258h119l86 -99q18 -21 33 -40t20 -28l6 -9h4q18 30 59 77l86 99h119z" />
    <glyph glyph-name="rcaron" unicode="&#x159;" horiz-adv-x="673" 
d="M403 1092h-59l-235 278h110l92 -113q18 -22 33 -42.5t21 -30.5l6 -10h6q18 34 59 83l90 113h113zM633 952l-10 -114q-32 14 -88 14q-119 0 -196 -102.5t-77 -257.5v-492h-104v946h86l14 -268q22 131 103 208t208 77q35 0 64 -11z" />
    <glyph glyph-name="Sacute" unicode="&#x15a;" horiz-adv-x="952" 
d="M63 303l103 21q43 -256 301 -256q131 0 206 58t75 169q0 104 -64.5 162t-228.5 112q-47 15 -77 25.5t-71 28t-66.5 34.5t-54 43t-45 54.5t-27 67.5t-10.5 85q0 85 30.5 149t83 100t114 53.5t131.5 17.5q350 0 385 -318l-105 -16q-34 246 -278 246q-114 0 -184 -56.5
t-70 -167.5q0 -32 7.5 -59t19 -47.5t34 -39t43.5 -32t57.5 -28.5t66.5 -25.5t79 -26.5q63 -21 108 -39.5t91.5 -48t74.5 -64t46 -85t18 -113.5q0 -159 -107.5 -242t-283.5 -83q-353 0 -402 321zM520 1315h-92l131 248h143z" />
    <glyph glyph-name="sacute" unicode="&#x15b;" horiz-adv-x="817" 
d="M461 1092h-88l145 278h144zM59 219l99 29q15 -93 80 -139t168 -46q235 0 235 168q0 77 -45 121t-143 68l-123 31q-120 29 -178 87.5t-58 163.5q0 70 26 122t71.5 82t100.5 44.5t118 14.5q141 0 222 -59.5t99 -190.5l-100 -13q-12 93 -66.5 137t-154.5 44
q-101 0 -159 -43.5t-58 -126.5q0 -73 39 -111.5t130 -60.5l121 -31q129 -34 192.5 -92.5t63.5 -175.5q0 -131 -89.5 -195.5t-243.5 -64.5q-294 0 -347 237z" />
    <glyph glyph-name="Scircumflex" unicode="&#x15c;" horiz-adv-x="952" 
d="M63 303l103 21q43 -256 301 -256q131 0 206 58t75 169q0 104 -64.5 162t-228.5 112q-47 15 -77 25.5t-71 28t-66.5 34.5t-54 43t-45 54.5t-27 67.5t-10.5 85q0 85 30.5 149t83 100t114 53.5t131.5 17.5q350 0 385 -318l-105 -16q-34 246 -278 246q-114 0 -184 -56.5
t-70 -167.5q0 -32 7.5 -59t19 -47.5t34 -39t43.5 -32t57.5 -28.5t66.5 -25.5t79 -26.5q63 -21 108 -39.5t91.5 -48t74.5 -64t46 -85t18 -113.5q0 -159 -107.5 -242t-283.5 -83q-353 0 -402 321zM446 1571h64l235 -256h-118l-86 96q-18 21 -33 41t-21 30l-6 9h-4
q-18 -33 -59 -80l-88 -96h-117z" />
    <glyph glyph-name="scircumflex" unicode="&#x15d;" horiz-adv-x="817" 
d="M395 1370h60l235 -278h-110l-93 108q-18 22 -33 43t-20 31l-6 10h-6q-19 -35 -60 -84l-90 -108h-112zM59 219l99 29q15 -93 80 -139t168 -46q235 0 235 168q0 77 -45 121t-143 68l-123 31q-120 29 -178 87.5t-58 163.5q0 70 26 122t71.5 82t100.5 44.5t118 14.5
q141 0 222 -59.5t99 -190.5l-100 -13q-12 93 -66.5 137t-154.5 44q-101 0 -159 -43.5t-58 -126.5q0 -73 39 -111.5t130 -60.5l121 -31q129 -34 192.5 -92.5t63.5 -175.5q0 -131 -89.5 -195.5t-243.5 -64.5q-294 0 -347 237z" />
    <glyph glyph-name="Scedilla" unicode="&#x15e;" horiz-adv-x="952" 
d="M664 -258q0 -80 -53.5 -121t-137.5 -41q-117 0 -178 82l37 68q58 -80 141 -80q100 0 100 92q0 48 -41 75.5t-122 30.5l16 134q-318 19 -363 321l103 21q43 -256 301 -256q131 0 206 58t75 169q0 104 -64.5 162t-228.5 112q-47 15 -77 25.5t-71 28t-66.5 34.5t-54 43
t-45 54.5t-27 67.5t-10.5 85q0 85 30.5 149t83 100t114 53.5t131.5 17.5q350 0 385 -318l-105 -16q-34 246 -278 246q-114 0 -184 -56.5t-70 -167.5q0 -32 7.5 -59t19 -47.5t34 -39t43.5 -32t57.5 -28.5t66.5 -25.5t79 -26.5q63 -21 108 -39.5t91.5 -48t74.5 -64t46 -85
t18 -113.5q0 -153 -100 -236t-267 -89l-12 -76q89 -8 138 -50.5t49 -113.5z" />
    <glyph glyph-name="scedilla" unicode="&#x15f;" horiz-adv-x="817" 
d="M59 219l99 29q15 -93 80 -139t168 -46q235 0 235 168q0 77 -45 121t-143 68l-123 31q-120 29 -178 87.5t-58 163.5q0 70 26 122t71.5 82t100.5 44.5t118 14.5q141 0 222 -59.5t99 -190.5l-100 -13q-12 93 -66.5 137t-154.5 44q-101 0 -159 -43.5t-58 -126.5
q0 -73 39 -111.5t130 -60.5l121 -31q129 -34 192.5 -92.5t63.5 -175.5q0 -127 -85 -191t-230 -69l-10 -76q87 -8 135.5 -50.5t48.5 -113.5q0 -80 -52.5 -121t-135.5 -41q-116 0 -181 82l39 68q55 -80 142 -80q100 0 100 92q0 48 -42.5 75.5t-123.5 30.5l18 136
q-255 15 -303 235z" />
    <glyph glyph-name="Scaron" unicode="&#x160;" horiz-adv-x="952" 
d="M63 303l103 21q43 -256 301 -256q131 0 206 58t75 169q0 104 -64.5 162t-228.5 112q-47 15 -77 25.5t-71 28t-66.5 34.5t-54 43t-45 54.5t-27 67.5t-10.5 85q0 85 30.5 149t83 100t114 53.5t131.5 17.5q350 0 385 -318l-105 -16q-34 246 -278 246q-114 0 -184 -56.5
t-70 -167.5q0 -32 7.5 -59t19 -47.5t34 -39t43.5 -32t57.5 -28.5t66.5 -25.5t79 -26.5q63 -21 108 -39.5t91.5 -48t74.5 -64t46 -85t18 -113.5q0 -159 -107.5 -242t-283.5 -83q-353 0 -402 321zM510 1309h-64l-233 258h117l88 -99q18 -21 33 -40t21 -28l5 -9h4q19 30 60 77
l86 99h118z" />
    <glyph glyph-name="scaron" unicode="&#x161;" horiz-adv-x="817" 
d="M444 1092h-57l-235 278h110l92 -113q18 -22 33 -42.5t21 -30.5l6 -10h6q18 34 59 83l90 113h113zM59 219l99 29q15 -93 80 -139t168 -46q235 0 235 168q0 77 -45 121t-143 68l-123 31q-120 29 -178 87.5t-58 163.5q0 70 26 122t71.5 82t100.5 44.5t118 14.5
q141 0 222 -59.5t99 -190.5l-100 -13q-12 93 -66.5 137t-154.5 44q-101 0 -159 -43.5t-58 -126.5q0 -73 39 -111.5t130 -60.5l121 -31q129 -34 192.5 -92.5t63.5 -175.5q0 -131 -89.5 -195.5t-243.5 -64.5q-294 0 -347 237z" />
    <glyph glyph-name="Tcommaaccent" unicode="&#x162;" horiz-adv-x="952" 
d="M530 0h-108v1112h-393v94h895v-94h-394v-1112zM571 -297q0 -178 -196 -178v53q59 2 88 23t29 73q0 11 -3 17q-12 -8 -26 -8q-31 0 -49.5 18.5t-18.5 48.5q0 33 22 53.5t58 20.5q39 0 67.5 -32.5t28.5 -88.5z" />
    <glyph glyph-name="tcommaaccent" unicode="&#x163;" horiz-adv-x="628" 
d="M565 129l29 -84q-72 -63 -203 -63q-111 0 -170 61t-59 178v639h-137v86h137v201l106 14v-215h281v-86h-283v-620q0 -168 137 -168q51 0 87 13t75 44zM440 -297q0 -178 -196 -178v53q59 2 87.5 23t28.5 73q0 13 -2 17q-16 -8 -26 -8q-30 0 -49 18.5t-19 48.5q0 34 21.5 54
t58.5 20q39 0 67.5 -32.5t28.5 -88.5z" />
    <glyph glyph-name="Tcaron" unicode="&#x164;" horiz-adv-x="952" 
d="M530 0h-108v1112h-393v94h895v-94h-394v-1112zM506 1309h-62l-235 258h119l86 -99q18 -21 33 -40t21 -28l5 -9h4q19 30 60 77l86 99h118z" />
    <glyph glyph-name="tcaron" unicode="&#x165;" horiz-adv-x="628" 
d="M565 129l29 -84q-72 -63 -203 -63q-111 0 -170 61t-59 178v639h-137v86h137v201l106 14v-215h281v-86h-283v-620q0 -168 137 -168q51 0 87 13t75 44zM520 1391l-80 -359h-75l32 359h123z" />
    <glyph glyph-name="Tbar" unicode="&#x166;" horiz-adv-x="952" 
d="M530 0h-108v578h-250v92h250v442h-393v94h895v-94h-394v-442h252v-92h-252v-578z" />
    <glyph glyph-name="tbar" unicode="&#x167;" horiz-adv-x="628" 
d="M25 545v84h137v231h-137v86h137v201l106 14v-215h281v-86h-283v-231h283v-84h-283v-305q0 -168 137 -168q51 0 87 13t75 44l29 -84q-72 -63 -203 -63q-111 0 -170 61t-59 178v324h-137z" />
    <glyph glyph-name="Utilde" unicode="&#x168;" horiz-adv-x="1175" 
d="M930 1206h106v-794q0 -91 -24.5 -164t-66 -122t-99.5 -82t-122 -47.5t-136 -14.5q-92 0 -170.5 24t-142 73.5t-100 134.5t-36.5 198v794h109v-772q0 -186 94 -274t246 -88t247 87.5t95 270.5v776zM725 1325q-11 0 -22 1.5t-18.5 3t-19 6.5t-17 7.5t-18 10t-16 9.5
t-18 11.5t-16.5 11.5q-4 3 -17.5 12.5t-17.5 12t-15 9.5t-16 9.5t-14 6.5t-15.5 5.5t-15 3t-16.5 1.5q-42 0 -61.5 -30t-6.5 -91h-70q-33 88 5.5 151.5t121.5 63.5q33 0 63 -9.5t48 -20.5t49 -33q3 -2 14 -10t14 -10t12 -8.5t12 -8t10.5 -6t11 -6t10 -4t11.5 -3t11.5 -1.5
t12.5 -1q86 0 67 125h72q31 -94 -7.5 -156.5t-127.5 -62.5z" />
    <glyph glyph-name="utilde" unicode="&#x169;" 
d="M752 0l-15 207q-31 -109 -110.5 -167t-196.5 -58q-136 0 -212.5 75t-76.5 236v653h105v-641q0 -244 211 -244q115 0 196.5 90.5t81.5 245.5v549h105v-946h-88zM629 1104q-29 0 -56.5 9.5t-43.5 19t-46 30.5q-8 5 -24.5 16t-22.5 15.5t-19 11.5t-20.5 9.5t-18.5 5t-22 2.5
q-92 0 -69 -121h-68q-33 90 5 151.5t122 61.5q32 0 63 -11t45.5 -20.5t51.5 -34.5q31 -22 44.5 -31t33 -16.5t39.5 -7.5q86 0 67 125h72q32 -95 -5.5 -155t-127.5 -60z" />
    <glyph glyph-name="Umacron" unicode="&#x16a;" horiz-adv-x="1175" 
d="M930 1206h106v-794q0 -91 -24.5 -164t-66 -122t-99.5 -82t-122 -47.5t-136 -14.5q-92 0 -170.5 24t-142 73.5t-100 134.5t-36.5 198v794h109v-772q0 -186 94 -274t246 -88t247 87.5t95 270.5v776zM815 1366h-455v84h455v-84z" />
    <glyph glyph-name="umacron" unicode="&#x16b;" 
d="M752 0l-15 207q-31 -109 -110.5 -167t-196.5 -58q-136 0 -212.5 75t-76.5 236v653h105v-641q0 -244 211 -244q115 0 196.5 90.5t81.5 245.5v549h105v-946h-88zM719 1155h-455v88h455v-88z" />
    <glyph glyph-name="Ubreve" unicode="&#x16c;" horiz-adv-x="1175" 
d="M930 1206h106v-794q0 -91 -24.5 -164t-66 -122t-99.5 -82t-122 -47.5t-136 -14.5q-92 0 -170.5 24t-142 73.5t-100 134.5t-36.5 198v794h109v-772q0 -186 94 -274t246 -88t247 87.5t95 270.5v776zM588 1307q-117 0 -181.5 66t-64.5 186h86q5 -87 43.5 -128.5t116.5 -41.5
q79 0 117 41.5t43 128.5h86q0 -120 -64.5 -186t-181.5 -66z" />
    <glyph glyph-name="ubreve" unicode="&#x16d;" 
d="M752 0l-15 207q-31 -109 -110.5 -167t-196.5 -58q-136 0 -212.5 75t-76.5 236v653h105v-641q0 -244 211 -244q115 0 196.5 90.5t81.5 245.5v549h105v-946h-88zM489 1083q-117 0 -181 69.5t-64 195.5h86q5 -91 42.5 -137t116.5 -46q81 0 119 46t43 137h86
q0 -126 -65 -195.5t-183 -69.5z" />
    <glyph glyph-name="Uring" unicode="&#x16e;" horiz-adv-x="1175" 
d="M930 1206h106v-794q0 -91 -24.5 -164t-66 -122t-99.5 -82t-122 -47.5t-136 -14.5q-92 0 -170.5 24t-142 73.5t-100 134.5t-36.5 198v794h109v-772q0 -186 94 -274t246 -88t247 87.5t95 270.5v776zM598 1288q-85 0 -133.5 50t-48.5 128q0 72 50 122t132 50t132 -50
t50 -122q0 -78 -48.5 -128t-133.5 -50zM598 1583q-54 0 -85.5 -33.5t-31.5 -87.5q0 -51 30.5 -81.5t86.5 -30.5t86.5 30.5t30.5 81.5q0 54 -31.5 87.5t-85.5 33.5z" />
    <glyph glyph-name="uring" unicode="&#x16f;" 
d="M752 0l-15 207q-31 -109 -110.5 -167t-196.5 -58q-136 0 -212.5 75t-76.5 236v653h105v-641q0 -244 211 -244q115 0 196.5 90.5t81.5 245.5v549h105v-946h-88zM492 1079q-85 0 -134 50t-49 126q0 73 50 122.5t133 49.5q82 0 132 -49.5t50 -122.5q0 -76 -48.5 -126
t-133.5 -50zM492 1372q-54 0 -85.5 -33.5t-31.5 -85.5q0 -51 30.5 -82.5t86.5 -31.5q55 0 85.5 31.5t30.5 82.5q0 52 -31 85.5t-85 33.5z" />
    <glyph glyph-name="Uhungarumlaut" unicode="&#x170;" horiz-adv-x="1175" 
d="M930 1206h106v-794q0 -91 -24.5 -164t-66 -122t-99.5 -82t-122 -47.5t-136 -14.5q-92 0 -170.5 24t-142 73.5t-100 134.5t-36.5 198v794h109v-772q0 -186 94 -274t246 -88t247 87.5t95 270.5v776zM489 1315h-77l133 248h137zM743 1315h-81l145 248h137z" />
    <glyph glyph-name="uhungarumlaut" unicode="&#x171;" 
d="M752 0l-15 207q-31 -109 -110.5 -167t-196.5 -58q-136 0 -212.5 75t-76.5 236v653h105v-641q0 -244 211 -244q115 0 196.5 90.5t81.5 245.5v549h105v-946h-88zM393 1092h-80l136 278h135zM645 1092h-82l146 278h139z" />
    <glyph glyph-name="Uogonek" unicode="&#x172;" horiz-adv-x="1175" 
d="M442 -233q0 130 119 221q-52 4 -76 8q-156 22 -251 125t-95 291v794h109v-772q0 -186 94 -274t246 -88t247 87.5t95 270.5v776h106v-794q0 -96 -27 -172.5t-75.5 -125.5t-108.5 -79t-133 -43q-67 -36 -109 -91.5t-42 -121.5q0 -55 26 -85t76 -30q79 0 127 78l43 -51
q-58 -103 -184 -103q-87 0 -137 47.5t-50 131.5z" />
    <glyph glyph-name="uogonek" unicode="&#x173;" 
d="M537 -238q0 85 60 154t151 113l-11 184q-30 -106 -111 -168.5t-196 -62.5q-136 0 -212.5 75t-76.5 236v653h105v-641q0 -244 209 -244q115 0 197.5 93t82.5 247v545h105v-946q-89 -25 -147 -84t-58 -141q0 -111 96 -111q79 0 127 78l45 -51q-62 -103 -186 -103
q-85 0 -132.5 47t-47.5 127z" />
    <glyph glyph-name="Wcircumflex" unicode="&#x174;" horiz-adv-x="1615" 
d="M776 1571h64l235 -256h-119l-86 96q-18 21 -33 41t-21 30l-5 9h-4q-18 -33 -59 -80l-89 -96h-116zM872 1206l226 -825q22 -81 40 -158.5t26 -114.5l7 -38h9q22 123 73 309l226 827h108l-338 -1206h-151l-219 801q-23 82 -40 157.5t-23 110.5l-5 35h-6q-17 -113 -68 -303
l-219 -801h-151l-338 1206h114l226 -823q23 -84 41 -162t25 -115l7 -36h7q22 127 73 311l232 825h118z" />
    <glyph glyph-name="wcircumflex" unicode="&#x175;" horiz-adv-x="1292" 
d="M705 946l167 -594q24 -84 39.5 -153.5t18.5 -96.5l4 -28h6q8 88 59 278l162 594h107l-267 -946h-127l-161 563q-24 84 -40 153t-20 96l-4 28h-6q-10 -89 -63 -277l-158 -563h-127l-270 946h108l164 -594q24 -83 39.5 -152.5t19.5 -97.5l4 -28h7q8 92 59 278l168 594h111z
M616 1370h60l235 -278h-112l-90 108q-18 22 -33 43t-21 31l-6 10h-6q-18 -35 -59 -84l-92 -108h-111z" />
    <glyph glyph-name="Ycircumflex" unicode="&#x176;" horiz-adv-x="960" 
d="M152 1206l241 -442q33 -60 56.5 -107.5t30.5 -65.5l7 -18h7q18 56 90 191l233 442h113l-389 -723v-483h-107v483l-405 723h123zM449 1571h63l233 -256h-118l-86 96q-18 21 -33 41t-21 30l-6 9h-4q-18 -33 -59 -80l-86 -96h-119z" />
    <glyph glyph-name="ycircumflex" unicode="&#x177;" horiz-adv-x="854" 
d="M137 946l228 -651q21 -61 36.5 -117t20.5 -82l6 -26h6q19 84 64 221l223 655h108l-350 -995q-71 -203 -151.5 -290t-198.5 -87q-70 0 -133 29l12 90q56 -33 123 -33q84 0 138 66.5t112 234.5l-356 985h112zM403 1370h58l237 -278h-112l-90 108q-18 22 -33 43t-21 31
l-6 10h-8q-18 -35 -57 -84l-92 -108h-113z" />
    <glyph glyph-name="Ydieresis" unicode="&#x178;" horiz-adv-x="960" 
d="M152 1206l241 -442q33 -60 56.5 -107.5t30.5 -65.5l7 -18h7q18 56 90 191l233 442h113l-389 -723v-483h-107v483l-405 723h123zM225 1413q0 32 23 55t55 23q33 0 55.5 -22.5t22.5 -55.5t-22.5 -55.5t-55.5 -22.5q-32 0 -55 23t-23 55zM578 1411q0 33 22 55.5t55 22.5
t55.5 -22.5t22.5 -55.5q0 -32 -23 -55t-55 -23t-54.5 23t-22.5 55z" />
    <glyph glyph-name="Zacute" unicode="&#x179;" horiz-adv-x="952" 
d="M530 1315h-92l131 248h144zM891 1133l-594 -887q-29 -44 -56 -81.5t-39 -52.5l-12 -16v-6q43 4 172 4h541v-94h-846v63l594 898q30 44 57 81.5t38 52.5l12 15v6q-43 -4 -172 -4h-506v94h811v-73z" />
    <glyph glyph-name="zacute" unicode="&#x17a;" horiz-adv-x="792" 
d="M442 1092h-86l146 278h143zM723 874l-440 -634q-30 -44 -58 -81.5t-41 -52.5l-12 -16v-6q49 4 178 4h393v-88h-694v59l443 646q30 44 57.5 81.5t40.5 52.5l12 15v6q-49 -4 -178 -4h-352v90h651v-72z" />
    <glyph glyph-name="Zdotaccent" unicode="&#x17b;" horiz-adv-x="952" 
d="M412 1430q0 34 21.5 55.5t53.5 21.5q34 0 56 -21.5t22 -55.5q0 -33 -22.5 -55.5t-55.5 -22.5q-32 0 -53.5 22.5t-21.5 55.5zM891 1133l-594 -887q-29 -44 -56 -81.5t-39 -52.5l-12 -16v-6q43 4 172 4h541v-94h-846v63l594 898q30 44 57 81.5t38 52.5l12 15v6
q-43 -4 -172 -4h-506v94h811v-73z" />
    <glyph glyph-name="zdotaccent" unicode="&#x17c;" horiz-adv-x="792" 
d="M330 1237q0 34 23 57t55 23q33 0 55 -23t22 -57q0 -33 -21.5 -54.5t-55.5 -21.5q-32 0 -55 22t-23 54zM723 874l-440 -634q-30 -44 -58 -81.5t-41 -52.5l-12 -16v-6q49 4 178 4h393v-88h-694v59l443 646q30 44 57.5 81.5t40.5 52.5l12 15v6q-49 -4 -178 -4h-352v90h651
v-72z" />
    <glyph glyph-name="Zcaron" unicode="&#x17d;" horiz-adv-x="952" 
d="M520 1309h-63l-234 258h117l88 -99q18 -21 33 -40t21 -28l5 -9h5q18 30 59 77l86 99h119zM891 1133l-594 -887q-29 -44 -56 -81.5t-39 -52.5l-12 -16v-6q43 4 172 4h541v-94h-846v63l594 898q30 44 57 81.5t38 52.5l12 15v6q-43 -4 -172 -4h-506v94h811v-73z" />
    <glyph glyph-name="zcaron" unicode="&#x17e;" horiz-adv-x="792" 
d="M438 1092h-59l-236 278h111l92 -113q18 -22 33 -42.5t21 -30.5l6 -10h6q18 34 59 83l90 113h113zM723 874l-440 -634q-30 -44 -58 -81.5t-41 -52.5l-12 -16v-6q49 4 178 4h393v-88h-694v59l443 646q30 44 57.5 81.5t40.5 52.5l12 15v6q-49 -4 -178 -4h-352v90h651v-72z
" />
    <glyph glyph-name="Schwa" unicode="&#x18f;" horiz-adv-x="1132" 
d="M102 905q39 156 153 238t280 82q233 0 366 -161.5t133 -467.5q0 -294 -131 -454t-362 -160q-214 0 -331.5 132t-117.5 357q0 60 10 145h824q-2 242 -108.5 378t-293.5 136q-129 0 -212.5 -68t-118.5 -192zM924 528h-721q-4 -54 -4 -79q0 -166 90.5 -273.5t247.5 -107.5
q178 0 279.5 126.5t107.5 333.5z" />
    <glyph glyph-name="florin" unicode="&#x192;" horiz-adv-x="796" 
d="M104 -246l113 639h-158l17 94h157l43 232q51 287 279 287q71 0 127 -28t84 -71l-61 -78q-32 47 -68.5 66.5t-89.5 19.5q-66 0 -106 -45.5t-60 -148.5l-41 -234h250l-17 -94h-249l-115 -639h-105z" />
    <glyph glyph-name="Khook" unicode="&#x198;" horiz-adv-x="1024" 
d="M682 987l-201 -373l512 -614h-135l-465 557h-106v-557h-109v1206h109v-551h110l189 361q55 109 113 159t143 50q58 0 96.5 -28t54.5 -77l-73 -57q-26 65 -86 65q-46 0 -80 -33t-72 -108z" />
    <glyph glyph-name="khook" unicode="&#x199;" horiz-adv-x="878" 
d="M260 453v-453h-104v1073q0 153 78 228t202 75q100 0 174 -41l-28 -92q-78 43 -152 43q-172 0 -172 -233v-514h76l362 407h129l-401 -442l440 -504h-133l-389 453h-82z" />
    <glyph glyph-name="Ezh" unicode="&#x1b7;" horiz-adv-x="931" 
d="M276 551l324 412q32 41 62 77.5t44 53.5l15 16v6q-45 -4 -174 -4h-486v94h795v-73l-469 -588v-8q143 0 254 -49t178.5 -152.5t67.5 -249.5q0 -107 -36 -194.5t-98.5 -144.5t-145.5 -87.5t-179 -30.5q-193 0 -310 97.5t-134 279.5l90 25q18 -159 112.5 -237.5t241.5 -78.5
q162 0 259 99.5t97 271.5q0 100 -39 175.5t-109 120t-160 66.5t-200 21v82z" />
    <glyph glyph-name="Acaron" unicode="&#x1cd;" horiz-adv-x="1095" 
d="M961 0l-144 383h-541l-143 -383h-113l459 1206h142l454 -1206h-114zM444 836l-135 -361h473l-133 359q-31 82 -55.5 157t-33.5 109l-9 35h-8q-29 -115 -99 -299zM578 1309h-64l-235 258h118l88 -99q17 -21 31.5 -40t20.5 -28l6 -9h4q20 30 59 77l88 99h119z" />
    <glyph glyph-name="acaron" unicode="&#x1ce;" horiz-adv-x="927" 
d="M477 1092h-59l-236 278h113l90 -113q18 -22 33 -42.5t20 -30.5l6 -10h7q18 34 59 83l92 113h111zM653 297v156q-50 6 -98 6q-369 0 -369 -213q0 -83 52.5 -131.5t150.5 -48.5q106 0 185 62t79 169zM758 674v-477q0 -64 19 -91.5t57 -27.5q27 0 43 8v-86q-32 -8 -64 -8
q-146 0 -154 168q-32 -88 -110.5 -133t-179.5 -45q-132 0 -209.5 67.5t-77.5 186.5q0 147 113.5 224t339.5 77q68 0 118 -7v132q0 215 -221 215q-205 0 -221 -191l-96 14q5 72 34.5 125.5t76.5 83t100.5 43t115.5 13.5q68 0 122.5 -15t99.5 -48t69.5 -91t24.5 -137z" />
    <glyph glyph-name="Icaron" unicode="&#x1cf;" horiz-adv-x="464" 
d="M178 1206h109v-1206h-109v1206zM264 1309h-63l-236 258h119l86 -99q18 -21 33 -40t21 -28l5 -9h4q19 30 60 77l86 99h119z" />
    <glyph glyph-name="icaron" unicode="&#x1d0;" horiz-adv-x="419" 
d="M240 1092h-60l-235 278h112l90 -113q18 -22 33 -42.5t21 -30.5l6 -10h6q18 34 59 83l93 113h110zM158 946h104v-946h-104v946z" />
    <glyph glyph-name="Ocaron" unicode="&#x1d1;" horiz-adv-x="1245" 
d="M623 -18q-243 0 -384 162.5t-141 457.5q0 296 141.5 459.5t383.5 163.5t383 -163.5t141 -459.5q0 -295 -140.5 -457.5t-383.5 -162.5zM623 1130q-199 0 -305.5 -139.5t-106.5 -388.5t106.5 -387.5t305.5 -138.5t306 139t107 387q0 249 -107 388.5t-306 139.5zM655 1309
h-63l-236 258h119l86 -99q18 -21 33 -40t21 -28l6 -9h4q18 30 59 77l86 99h119z" />
    <glyph glyph-name="ocaron" unicode="&#x1d2;" 
d="M498 -18q-189 0 -296.5 128.5t-107.5 366.5q0 236 107.5 362t296.5 126q191 0 298 -126t107 -362q0 -239 -107 -367t-298 -128zM498 877q-147 0 -224 -101t-77 -299q0 -202 77 -306.5t224 -104.5q148 0 225.5 104.5t77.5 306.5q0 198 -77 299t-226 101zM528 1092h-59
l-236 278h111l92 -113q18 -22 33 -42.5t21 -30.5l6 -10h6q18 34 59 83l90 113h113z" />
    <glyph glyph-name="Ucaron" unicode="&#x1d3;" horiz-adv-x="1175" 
d="M930 1206h106v-794q0 -91 -24.5 -164t-66 -122t-99.5 -82t-122 -47.5t-136 -14.5q-92 0 -170.5 24t-142 73.5t-100 134.5t-36.5 198v794h109v-772q0 -186 94 -274t246 -88t247 87.5t95 270.5v776zM618 1309h-61l-235 258h118l86 -99q18 -21 33 -40t21 -28l6 -9h4
q18 30 59 77l86 99h119z" />
    <glyph glyph-name="ucaron" unicode="&#x1d4;" 
d="M752 0l-15 207q-31 -109 -110.5 -167t-196.5 -58q-136 0 -212.5 75t-76.5 236v653h105v-641q0 -244 211 -244q115 0 196.5 90.5t81.5 245.5v549h105v-946h-88zM520 1092h-59l-236 278h111l92 -113q18 -22 33 -42.5t21 -30.5l5 -10h7q18 34 59 83l90 113h113z" />
    <glyph glyph-name="uni01D9" unicode="&#x1d9;" horiz-adv-x="1175" 
d="M618 1491h-61l-235 256h118l86 -98q18 -20 33 -39.5t21 -29.5l6 -9h4q18 33 59 78l86 98h119zM930 1206h106v-794q0 -91 -24.5 -164t-66 -122t-99.5 -82t-122 -47.5t-136 -14.5q-92 0 -170.5 24t-142 73.5t-100 134.5t-36.5 198v794h109v-772q0 -186 94 -274t246 -88
t247 87.5t95 270.5v776zM334 1366q0 33 22.5 55.5t55.5 22.5q32 0 54.5 -22t22.5 -56q0 -31 -22.5 -53.5t-54.5 -22.5t-55 22.5t-23 53.5zM686 1366q0 32 22 55t54 23q33 0 55.5 -22.5t22.5 -55.5t-22.5 -55.5t-55.5 -22.5q-32 0 -54 23t-22 55z" />
    <glyph glyph-name="uni01DA" unicode="&#x1da;" 
d="M524 1245h-63l-236 258h119l88 -98q17 -21 31.5 -41t20.5 -30l5 -9h5q20 33 59 80l88 98h119zM240 1122q0 33 22 55.5t53 22.5q34 0 56 -22t22 -56q0 -33 -22.5 -55.5t-55.5 -22.5q-31 0 -53 23t-22 55zM590 1120q0 33 22.5 55.5t55.5 22.5q32 0 54.5 -22t22.5 -56
q0 -31 -22.5 -53.5t-54.5 -22.5t-55 22.5t-23 53.5zM752 0l-15 207q-31 -109 -110.5 -167t-196.5 -58q-136 0 -212.5 75t-76.5 236v653h105v-641q0 -244 211 -244q115 0 196.5 90.5t81.5 245.5v549h105v-946h-88z" />
    <glyph glyph-name="uni004100A800AF" unicode="&#x1de;" horiz-adv-x="1095" 
d="M961 0l-144 383h-541l-143 -383h-113l459 1206h142l454 -1206h-114zM444 836l-135 -361h473l-133 359q-31 82 -55.5 157t-33.5 109l-9 35h-8q-29 -115 -99 -299zM774 1546h-455v84h455v-84zM295 1374q0 32 23 55t55 23t54 -23t22 -55t-22 -55t-54 -23t-55 23t-23 55z
M645 1372q0 33 22.5 55.5t55.5 22.5q34 0 56 -22t22 -56q0 -33 -22.5 -55.5t-55.5 -22.5q-32 0 -55 23t-23 55z" />
    <glyph glyph-name="adieresismacron" unicode="&#x1df;" horiz-adv-x="927" 
d="M676 1307h-455v86h455v-86zM195 1133q0 32 22.5 54.5t54.5 22.5t55 -22.5t23 -54.5t-23 -55t-55 -23t-54.5 23t-22.5 55zM545 1130q0 33 22.5 55.5t55.5 22.5q34 0 55.5 -22t21.5 -56q0 -32 -21.5 -53.5t-55.5 -21.5q-33 0 -55.5 21.5t-22.5 53.5zM653 297v156
q-50 6 -98 6q-369 0 -369 -213q0 -83 52.5 -131.5t150.5 -48.5q106 0 185 62t79 169zM758 674v-477q0 -64 19 -91.5t57 -27.5q27 0 43 8v-86q-32 -8 -64 -8q-146 0 -154 168q-32 -88 -110.5 -133t-179.5 -45q-132 0 -209.5 67.5t-77.5 186.5q0 147 113.5 224t339.5 77
q68 0 118 -7v132q0 215 -221 215q-205 0 -221 -191l-96 14q5 72 34.5 125.5t76.5 83t100.5 43t115.5 13.5q68 0 122.5 -15t99.5 -48t69.5 -91t24.5 -137z" />
    <glyph glyph-name="AEmacron" unicode="&#x1e2;" horiz-adv-x="1638" 
d="M1532 0h-686v387h-465l-244 -387h-117l771 1206h741v-94h-580v-461h516v-94h-516v-463h580v-94zM852 1126l-416 -649h410v342q-1 90 2 167t6 108l4 32h-6zM1343 1366h-452v84h452v-84z" />
    <glyph glyph-name="aemacron" unicode="&#x1e3;" horiz-adv-x="1486" 
d="M1049 66q102 0 162.5 44.5t86.5 141.5l93 -21q-48 -249 -349 -249q-231 0 -335 186q-34 -84 -123.5 -135t-210.5 -51q-136 0 -213.5 67t-77.5 191q0 160 137.5 235t425.5 78q6 64 25 127q-9 102 -70 149.5t-158 47.5q-98 0 -160 -46t-71 -145l-96 14q5 72 34.5 125.5
t76.5 83t100.5 43t115.5 13.5q225 0 285 -168q105 168 320 168q167 0 256.5 -104t89.5 -273q0 -54 -13 -121h-639q0 -189 82.5 -295t225.5 -106zM383 66q101 0 179 52t106 148q-24 80 -27 183v18q-232 -2 -343.5 -52.5t-111.5 -170.5q0 -79 52 -128.5t145 -49.5zM745 553
h543q2 18 2 55q0 118 -66 194.5t-184 76.5q-130 0 -205.5 -85t-89.5 -241zM958 1155h-454v88h454v-88z" />
    <glyph glyph-name="Gstroke" unicode="&#x1e4;" horiz-adv-x="1247" 
d="M645 647h434v-207h121v-86h-121v-354h-94l-14 207q-32 -104 -129 -164.5t-221 -60.5q-240 0 -381.5 161.5t-141.5 456.5q0 296 148 460.5t393 164.5q163 0 269 -70.5t161 -216.5l-96 -47q-43 119 -129.5 180.5t-210.5 61.5q-200 0 -310 -142t-110 -391q0 -244 106.5 -385
t305.5 -141q89 0 160 26.5t122 91.5t62 162h-324v86h326v115h-326v92z" />
    <glyph glyph-name="gstroke" unicode="&#x1e5;" horiz-adv-x="993" 
d="M485 965q181 0 275 -105q78 41 84 168l96 -31q-16 -144 -139 -190q41 -66 41 -172q0 -152 -99.5 -238t-255.5 -86q-77 0 -135 21q-80 -38 -80 -111q0 -98 136 -98h215q145 0 228 -61.5t83 -188.5h90v-57h-94q-13 -69 -59 -119.5t-114 -77.5t-141 -39t-155 -12
q-80 0 -147.5 12.5t-126 40t-93 77.5t-37.5 118h-84v57h86q13 86 80.5 137.5t167.5 57.5q-60 4 -93.5 41.5t-33.5 95.5q0 109 119 147q-79 39 -122.5 111.5t-43.5 171.5q0 152 96 241t256 89zM236 637q0 -113 66.5 -179.5t182.5 -66.5q117 0 185.5 64.5t68.5 181.5
t-68.5 181.5t-185.5 64.5q-117 -2 -183 -66.5t-66 -179.5zM420 29q-111 0 -181 -38t-83 -118h675q-3 75 -56 115.5t-154 40.5h-201zM465 -354q68 0 126.5 9t108.5 28t83 53t44 80h-671q9 -89 92 -129.5t217 -40.5z" />
    <glyph glyph-name="Gcaron" unicode="&#x1e6;" horiz-adv-x="1216" 
d="M645 590h434v-590h-94l-14 207q-32 -104 -129 -164.5t-221 -60.5q-240 0 -381.5 161.5t-141.5 456.5q0 296 148 460.5t393 164.5q163 0 269 -70.5t161 -216.5l-96 -47q-43 119 -129.5 180.5t-210.5 61.5q-200 0 -311 -142t-111 -391q0 -244 107.5 -385t306.5 -141
q69 0 129 18t109.5 55.5t78.5 102t29 149.5v93h-326v98zM668 1309h-64l-233 258h116l88 -99q18 -21 33 -40t21 -28l6 -9h4q18 30 59 77l86 99h119z" />
    <glyph glyph-name="gcaron" unicode="&#x1e7;" horiz-adv-x="942" 
d="M455 965q177 0 274 -105q75 41 84 168l94 -31q-14 -144 -137 -190q41 -71 41 -172q0 -152 -99 -238t-255 -86q-77 0 -138 21q-79 -37 -79 -111q0 -98 137 -98h215q145 0 228 -62t83 -190q0 -69 -28.5 -122.5t-74 -87t-109 -55t-128 -30t-135.5 -8.5q-82 0 -150.5 13
t-127 41.5t-92 81.5t-33.5 126q0 104 69.5 168t181.5 70q-61 4 -95 41.5t-34 95.5q0 109 119 147q-78 39 -122 112t-44 171q0 153 97 241.5t258 88.5zM125 -162q0 -67 42.5 -110.5t110 -61.5t158.5 -18q76 0 139 11t116 34.5t82.5 66t29.5 101.5q0 80 -53.5 124t-159.5 44
h-201q-123 0 -193.5 -47t-70.5 -144zM203 637q0 -113 67.5 -179.5t184.5 -66.5q116 0 184 64.5t68 181.5t-68 181.5t-184 64.5q-118 -2 -185 -66.5t-67 -179.5zM500 1092h-58l-237 278h112l91 -113q18 -22 33 -42.5t21 -30.5l5 -10h6q18 34 59 83l93 113h110z" />
    <glyph glyph-name="Kcaron" unicode="&#x1e8;" horiz-adv-x="1024" 
d="M993 0h-135l-469 561h-102v-561h-109v1206h109v-549h106l441 549h129l-482 -592zM530 1309h-63l-234 258h119l86 -99q18 -21 33 -40t21 -28l6 -9h4q18 30 59 77l86 99h119z" />
    <glyph glyph-name="kcaron" unicode="&#x1e9;" horiz-adv-x="878" 
d="M424 504l440 -504h-133l-389 453h-82v-453h-104v1368h104v-829h74l362 407h129zM238 1438h-62l-235 258h118l86 -99q18 -21 33 -40t21 -28l6 -9h4q18 30 59 77l86 99h119z" />
    <glyph glyph-name="Oogonek" unicode="&#x1ea;" horiz-adv-x="1245" 
d="M469 -233q0 126 121 221q-40 3 -66 8q-201 28 -313.5 185t-112.5 421q0 296 141.5 459.5t383.5 163.5t383 -163.5t141 -459.5q0 -263 -113.5 -421.5t-312.5 -188.5q-68 -37 -111 -91.5t-43 -121.5q0 -54 27 -84.5t76 -30.5q79 0 127 78l45 -51q-62 -103 -187 -103
q-87 0 -136.5 47.5t-49.5 131.5zM623 1130q-199 0 -305.5 -139.5t-106.5 -388.5t106.5 -387.5t305.5 -138.5t306 139t107 387q0 249 -107 388.5t-306 139.5z" />
    <glyph glyph-name="oogonek" unicode="&#x1eb;" 
d="M330 -233q0 133 121 225q-32 4 -48 8q-148 27 -228.5 148.5t-80.5 328.5q0 236 107.5 362t296.5 126q191 0 298 -126t107 -362q0 -212 -87 -337.5t-243 -149.5q-66 -36 -106.5 -90.5t-40.5 -120.5q0 -54 26.5 -84.5t75.5 -30.5q78 0 129 78l43 -51q-58 -103 -184 -103
q-88 0 -137 47t-49 132zM498 877q-147 0 -224 -101t-77 -299q0 -202 77 -306.5t224 -104.5q148 0 225.5 104.5t77.5 306.5q0 198 -77 299t-226 101z" />
    <glyph glyph-name="uni004F02DB00AF" unicode="&#x1ec;" horiz-adv-x="1245" 
d="M442 -233q0 130 121 219l-49 12q-196 33 -306 189t-110 415q0 296 141.5 459.5t383.5 163.5t383 -163.5t141 -459.5q0 -276 -123 -436.5t-340 -179.5q-65 -36 -104 -88.5t-39 -118.5q0 -55 25.5 -85t74.5 -30q81 0 129 78l43 -51q-58 -103 -184 -103q-88 0 -137.5 47
t-49.5 132zM623 1130q-199 0 -305.5 -139.5t-106.5 -388.5t106.5 -387.5t305.5 -138.5t306 139t107 387q0 249 -107 388.5t-306 139.5zM850 1366h-453v84h453v-84z" />
    <glyph glyph-name="oogonekmacron" unicode="&#x1ed;" 
d="M311 -233q0 132 123 223l-28 8q-148 27 -230 149.5t-82 329.5q0 236 107.5 362t296.5 126q191 0 298 -126t107 -362q0 -220 -92.5 -347t-257.5 -144q-145 -80 -145 -207q0 -54 26.5 -84.5t75.5 -30.5q78 0 129 78l43 -51q-58 -103 -184 -103q-88 0 -137.5 47t-49.5 132z
M498 877q-147 0 -224 -101t-77 -299q0 -202 77 -306.5t224 -104.5q148 0 225.5 104.5t77.5 306.5q0 198 -77 299t-226 101zM727 1155h-455v88h455v-88z" />
    <glyph glyph-name="Ezhcaron" unicode="&#x1ee;" horiz-adv-x="931" 
d="M276 551l324 412q32 41 62 77.5t44 53.5l15 16v6q-45 -4 -174 -4h-486v94h795v-73l-469 -588v-8q143 0 254 -49t178.5 -152.5t67.5 -249.5q0 -107 -36 -194.5t-98.5 -144.5t-145.5 -87.5t-179 -30.5q-193 0 -310 97.5t-134 279.5l90 25q18 -159 112.5 -237.5t241.5 -78.5
q162 0 259 99.5t97 271.5q0 100 -39 175.5t-109 120t-160 66.5t-200 21v82zM498 1309h-64l-235 258h118l86 -99q18 -21 33 -40t21 -28l6 -9h4q18 30 59 77l86 99h119z" />
    <glyph glyph-name="ezhcaron" unicode="&#x1ef;" horiz-adv-x="776" 
d="M236 414l239 299q32 42 61 77t42 50l14 14v6q-60 -4 -189 -4h-337v90h649v-72l-381 -477v-6q167 0 277 -96t110 -256q0 -167 -106.5 -260.5t-274.5 -93.5q-142 0 -236.5 79.5t-115.5 206.5l94 21q20 -105 90.5 -164t173.5 -59q123 0 200 71t77 193q0 133 -100.5 214
t-286.5 91v76zM420 1092h-60l-235 278h113l90 -113q18 -22 33 -42.5t21 -30.5l5 -10h6q19 34 60 83l92 113h110z" />
    <glyph glyph-name="jcaron" unicode="&#x1f0;" horiz-adv-x="419" 
d="M242 1092h-60l-235 278h112l91 -113q18 -22 33 -42.5t21 -30.5l5 -10h6q18 34 59 83l93 113h110zM158 946h104v-1028q0 -181 -87 -260t-261 -74v88q123 -6 183.5 50.5t60.5 185.5v1038z" />
    <glyph glyph-name="jcaron" unicode="&#xe10c;" horiz-adv-x="419" 
d="M242 1092h-60l-235 278h112l91 -113q18 -22 33 -42.5t21 -30.5l5 -10h6q18 34 59 83l93 113h110zM158 946h104v-1028q0 -181 -87 -260t-261 -74v88q123 -6 183.5 50.5t60.5 185.5v1038z" />
    <glyph glyph-name="Gacute" unicode="&#x1f4;" horiz-adv-x="1216" 
d="M645 590h434v-590h-94l-14 207q-32 -104 -129 -164.5t-221 -60.5q-240 0 -381.5 161.5t-141.5 456.5q0 296 148 460.5t393 164.5q163 0 269 -70.5t161 -216.5l-96 -47q-43 119 -129.5 180.5t-210.5 61.5q-200 0 -311 -142t-111 -391q0 -244 107.5 -385t306.5 -141
q69 0 129 18t109.5 55.5t78.5 102t29 149.5v93h-326v98zM686 1315h-92l131 248h143z" />
    <glyph glyph-name="gacute" unicode="&#x1f5;" horiz-adv-x="942" 
d="M455 965q177 0 274 -105q75 41 84 168l94 -31q-14 -144 -137 -190q41 -71 41 -172q0 -152 -99 -238t-255 -86q-77 0 -138 21q-79 -37 -79 -111q0 -98 137 -98h215q145 0 228 -62t83 -190q0 -69 -28.5 -122.5t-74 -87t-109 -55t-128 -30t-135.5 -8.5q-82 0 -150.5 13
t-127 41.5t-92 81.5t-33.5 126q0 104 69.5 168t181.5 70q-61 4 -95 41.5t-34 95.5q0 109 119 147q-78 39 -122 112t-44 171q0 153 97 241.5t258 88.5zM125 -162q0 -67 42.5 -110.5t110 -61.5t158.5 -18q76 0 139 11t116 34.5t82.5 66t29.5 101.5q0 80 -53.5 124t-159.5 44
h-201q-123 0 -193.5 -47t-70.5 -144zM203 637q0 -113 67.5 -179.5t184.5 -66.5q116 0 184 64.5t68 181.5t-68 181.5t-184 64.5q-118 -2 -185 -66.5t-67 -179.5zM506 1092h-88l145 278h146z" />
    <glyph glyph-name="Ngrave" unicode="&#x1f8;" horiz-adv-x="1288" 
d="M694 1315h-92l-180 248h141zM295 1206l573 -839q35 -50 69 -106t51 -87l16 -31h6q-6 119 -6 254v809h106v-1206h-115l-575 840q-34 48 -67.5 104t-50.5 88l-17 31h-9q9 -119 9 -254v-809h-107v1206h117z" />
    <glyph glyph-name="ngrave" unicode="&#x1f9;" horiz-adv-x="1007" 
d="M238 946l14 -217q33 109 116 172.5t201 63.5q131 0 210 -74t79 -225v-666h-104v639q0 113 -54 173t-155 60q-121 0 -202 -85.5t-81 -249.5v-537h-104v946h80zM567 1092h-86l-202 278h145z" />
    <glyph glyph-name="uni004102DA00B4" unicode="&#x1fa;" horiz-adv-x="1095" 
d="M961 0l-144 383h-541l-143 -383h-113l459 1206h142l454 -1206h-114zM444 836l-135 -361h473l-133 359q-31 82 -55.5 157t-33.5 109l-9 35h-8q-29 -115 -99 -299zM547 1255q-85 0 -133.5 50.5t-48.5 128.5q0 72 50 122t132 50t132 -50t50 -122q0 -78 -48.5 -128.5
t-133.5 -50.5zM547 1550q-54 0 -85.5 -33t-31.5 -87q0 -51 30.5 -82t86.5 -31t86.5 31t30.5 82q0 54 -31.5 87t-85.5 33zM586 1651h-92l131 247h143z" />
    <glyph glyph-name="aringacute" unicode="&#x1fb;" horiz-adv-x="927" 
d="M442 1040q-84 0 -133 50.5t-49 126.5q0 73 50 123.5t132 50.5q84 0 134.5 -50.5t50.5 -123.5q0 -76 -50 -126.5t-135 -50.5zM442 1333q-53 0 -84.5 -33.5t-31.5 -85.5q0 -51 30.5 -82.5t85.5 -31.5q56 0 86.5 31.5t30.5 82.5q0 52 -31.5 85.5t-85.5 33.5zM492 1462h-93
l131 248h144zM653 297v156q-50 6 -98 6q-369 0 -369 -213q0 -83 52.5 -131.5t150.5 -48.5q106 0 185 62t79 169zM758 674v-477q0 -64 19 -91.5t57 -27.5q27 0 43 8v-86q-32 -8 -64 -8q-146 0 -154 168q-32 -88 -110.5 -133t-179.5 -45q-132 0 -209.5 67.5t-77.5 186.5
q0 147 113.5 224t339.5 77q68 0 118 -7v132q0 215 -221 215q-205 0 -221 -191l-96 14q5 72 34.5 125.5t76.5 83t100.5 43t115.5 13.5q68 0 122.5 -15t99.5 -48t69.5 -91t24.5 -137z" />
    <glyph glyph-name="AEacute" unicode="&#x1fc;" horiz-adv-x="1638" 
d="M1532 0h-686v387h-465l-244 -387h-117l771 1206h741v-94h-580v-461h516v-94h-516v-463h580v-94zM852 1126l-416 -649h410v342q-1 90 2 167t6 108l4 32h-6zM1157 1315h-92l131 248h143z" />
    <glyph glyph-name="aeacute" unicode="&#x1fd;" horiz-adv-x="1486" 
d="M1049 66q102 0 162.5 44.5t86.5 141.5l93 -21q-48 -249 -349 -249q-231 0 -335 186q-34 -84 -123.5 -135t-210.5 -51q-136 0 -213.5 67t-77.5 191q0 160 137.5 235t425.5 78q6 64 25 127q-9 102 -70 149.5t-158 47.5q-98 0 -160 -46t-71 -145l-96 14q5 72 34.5 125.5
t76.5 83t100.5 43t115.5 13.5q225 0 285 -168q105 168 320 168q167 0 256.5 -104t89.5 -273q0 -54 -13 -121h-639q0 -189 82.5 -295t225.5 -106zM383 66q101 0 179 52t106 148q-24 80 -27 183v18q-232 -2 -343.5 -52.5t-111.5 -170.5q0 -79 52 -128.5t145 -49.5zM745 553
h543q2 18 2 55q0 118 -66 194.5t-184 76.5q-130 0 -205.5 -85t-89.5 -241zM766 1092h-88l145 278h146z" />
    <glyph glyph-name="Oslashacute" unicode="&#x1fe;" horiz-adv-x="1245" 
d="M137 -20l-61 55l133 151q-111 157 -111 416q0 296 141.5 459.5t383.5 163.5q222 0 362 -140l119 136l63 -58l-127 -149q107 -156 107 -412q0 -295 -140.5 -457.5t-383.5 -162.5q-227 0 -363 139zM623 1130q-199 0 -304.5 -139.5t-105.5 -388.5q0 -198 72 -330l630 732
q-108 126 -292 126zM1032 602q0 199 -71 326l-629 -729q105 -123 291 -123q199 0 304 138.5t105 387.5zM664 1315h-93l131 248h144z" />
    <glyph glyph-name="oslashacute" unicode="&#x1ff;" 
d="M135 -20l-65 53l102 119q-78 122 -78 325q0 236 107.5 362t296.5 126q177 0 282 -111l92 109l66 -54l-107 -123q72 -119 72 -309q0 -239 -107 -367t-298 -128q-170 0 -273 100zM498 877q-147 0 -224 -101t-77 -299q0 -152 47 -248l473 555q-81 93 -219 93zM801 477
q0 137 -43 228l-471 -551q79 -88 211 -88q148 0 225.5 104.5t77.5 306.5zM545 1092h-88l145 278h146z" />
    <glyph glyph-name="Adoublegrave" unicode="&#x200;" horiz-adv-x="1095" 
d="M961 0l-144 383h-541l-143 -383h-113l459 1206h142l454 -1206h-114zM444 836l-135 -361h473l-133 359q-31 82 -55.5 157t-33.5 109l-9 35h-8q-29 -115 -99 -299zM727 1315h-78l-192 248h137zM477 1315h-80l-202 248h137z" />
    <glyph glyph-name="edoublegrave" unicode="&#x201;" horiz-adv-x="937" 
d="M502 66q102 0 163 44.5t87 141.5l92 -21q-48 -249 -350 -249q-187 0 -293.5 125.5t-106.5 363.5q0 233 108.5 363.5t297.5 130.5q167 0 256.5 -104t89.5 -273q0 -59 -12 -121h-639q0 -190 81 -295.5t226 -105.5zM199 553h542q2 18 2 55q0 119 -65.5 195t-183.5 76
q-130 0 -205.5 -85t-89.5 -241zM678 1092h-80l-190 278h137zM428 1092h-82l-203 278h140z" />
    <glyph glyph-name="edoublegrave" unicode="&#x205;" horiz-adv-x="937" 
d="M502 66q102 0 163 44.5t87 141.5l92 -21q-48 -249 -350 -249q-187 0 -293.5 125.5t-106.5 363.5q0 233 108.5 363.5t297.5 130.5q167 0 256.5 -104t89.5 -273q0 -59 -12 -121h-639q0 -190 81 -295.5t226 -105.5zM199 553h542q2 18 2 55q0 119 -65.5 195t-183.5 76
q-130 0 -205.5 -85t-89.5 -241zM678 1092h-80l-190 278h137zM428 1092h-82l-203 278h140z" />
    <glyph glyph-name="Ainvertedbreve" unicode="&#x202;" horiz-adv-x="1095" 
d="M961 0l-144 383h-541l-143 -383h-113l459 1206h142l454 -1206h-114zM444 836l-135 -361h473l-133 359q-31 82 -55.5 157t-33.5 109l-9 35h-8q-29 -115 -99 -299zM545 1565q118 0 183 -66t65 -186h-86q-5 86 -44 128t-118 42q-77 0 -115 -42t-43 -128h-86q0 120 64 186
t180 66z" />
    <glyph glyph-name="ainvertedbreve" unicode="&#x203;" horiz-adv-x="927" 
d="M446 1354q117 0 181.5 -69t64.5 -195h-86q-5 92 -42.5 137t-117.5 45q-81 0 -118.5 -45t-42.5 -137h-86q0 126 64.5 195t182.5 69zM653 297v156q-50 6 -98 6q-369 0 -369 -213q0 -83 52.5 -131.5t150.5 -48.5q106 0 185 62t79 169zM758 674v-477q0 -64 19 -91.5t57 -27.5
q27 0 43 8v-86q-32 -8 -64 -8q-146 0 -154 168q-32 -88 -110.5 -133t-179.5 -45q-132 0 -209.5 67.5t-77.5 186.5q0 147 113.5 224t339.5 77q68 0 118 -7v132q0 215 -221 215q-205 0 -221 -191l-96 14q5 72 34.5 125.5t76.5 83t100.5 43t115.5 13.5q68 0 122.5 -15t99.5 -48
t69.5 -91t24.5 -137z" />
    <glyph glyph-name="Edoublegrave" unicode="&#x204;" horiz-adv-x="970" 
d="M864 94v-94h-686v1206h686v-94h-577v-461h514v-94h-514v-463h577zM700 1315h-79l-191 248h135zM451 1315h-82l-203 248h139z" />
    <glyph glyph-name="Einvertedbreve" unicode="&#x206;" horiz-adv-x="970" 
d="M864 94v-94h-686v1206h686v-94h-577v-461h514v-94h-514v-463h577zM522 1567q117 0 181.5 -66t64.5 -186h-86q-9 170 -160 170t-160 -170h-86q0 120 64.5 186t181.5 66z" />
    <glyph glyph-name="einvertedbreve" unicode="&#x207;" horiz-adv-x="937" 
d="M502 66q102 0 163 44.5t87 141.5l92 -21q-48 -249 -350 -249q-187 0 -293.5 125.5t-106.5 363.5q0 233 108.5 363.5t297.5 130.5q167 0 256.5 -104t89.5 -273q0 -59 -12 -121h-639q0 -190 81 -295.5t226 -105.5zM199 553h542q2 18 2 55q0 119 -65.5 195t-183.5 76
q-130 0 -205.5 -85t-89.5 -241zM498 1354q117 0 181 -69t64 -195h-86q-5 92 -41.5 137t-117.5 45t-119 -45t-43 -137h-86q0 126 65.5 195t182.5 69z" />
    <glyph glyph-name="Idoublegrave" unicode="&#x208;" horiz-adv-x="464" 
d="M178 1206h109v-1206h-109v1206zM412 1315h-80l-191 248h138zM162 1315h-82l-203 248h139z" />
    <glyph glyph-name="idoublegrave" unicode="&#x209;" horiz-adv-x="419" 
d="M158 946h104v-946h-104v946zM387 1092h-78l-192 278h137zM137 1092h-80l-202 278h137z" />
    <glyph glyph-name="Iinvertedbreve" unicode="&#x20a;" horiz-adv-x="464" 
d="M178 1206h109v-1206h-109v1206zM231 1567q117 0 181.5 -66t64.5 -186h-84q-5 86 -44 128t-118 42q-77 0 -115.5 -42t-43.5 -128h-84q0 120 63.5 186t179.5 66z" />
    <glyph glyph-name="iinvertedbreve" unicode="&#x20b;" horiz-adv-x="419" 
d="M158 946h104v-946h-104v946zM211 1354q117 0 181.5 -69t64.5 -195h-86q-5 92 -42 137t-118 45t-119 -45t-43 -137h-86q0 126 65.5 195t182.5 69z" />
    <glyph glyph-name="Odoublegrave" unicode="&#x20c;" horiz-adv-x="1245" 
d="M623 -18q-243 0 -384 162.5t-141 457.5q0 296 141.5 459.5t383.5 163.5t383 -163.5t141 -459.5q0 -295 -140.5 -457.5t-383.5 -162.5zM623 1130q-199 0 -305.5 -139.5t-106.5 -388.5t106.5 -387.5t305.5 -138.5t306 139t107 387q0 249 -107 388.5t-306 139.5zM803 1315
h-80l-191 248h138zM553 1315h-82l-203 248h140z" />
    <glyph glyph-name="odoublegrave" unicode="&#x20d;" 
d="M498 -18q-189 0 -296.5 128.5t-107.5 366.5q0 236 107.5 362t296.5 126q191 0 298 -126t107 -362q0 -239 -107 -367t-298 -128zM498 877q-147 0 -224 -101t-77 -299q0 -202 77 -306.5t224 -104.5q148 0 225.5 104.5t77.5 306.5q0 198 -77 299t-226 101zM676 1092h-80
l-190 278h137zM426 1092h-82l-203 278h140z" />
    <glyph glyph-name="Oinvertedbreve" unicode="&#x20e;" horiz-adv-x="1245" 
d="M623 -18q-243 0 -384 162.5t-141 457.5q0 296 141.5 459.5t383.5 163.5t383 -163.5t141 -459.5q0 -295 -140.5 -457.5t-383.5 -162.5zM623 1130q-199 0 -305.5 -139.5t-106.5 -388.5t106.5 -387.5t305.5 -138.5t306 139t107 387q0 249 -107 388.5t-306 139.5zM623 1567
q117 0 181 -66t64 -186h-84q-5 86 -43.5 128t-117.5 42q-151 0 -160 -170h-84q0 120 64 186t180 66z" />
    <glyph glyph-name="oinvertedbreve" unicode="&#x20f;" 
d="M498 -18q-189 0 -296.5 128.5t-107.5 366.5q0 236 107.5 362t296.5 126q191 0 298 -126t107 -362q0 -239 -107 -367t-298 -128zM498 877q-147 0 -224 -101t-77 -299q0 -202 77 -306.5t224 -104.5q148 0 225.5 104.5t77.5 306.5q0 198 -77 299t-226 101zM498 1354
q118 0 182.5 -69t64.5 -195h-86q-5 92 -42.5 137t-118.5 45t-118 -45t-42 -137h-86q0 126 64.5 195t181.5 69z" />
    <glyph glyph-name="Rinvertedbreve" unicode="&#x212;" horiz-adv-x="1085" 
d="M1012 0h-119q-39 44 -57 121l-50 215q-26 107 -89.5 150.5t-182.5 43.5h-227v-530h-109v1206h373q395 0 395 -332q0 -136 -80.5 -215.5t-199.5 -85.5v-4q91 -9 143 -55.5t78 -146.5l57 -234q20 -79 68 -133zM287 1114v-491h262q285 0 285 245q0 246 -285 246h-262z
M512 1567q117 0 181.5 -66t64.5 -186h-84q-5 86 -44 128t-118 42q-151 0 -160 -170h-86q0 120 65 186t181 66z" />
    <glyph glyph-name="rinvertedbreve" unicode="&#x213;" horiz-adv-x="673" 
d="M395 1354q117 0 181.5 -69t64.5 -195h-84q-5 92 -43 137t-119 45t-117.5 -45t-41.5 -137h-86q0 126 64 195t181 69zM633 952l-10 -114q-32 14 -88 14q-119 0 -196 -102.5t-77 -257.5v-492h-104v946h86l14 -268q22 131 103 208t208 77q35 0 64 -11z" />
    <glyph glyph-name="Udoublegrave" unicode="&#x214;" horiz-adv-x="1175" 
d="M930 1206h106v-794q0 -91 -24.5 -164t-66 -122t-99.5 -82t-122 -47.5t-136 -14.5q-92 0 -170.5 24t-142 73.5t-100 134.5t-36.5 198v794h109v-772q0 -186 94 -274t246 -88t247 87.5t95 270.5v776zM768 1315h-80l-190 248h135zM518 1315h-82l-203 248h140z" />
    <glyph glyph-name="udoublegrave" unicode="&#x215;" 
d="M752 0l-15 207q-31 -109 -110.5 -167t-196.5 -58q-136 0 -212.5 75t-76.5 236v653h105v-641q0 -244 211 -244q115 0 196.5 90.5t81.5 245.5v549h105v-946h-88zM668 1092h-80l-191 278h138zM418 1092h-82l-203 278h139z" />
    <glyph glyph-name="Uinvertedbreve" unicode="&#x216;" horiz-adv-x="1175" 
d="M930 1206h106v-794q0 -91 -24.5 -164t-66 -122t-99.5 -82t-122 -47.5t-136 -14.5q-92 0 -170.5 24t-142 73.5t-100 134.5t-36.5 198v794h109v-772q0 -186 94 -274t246 -88t247 87.5t95 270.5v776zM588 1567q117 0 181.5 -66t64.5 -186h-86q-5 86 -43.5 128t-116.5 42
q-151 0 -160 -170h-86q0 120 64.5 186t181.5 66z" />
    <glyph glyph-name="uinvertedbreve" unicode="&#x217;" 
d="M752 0l-15 207q-31 -109 -110.5 -167t-196.5 -58q-136 0 -212.5 75t-76.5 236v653h105v-641q0 -244 211 -244q115 0 196.5 90.5t81.5 245.5v549h105v-946h-88zM489 1354q118 0 183 -69t65 -195h-86q-5 92 -43 137t-119 45q-80 0 -117 -45t-42 -137h-86q0 126 64 195
t181 69z" />
    <glyph glyph-name="Scommaaccent" unicode="&#x218;" horiz-adv-x="952" 
d="M63 303l103 21q43 -256 301 -256q131 0 206 58t75 169q0 104 -64.5 162t-228.5 112q-47 15 -77 25.5t-71 28t-66.5 34.5t-54 43t-45 54.5t-27 67.5t-10.5 85q0 85 30.5 149t83 100t114 53.5t131.5 17.5q350 0 385 -318l-105 -16q-34 246 -278 246q-114 0 -184 -56.5
t-70 -167.5q0 -32 7.5 -59t19 -47.5t34 -39t43.5 -32t57.5 -28.5t66.5 -25.5t79 -26.5q63 -21 108 -39.5t91.5 -48t74.5 -64t46 -85t18 -113.5q0 -159 -107.5 -242t-283.5 -83q-353 0 -402 321zM588 -297q0 -178 -197 -178v53q59 2 88 23t29 73q0 13 -2 17q-16 -8 -29 -8
q-30 0 -47.5 18.5t-17.5 48.5q0 34 21.5 54t58.5 20q38 0 67 -33t29 -88z" />
    <glyph glyph-name="scommaaccent" unicode="&#x219;" horiz-adv-x="817" 
d="M516 -297q0 -178 -194 -178v53q58 2 86.5 23t29.5 73q0 9 -4 17q-12 -8 -26 -8q-30 0 -48 18.5t-18 48.5q0 34 21.5 54t56.5 20q39 0 67.5 -32.5t28.5 -88.5zM59 219l99 29q15 -93 80 -139t168 -46q235 0 235 168q0 77 -45 121t-143 68l-123 31q-120 29 -178 87.5
t-58 163.5q0 70 26 122t71.5 82t100.5 44.5t118 14.5q141 0 222 -59.5t99 -190.5l-100 -13q-12 93 -66.5 137t-154.5 44q-101 0 -159 -43.5t-58 -126.5q0 -73 39 -111.5t130 -60.5l121 -31q129 -34 192.5 -92.5t63.5 -175.5q0 -131 -89.5 -195.5t-243.5 -64.5
q-294 0 -347 237z" />
    <glyph glyph-name="Hcaron" unicode="&#x21e;" horiz-adv-x="1269" 
d="M287 0h-109v1206h109v-549h696v549h107v-1206h-107v561h-696v-561zM666 1309h-64l-233 258h118l86 -99q18 -21 33 -40t21 -28l6 -9h4q18 30 59 77l86 99h119z" />
    <glyph glyph-name="hcaron" unicode="&#x21f;" horiz-adv-x="1003" 
d="M260 1368v-637q30 107 109.5 170.5t195.5 63.5q132 0 211.5 -74t79.5 -225v-666h-104v639q0 112 -54.5 172.5t-154.5 60.5q-122 0 -202.5 -85t-80.5 -250v-537h-104v1368h104zM242 1444h-64l-235 256h118l86 -96q18 -21 33 -41t21 -29l6 -10h4q18 33 59 80l86 96h119z
" />
    <glyph glyph-name="Adotabove" unicode="&#x226;" horiz-adv-x="1095" 
d="M961 0l-144 383h-541l-143 -383h-113l459 1206h142l454 -1206h-114zM444 836l-135 -361h473l-133 359q-31 82 -55.5 157t-33.5 109l-9 35h-8q-29 -115 -99 -299zM469 1411q0 33 22.5 56.5t53.5 23.5q35 0 57.5 -23t22.5 -57q0 -33 -22.5 -55.5t-57.5 -22.5
q-31 0 -53.5 23t-22.5 55z" />
    <glyph glyph-name="adotabove" unicode="&#x227;" horiz-adv-x="927" 
d="M365 1221q0 32 21.5 54.5t53.5 22.5q34 0 57 -22.5t23 -54.5t-23 -55t-57 -23q-32 0 -53.5 22.5t-21.5 55.5zM653 297v156q-50 6 -98 6q-369 0 -369 -213q0 -83 52.5 -131.5t150.5 -48.5q106 0 185 62t79 169zM758 674v-477q0 -64 19 -91.5t57 -27.5q27 0 43 8v-86
q-32 -8 -64 -8q-146 0 -154 168q-32 -88 -110.5 -133t-179.5 -45q-132 0 -209.5 67.5t-77.5 186.5q0 147 113.5 224t339.5 77q68 0 118 -7v132q0 215 -221 215q-205 0 -221 -191l-96 14q5 72 34.5 125.5t76.5 83t100.5 43t115.5 13.5q68 0 122.5 -15t99.5 -48t69.5 -91
t24.5 -137z" />
    <glyph glyph-name="Otildemacron" unicode="&#x22c;" horiz-adv-x="1245" 
d="M623 -18q-243 0 -384 162.5t-141 457.5q0 296 141.5 459.5t383.5 163.5t383 -163.5t141 -459.5q0 -295 -140.5 -457.5t-383.5 -162.5zM623 1130q-199 0 -305.5 -139.5t-106.5 -388.5t106.5 -387.5t305.5 -138.5t306 139t107 387q0 249 -107 388.5t-306 139.5zM762 1266
q-29 0 -57 10t-43 18.5t-48 30.5q-3 2 -14.5 10t-14 10t-12.5 8t-13 8t-11.5 6.5t-12.5 6t-11 4.5t-12.5 3.5t-12 1.5t-13.5 1q-89 0 -67 -120h-68q-33 90 4.5 153.5t120.5 63.5q33 0 64.5 -11t46 -20.5t51.5 -34.5q43 -33 66 -45t51 -12q86 0 67 125h72q31 -94 -7 -155.5
t-126 -61.5zM854 1561h-455v84h455v-84z" />
    <glyph glyph-name="otildemacron" unicode="&#x22d;" 
d="M498 -18q-189 0 -296.5 128.5t-107.5 366.5q0 236 107.5 362t296.5 126q191 0 298 -126t107 -362q0 -239 -107 -367t-298 -128zM498 877q-147 0 -224 -101t-77 -299q0 -202 77 -306.5t224 -104.5q148 0 225.5 104.5t77.5 306.5q0 198 -77 299t-226 101zM637 1044
q-29 0 -57 10t-43.5 20t-47.5 32q-5 3 -16 11t-15.5 11l-13.5 9t-13.5 8t-12.5 6.5t-13.5 6t-12.5 4t-13.5 3t-13.5 0.5q-93 0 -70 -121h-68q-33 88 5 150.5t122 62.5q32 0 62.5 -10.5t46.5 -20.5t51 -34q43 -33 66 -45t51 -12q86 0 67 125h72q31 -94 -6.5 -155t-126.5 -61z
M727 1360h-455v86h455v-86z" />
    <glyph glyph-name="Odotabove" unicode="&#x22e;" horiz-adv-x="1245" 
d="M623 -18q-243 0 -384 162.5t-141 457.5q0 296 141.5 459.5t383.5 163.5t383 -163.5t141 -459.5q0 -295 -140.5 -457.5t-383.5 -162.5zM623 1130q-199 0 -305.5 -139.5t-106.5 -388.5t106.5 -387.5t305.5 -138.5t306 139t107 387q0 249 -107 388.5t-306 139.5zM545 1411
q0 34 23 57t55 23q33 0 55 -23t22 -57q0 -33 -22 -55.5t-55 -22.5q-32 0 -55 23t-23 55z" />
    <glyph glyph-name="odotabove" unicode="&#x22f;" 
d="M498 -18q-189 0 -296.5 128.5t-107.5 366.5q0 236 107.5 362t296.5 126q191 0 298 -126t107 -362q0 -239 -107 -367t-298 -128zM498 877q-147 0 -224 -101t-77 -299q0 -202 77 -306.5t224 -104.5q148 0 225.5 104.5t77.5 306.5q0 198 -77 299t-226 101zM422 1219
q0 32 22 54.5t54 22.5q33 0 55 -22t22 -55t-22 -55.5t-55 -22.5q-32 0 -54 23t-22 55z" />
    <glyph glyph-name="odotabovemacron" unicode="&#x231;" 
d="M498 -18q-189 0 -296.5 128.5t-107.5 366.5q0 236 107.5 362t296.5 126q191 0 298 -126t107 -362q0 -239 -107 -367t-298 -128zM498 877q-147 0 -224 -101t-77 -299q0 -202 77 -306.5t224 -104.5q148 0 225.5 104.5t77.5 306.5q0 198 -77 299t-226 101zM422 1145
q0 32 22 55t54 23q33 0 55 -22.5t22 -55.5t-22 -55.5t-55 -22.5q-32 0 -54 23t-22 55zM727 1331h-455v86h455v-86z" />
    <glyph glyph-name="odotabovemacron" unicode="&#xe11e;" 
d="M498 -18q-189 0 -296.5 128.5t-107.5 366.5q0 236 107.5 362t296.5 126q191 0 298 -126t107 -362q0 -239 -107 -367t-298 -128zM498 877q-147 0 -224 -101t-77 -299q0 -202 77 -306.5t224 -104.5q148 0 225.5 104.5t77.5 306.5q0 198 -77 299t-226 101zM422 1145
q0 32 22 55t54 23q33 0 55 -22.5t22 -55.5t-22 -55.5t-55 -22.5q-32 0 -54 23t-22 55zM727 1331h-455v86h455v-86z" />
    <glyph glyph-name="Ymacron" unicode="&#x232;" horiz-adv-x="960" 
d="M152 1206l241 -442q33 -60 56.5 -107.5t30.5 -65.5l7 -18h7q18 56 90 191l233 442h113l-389 -723v-483h-107v483l-405 723h123zM707 1366h-453v84h453v-84z" />
    <glyph glyph-name="ymacron" unicode="&#x233;" horiz-adv-x="854" 
d="M137 946l228 -651q21 -61 36.5 -117t20.5 -82l6 -26h6q19 84 64 221l223 655h108l-350 -995q-71 -203 -151.5 -290t-198.5 -87q-70 0 -133 29l12 90q56 -33 123 -33q84 0 138 66.5t112 234.5l-356 985h112zM659 1155h-454v88h454v-88z" />
    <glyph glyph-name="dotlessj" unicode="&#x237;" horiz-adv-x="419" 
d="M158 946h104v-1028q0 -181 -87 -260t-261 -74v88q123 -6 183.5 50.5t60.5 185.5v1038z" />
    <glyph glyph-name="schwa" unicode="&#x259;" horiz-adv-x="937" 
d="M438 879q-103 0 -164.5 -47.5t-87.5 -145.5l-92 21q25 131 117 194.5t233 63.5q187 0 294.5 -127t107.5 -365q0 -233 -107.5 -362t-296.5 -129q-167 0 -257 103.5t-93 276.5q0 51 10 113h639q1 190 -79.5 297t-223.5 107zM739 393h-540q-2 -18 -2 -55q0 -119 67 -194.5
t185 -75.5q130 0 203 84.5t87 240.5z" />
    <glyph glyph-name="ezh" unicode="&#x292;" horiz-adv-x="776" 
d="M236 414l239 299q32 42 61 77t42 50l14 14v6q-60 -4 -189 -4h-337v90h649v-72l-381 -477v-6q167 0 277 -96t110 -256q0 -167 -106.5 -260.5t-274.5 -93.5q-142 0 -236.5 79.5t-115.5 206.5l94 21q20 -105 90.5 -164t173.5 -59q123 0 200 71t77 193q0 133 -100.5 214
t-286.5 91v76z" />
    <glyph glyph-name="circumflex" unicode="&#x2c6;" horiz-adv-x="876" 
d="M410 1370h57l238 -278h-113l-90 108q-18 22 -33 43t-21 31l-6 10h-8q-18 -35 -57 -84l-92 -108h-113z" />
    <glyph glyph-name="caron" unicode="&#x2c7;" horiz-adv-x="876" 
d="M467 1092h-57l-238 278h113l92 -113q17 -22 31.5 -42.5t19.5 -30.5l6 -10h8q19 34 60 83l90 113h113z" />
    <glyph glyph-name="breve" unicode="&#x2d8;" horiz-adv-x="837" 
d="M420 1083q-117 0 -182.5 69.5t-65.5 195.5h86q5 -91 43 -137t119 -46t118 46t42 137h86q0 -126 -64.5 -195.5t-181.5 -69.5z" />
    <glyph glyph-name="dotaccent" unicode="&#x2d9;" horiz-adv-x="501" 
d="M172 1237q0 34 23 57t55 23q34 0 56 -23t22 -57q0 -32 -22 -54t-56 -22q-32 0 -55 22t-23 54z" />
    <glyph glyph-name="ring" unicode="&#x2da;" horiz-adv-x="710" 
d="M356 1079q-85 0 -134.5 50t-49.5 126q0 73 50.5 122.5t133.5 49.5t133 -49.5t50 -122.5q0 -76 -49.5 -126t-133.5 -50zM356 1372q-54 0 -85 -33.5t-31 -85.5q0 -51 30.5 -82.5t85.5 -31.5q56 0 86.5 31.5t30.5 82.5q0 52 -31.5 85.5t-85.5 33.5z" />
    <glyph glyph-name="ogonek" unicode="&#x2db;" horiz-adv-x="708" 
d="M150 -233q0 58 25 107t67 83t84.5 56.5t91.5 39.5l41 -53q-88 -25 -149.5 -81t-61.5 -140q0 -54 26.5 -84.5t75.5 -30.5q79 0 127 78l45 -51q-62 -103 -186 -103q-87 0 -136.5 47.5t-49.5 131.5z" />
    <glyph glyph-name="tilde" unicode="&#x2dc;" horiz-adv-x="929" 
d="M604 1104q-28 0 -56.5 10t-42.5 18.5t-48 30.5q-5 3 -18 12t-17.5 12l-15 10t-15.5 9.5t-14 6.5t-15 5.5t-14 3t-16 1.5q-93 0 -70 -121h-67q-33 90 5 151.5t122 61.5q30 0 58 -9t45 -19.5t46 -30.5q2 -2 3.5 -2.5t3 -2t3.5 -2.5q31 -22 44.5 -31t33 -16.5t39.5 -7.5
q87 0 68 125h71q31 -95 -6.5 -155t-126.5 -60z" />
    <glyph glyph-name="hungarumlaut" unicode="&#x2dd;" horiz-adv-x="880" 
d="M252 1092h-80l135 278h137zM504 1092h-80l145 278h138z" />
    <glyph glyph-name="uni0312" unicode="&#x312;" horiz-adv-x="540" 
d="M172 1460q0 178 197 178v-53q-58 -2 -87 -23.5t-30 -72.5q0 -15 2 -19q15 11 29 11q30 0 47.5 -19.5t17.5 -48.5q0 -34 -21.5 -54t-58.5 -20q-38 0 -67 33t-29 88z" />
    <glyph glyph-name="uni0320" unicode="&#x320;" horiz-adv-x="837" 
d="M664 -344h-492v84h492v-84z" />
    <glyph glyph-name="uni0323" unicode="&#x323;" horiz-adv-x="501" 
d="M172 -256q0 33 22.5 55.5t55.5 22.5t55.5 -22.5t22.5 -55.5q0 -32 -23 -55t-55 -23t-55 23t-23 55z" />
    <glyph glyph-name="uni0329" unicode="&#x329;" horiz-adv-x="436" 
d="M172 -393v276h92v-268z" />
    <glyph glyph-name="pi" unicode="&#x3c0;" horiz-adv-x="1271" 
d="M350 985h809v-88h-254v-672q0 -82 25.5 -120.5t79.5 -38.5q83 0 135 108l65 -49q-39 -75 -87.5 -109t-129.5 -34q-194 0 -194 225v690h-320l-94 -897h-104l98 897h-39q-107 0 -163 -62.5t-56 -181.5h-92q0 163 83.5 247.5t237.5 84.5z" />
    <glyph glyph-name="uni0E3F" unicode="&#xe3f;" horiz-adv-x="1005" 
d="M463 -217v217h-287v985h287v191h74v-191q155 -1 237 -65.5t82 -184.5q0 -193 -182 -223v-6q98 -5 163.5 -70.5t65.5 -163.5q0 -136 -89 -204t-277 -68v-217h-74zM537 461v-373q137 2 199.5 45.5t62.5 145.5q0 91 -63 136t-199 46zM537 897v-348q107 0 163 40.5t56 133.5
q0 167 -219 174zM281 461v-373h182v373h-182zM281 549h182v348h-182v-348z" />
    <glyph glyph-name="Ddotbelow" unicode="&#x1e0c;" horiz-adv-x="1189" 
d="M287 92h213q225 0 352 132t127 388t-123 379t-346 123h-223v-1022zM510 0h-332v1206h334q131 0 234.5 -33t182 -102t121 -184.5t42.5 -270.5q0 -130 -30.5 -235t-84 -175t-128 -117t-159 -68t-180.5 -21zM455 -285q0 34 21.5 57t53.5 23q34 0 57 -23t23 -57
q0 -32 -23 -54.5t-57 -22.5q-32 0 -53.5 22.5t-21.5 54.5z" />
    <glyph glyph-name="ddotbelow" unicode="&#x1e0d;" horiz-adv-x="1050" 
d="M791 385v193q0 76 -25 135.5t-67 94.5t-90.5 53t-100.5 18q-141 0 -225 -102t-84 -316q0 -192 80.5 -292.5t218.5 -100.5q54 0 104.5 19.5t93 56.5t68.5 99.5t27 141.5zM788 776v592h107v-1368h-90l-14 199q-34 -107 -119 -162t-201 -55q-164 0 -270.5 124t-106.5 353
q0 244 108.5 375t303.5 131q106 0 182.5 -55t99.5 -134zM424 -285q0 34 22 57t54 23q34 0 57 -23t23 -57q0 -32 -23 -54.5t-57 -22.5q-32 0 -54 22.5t-22 54.5z" />
    <glyph glyph-name="Dcedilla" unicode="&#x1e10;" horiz-adv-x="1189" 
d="M717 -258q0 -79 -53 -120.5t-136 -41.5q-119 0 -180 82l37 68q58 -80 143 -80q99 0 99 92q0 48 -41.5 75.5t-122.5 30.5l18 152h-303v1206h334q131 0 234.5 -33t182 -102t121 -184.5t42.5 -270.5q0 -126 -28.5 -228t-78 -171.5t-119 -118t-149.5 -71.5t-172 -27l-15 -94
q89 -8 138 -50.5t49 -113.5zM287 92h213q225 0 352 132t127 388t-123 379t-346 123h-223v-1022z" />
    <glyph glyph-name="dcedilla" unicode="&#x1e11;" horiz-adv-x="1050" 
d="M682 -258q0 -80 -53 -121t-137 -41q-118 0 -179 82l37 68q58 -80 142 -80q100 0 100 92q0 48 -41.5 75.5t-122.5 30.5l16 134q-154 9 -252 132.5t-98 344.5q0 244 108.5 375t303.5 131q106 0 182.5 -55t99.5 -134v592h107v-1368h-90l-14 199q-32 -99 -106.5 -154
t-176.5 -61l-12 -78q88 -8 137 -50.5t49 -113.5zM791 385v193q0 76 -25 135.5t-67 94.5t-90.5 53t-100.5 18q-141 0 -225 -102t-84 -316q0 -192 80.5 -292.5t218.5 -100.5q54 0 104.5 19.5t93 56.5t68.5 99.5t27 141.5z" />
    <glyph glyph-name="Hdotbelow" unicode="&#x1e24;" horiz-adv-x="1269" 
d="M287 0h-109v1206h109v-549h696v549h107v-1206h-107v561h-696v-561zM557 -285q0 34 22 57t54 23q34 0 57 -23t23 -57q0 -32 -23 -54.5t-57 -22.5q-32 0 -54 22.5t-22 54.5z" />
    <glyph glyph-name="hdotbelow" unicode="&#x1e25;" horiz-adv-x="1003" 
d="M260 1368v-637q30 107 109.5 170.5t195.5 63.5q132 0 211.5 -74t79.5 -225v-666h-104v639q0 112 -54.5 172.5t-154.5 60.5q-122 0 -202.5 -85t-80.5 -250v-537h-104v1368h104zM428 -285q0 34 22 57t54 23q34 0 57 -23t23 -57q0 -32 -23 -54.5t-57 -22.5q-32 0 -54 22.5
t-22 54.5z" />
    <glyph glyph-name="Ldotbelow" unicode="&#x1e36;" horiz-adv-x="892" 
d="M178 1206h109v-1112h561v-94h-670v1206zM434 -285q0 34 23 57t55 23q34 0 56 -23t22 -57q0 -33 -22 -55t-56 -22q-32 0 -55 22.5t-23 54.5z" />
    <glyph glyph-name="ldotbelow" unicode="&#x1e37;" horiz-adv-x="460" 
d="M399 90v-90q-44 -10 -82 -10q-81 0 -127.5 45.5t-46.5 132.5v1200h105v-1186q0 -102 88 -102q30 0 63 10zM193 -285q0 34 21.5 57t53.5 23q34 0 57 -23t23 -57q0 -32 -23 -54.5t-57 -22.5q-32 0 -53.5 22.5t-21.5 54.5z" />
    <glyph glyph-name="uni004C032300AF" unicode="&#x1e38;" horiz-adv-x="892" 
d="M178 1206h109v-1112h561v-94h-670v1206zM434 -285q0 34 23 57t55 23q34 0 56 -23t22 -57q0 -33 -22 -55t-56 -22q-32 0 -55 22.5t-23 54.5zM481 1366h-454v84h454v-84z" />
    <glyph glyph-name="ldotbelowmacron" unicode="&#x1e39;" horiz-adv-x="460" 
d="M399 90v-90q-44 -10 -82 -10q-81 0 -127.5 45.5t-46.5 132.5v1200h105v-1186q0 -102 88 -102q30 0 63 10zM193 -285q0 34 21.5 57t53.5 23q34 0 57 -23t23 -57q0 -32 -23 -54.5t-57 -22.5q-32 0 -53.5 22.5t-21.5 54.5zM434 1499h-454v84h454v-84z" />
    <glyph glyph-name="Mdotbelow" unicode="&#x1e42;" horiz-adv-x="1439" 
d="M643 -285q0 34 22 57t54 23q34 0 56 -23t22 -57q0 -33 -22.5 -55t-55.5 -22q-32 0 -54 22.5t-22 54.5zM762 301h-84l-297 553q-33 62 -57 115.5t-32 76.5l-7 23h-6q6 -76 6 -221v-848h-107v1206h133l353 -669q19 -36 33.5 -68.5t18.5 -46.5l5 -14h6q14 47 57 129l351 669
h127v-1206h-107v848q0 64 1.5 119.5t3.5 78.5l1 23h-6q-22 -76 -96 -215z" />
    <glyph glyph-name="mdotbelow" unicode="&#x1e43;" horiz-adv-x="1552" 
d="M819 729q30 112 112 174t193 62q130 0 205.5 -72.5t75.5 -220.5v-672h-105v639q0 113 -50 173t-148 60q-114 0 -191 -88t-77 -247v-537h-105v639q0 113 -50.5 173t-146.5 60q-115 0 -192.5 -88t-77.5 -247v-537h-104v946h80l14 -215q30 111 111 172.5t192 61.5
q238 0 264 -236zM705 -285q0 34 21.5 57t53.5 23q34 0 56 -23t22 -57q0 -33 -22 -55t-56 -22q-32 0 -53.5 22.5t-21.5 54.5z" />
    <glyph glyph-name="Ndotaccent" unicode="&#x1e44;" horiz-adv-x="1288" 
d="M565 1411q0 33 22.5 55.5t55.5 22.5q34 0 56 -22t22 -56q0 -33 -22.5 -55.5t-55.5 -22.5q-32 0 -55 23t-23 55zM295 1206l573 -839q35 -50 69 -106t51 -87l16 -31h6q-6 119 -6 254v809h106v-1206h-115l-575 840q-34 48 -67.5 104t-50.5 88l-17 31h-9q9 -119 9 -254v-809
h-107v1206h117z" />
    <glyph glyph-name="ndotaccent" unicode="&#x1e45;" horiz-adv-x="1007" 
d="M238 946l14 -217q33 109 116 172.5t201 63.5q131 0 210 -74t79 -225v-666h-104v639q0 113 -54 173t-155 60q-121 0 -202 -85.5t-81 -249.5v-537h-104v946h80zM438 1221q0 32 22 54.5t54 22.5q34 0 56 -22t22 -55t-22.5 -55.5t-55.5 -22.5q-32 0 -54 23t-22 55z" />
    <glyph glyph-name="Ndotbelow" unicode="&#x1e46;" horiz-adv-x="1288" 
d="M565 -285q0 34 23 57t55 23q34 0 56 -23t22 -57q0 -33 -22.5 -55t-55.5 -22q-32 0 -55 22.5t-23 54.5zM295 1206l573 -839q35 -50 69 -106t51 -87l16 -31h6q-6 119 -6 254v809h106v-1206h-115l-575 840q-34 48 -67.5 104t-50.5 88l-17 31h-9q9 -119 9 -254v-809h-107
v1206h117z" />
    <glyph glyph-name="ndotbelow" unicode="&#x1e47;" horiz-adv-x="1007" 
d="M238 946l14 -217q33 109 116 172.5t201 63.5q131 0 210 -74t79 -225v-666h-104v639q0 113 -54 173t-155 60q-121 0 -202 -85.5t-81 -249.5v-537h-104v946h80zM434 -285q0 34 23 57t55 23q34 0 56 -23t22 -57q0 -33 -22 -55t-56 -22q-32 0 -55 22.5t-23 54.5z" />
    <glyph glyph-name="Rdotbelow" unicode="&#x1e5a;" horiz-adv-x="1085" 
d="M1012 0h-119q-39 44 -57 121l-50 215q-26 107 -89.5 150.5t-182.5 43.5h-227v-530h-109v1206h373q395 0 395 -332q0 -136 -80.5 -215.5t-199.5 -85.5v-4q91 -9 143 -55.5t78 -146.5l57 -234q20 -79 68 -133zM287 1114v-491h262q285 0 285 245q0 246 -285 246h-262z
M444 -285q0 34 22 57t54 23q34 0 57 -23t23 -57q0 -32 -23 -54.5t-57 -22.5q-32 0 -54 22.5t-22 54.5z" />
    <glyph glyph-name="rdotbelow" unicode="&#x1e5b;" horiz-adv-x="673" 
d="M131 -285q0 34 22 57t54 23q34 0 56 -23t22 -57q0 -33 -22.5 -55t-55.5 -22q-32 0 -54 22.5t-22 54.5zM633 952l-10 -114q-32 14 -88 14q-119 0 -196 -102.5t-77 -257.5v-492h-104v946h86l14 -268q22 131 103 208t208 77q35 0 64 -11z" />
    <glyph glyph-name="Rdotbelowmacron" unicode="&#x1e5c;" horiz-adv-x="1085" 
d="M1012 0h-119q-39 44 -57 121l-50 215q-26 107 -89.5 150.5t-182.5 43.5h-227v-530h-109v1206h373q395 0 395 -332q0 -136 -80.5 -215.5t-199.5 -85.5v-4q91 -9 143 -55.5t78 -146.5l57 -234q20 -79 68 -133zM287 1114v-491h262q285 0 285 245q0 246 -285 246h-262z
M444 -285q0 34 22 57t54 23q34 0 57 -23t23 -57q0 -32 -23 -54.5t-57 -22.5q-32 0 -54 22.5t-22 54.5zM737 1366h-452v84h452v-84z" />
    <glyph glyph-name="rdotbelowmacron" unicode="&#x1e5d;" horiz-adv-x="673" 
d="M623 1155h-453v88h453v-88zM131 -285q0 34 23 57t55 23q34 0 56 -23t22 -57q0 -33 -22.5 -55t-55.5 -22q-32 0 -55 22.5t-23 54.5zM633 952l-10 -114q-32 14 -88 14q-119 0 -196 -102.5t-77 -257.5v-492h-104v946h86l14 -268q22 131 103 208t208 77q35 0 64 -11z" />
    <glyph glyph-name="Sdotbelow" unicode="&#x1e62;" horiz-adv-x="952" 
d="M63 303l103 21q43 -256 301 -256q131 0 206 58t75 169q0 104 -64.5 162t-228.5 112q-47 15 -77 25.5t-71 28t-66.5 34.5t-54 43t-45 54.5t-27 67.5t-10.5 85q0 85 30.5 149t83 100t114 53.5t131.5 17.5q350 0 385 -318l-105 -16q-34 246 -278 246q-114 0 -184 -56.5
t-70 -167.5q0 -32 7.5 -59t19 -47.5t34 -39t43.5 -32t57.5 -28.5t66.5 -25.5t79 -26.5q63 -21 108 -39.5t91.5 -48t74.5 -64t46 -85t18 -113.5q0 -159 -107.5 -242t-283.5 -83q-353 0 -402 321zM401 -285q0 34 22 57t54 23q34 0 56 -23t22 -57q0 -33 -22.5 -55t-55.5 -22
q-32 0 -54 22.5t-22 54.5z" />
    <glyph glyph-name="sdotbelow" unicode="&#x1e63;" horiz-adv-x="817" 
d="M342 -285q0 34 22 57t54 23q34 0 57 -23t23 -57q0 -32 -23 -54.5t-57 -22.5q-32 0 -54 22.5t-22 54.5zM59 219l99 29q15 -93 80 -139t168 -46q235 0 235 168q0 77 -45 121t-143 68l-123 31q-120 29 -178 87.5t-58 163.5q0 70 26 122t71.5 82t100.5 44.5t118 14.5
q141 0 222 -59.5t99 -190.5l-100 -13q-12 93 -66.5 137t-154.5 44q-101 0 -159 -43.5t-58 -126.5q0 -73 39 -111.5t130 -60.5l121 -31q129 -34 192.5 -92.5t63.5 -175.5q0 -131 -89.5 -195.5t-243.5 -64.5q-294 0 -347 237z" />
    <glyph glyph-name="Tdotbelow" unicode="&#x1e6c;" horiz-adv-x="952" 
d="M530 0h-108v1112h-393v94h895v-94h-394v-1112zM397 -285q0 34 23 57t55 23q34 0 56 -23t22 -57q0 -33 -22.5 -55t-55.5 -22q-32 0 -55 22.5t-23 54.5z" />
    <glyph glyph-name="tdotbelow" unicode="&#x1e6d;" horiz-adv-x="628" 
d="M565 129l29 -84q-72 -63 -203 -63q-111 0 -170 61t-59 178v639h-137v86h137v201l106 14v-215h281v-86h-283v-620q0 -168 137 -168q51 0 87 13t75 44zM258 -285q0 34 22 57t54 23q34 0 56 -23t22 -57q0 -33 -22 -55t-56 -22q-32 0 -54 22.5t-22 54.5z" />
    <glyph glyph-name="Wgrave" unicode="&#x1e80;" horiz-adv-x="1615" 
d="M860 1315h-92l-182 248h143zM872 1206l226 -825q22 -81 40 -158.5t26 -114.5l7 -38h9q22 123 73 309l226 827h108l-338 -1206h-151l-219 801q-23 82 -40 157.5t-23 110.5l-5 35h-6q-17 -113 -68 -303l-219 -801h-151l-338 1206h114l226 -823q23 -84 41 -162t25 -115
l7 -36h7q22 127 73 311l232 825h118z" />
    <glyph glyph-name="wgrave" unicode="&#x1e81;" horiz-adv-x="1292" 
d="M705 946l167 -594q24 -84 39.5 -153.5t18.5 -96.5l4 -28h6q8 88 59 278l162 594h107l-267 -946h-127l-161 563q-24 84 -40 153t-20 96l-4 28h-6q-10 -89 -63 -277l-158 -563h-127l-270 946h108l164 -594q24 -83 39.5 -152.5t19.5 -97.5l4 -28h7q8 92 59 278l168 594h111z
M698 1092h-86l-202 278h143z" />
    <glyph glyph-name="Wacute" unicode="&#x1e82;" horiz-adv-x="1615" 
d="M850 1315h-92l131 248h143zM872 1206l226 -825q22 -81 40 -158.5t26 -114.5l7 -38h9q22 123 73 309l226 827h108l-338 -1206h-151l-219 801q-23 82 -40 157.5t-23 110.5l-5 35h-6q-17 -113 -68 -303l-219 -801h-151l-338 1206h114l226 -823q23 -84 41 -162t25 -115l7 -36
h7q22 127 73 311l232 825h118z" />
    <glyph glyph-name="wacute" unicode="&#x1e83;" horiz-adv-x="1292" 
d="M705 946l167 -594q24 -84 39.5 -153.5t18.5 -96.5l4 -28h6q8 88 59 278l162 594h107l-267 -946h-127l-161 563q-24 84 -40 153t-20 96l-4 28h-6q-10 -89 -63 -277l-158 -563h-127l-270 946h108l164 -594q24 -83 39.5 -152.5t19.5 -97.5l4 -28h7q8 92 59 278l168 594h111z
M680 1092h-86l145 278h144z" />
    <glyph glyph-name="Wdieresis" unicode="&#x1e84;" horiz-adv-x="1615" 
d="M555 1413q0 32 23 55t55 23t55 -23t23 -55t-23 -55t-55 -23t-55 23t-23 55zM905 1411q0 33 22.5 55.5t55.5 22.5q34 0 56 -22t22 -56q0 -33 -22.5 -55.5t-55.5 -22.5q-32 0 -55 23t-23 55zM872 1206l226 -825q22 -81 40 -158.5t26 -114.5l7 -38h9q22 123 73 309l226 827
h108l-338 -1206h-151l-219 801q-23 82 -40 157.5t-23 110.5l-5 35h-6q-17 -113 -68 -303l-219 -801h-151l-338 1206h114l226 -823q23 -84 41 -162t25 -115l7 -36h7q22 127 73 311l232 825h118z" />
    <glyph glyph-name="wdieresis" unicode="&#x1e85;" horiz-adv-x="1292" 
d="M705 946l167 -594q24 -84 39.5 -153.5t18.5 -96.5l4 -28h6q8 88 59 278l162 594h107l-267 -946h-127l-161 563q-24 84 -40 153t-20 96l-4 28h-6q-10 -89 -63 -277l-158 -563h-127l-270 946h108l164 -594q24 -83 39.5 -152.5t19.5 -97.5l4 -28h7q8 92 59 278l168 594h111z
M391 1219q0 32 23 54.5t55 22.5q33 0 55.5 -22t22.5 -55t-22.5 -55.5t-55.5 -22.5q-32 0 -55 23t-23 55zM743 1217q0 33 22.5 55t55.5 22t55.5 -22t22.5 -55q0 -31 -23 -53.5t-55 -22.5t-55 22.5t-23 53.5z" />
    <glyph glyph-name="Idotbelow" unicode="&#x1eca;" horiz-adv-x="464" 
d="M178 1206h109v-1206h-109v1206zM154 -285q0 34 22.5 57t54.5 23q34 0 56 -23t22 -57q0 -33 -22.5 -55t-55.5 -22q-32 0 -54.5 22.5t-22.5 54.5z" />
    <glyph glyph-name="idotbelow" unicode="&#x1ecb;" horiz-adv-x="419" 
d="M133 1237q0 34 22 57t54 23q34 0 57 -23t23 -57q0 -32 -23 -54t-57 -22q-32 0 -54 22t-22 54zM158 946h104v-946h-104v946zM133 -285q0 34 22 57t54 23q34 0 57 -23t23 -57q0 -32 -23 -54.5t-57 -22.5q-32 0 -54 22.5t-22 54.5z" />
    <glyph glyph-name="Odotbelow" unicode="&#x1ecc;" horiz-adv-x="1245" 
d="M623 -18q-243 0 -384 162.5t-141 457.5q0 296 141.5 459.5t383.5 163.5t383 -163.5t141 -459.5q0 -295 -140.5 -457.5t-383.5 -162.5zM623 1130q-199 0 -305.5 -139.5t-106.5 -388.5t106.5 -387.5t305.5 -138.5t306 139t107 387q0 249 -107 388.5t-306 139.5zM545 -285
q0 34 23 57t55 23q33 0 55 -23t22 -57q0 -33 -22 -55t-55 -22q-32 0 -55 22.5t-23 54.5z" />
    <glyph glyph-name="odotbelow" unicode="&#x1ecd;" 
d="M498 -18q-189 0 -296.5 128.5t-107.5 366.5q0 236 107.5 362t296.5 126q191 0 298 -126t107 -362q0 -239 -107 -367t-298 -128zM498 877q-147 0 -224 -101t-77 -299q0 -202 77 -306.5t224 -104.5q148 0 225.5 104.5t77.5 306.5q0 198 -77 299t-226 101zM422 -285
q0 34 22 57t54 23q33 0 55 -23t22 -57q0 -33 -22 -55t-55 -22q-32 0 -54 22.5t-22 54.5z" />
    <glyph glyph-name="Udotbelow" unicode="&#x1ee4;" horiz-adv-x="1175" 
d="M930 1206h106v-794q0 -91 -24.5 -164t-66 -122t-99.5 -82t-122 -47.5t-136 -14.5q-92 0 -170.5 24t-142 73.5t-100 134.5t-36.5 198v794h109v-772q0 -186 94 -274t246 -88t247 87.5t95 270.5v776zM510 -285q0 34 22 57t54 23q34 0 57 -23t23 -57q0 -32 -23 -54.5
t-57 -22.5q-32 0 -54 22.5t-22 54.5z" />
    <glyph glyph-name="udotbelow" unicode="&#x1ee5;" 
d="M752 0l-15 207q-31 -109 -110.5 -167t-196.5 -58q-136 0 -212.5 75t-76.5 236v653h105v-641q0 -244 211 -244q115 0 196.5 90.5t81.5 245.5v549h105v-946h-88zM414 -285q0 34 21.5 57t53.5 23q34 0 56 -23t22 -57q0 -33 -22.5 -55t-55.5 -22q-32 0 -53.5 22.5t-21.5 54.5
z" />
    <glyph glyph-name="Ygrave" unicode="&#x1ef2;" horiz-adv-x="960" 
d="M152 1206l241 -442q33 -60 56.5 -107.5t30.5 -65.5l7 -18h7q18 56 90 191l233 442h113l-389 -723v-483h-107v483l-405 723h123zM530 1315h-92l-180 248h141z" />
    <glyph glyph-name="ygrave" unicode="&#x1ef3;" horiz-adv-x="854" 
d="M137 946l228 -651q21 -61 36.5 -117t20.5 -82l6 -26h6q19 84 64 221l223 655h108l-350 -995q-71 -203 -151.5 -290t-198.5 -87q-70 0 -133 29l12 90q56 -33 123 -33q84 0 138 66.5t112 234.5l-356 985h112zM485 1092h-86l-202 278h143z" />
    <glyph glyph-name="Ytilde" unicode="&#x1ef8;" horiz-adv-x="960" 
d="M152 1206l241 -442q33 -60 56.5 -107.5t30.5 -65.5l7 -18h7q18 56 90 191l233 442h113l-389 -723v-483h-107v483l-405 723h123zM618 1325q-11 0 -22.5 1.5t-19.5 3t-19.5 7t-16.5 7t-18.5 9.5t-16 10t-17.5 12t-17 11q-4 3 -17.5 12.5t-17.5 12t-15 9.5t-16 9.5t-14 6.5
t-15.5 5.5t-15 3t-16.5 1.5q-42 0 -61 -29.5t-7 -91.5h-67q-33 88 4.5 151.5t120.5 63.5q33 0 63.5 -9.5t48 -20.5t50.5 -33q32 -24 44.5 -33t32 -17t39.5 -8q87 0 68 125h72q31 -94 -7.5 -156.5t-126.5 -62.5z" />
    <glyph glyph-name="ytilde" unicode="&#x1ef9;" horiz-adv-x="854" 
d="M137 946l228 -651q21 -61 36.5 -117t20.5 -82l6 -26h6q19 84 64 221l223 655h108l-350 -995q-71 -203 -151.5 -290t-198.5 -87q-70 0 -133 29l12 90q56 -33 123 -33q84 0 138 66.5t112 234.5l-356 985h112zM573 1104q-28 0 -56.5 10t-42.5 18.5t-48 30.5q-4 3 -17.5 12.5
t-17.5 12t-15 9.5t-16 9.5t-14 6.5t-15.5 5.5t-15 3t-16.5 1.5q-42 0 -61 -29.5t-7 -91.5h-69q-33 89 5.5 151t121.5 62q33 0 63.5 -11t46.5 -21t50 -34q63 -43 85 -50q17 -5 33 -5q87 0 68 125h72q31 -95 -7.5 -155t-126.5 -60z" />
    <glyph glyph-name="enspace" unicode="&#x2002;" horiz-adv-x="921" 
 />
    <glyph glyph-name="emspace" unicode="&#x2003;" horiz-adv-x="1843" 
 />
    <glyph glyph-name="threeperemspace" unicode="&#x2004;" horiz-adv-x="614" 
 />
    <glyph glyph-name="fourperemspace" unicode="&#x2005;" horiz-adv-x="460" 
 />
    <glyph glyph-name="sixperemspace" unicode="&#x2006;" horiz-adv-x="307" 
 />
    <glyph glyph-name="figurespace" unicode="&#x2007;" horiz-adv-x="1050" 
 />
    <glyph glyph-name="punctuationspace" unicode="&#x2008;" horiz-adv-x="350" 
 />
    <glyph glyph-name="thinspace" unicode="&#x2009;" horiz-adv-x="184" 
 />
    <glyph glyph-name="hairspace" unicode="&#x200a;" horiz-adv-x="92" 
 />
    <glyph glyph-name="zerowidthspace" unicode="&#x200b;" horiz-adv-x="0" 
 />
    <glyph glyph-name="figuredash" unicode="&#x2012;" horiz-adv-x="1245" 
d="M152 492v79h940v-79h-940z" />
    <glyph glyph-name="endash" unicode="&#x2013;" horiz-adv-x="1042" 
d="M152 492v79h737v-79h-737z" />
    <glyph glyph-name="emdash" unicode="&#x2014;" horiz-adv-x="2066" 
d="M152 492v79h1761v-79h-1761z" />
    <glyph glyph-name="uni2015" unicode="&#x2015;" horiz-adv-x="2578" 
d="M152 492v79h2273v-79h-2273z" />
    <glyph glyph-name="doublebar" unicode="&#x2016;" horiz-adv-x="763" 
d="M307 -416h-94v1786h94v-1786zM549 -416h-94v1786h94v-1786z" />
    <glyph glyph-name="quoteleft" unicode="&#x2018;" horiz-adv-x="436" 
d="M131 1159q0 104 59 159t168 60v-57q-136 -13 -139 -129q0 -4 1 -10l1 -6q20 8 31 8q33 0 53.5 -21.5t20.5 -54.5q0 -37 -24 -58.5t-64 -21.5q-43 0 -75 35t-32 96z" />
    <glyph glyph-name="quoteright" unicode="&#x2019;" horiz-adv-x="436" 
d="M317 1247q0 -104 -59 -159t-168 -60v57q138 13 141 129q0 9 -4 17q-16 -8 -28 -8q-33 0 -54.5 21.5t-21.5 53.5q0 37 24 58.5t64 21.5q44 0 75 -35.5t31 -95.5z" />
    <glyph glyph-name="quotesinglbase" unicode="&#x201a;" horiz-adv-x="436" 
d="M317 37q0 -104 -59 -159t-168 -60v57q138 13 141 129q0 12 -4 16q-16 -8 -28 -8q-33 0 -54.5 21.5t-21.5 54.5q0 37 24 58.5t64 21.5q44 0 75 -35t31 -96z" />
    <glyph glyph-name="reversequoteleft" unicode="&#x201b;" horiz-adv-x="479" 
d="M162 1247q0 60 31 95.5t75 35.5q40 0 64 -21.5t24 -58.5q0 -33 -20 -54t-53 -21q-15 0 -31 8q-2 -4 -2 -17q0 -116 139 -129v-57q-109 5 -168 60t-59 159z" />
    <glyph glyph-name="quotedblleft" unicode="&#x201c;" horiz-adv-x="731" 
d="M131 1159q0 104 59 159t168 60v-57q-136 -13 -139 -129q0 -4 1 -10l1 -6q20 8 31 8q33 0 53.5 -21.5t20.5 -54.5q0 -37 -24 -58.5t-64 -21.5q-43 0 -75 35t-32 96zM426 1159q0 104 59 159t168 60v-57q-136 -13 -139 -129q0 -12 4 -16q16 8 29 8q33 0 53.5 -21.5
t20.5 -54.5q0 -37 -24 -58.5t-65 -21.5q-43 0 -74.5 35t-31.5 96z" />
    <glyph glyph-name="quotedblright" unicode="&#x201d;" horiz-adv-x="731" 
d="M317 1247q0 -104 -59 -159t-168 -60v57q138 13 141 129q0 9 -4 17q-16 -8 -28 -8q-33 0 -54.5 21.5t-21.5 53.5q0 37 24 58.5t64 21.5q44 0 75 -35.5t31 -95.5zM614 1247q0 -104 -59.5 -159t-167.5 -60v57q136 13 139 129q0 9 -4 17q-16 -8 -28 -8q-33 0 -53.5 21
t-20.5 54q0 37 23.5 58.5t64.5 21.5q43 0 74.5 -35.5t31.5 -95.5z" />
    <glyph glyph-name="quotedblbase" unicode="&#x201e;" horiz-adv-x="731" 
d="M317 37q0 -104 -59 -159t-168 -60v57q138 13 141 129q0 12 -4 16q-16 -8 -28 -8q-33 0 -54.5 21.5t-21.5 54.5q0 37 24 58.5t64 21.5q44 0 75 -35t31 -96zM614 37q0 -104 -59.5 -159t-167.5 -60v57q136 13 139 129q0 12 -4 16q-16 -8 -28 -8q-33 0 -53.5 21.5t-20.5 54.5
q0 37 23.5 58.5t64.5 21.5q43 0 74.5 -35t31.5 -96z" />
    <glyph glyph-name="reversequotedblleft" unicode="&#x201f;" horiz-adv-x="792" 
d="M123 1249q0 60 31.5 95.5t74.5 35.5q40 0 64 -21.5t24 -58.5q0 -33 -20 -54t-53 -21q-11 0 -31 8q0 -2 -1 -7.5t-1 -8.5q3 -117 139 -130v-57q-109 5 -168 60t-59 159zM436 1249q0 60 32 95.5t75 35.5q40 0 64 -21.5t24 -58.5q0 -33 -20.5 -54t-53.5 -21q-13 0 -29 8
q-4 -8 -4 -16q3 -117 140 -130v-57q-109 5 -168.5 60t-59.5 159z" />
    <glyph glyph-name="dagger" unicode="&#x2020;" horiz-adv-x="1093" 
d="M504 670l-410 -19v113l410 -16l-15 458h115l-16 -458l411 16v-113l-409 19l16 -975h-117z" />
    <glyph glyph-name="daggerdbl" unicode="&#x2021;" horiz-adv-x="1091" 
d="M588 680v-461l411 17v-109l-411 18l18 -452h-117l15 452l-410 -18v109l410 -17v461l-410 -16v108l410 -16l-15 450h117l-18 -450l411 16v-108z" />
    <glyph glyph-name="bullet" unicode="&#x2022;" horiz-adv-x="610" 
d="M178 514q0 54 37 91.5t90 37.5t90 -37.5t37 -91.5q0 -51 -37.5 -88t-89.5 -37t-89.5 37t-37.5 88z" />
    <glyph glyph-name="ellipsis" unicode="&#x2026;" horiz-adv-x="1570" 
d="M166 80q0 37 24.5 61.5t61.5 24.5t61.5 -24.5t24.5 -61.5t-24.5 -61.5t-61.5 -24.5t-61.5 24.5t-24.5 61.5zM698 80q0 37 24.5 61.5t61.5 24.5q38 0 63 -24.5t25 -61.5t-25 -61.5t-63 -24.5q-37 0 -61.5 24.5t-24.5 61.5zM1231 80q0 37 25 61.5t63 24.5q37 0 61.5 -24.5
t24.5 -61.5t-24.5 -61.5t-61.5 -24.5q-38 0 -63 24.5t-25 61.5z" />
    <glyph glyph-name="perthousand" unicode="&#x2030;" horiz-adv-x="2365" 
d="M352 471q-133 0 -204.5 103.5t-71.5 271.5q0 166 74 270.5t202 104.5q127 0 201 -104.5t74 -270.5q0 -168 -72.5 -271.5t-202.5 -103.5zM352 1141q-89 0 -137.5 -81.5t-48.5 -215.5q0 -131 49.5 -215t136.5 -84q86 0 135.5 84t49.5 215q0 134 -49 215.5t-136 81.5zM465 0
l663 1208h84l-661 -1208h-86zM1325 -12q-132 0 -204 103t-72 271q0 166 74 270.5t202 104.5t202.5 -104.5t74.5 -270.5q0 -167 -73.5 -270.5t-203.5 -103.5zM1325 657q-87 0 -136.5 -82t-49.5 -215q0 -131 49.5 -214t136.5 -83t136.5 83t49.5 214q0 133 -49.5 215t-136.5 82
zM2013 -12q-130 0 -202 103t-72 271q0 166 73.5 270.5t200.5 104.5q128 0 202.5 -104.5t74.5 -270.5q0 -168 -72.5 -271t-204.5 -103zM2013 657q-87 0 -135.5 -81.5t-48.5 -215.5q0 -131 49 -214t135 -83q87 0 137 83t50 214q0 134 -49 215.5t-138 81.5z" />
    <glyph glyph-name="tripleprime" unicode="&#x2034;" horiz-adv-x="823" 
d="M131 844v524h121l-51 -524h-70zM362 844v524h121l-53 -524h-68zM594 844v524h119l-51 -524h-68z" />
    <glyph glyph-name="guilsinglleft" unicode="&#x2039;" horiz-adv-x="600" 
d="M188 481v-8q25 -12 101 -104l221 -260l-64 -54l-358 422l358 422l64 -61l-221 -256q-35 -41 -60 -66t-33 -30z" />
    <glyph glyph-name="guilsinglright" unicode="&#x203a;" horiz-adv-x="600" 
d="M412 473v8q-23 9 -101 101l-221 256l64 61l358 -422l-358 -422l-64 54l221 260q34 41 59 67t34 32z" />
    <glyph glyph-name="fraction" unicode="&#x2044;" horiz-adv-x="374" 
d="M-186 0l663 1208h84l-663 -1208h-84z" />
    <glyph glyph-name="uni2070" unicode="&#x2070;" horiz-adv-x="694" 
d="M348 471q-131 0 -203.5 103.5t-72.5 271.5q0 166 74 270.5t202 104.5q127 0 201 -104.5t74 -270.5q0 -168 -72 -271.5t-203 -103.5zM348 1141q-89 0 -137.5 -81.5t-48.5 -215.5q0 -131 49.5 -215t136.5 -84q86 0 136.5 84t50.5 215q0 133 -49.5 215t-137.5 82z" />
    <glyph glyph-name="uni2074" unicode="&#x2074;" horiz-adv-x="661" 
d="M406 483v195h-375v67l370 461h93v-458h122v-70h-122v-195h-88zM408 745v256q0 33 1.5 63.5t2.5 45.5l2 14h-6q-19 -44 -72 -112l-141 -176q-22 -27 -43 -49t-31 -31l-10 -8v-7q30 4 100 4h197z" />
    <glyph glyph-name="uni2075" unicode="&#x2075;" horiz-adv-x="608" 
d="M106 819l17 387h385v-76h-311l-13 -245q47 61 146 61q95 0 154 -58.5t59 -168.5q0 -119 -71 -183.5t-196 -64.5q-101 0 -164 48t-71 126l78 29q10 -66 53.5 -99.5t110.5 -33.5q78 0 126 43.5t48 126.5q0 78 -41.5 122t-108.5 44q-78 0 -129 -58h-72z" />
    <glyph glyph-name="uni2076" unicode="&#x2076;" horiz-adv-x="645" 
d="M575 1077l-71 -33q-36 101 -146 101q-91 0 -147.5 -84t-60.5 -240v-47h6q11 80 65.5 127t138.5 47q103 0 166.5 -66t63.5 -169q0 -102 -66 -172t-186 -70q-135 0 -205 104q-61 85 -61 248q0 193 83 295.5t210 102.5q77 0 132 -37.5t78 -106.5zM178 707q0 -74 46.5 -121
t117.5 -47q74 0 120 46.5t46 121.5t-46 121t-118 46q-73 0 -119.5 -46.5t-46.5 -120.5z" />
    <glyph glyph-name="uni2077" unicode="&#x2077;" horiz-adv-x="581" 
d="M451 1128h-330v-112h-80v190h508v-49l-289 -674h-90z" />
    <glyph glyph-name="uni2078" unicode="&#x2078;" horiz-adv-x="669" 
d="M334 815q-73 0 -120.5 -36t-47.5 -103q0 -66 45.5 -101.5t122.5 -35.5q78 0 124 35.5t46 101.5q0 67 -48.5 103t-121.5 36zM334 471q-116 0 -187 52.5t-71 146.5q0 69 42 116.5t113 59.5v4q-65 15 -102 60t-37 112q0 91 67 145t175 54t174.5 -54t66.5 -145
q0 -67 -36.5 -112t-102.5 -60v-4q72 -12 115 -59.5t43 -116.5q0 -94 -71 -146.5t-189 -52.5zM334 1151q-70 0 -115 -35.5t-45 -95.5q0 -62 46 -97.5t114 -35.5q69 0 115.5 35.5t46.5 97.5q0 60 -45 95.5t-117 35.5z" />
    <glyph glyph-name="uni2079" unicode="&#x2079;" horiz-adv-x="645" 
d="M63 614l72 31q37 -100 148 -100q96 0 152 84t59 239q2 6 2 50h-7q-11 -80 -65.5 -127.5t-138.5 -47.5q-103 0 -166.5 66t-63.5 168q0 103 66 173.5t186 70.5q136 0 205 -105q61 -85 61 -246q0 -195 -81 -297t-209 -102q-81 0 -139 37t-81 106zM467 983q0 73 -46.5 120.5
t-117.5 47.5q-74 0 -120 -46.5t-46 -121.5q0 -76 46 -123t118 -47q73 0 119.5 47t46.5 123z" />
    <glyph glyph-name="uni207A" unicode="&#x207a;" horiz-adv-x="901" 
d="M88 891h330v317h61v-317h334v-64h-334v-344h-61v344h-330v64z" />
    <glyph glyph-name="uni207B" unicode="&#x207b;" horiz-adv-x="903" 
d="M815 827h-727v64h727v-64z" />
    <glyph glyph-name="uni207C" unicode="&#x207c;" horiz-adv-x="903" 
d="M815 717h-727v63h727v-63zM815 950h-727v62h727v-62z" />
    <glyph glyph-name="uni207D" unicode="&#x207d;" horiz-adv-x="462" 
d="M170 838q0 -140 46 -244.5t144 -220.5h-79q-181 211 -181 465t181 465h79q-97 -113 -143.5 -219t-46.5 -246z" />
    <glyph glyph-name="uni207E" unicode="&#x207e;" horiz-adv-x="462" 
d="M293 838q0 139 -47.5 245t-145.5 220h80q180 -210 180 -465t-180 -465h-80q99 117 146 221t47 244z" />
    <glyph glyph-name="n.superior" unicode="&#x207f;" horiz-adv-x="727" 
d="M186 1217l13 -140q23 71 81 112.5t132 41.5q91 0 150 -52.5t59 -162.5v-426h-95v407q0 76 -34.5 116t-100.5 40q-76 0 -129 -53t-53 -172v-338h-94v627h71z" />
    <glyph glyph-name="uni2080" unicode="&#x2080;" horiz-adv-x="694" 
d="M348 -12q-132 0 -204 103t-72 271q0 166 74 270.5t202 104.5q127 0 201 -104.5t74 -270.5q0 -168 -72 -271t-203 -103zM348 657q-89 0 -137.5 -81.5t-48.5 -215.5q0 -131 49.5 -215t136.5 -84q86 0 136.5 84t50.5 215q0 133 -49.5 215t-137.5 82z" />
    <glyph glyph-name="uni2081" unicode="&#x2081;" horiz-adv-x="587" 
d="M565 0h-506v72h220v561l-226 -35v76l318 53v-655h194v-72z" />
    <glyph glyph-name="uni2082" unicode="&#x2082;" horiz-adv-x="593" 
d="M549 74v-74h-504v70q72 49 117.5 82.5t100.5 81.5t86.5 87.5t53 88t21.5 96.5q0 72 -39.5 111.5t-108.5 39.5q-73 0 -111 -45.5t-38 -111.5l-78 30q0 83 64.5 145t175.5 62q98 0 162.5 -57.5t64.5 -167.5q0 -59 -26 -118t-63.5 -104t-89 -88.5t-92.5 -70.5t-85 -51v-6
h389z" />
    <glyph glyph-name="uni2083" unicode="&#x2083;" horiz-adv-x="593" 
d="M322 379v-6q97 -6 150.5 -56t53.5 -133q0 -91 -69 -143.5t-178 -52.5q-110 0 -176.5 46.5t-79.5 121.5l81 28q12 -59 59 -93t116 -34q71 0 114 34.5t43 98.5q0 147 -239 150v66q217 9 217 139q0 57 -36.5 88t-98.5 31q-58 0 -97 -30t-51 -89l-80 26q16 74 76 120t156 46
t157.5 -46t61.5 -136q0 -73 -46 -121t-134 -55z" />
    <glyph glyph-name="uni2084" unicode="&#x2084;" horiz-adv-x="661" 
d="M406 0v195h-375v67l370 461h93v-459h122v-69h-122v-195h-88zM408 262v256q0 33 1.5 63.5t2.5 44.5l2 15h-6q-19 -45 -72 -113l-141 -176q-22 -27 -43 -49t-31 -31l-10 -8v-6q30 4 100 4h197z" />
    <glyph glyph-name="uni2085" unicode="&#x2085;" horiz-adv-x="608" 
d="M106 336l17 387h385v-76h-311l-13 -246q48 62 146 62q95 0 154 -58.5t59 -168.5q0 -119 -71 -183.5t-196 -64.5q-101 0 -164 48t-71 126l78 28q10 -66 53.5 -99.5t110.5 -33.5q78 0 126 43.5t48 126.5q0 78 -41.5 122t-108.5 44q-79 0 -129 -57h-72z" />
    <glyph glyph-name="uni2086" unicode="&#x2086;" horiz-adv-x="645" 
d="M575 594l-71 -33q-36 101 -146 101q-91 0 -147.5 -83.5t-60.5 -238.5v-49h6q11 80 65.5 127t138.5 47q103 0 166.5 -66.5t63.5 -169.5q0 -102 -66 -171.5t-186 -69.5q-135 0 -205 104q-61 85 -61 248q0 193 83 295t210 102q77 0 132 -37t78 -106zM178 223
q0 -74 46.5 -121t117.5 -47q74 0 120 46.5t46 121.5t-46 121.5t-118 46.5t-119 -46.5t-47 -121.5z" />
    <glyph glyph-name="uni2087" unicode="&#x2087;" horiz-adv-x="581" 
d="M451 645h-330v-113h-80v191h508v-49l-289 -674h-90z" />
    <glyph glyph-name="uni2088" unicode="&#x2088;" horiz-adv-x="669" 
d="M334 332q-73 0 -120.5 -36t-47.5 -103q0 -66 45.5 -102t122.5 -36q78 0 124 36t46 102q0 67 -48.5 103t-121.5 36zM334 -12q-116 0 -187 52.5t-71 145.5q0 69 42 116.5t113 59.5v5q-65 15 -102 60t-37 112q0 91 66.5 144.5t175.5 53.5q108 0 174.5 -53.5t66.5 -144.5
q0 -67 -36.5 -112t-102.5 -60v-5q72 -12 115 -59.5t43 -116.5q0 -94 -71 -146t-189 -52zM334 668q-70 0 -115 -35.5t-45 -95.5q0 -62 46 -98t114 -36q69 0 115.5 36t46.5 98q0 60 -45 95.5t-117 35.5z" />
    <glyph glyph-name="uni2089" unicode="&#x2089;" horiz-adv-x="645" 
d="M63 131l72 31q37 -101 148 -101q96 0 152 84.5t59 239.5q2 6 2 49h-7q-11 -80 -65.5 -127t-138.5 -47q-103 0 -166.5 66t-63.5 168q0 103 66 173t186 70q137 0 205 -104q61 -85 61 -246q0 -195 -81 -297t-209 -102q-81 0 -139 37t-81 106zM467 500q0 73 -46.5 120.5
t-117.5 47.5q-74 0 -120 -46.5t-46 -121.5q0 -76 46 -123t118 -47q73 0 119.5 47t46.5 123z" />
    <glyph glyph-name="uni208A" unicode="&#x208a;" horiz-adv-x="901" 
d="M88 408h330v319h61v-319h334v-64h-334v-344h-61v344h-330v64z" />
    <glyph glyph-name="uni208B" unicode="&#x208b;" horiz-adv-x="903" 
d="M815 344h-727v64h727v-64z" />
    <glyph glyph-name="uni208C" unicode="&#x208c;" horiz-adv-x="903" 
d="M815 233h-727v64h727v-64zM815 467h-727v61h727v-61z" />
    <glyph glyph-name="uni208D" unicode="&#x208d;" horiz-adv-x="462" 
d="M170 356q0 -142 46 -246.5t144 -220.5h-79q-85 100 -133 212t-48 255q0 252 181 463h79q-97 -113 -143.5 -219t-46.5 -244z" />
    <glyph glyph-name="uni208E" unicode="&#x208e;" horiz-adv-x="462" 
d="M293 356q0 137 -47.5 243t-145.5 220h80q180 -210 180 -463q0 -143 -47.5 -255.5t-132.5 -211.5h-80q99 117 146 221.5t47 245.5z" />
    <glyph glyph-name="uni20A1" unicode="&#x20a1;" horiz-adv-x="1007" 
d="M195 -139l71 211q-164 135 -164 417q0 245 124 380t331 135h23l59 178l70 -23l-56 -164q65 -12 123 -43l60 176l69 -22l-67 -201q55 -54 92 -137l-96 -51q-13 32 -35 69l-242 -716q105 0 174 42.5t117 135.5l82 -55q-116 -211 -381 -211h-21l-65 -195l-72 20l62 183
q-66 12 -123 41l-64 -193zM209 496q0 -201 92 -316l248 735q-163 -1 -251.5 -113t-88.5 -306zM362 125q58 -38 119 -49l260 776q-48 42 -116 57z" />
    <glyph glyph-name="uni20A2" unicode="&#x20a2;" horiz-adv-x="1024" 
d="M854 248l82 -55q-116 -211 -381 -211q-202 0 -324 130t-122 377q0 246 123.5 380.5t330.5 134.5q140 0 231 -58t142 -178l-96 -51q-75 198 -279 198q-166 0 -256 -112t-90 -307q0 -180 74 -290t211 -132v446h82l10 -158q14 78 62.5 120.5t113.5 47.5q34 3 66 -8l-9 -106
q-25 14 -63 14q-76 0 -122 -56t-46 -167v-137q91 6 153.5 49t106.5 129z" />
    <glyph glyph-name="franc" unicode="&#x20a3;" horiz-adv-x="866" 
d="M707 340h-371v-340h-107v340h-168v74h168v131h-168v73h168v367h596v-90h-489v-277h371v-73h-371v-131h371v-74z" />
    <glyph glyph-name="lira" unicode="&#x20a4;" horiz-adv-x="1009" 
d="M670 319h-269q7 -28 7 -49q0 -69 -28.5 -115.5t-76.5 -64.5h381q73 0 117.5 24.5t58.5 88.5l86 -41q-42 -162 -250 -162h-575v94h59q56 0 91.5 46.5t35.5 121.5q0 21 -8 57h-207v76h184q-6 13 -25.5 57.5t-29.5 71.5h-129v76h113q-8 36 -8 92q0 81 28.5 143t77.5 98
t109 53.5t129 17.5q281 0 323 -267l-98 -16q-19 100 -75 148.5t-159 48.5q-106 0 -168.5 -56.5t-62.5 -169.5q0 -48 12 -92h357v-76h-336l51 -129h285v-76z" />
    <glyph glyph-name="uni20A6" unicode="&#x20a6;" horiz-adv-x="1288" 
d="M1217 350h-164v-350h-115l-471 647q-35 47 -67.5 97.5t-47.5 77.5l-16 26h-6q6 -121 6 -246v-602h-105v350h-157v76h157v119h-157v73h157v367h119l475 -659q34 -48 64.5 -96.5t44.5 -72.5l14 -24h6q-6 123 -6 250v602h105v-367h164v-73h-164v-119h164v-76z" />
    <glyph glyph-name="peseta" unicode="&#x20a7;" horiz-adv-x="2209" 
d="M281 0h-107v985h293q321 0 367 -223h575q10 123 101.5 182.5t226.5 59.5q146 0 229.5 -61.5t101.5 -197.5l-106 -14q-24 191 -236 191q-99 0 -159 -46t-60 -133q0 -72 42 -114t130 -64l131 -30q125 -31 196 -97.5t71 -185.5q0 -136 -95.5 -203t-259.5 -67
q-152 0 -243 66.5t-111 195.5l105 16q15 -98 82 -148.5t176 -50.5q111 0 177 47t66 138q0 80 -46 124t-144 68l-139 35q-204 49 -234 197h-240v-670h-106v670h-217q-3 -170 -98.5 -247t-282.5 -77h-186v-346zM281 897v-463h178q146 0 213 54.5t67 183.5q0 116 -66.5 170.5
t-211.5 54.5h-180z" />
    <glyph glyph-name="uni20A8" unicode="&#x20a8;" horiz-adv-x="1622" 
d="M281 897v-391h219q125 0 183 47t58 145q0 199 -243 199h-217zM514 985q340 0 340 -280q0 -115 -68.5 -177.5t-177.5 -68.5v-4q25 -5 50 -19t39.5 -26.5t43 -40t41.5 -39.5l154 -154q61 -58 132.5 -84t168.5 -26q81 0 131.5 28.5t50.5 91.5q0 54 -33 85t-108 48l-94 23
q-185 42 -185 203q0 70 38 117.5t93 66.5t123 19q229 0 254 -197l-100 -10q-11 66 -48.5 96.5t-115.5 30.5q-145 0 -145 -117q0 -51 29.5 -78.5t97.5 -42.5l86 -18q105 -27 155 -79.5t50 -144.5q0 -103 -77.5 -154.5t-215.5 -51.5q-139 0 -229 39t-175 124l-153 156
q-4 4 -20.5 21t-21 21t-19 17.5t-21 17.5t-20 13.5t-23.5 12.5t-23.5 8t-28 6.5t-30.5 1.5h-178v-420h-105v985h338z" />
    <glyph glyph-name="uni20A9" unicode="&#x20a9;" horiz-adv-x="1605" 
d="M1534 383h-246l-110 -383h-134l-184 627q-20 68 -33 133t-17 96l-3 31h-6q-11 -104 -56 -260l-182 -627h-137l-109 383h-243v72h223l-35 120h-188v74h168l-95 336h107l188 -661q20 -69 34 -132.5t18 -92.5l4 -29h6q14 96 59 252l189 663h110l189 -663q20 -68 34.5 -132
t19.5 -92l5 -28h4q12 93 55 247l191 668h102l-98 -336h170v-74h-191l-36 -120h227v-72z" />
    <glyph glyph-name="uni20AA" unicode="&#x20aa;" horiz-adv-x="1286" 
d="M846 244h-107v456q0 97 -42 147t-152 50h-281v-897h-106v985h403q87 0 144.5 -20.5t87.5 -63t41.5 -93.5t11.5 -126v-438zM1034 985h107v-682q0 -75 -11.5 -126.5t-41.5 -93.5t-87.5 -62.5t-144.5 -20.5h-407v727h106v-639h285q110 0 152 50t42 147v700z" />
    <glyph glyph-name="Euro" unicode="&#x20ac;" horiz-adv-x="1105" 
d="M682 340h-340q31 -129 114.5 -199.5t211.5 -70.5q103 0 170.5 42.5t115.5 135.5l78 -55q-111 -211 -373 -211q-165 0 -277 91t-146 267h-166v76h155q-4 28 -4 76q0 27 4 81h-155v76h168q36 171 149 263t281 92q137 0 225.5 -58t138.5 -178l-92 -51q-75 198 -274 198
q-129 0 -211.5 -69.5t-112.5 -196.5h408l-17 -76h-405q-2 -25 -2 -77q0 -55 4 -80h368z" />
    <glyph glyph-name="uni20AE" unicode="&#x20ae;" horiz-adv-x="890" 
d="M498 0h-107v346l-254 -43v72l254 43v123l-254 -43v73l254 43v281h-350v90h809v-90h-352v-264l247 43v-74l-247 -41v-123l247 41v-71l-247 -44v-362z" />
    <glyph glyph-name="uni20B1" unicode="&#x20b1;" horiz-adv-x="1116" 
d="M1067 621h-168q-15 -143 -110 -209t-267 -66h-188v-346h-107v621h-166v73h166v291h295q367 0 379 -291h166v-73zM334 897v-203h459q-6 104 -73.5 153.5t-205.5 49.5h-180zM512 434q131 0 197.5 43t78.5 144h-454v-187h178z" />
    <glyph glyph-name="afii61289" unicode="&#x2113;" horiz-adv-x="649" 
d="M78 309l-43 68l137 102v522q0 369 236 369q192 0 192 -274q0 -376 -332 -656v-207q0 -89 37 -127t111 -38q78 0 143 36v-90q-66 -32 -156 -32q-111 0 -171 57.5t-60 177.5v166zM268 1020v-475q254 226 254 561q0 186 -114 186q-67 0 -103.5 -72t-36.5 -200z" />
    <glyph glyph-name="afii61352" unicode="&#x2116;" horiz-adv-x="1986" 
d="M1313 0v86h545v-86h-545zM287 809v-592q0 -116 -46 -173t-151 -81l-35 96q73 15 99 51.5t26 125.5v970h117l573 -839q33 -47 66.5 -101.5t50.5 -85.5l17 -30h8q-8 112 -8 247v576q0 117 45.5 174.5t150.5 81.5l35 -96q-72 -15 -98.5 -52t-26.5 -125v-956h-115l-577 840
q-33 47 -66 101.5t-50 84.5l-17 31h-6q8 -113 8 -248zM1583 293q-129 0 -202.5 85t-73.5 243q0 159 73 242t203 83t204.5 -83.5t74.5 -241.5q0 -157 -74.5 -242.5t-204.5 -85.5zM1581 864q-176 0 -176 -243q0 -250 176 -250t176 250q0 243 -176 243z" />
    <glyph glyph-name="published" unicode="&#x2117;" horiz-adv-x="1445" 
d="M780 528h-180v-290h-92v751h270q123 0 191.5 -58t68.5 -171q0 -112 -70 -172t-188 -60zM600 911v-303h164q182 0 182 152q0 73 -47 112t-135 39h-164zM100 602q0 177 84 320.5t226 223t313 79.5q170 0 312.5 -79.5t226.5 -223t84 -320.5q0 -133 -49.5 -249t-133.5 -197
t-198.5 -127.5t-241.5 -46.5q-171 0 -313 78.5t-226 221.5t-84 320zM154 602q0 -163 77 -295t206.5 -204t285.5 -72q157 0 287 72.5t207 204t77 294.5t-77 295.5t-207.5 205.5t-286.5 73q-155 0 -285 -73t-207 -205.5t-77 -295.5z" />
    <glyph glyph-name="servicemark" unicode="&#x2120;" horiz-adv-x="1216" 
d="M74 821l76 15q16 -88 122 -88q109 0 109 79q0 70 -90 91l-64 14q-133 31 -133 141q0 74 51.5 110t126.5 36q166 0 183 -134l-74 -12q-7 48 -34 67t-77 19q-45 0 -72.5 -19.5t-27.5 -58.5q0 -33 19.5 -53.5t64.5 -32.5l63 -14q66 -14 104 -52t38 -100q0 -70 -52 -104.5
t-139 -34.5q-171 0 -194 131zM1077 700h-73v390h-9l-137 -289h-63l-140 291h-8v-392h-74v508h99l153 -315h6l150 315h96v-508z" />
    <glyph glyph-name="trademark" unicode="&#x2122;" horiz-adv-x="1206" 
d="M283 698h-76v443h-166v65h408v-65h-166v-443zM1065 698h-74v392h-6l-137 -289h-64l-141 289h-6v-392h-76v508h101l151 -315h6l152 315h94v-508z" />
    <glyph glyph-name="ohm" unicode="&#x2126;" horiz-adv-x="1277" 
d="M639 1133q-192 0 -297.5 -133t-105.5 -375q0 -192 86 -331t219 -196v-98h-410v98h260q-98 47 -183 197t-85 338q0 280 136.5 436t379.5 156t379.5 -156t136.5 -436q0 -188 -85 -338t-183 -197h260v-98h-410v98q133 57 219 196t86 331q0 242 -105.5 375t-297.5 133z" />
    <glyph glyph-name="estimated" unicode="&#x212e;" horiz-adv-x="1325" 
d="M662 1229q117 0 213 -35t161.5 -94.5t110.5 -140t65.5 -170.5t20.5 -187v-53h-883v-344q122 -119 312 -119q263 0 376 211h136q-62 -147 -191 -233.5t-321 -86.5q-116 0 -211.5 35t-161 94.5t-111 139.5t-66 169.5t-20.5 186.5t20.5 187t66 170.5t111 140t161 94.5
t211.5 35zM662 1120q-193 0 -312 -119v-346h623v346q-119 119 -311 119z" />
    <glyph glyph-name="uni2153" unicode="&#x2153;" horiz-adv-x="1624" 
d="M588 483h-504v72h219v561l-225 -35v76l315 53v-655h195v-72zM465 0l663 1208h84l-663 -1208h-84zM1311 379v-6q97 -6 151 -56t54 -133q0 -91 -70 -143.5t-178 -52.5q-110 0 -177 46.5t-79 121.5l82 28q12 -59 58.5 -93t115.5 -34q71 0 114 34.5t43 98.5q0 147 -241 150
v66q219 9 219 139q0 57 -37.5 88t-97.5 31q-124 0 -148 -119l-80 26q16 74 76 120t156 46t157.5 -46t61.5 -136q0 -73 -46 -121t-134 -55z" />
    <glyph glyph-name="uni2154" unicode="&#x2154;" horiz-adv-x="1622" 
d="M586 557v-74h-506v70q72 49 118.5 83t101.5 81t86.5 87t53 88.5t21.5 96.5q0 72 -40.5 112t-107.5 40q-73 0 -111 -46t-40 -112l-76 31q0 83 64.5 145t175.5 62q97 0 162 -58t65 -168q0 -59 -26 -118t-63.5 -104t-89.5 -88.5t-92.5 -70t-84.5 -51.5v-6h389zM463 0
l663 1208h84l-661 -1208h-86zM1309 379v-6q97 -6 150.5 -56t53.5 -133q0 -91 -69 -143.5t-178 -52.5q-110 0 -176.5 46.5t-79.5 121.5l82 28q12 -59 58.5 -93t115.5 -34q71 0 114 34.5t43 98.5q0 147 -241 150v66q219 9 219 139q0 57 -37.5 88t-97.5 31q-58 0 -97 -30
t-51 -89l-80 26q16 74 76 120t156 46t157.5 -46t61.5 -136q0 -73 -46 -121t-134 -55z" />
    <glyph glyph-name="uni215B" unicode="&#x215b;" horiz-adv-x="1648" 
d="M588 483h-504v72h219v561l-225 -35v76l315 53v-655h195v-72zM465 0l663 1208h84l-663 -1208h-84zM1315 332q-73 0 -121.5 -36t-48.5 -103q0 -66 46 -102t124 -36q77 0 122.5 36t45.5 102q0 67 -47.5 103t-120.5 36zM1315 -12q-118 0 -189 52t-71 146q0 69 42.5 116.5
t114.5 59.5v5q-66 15 -102.5 60t-36.5 112q0 91 66.5 144.5t175.5 53.5q108 0 174.5 -53.5t66.5 -144.5q0 -67 -37 -112t-102 -60v-5q71 -12 113.5 -59.5t42.5 -116.5q0 -93 -71 -145.5t-187 -52.5zM1315 668q-72 0 -116 -35t-44 -96q0 -62 46 -98t114 -36t114 36t46 98
q0 61 -44 96t-116 35z" />
    <glyph glyph-name="uni215C" unicode="&#x215c;" horiz-adv-x="1605" 
d="M356 862v-6q97 -6 152 -55.5t55 -132.5q0 -91 -70 -144t-178 -53q-111 0 -177 46.5t-79 121.5l80 29q12 -58 59.5 -92.5t116.5 -34.5q71 0 113.5 34.5t42.5 98.5q0 72 -57 110t-183 39v66q218 9 218 139q0 57 -37 88t-99 31q-121 0 -145 -119l-80 27q16 74 75.5 120
t155.5 46q95 0 157.5 -46.5t62.5 -136.5q0 -73 -47 -121t-136 -55zM422 0l663 1208h82l-661 -1208h-84zM1270 332q-73 0 -120.5 -36t-47.5 -103q0 -66 45.5 -102t122.5 -36q78 0 123 36t45 102q0 67 -47.5 103t-120.5 36zM1270 -12q-116 0 -187 52.5t-71 145.5
q0 69 42 116.5t113 59.5v5q-65 15 -102 60t-37 112q0 91 66.5 144.5t175.5 53.5q108 0 174.5 -53.5t66.5 -144.5q0 -67 -37 -112t-102 -60v-5q72 -12 115 -59.5t43 -116.5q0 -94 -71 -146t-189 -52zM1270 668q-72 0 -116 -35t-44 -96q0 -62 46 -98t114 -36t114 36t46 98
q0 61 -44 96t-116 35z" />
    <glyph glyph-name="uni215D" unicode="&#x215d;" horiz-adv-x="1607" 
d="M133 819l17 387h385v-76h-312l-12 -245q47 61 145 61q96 0 154.5 -58.5t58.5 -168.5q0 -119 -71 -183.5t-195 -64.5q-101 0 -164 48t-71 126l77 29q10 -66 54 -99.5t112 -33.5q77 0 124.5 43.5t47.5 126.5q0 78 -41 122t-108 44q-78 0 -129 -58h-72zM424 0l663 1208h84
l-661 -1208h-86zM1274 332q-73 0 -120.5 -36t-47.5 -103q0 -66 45.5 -102t122.5 -36t122.5 36t45.5 102q0 67 -47.5 103t-120.5 36zM1274 -12q-118 0 -189 52t-71 146q0 69 43 116.5t114 59.5v5q-65 15 -102 60t-37 112q0 91 66.5 144.5t175.5 53.5t175.5 -53.5t66.5 -144.5
q0 -67 -37.5 -112t-102.5 -60v-5q71 -12 113.5 -59.5t42.5 -116.5q0 -93 -71 -145.5t-187 -52.5zM1274 668q-72 0 -116 -35t-44 -96q0 -62 46 -98t114 -36t114 36t46 98q0 61 -44 96t-116 35z" />
    <glyph glyph-name="uni215E" unicode="&#x215e;" horiz-adv-x="1484" 
d="M477 1128h-330v-112h-79v190h507v-49l-288 -674h-88zM301 0l664 1208h84l-664 -1208h-84zM1149 332q-73 0 -120.5 -36t-47.5 -103q0 -66 45.5 -102t122.5 -36q78 0 124 36t46 102q0 67 -48.5 103t-121.5 36zM1149 -12q-116 0 -187 52.5t-71 145.5q0 69 42.5 116.5
t113.5 59.5v5q-65 15 -102.5 60t-37.5 112q0 91 66.5 144.5t175.5 53.5t175.5 -53.5t66.5 -144.5q0 -67 -37 -112t-103 -60v-5q72 -12 115 -59.5t43 -116.5q0 -94 -71 -146t-189 -52zM1149 668q-70 0 -115 -35.5t-45 -95.5q0 -62 46 -98t114 -36q69 0 115.5 36t46.5 98
q0 60 -45 95.5t-117 35.5z" />
    <glyph glyph-name="arrowleft" unicode="&#x2190;" horiz-adv-x="1372" 
d="M227 651h1043v-98h-1045l490 -508l-74 -68l-596 623l596 625l76 -66z" />
    <glyph glyph-name="arrowup" unicode="&#x2191;" horiz-adv-x="1413" 
d="M758 1047v-1047h-101v1049l-507 -490l-68 74l623 596l624 -596l-65 -76z" />
    <glyph glyph-name="arrowright" unicode="&#x2192;" horiz-adv-x="1372" 
d="M72 651h1042l-485 508l76 66l591 -625l-589 -623l-74 68l485 508h-1046v98z" />
    <glyph glyph-name="arrowdown" unicode="&#x2193;" horiz-adv-x="1421" 
d="M655 160v1046h101v-1048l508 491l65 -74l-620 -598l-627 598l68 74z" />
    <glyph glyph-name="uni2196" unicode="&#x2196;" horiz-adv-x="1417" 
d="M1305 0l-1035 1040v-817h-96v983h956v-94h-792l1038 -1040z" />
    <glyph glyph-name="uni2197" unicode="&#x2197;" horiz-adv-x="1417" 
d="M1079 1112h-794v94h956v-983h-94v817l-1034 -1040l-72 72z" />
    <glyph glyph-name="uni2198" unicode="&#x2198;" horiz-adv-x="1417" 
d="M113 1206l1034 -1038v815h94v-983h-956v94h794l-1038 1041z" />
    <glyph glyph-name="uni2199" unicode="&#x2199;" horiz-adv-x="1417" 
d="M270 168l1035 1038l71 -71l-1038 -1041h792v-94h-956v983h96v-815z" />
    <glyph glyph-name="partialdiff" unicode="&#x2202;" horiz-adv-x="1009" 
d="M283 1309l59 65q263 -106 416 -343t153 -521q0 -261 -107 -392.5t-300 -131.5q-190 0 -297 127t-107 362q0 233 104 358t283 125q90 0 160.5 -36.5t108.5 -96.5h4q-131 324 -477 484zM805 475q0 192 -78.5 292.5t-226.5 100.5q-145 0 -221 -100.5t-76 -292.5
q0 -193 77 -296t224 -103q148 0 224.5 103t76.5 296z" />
    <glyph glyph-name="increment" unicode="&#x2206;" horiz-adv-x="1089" 
d="M1053 0h-1014l434 1206h145zM903 92l-262 748q-27 76 -50.5 148t-33.5 106l-10 34h-8q-34 -116 -93 -286l-262 -750h719z" />
    <glyph glyph-name="product" unicode="&#x220f;" horiz-adv-x="1216" 
d="M279 -414h-107v1620h872v-1620h-106v1520h-659v-1520z" />
    <glyph glyph-name="summation" unicode="&#x2211;" horiz-adv-x="886" 
d="M805 1112h-393l-191 4v-6q57 -53 135 -143l310 -363l-320 -364q-35 -40 -68 -76t-49 -52l-16 -16v-6q59 4 188 4h404v-94h-787l512 604l-512 602h787v-94z" />
    <glyph glyph-name="minus" unicode="&#x2212;" horiz-adv-x="1038" 
d="M100 473v70h836v-70h-836z" />
    <glyph glyph-name="radical" unicode="&#x221a;" horiz-adv-x="1161" 
d="M365 934l286 -813h6l385 1284l99 -12l-422 -1393h-119l-293 784l-215 -120l-43 84z" />
    <glyph glyph-name="infinity" unicode="&#x221e;" horiz-adv-x="1777" 
d="M209 516q0 -126 70 -197t176 -71q140 0 254 123l125 147l-125 146q-108 122 -254 122q-106 0 -176 -71t-70 -199zM889 455l-117 -136q-129 -157 -315 -157q-154 0 -250 96.5t-96 257.5q0 162 96 259t250 97q183 0 315 -155l117 -137l117 137q132 155 315 155
q154 0 250 -97t96 -259q0 -161 -96 -257.5t-250 -96.5q-186 0 -315 157zM1569 516q0 128 -70 199t-176 71q-147 0 -252 -122l-127 -146l127 -147q106 -123 252 -123q106 0 176 71t70 197z" />
    <glyph glyph-name="integral" unicode="&#x222b;" horiz-adv-x="538" 
d="M211 -127v1214q0 74 21 129.5t58.5 88.5t84.5 49t102 16q97 0 170 -45l-26 -96q-71 51 -146 51q-74 0 -117 -49t-43 -150v-1214q0 -144 -75 -214.5t-191 -70.5q-92 0 -170 45l27 97q74 -52 145 -52q74 0 117 49.5t43 151.5z" />
    <glyph glyph-name="approxequal" unicode="&#x2248;" horiz-adv-x="1038" 
d="M748 541q-80 0 -231 51t-226 51q-112 0 -191 -98v80q33 46 84 69t103 23q76 0 232 -52.5t233 -52.5q46 0 95.5 27t88.5 76v-90q-72 -84 -188 -84zM748 295q-80 0 -231 53t-226 53q-111 0 -191 -102v84q33 45 84.5 67.5t102.5 22.5q76 0 232 -52t233 -52q47 0 96 26t88 76
v-92q-75 -84 -188 -84z" />
    <glyph glyph-name="notequal" unicode="&#x2260;" horiz-adv-x="1038" 
d="M936 596h-281l-159 -190h440v-70h-500l-203 -244l-53 47l164 197h-244v70h303l160 190h-463v72h521l192 229l55 -47l-153 -182h221v-72z" />
    <glyph glyph-name="lessequal" unicode="&#x2264;" horiz-adv-x="829" 
d="M680 942l-453 -350l453 -352l-49 -58l-525 410l525 407zM727 43h-627v70h627v-70z" />
    <glyph glyph-name="greaterequal" unicode="&#x2265;" horiz-adv-x="829" 
d="M602 592l-452 350l49 57l524 -407l-524 -410l-49 58zM727 43h-627v70h627v-70z" />
    <glyph glyph-name="blacksquare" unicode="&#x25a0;" horiz-adv-x="1572" 
d="M182 0v1206h1207v-1206h-1207z" />
    <glyph glyph-name="whitesquare" unicode="&#x25a1;" horiz-adv-x="1572" 
d="M182 0v1206h1207v-1206h-1207zM270 1118v-1030h1030v1030h-1030z" />
    <glyph glyph-name="blacksmallsquare" unicode="&#x25aa;" horiz-adv-x="1034" 
d="M182 285v665h668v-665h-668z" />
    <glyph glyph-name="whitesmallsquare" unicode="&#x25ab;" horiz-adv-x="1034" 
d="M182 285v665h668v-665h-668zM270 862v-489h492v489h-492z" />
    <glyph glyph-name="triagup" unicode="&#x25b2;" horiz-adv-x="1187" 
d="M90 0l502 1231l504 -1231h-1006z" />
    <glyph glyph-name="triagrt" unicode="&#x25ba;" horiz-adv-x="1423" 
d="M174 1098l1231 -502l-1231 -504v1006z" />
    <glyph glyph-name="triagdn" unicode="&#x25bc;" horiz-adv-x="1187" 
d="M592 -25l-502 1231h1006z" />
    <glyph glyph-name="triaglf" unicode="&#x25c4;" horiz-adv-x="1423" 
d="M8 596l1231 502v-1006z" />
    <glyph glyph-name="lozenge" unicode="&#x25ca;" horiz-adv-x="999" 
d="M897 623l-360 -682h-76l-359 682l359 669h76zM793 621l-291 557l-293 -557l293 -568z" />
    <glyph glyph-name="circle" unicode="&#x25cb;" horiz-adv-x="1089" 
d="M100 604q0 185 129.5 315t313.5 130t314 -130t130 -315q0 -184 -129.5 -313t-314.5 -129t-314 129t-129 313zM193 602q0 -148 103 -252t249 -104t250 104t104 252q0 149 -104 255t-250 106t-249 -106t-103 -255z" />
    <glyph glyph-name="blackcircle" unicode="&#x25cf;" horiz-adv-x="1458" 
d="M100 602q0 170 84 315t228.5 229.5t314.5 84.5t315 -84.5t229.5 -229.5t84.5 -315t-84.5 -314.5t-229.5 -228.5t-315 -84t-314.5 84t-228.5 228.5t-84 314.5z" />
    <glyph glyph-name="whitecircle" unicode="&#x25ef;" horiz-adv-x="1458" 
d="M100 602q0 170 84 315t228.5 229.5t314.5 84.5t315 -84.5t229.5 -229.5t84.5 -315t-84.5 -314.5t-229.5 -228.5t-315 -84t-314.5 84t-228.5 228.5t-84 314.5zM190 600q0 -147 71.5 -272t195.5 -198t270 -73q145 0 269 73t196 198t72 272q0 148 -72 274t-196 199.5
t-269 73.5q-109 0 -208.5 -43.5t-171.5 -117t-114.5 -174.5t-42.5 -212z" />
    <glyph glyph-name="anglebracketleft" unicode="&#x3008;" horiz-adv-x="651" 
d="M559 -416h-96l-342 897l342 887h96l-332 -889z" />
    <glyph glyph-name="anglebracketright" unicode="&#x3009;" horiz-adv-x="651" 
d="M188 -416h-96l334 895l-334 889h96l342 -887z" />
    <glyph glyph-name="lcedilla" unicode="&#xe100;" horiz-adv-x="460" 
d="M467 -258q0 -80 -53.5 -121t-137.5 -41q-115 0 -180 82l39 68q58 -80 141 -80q101 0 101 92q0 48 -41.5 75.5t-122.5 30.5l20 156q-90 39 -90 164v1200h105v-1186q0 -102 88 -102q30 0 63 10v-90q-44 -10 -82 -10q-20 0 -24 2l-12 -86q88 -8 137 -50.5t49 -113.5z" />
    <glyph glyph-name="uni004500600323" unicode="&#xe101;" horiz-adv-x="970" 
d="M864 94v-94h-686v1206h686v-94h-577v-461h514v-94h-514v-463h577zM442 -285q0 34 22 57t54 23q34 0 57 -23t23 -57q0 -32 -23 -54.5t-57 -22.5q-32 0 -54 22.5t-22 54.5zM561 1315h-92l131 248h143z" />
    <glyph glyph-name="uni006500600323" unicode="&#xe102;" horiz-adv-x="937" 
d="M502 66q102 0 163 44.5t87 141.5l92 -21q-48 -249 -350 -249q-187 0 -293.5 125.5t-106.5 363.5q0 233 108.5 363.5t297.5 130.5q167 0 256.5 -104t89.5 -273q0 -59 -12 -121h-639q0 -190 81 -295.5t226 -105.5zM199 553h542q2 18 2 55q0 119 -65.5 195t-183.5 76
q-130 0 -205.5 -85t-89.5 -241zM535 1092h-86l145 278h143zM424 -285q0 34 22 57t54 23q34 0 56 -23t22 -57q0 -33 -22 -55t-56 -22q-32 0 -54 22.5t-22 54.5z" />
    <glyph glyph-name="uni004500B40323" unicode="&#xe103;" horiz-adv-x="970" 
d="M864 94v-94h-686v1206h686v-94h-577v-461h514v-94h-514v-463h577zM442 -285q0 34 22 57t54 23q34 0 57 -23t23 -57q0 -32 -23 -54.5t-57 -22.5q-32 0 -54 22.5t-22 54.5zM571 1315h-92l-182 248h143z" />
    <glyph glyph-name="uni006500B40323" unicode="&#xe104;" horiz-adv-x="937" 
d="M502 66q102 0 163 44.5t87 141.5l92 -21q-48 -249 -350 -249q-187 0 -293.5 125.5t-106.5 363.5q0 233 108.5 363.5t297.5 130.5q167 0 256.5 -104t89.5 -273q0 -59 -12 -121h-639q0 -190 81 -295.5t226 -105.5zM199 553h542q2 18 2 55q0 119 -65.5 195t-183.5 76
q-130 0 -205.5 -85t-89.5 -241zM553 1092h-86l-203 278h146zM424 -285q0 34 22 57t54 23q34 0 56 -23t22 -57q0 -33 -22 -55t-56 -22q-32 0 -54 22.5t-22 54.5z" />
    <glyph glyph-name="Gtilde" unicode="&#xe105;" horiz-adv-x="1216" 
d="M645 590h434v-590h-94l-14 207q-32 -104 -129 -164.5t-221 -60.5q-240 0 -381.5 161.5t-141.5 456.5q0 296 148 460.5t393 164.5q163 0 269 -70.5t161 -216.5l-96 -47q-43 119 -129.5 180.5t-210.5 61.5q-200 0 -311 -142t-111 -391q0 -244 107.5 -385t306.5 -141
q69 0 129 18t109.5 55.5t78.5 102t29 149.5v93h-326v98zM784 1325q-11 0 -22.5 1.5t-19.5 3t-19.5 7t-16.5 7t-18.5 9.5t-16 10t-17.5 12t-17 11q-4 3 -17.5 12.5t-17.5 12t-15 9.5t-16 9.5t-14 6.5t-15.5 5.5t-15 3t-16.5 1.5q-42 0 -61 -29.5t-7 -91.5h-67
q-33 88 4.5 151.5t120.5 63.5q33 0 63 -9.5t47.5 -20.5t48.5 -33q34 -24 46.5 -32.5t32.5 -17t40 -8.5q87 0 68 125h72q31 -94 -7.5 -156.5t-126.5 -62.5z" />
    <glyph glyph-name="gtilde" unicode="&#xe106;" horiz-adv-x="942" 
d="M455 965q177 0 274 -105q75 41 84 168l94 -31q-14 -144 -137 -190q41 -71 41 -172q0 -152 -99 -238t-255 -86q-77 0 -138 21q-79 -37 -79 -111q0 -98 137 -98h215q145 0 228 -62t83 -190q0 -69 -28.5 -122.5t-74 -87t-109 -55t-128 -30t-135.5 -8.5q-82 0 -150.5 13
t-127 41.5t-92 81.5t-33.5 126q0 104 69.5 168t181.5 70q-61 4 -95 41.5t-34 95.5q0 109 119 147q-78 39 -122 112t-44 171q0 153 97 241.5t258 88.5zM125 -162q0 -67 42.5 -110.5t110 -61.5t158.5 -18q76 0 139 11t116 34.5t82.5 66t29.5 101.5q0 80 -53.5 124t-159.5 44
h-201q-123 0 -193.5 -47t-70.5 -144zM203 637q0 -113 67.5 -179.5t184.5 -66.5q116 0 184 64.5t68 181.5t-68 181.5t-184 64.5q-118 -2 -185 -66.5t-67 -179.5zM608 1104q-28 0 -55.5 9.5t-44 19.5t-45.5 30q-4 3 -17.5 12.5t-17.5 12t-15 9.5t-16 9.5t-14 6.5t-15.5 5.5
t-15 3t-16.5 1.5q-42 0 -61.5 -29.5t-8.5 -91.5h-67q-33 89 5.5 151t121.5 62q32 0 62.5 -10.5t47 -21t49.5 -34.5q4 -3 14.5 -10l13.5 -9t11.5 -8t12 -7.5t11 -6t11 -5.5t10 -3.5t11.5 -3.5t11.5 -1.5t12.5 -0.5q85 0 68 125h69q32 -95 -5.5 -155t-127.5 -60z" />
    <glyph glyph-name="Gcommaturnedabove" unicode="&#xe107;" horiz-adv-x="1216" 
d="M645 590h434v-590h-94l-14 207q-32 -104 -129 -164.5t-221 -60.5q-240 0 -381.5 161.5t-141.5 456.5q0 296 148 460.5t393 164.5q163 0 269 -70.5t161 -216.5l-96 -47q-43 119 -129.5 180.5t-210.5 61.5q-200 0 -311 -142t-111 -391q0 -244 107.5 -385t306.5 -141
q69 0 129 18t109.5 55.5t78.5 102t29 149.5v93h-326v98zM530 1460q0 178 195 178v-53q-58 -2 -87 -23.5t-30 -72.5q0 -11 4 -19q11 11 27 11q30 0 48 -19.5t18 -48.5q0 -34 -21.5 -54t-56.5 -20q-39 0 -68 32.5t-29 88.5z" />
    <glyph glyph-name="gcommaturnedabove" unicode="&#xe108;" horiz-adv-x="942" 
d="M455 965q177 0 274 -105q75 41 84 168l94 -31q-14 -144 -137 -190q41 -71 41 -172q0 -152 -99 -238t-255 -86q-77 0 -138 21q-79 -37 -79 -111q0 -98 137 -98h215q145 0 228 -62t83 -190q0 -69 -28.5 -122.5t-74 -87t-109 -55t-128 -30t-135.5 -8.5q-82 0 -150.5 13
t-127 41.5t-92 81.5t-33.5 126q0 104 69.5 168t181.5 70q-61 4 -95 41.5t-34 95.5q0 109 119 147q-78 39 -122 112t-44 171q0 153 97 241.5t258 88.5zM125 -162q0 -67 42.5 -110.5t110 -61.5t158.5 -18q76 0 139 11t116 34.5t82.5 66t29.5 101.5q0 80 -53.5 124t-159.5 44
h-201q-123 0 -193.5 -47t-70.5 -144zM203 637q0 -113 67.5 -179.5t184.5 -66.5q116 0 184 64.5t68 181.5t-68 181.5t-184 64.5q-118 -2 -185 -66.5t-67 -179.5zM356 1235q0 178 195 178v-53q-58 -2 -87 -23t-30 -73q0 -13 2 -17q16 8 29 8q30 0 47.5 -18.5t17.5 -48.5
q0 -34 -21 -54t-56 -20q-39 0 -68 32.5t-29 88.5z" />
    <glyph glyph-name="Hmacronbelow" unicode="&#xe109;" horiz-adv-x="1269" 
d="M287 0h-109v1206h109v-549h696v549h107v-1206h-107v561h-696v-561zM881 -344h-492v84h492v-84z" />
    <glyph glyph-name="hmacronbelow" unicode="&#xe10a;" horiz-adv-x="1003" 
d="M260 1368v-637q30 107 109.5 170.5t195.5 63.5q132 0 211.5 -74t79.5 -225v-666h-104v639q0 112 -54.5 172.5t-154.5 60.5q-122 0 -202.5 -85t-80.5 -250v-537h-104v1368h104zM752 -344h-492v84h492v-84z" />
    <glyph glyph-name="Jcaron" unicode="&#xe10b;" horiz-adv-x="872" 
d="M627 1206h106v-854q0 -81 -18.5 -145t-50.5 -106t-77.5 -69t-96 -38.5t-109.5 -11.5q-265 0 -363 241l88 56q44 -108 110.5 -156.5t168.5 -48.5q124 0 183 74t59 231v827zM713 1309h-64l-235 258h118l86 -99q18 -21 33 -40t21 -28l6 -9h4q18 30 59 77l88 99h117z" />
    <glyph glyph-name="Kcedilla" unicode="&#xe10d;" horiz-adv-x="1024" 
d="M993 0h-135l-469 561h-102v-561h-109v1206h109v-549h106l441 549h129l-482 -592zM684 -258q0 -80 -52.5 -121t-135.5 -41q-116 0 -181 82l37 68q58 -80 144 -80q98 0 98 92q0 48 -41.5 75.5t-122.5 30.5l23 162h61l-16 -104q88 -8 137 -50.5t49 -113.5z" />
    <glyph glyph-name="kcedilla" unicode="&#xe10e;" horiz-adv-x="878" 
d="M424 504l440 -504h-133l-389 453h-82v-453h-104v1368h104v-829h74l362 407h129zM637 -258q0 -80 -52.5 -121t-135.5 -41q-116 0 -181 82l39 68q55 -80 142 -80q100 0 100 92q0 48 -42.5 75.5t-123.5 30.5l23 162h61l-14 -104q87 -8 135.5 -50.5t48.5 -113.5z" />
    <glyph glyph-name="Lcedilla" unicode="&#xe10f;" horiz-adv-x="892" 
d="M698 -258q0 -80 -53 -121t-137 -41q-115 0 -180 82l39 68q58 -80 141 -80q100 0 100 92q0 48 -41.5 75.5t-122.5 30.5l19 152h-285v1206h109v-1112h561v-94h-324l-12 -94q88 -8 137 -50.5t49 -113.5z" />
    <glyph glyph-name="ocedilla" unicode="&#xe110;" 
d="M694 -258q0 -80 -52.5 -121t-135.5 -41q-115 0 -180 82l39 68q55 -80 141 -80q98 0 98 92q0 48 -41.5 75.5t-122.5 30.5l19 134q-172 14 -268.5 141.5t-96.5 353.5q0 236 107.5 362t296.5 126q191 0 298 -126t107 -362q0 -232 -101 -359.5t-282 -135.5l-10 -76
q87 -8 135.5 -50.5t48.5 -113.5zM498 877q-147 0 -224 -101t-77 -299q0 -202 77 -306.5t224 -104.5q148 0 225.5 104.5t77.5 306.5q0 198 -77 299t-226 101z" />
    <glyph glyph-name="Mmacron" unicode="&#xe111;" horiz-adv-x="1439" 
d="M948 1366h-454v84h454v-84zM762 301h-84l-297 553q-33 62 -57 115.5t-32 76.5l-7 23h-6q6 -76 6 -221v-848h-107v1206h133l353 -669q19 -36 33.5 -68.5t18.5 -46.5l5 -14h6q14 47 57 129l351 669h127v-1206h-107v848q0 64 1.5 119.5t3.5 78.5l1 23h-6q-22 -76 -96 -215z
" />
    <glyph glyph-name="mmacron" unicode="&#xe112;" horiz-adv-x="1552" 
d="M819 729q30 112 112 174t193 62q130 0 205.5 -72.5t75.5 -220.5v-672h-105v639q0 113 -50 173t-148 60q-114 0 -191 -88t-77 -247v-537h-105v639q0 113 -50.5 173t-146.5 60q-115 0 -192.5 -88t-77.5 -247v-537h-104v946h80l14 -215q30 111 111 172.5t192 61.5
q238 0 264 -236zM1010 1155h-455v88h455v-88z" />
    <glyph glyph-name="Mcedilla" unicode="&#xe113;" horiz-adv-x="1439" 
d="M905 -258q0 -80 -53 -121t-137 -41q-117 0 -178 82l36 68q58 -80 142 -80q100 0 100 92q0 48 -41.5 75.5t-122.5 30.5l21 162h63l-16 -104q88 -8 137 -50.5t49 -113.5zM762 301h-84l-297 553q-33 62 -57 115.5t-32 76.5l-7 23h-6q6 -76 6 -221v-848h-107v1206h133
l353 -669q19 -36 33.5 -68.5t18.5 -46.5l5 -14h6q14 47 57 129l351 669h127v-1206h-107v848q0 64 1.5 119.5t3.5 78.5l1 23h-6q-22 -76 -96 -215z" />
    </font>
</defs>
</svg>
