<?xml version="1.0" standalone="no"?>
<!DOCTYPE svg PUBLIC "-//W3C//DTD SVG 1.1//EN" "http://www.w3.org/Graphics/SVG/1.1/DTD/svg11.dtd" >
<svg xmlns="http://www.w3.org/2000/svg" xmlns:xlink="http://www.w3.org/1999/xlink" version="1.1">
<metadata>
Created by FontForge 20170731 at Fri Sep 17 22:21:29 2021
 By Aleksey,,,
Copyright (c) 2004-9 by Kris Sowersby. All rights reserved.
</metadata>
<defs>
<font id="National-LightItalic" horiz-adv-x="1060" >
  <font-face 
    font-family="National Light Italic"
    font-weight="470"
    font-style="italic"
    font-stretch="normal"
    units-per-em="2048"
    panose-1="0 0 0 0 0 0 0 0 0 0"
    ascent="1638"
    descent="-410"
    x-height="946"
    cap-height="1206"
    bbox="-313 -526 2431 1866"
    underline-thickness="116"
    underline-position="-173"
    unicode-range="U+0020-F778"
  />
<missing-glyph horiz-adv-x="1546" 
d="M170 0v1206h1206v-1206h-1206zM772 541l-453 -453h908zM319 1118l453 -454l455 454h-908zM834 602l454 -452v907zM711 602l-453 455v-907z" />
    <glyph glyph-name="f_b" unicode="fb" horiz-adv-x="1572" 
d="M610 0l213 1227q-32 34 -84 53.5t-108 19.5q-198 0 -240 -229l-20 -125h215l-15 -86h-217l-186 -1073q-22 -116 -72.5 -167.5t-142.5 -51.5q-102 0 -156 57l29 82q56 -53 117 -53q53 0 80.5 32t39.5 103l189 1071h-143l16 86h141l25 131q57 305 336 305q63 0 123.5 -18.5
t89.5 -46.5l92 51h22l-114 -643q42 109 130 174.5t204 65.5q149 0 231 -99t82 -286q0 -169 -56 -304.5t-162.5 -214.5t-244.5 -79q-114 0 -191.5 61.5t-89.5 155.5l-57 -199h-76zM809 537l-29 -162q-14 -79 7 -150t81.5 -118.5t149.5 -47.5q164 0 263 148t99 368
q0 143 -61.5 223.5t-173.5 80.5q-123 0 -217 -95.5t-119 -246.5z" />
    <glyph glyph-name="f_f_b" unicode="ffb" horiz-adv-x="2080" 
d="M1118 0l215 1227q-34 34 -86 53.5t-108 19.5q-196 0 -238 -229l-22 -125h213l-15 -86h-213l-184 -1046q-20 -115 -71.5 -167.5t-143.5 -52.5q-98 0 -156 58l31 82q53 -53 117 -53q53 0 81 32t40 103l184 1044h-408l-186 -1073q-22 -116 -72.5 -167.5t-142.5 -51.5
q-102 0 -156 57l29 82q56 -53 117 -53q53 0 80.5 32t39.5 103l189 1071h-143l16 86h141l27 144q29 149 96 211.5t174 62.5q108 0 180 -72l-49 -82q-30 33 -59.5 48.5t-71.5 15.5q-67 0 -108 -42.5t-60 -146.5l-24 -139h405l23 131q59 305 336 305q64 0 124 -18.5t91 -46.5
l90 51h22l-112 -643q41 109 128 174.5t203 65.5q150 0 233 -99t83 -286q0 -169 -56 -304.5t-162.5 -214.5t-244.5 -79q-115 0 -192 61.5t-91 155.5l-57 -199h-76zM1317 537l-29 -162q-14 -79 7.5 -150t82 -118.5t148.5 -47.5q164 0 263 148t99 368q0 144 -60.5 224
t-172.5 80q-123 0 -217.5 -95.5t-120.5 -246.5z" />
    <glyph glyph-name="f_f_h" unicode="ffh" horiz-adv-x="2039" 
d="M1118 0l215 1227q-34 34 -86 53.5t-108 19.5q-198 0 -238 -229l-22 -125h213l-15 -86h-213l-184 -1046q-20 -115 -71.5 -167.5t-143.5 -52.5q-98 0 -156 58l31 82q53 -53 117 -53q53 0 81 32t40 103l184 1044h-408l-186 -1073q-22 -116 -72.5 -167.5t-142.5 -51.5
q-102 0 -156 57l29 82q56 -53 117 -53q53 0 80.5 32t39.5 103l189 1071h-143l16 86h141l27 144q28 148 95.5 211t174.5 63q108 0 180 -72l-49 -82q-30 33 -59.5 48.5t-71.5 15.5q-67 0 -108 -42.5t-60 -146.5l-24 -139h405l23 131q57 305 336 305q64 0 124 -18.5t91 -46.5
l90 51h22l-114 -643q47 110 131 175t198 65q110 0 175 -58t65 -166q0 -45 -12 -116l-78 -443q-4 -36 -4 -51q0 -59 57 -59q24 0 62 14l-15 -80q-37 -16 -82 -16q-129 0 -129 123q0 21 6 59l80 455q13 63 13 94q0 72 -41.5 112.5t-122.5 40.5q-114 0 -211.5 -91t-126.5 -263
l-90 -520h-105z" />
    <glyph glyph-name="f_f_j" unicode="ffj" horiz-adv-x="1468" 
d="M1270 860h-406l-184 -1046q-20 -115 -71.5 -167.5t-143.5 -52.5q-98 0 -156 58l31 82q53 -53 117 -53q53 0 81 32t40 103l184 1044h-408l-186 -1073q-22 -116 -72.5 -167.5t-142.5 -51.5q-102 0 -156 57l29 82q56 -53 117 -53q53 0 80.5 32t39.5 103l189 1071h-143l16 86
h141l27 144q29 149 96 211.5t174 62.5q108 0 180 -72l-49 -82q-30 33 -59.5 48.5t-71.5 15.5q-67 0 -108 -42.5t-60 -146.5l-24 -139h405l23 131q57 305 319 305q132 0 207 -84l-49 -81q-62 75 -160 75q-84 0 -138 -50t-77 -175l-22 -121h510l-201 -1132q-20 -116 -72 -168
t-145 -52q-100 0 -156 56l31 84q53 -53 117 -53q53 0 80.5 31.5t39.5 101.5z" />
    <glyph glyph-name="f_f_k" unicode="ffk" horiz-adv-x="1912" 
d="M1118 0l215 1227q-34 34 -86 53.5t-108 19.5q-198 0 -238 -229l-22 -125h213l-15 -86h-213l-184 -1046q-20 -115 -71.5 -167.5t-143.5 -52.5q-98 0 -156 58l31 82q53 -53 117 -53q53 0 81 32t40 103l184 1044h-408l-186 -1073q-22 -116 -72.5 -167.5t-142.5 -51.5
q-102 0 -156 57l29 82q56 -53 117 -53q53 0 80.5 32t39.5 103l189 1071h-143l16 86h141l27 144q28 148 95.5 211t174.5 63q108 0 180 -72l-49 -82q-30 33 -59.5 48.5t-71.5 15.5q-67 0 -108 -42.5t-60 -146.5l-24 -139h405l23 131q57 305 336 305q64 0 124 -18.5t91 -46.5
l90 51h22l-143 -817h82l387 395h127l-434 -432l190 -352q25 -45 49 -66.5t56 -21.5t71 16l-16 -84q-39 -16 -88 -16q-50 0 -84.5 27t-67.5 87l-198 367h-88l-82 -471h-105z" />
    <glyph glyph-name="f_h" unicode="fh" horiz-adv-x="1531" 
d="M610 0l213 1227q-32 34 -84 53.5t-108 19.5q-198 0 -240 -229l-20 -125h215l-15 -86h-217l-186 -1073q-22 -116 -72.5 -167.5t-142.5 -51.5q-102 0 -156 57l29 82q56 -53 117 -53q53 0 80.5 32t39.5 103l189 1071h-143l16 86h141l25 131q57 305 336 305q63 0 123.5 -18.5
t89.5 -46.5l92 51h22l-114 -643q47 110 130 175t197 65q111 0 176.5 -58t65.5 -166q0 -45 -12 -116l-78 -443q0 -3 -3 -22.5t-3 -28.5q0 -59 57 -59q26 0 64 14l-15 -80q-40 -16 -84 -16q-127 0 -127 123q0 21 6 59l80 455q11 72 11 94q0 72 -41 112.5t-121 40.5
q-115 0 -212.5 -91t-127.5 -263l-90 -520h-103z" />
    <glyph glyph-name="f_j" unicode="fj" horiz-adv-x="960" 
d="M762 860h-408l-186 -1073q-22 -116 -72.5 -167.5t-142.5 -51.5q-102 0 -156 57l29 82q56 -53 117 -53q53 0 80.5 32t39.5 103l189 1071h-143l16 86h141l25 131q57 305 319 305q129 0 207 -84l-49 -81q-33 38 -70 56.5t-92 18.5q-84 0 -138 -50t-77 -175l-20 -121h510
l-201 -1132q-22 -117 -73 -168.5t-144 -51.5q-103 0 -156 56l29 84q56 -53 117 -53q53 0 80.5 31.5t39.5 101.5z" />
    <glyph glyph-name="f_k" unicode="fk" horiz-adv-x="1404" 
d="M610 0l213 1227q-32 34 -84 53.5t-108 19.5q-198 0 -240 -229l-20 -125h213l-15 -86h-215l-186 -1073q-22 -116 -72.5 -167.5t-142.5 -51.5q-102 0 -156 57l29 82q56 -53 117 -53q53 0 80.5 32t39.5 103l189 1071h-143l16 86h141l25 131q57 305 336 305q63 0 123.5 -18.5
t89.5 -46.5l92 51h22l-143 -817h82l385 395h129l-434 -432l188 -352q26 -46 50.5 -67t56.5 -21t71 16l-16 -84q-39 -16 -88 -16q-50 0 -84.5 27t-67.5 87l-200 367h-88l-82 -471h-103z" />
    <glyph glyph-name="ff" unicode="ff" horiz-adv-x="1050" 
d="M578 -184l184 1044h-408l-186 -1073q-22 -116 -72.5 -167.5t-142.5 -51.5q-102 0 -156 57l29 82q56 -53 117 -53q53 0 80.5 32t39.5 103l189 1071h-143l16 86h141l27 144q29 149 96 211.5t174 62.5q108 0 180 -72l-49 -82q-30 33 -59.5 48.5t-71.5 15.5q-67 0 -108 -42.5
t-60 -146.5l-24 -139h405l27 146q31 159 103.5 224.5t187.5 65.5q117 0 192 -69l-47 -84q-63 63 -143 63q-77 0 -124 -43.5t-67 -156.5l-26 -146h237l-14 -86h-238l-184 -1046q-20 -115 -71.5 -167.5t-143.5 -52.5q-98 0 -156 58l31 82q53 -53 117 -53q53 0 81 32t40 103z
" />
    <glyph glyph-name="ffi" unicode="ffi" horiz-adv-x="1488" 
d="M864 860l-184 -1046q-20 -115 -71.5 -167.5t-143.5 -52.5q-98 0 -156 58l31 82q53 -53 117 -53q53 0 81 32t40 103l184 1044h-408l-186 -1073q-22 -116 -72.5 -167.5t-142.5 -51.5q-102 0 -156 57l29 82q56 -53 117 -53q53 0 80.5 32t39.5 103l189 1071h-143l16 86h141
l27 144q28 148 95.5 211t174.5 63q108 0 180 -72l-49 -82q-30 33 -59.5 48.5t-71.5 15.5q-67 0 -108 -42.5t-60 -146.5l-24 -139h405l23 131q57 305 319 305q132 0 207 -84l-49 -81q-62 75 -160 75q-84 0 -138 -50t-77 -175l-22 -121h510l-134 -764q-6 -27 -6 -51
q0 -59 58 -59q26 0 61 14l-14 -80q-37 -16 -82 -16q-129 0 -129 123q0 21 6 59l121 688h-406z" />
    <glyph glyph-name="ffl" unicode="ffl" horiz-adv-x="1482" 
d="M776 946l23 131q57 305 336 305q64 0 124 -18.5t91 -46.5l90 51h22l-207 -1186q-6 -27 -6 -51q0 -59 58 -59q26 0 61 14l-14 -80q-37 -16 -82 -16q-129 0 -129 123q0 21 6 59l184 1055q-34 34 -86 53.5t-108 19.5q-198 0 -238 -229l-22 -125h215l-15 -86h-215l-184 -1046
q-20 -115 -71.5 -167.5t-143.5 -52.5q-98 0 -156 58l31 82q53 -53 117 -53q53 0 81 32t40 103l184 1044h-408l-186 -1073q-22 -116 -72.5 -167.5t-142.5 -51.5q-102 0 -156 57l29 82q56 -53 117 -53q53 0 80.5 32t39.5 103l189 1071h-143l16 86h141l27 144q28 148 95.5 211
t174.5 63q108 0 180 -72l-49 -82q-30 33 -59.5 48.5t-71.5 15.5q-67 0 -108 -42.5t-60 -146.5l-24 -139h405z" />
    <glyph glyph-name="fi" unicode="fi" horiz-adv-x="978" 
d="M881 946l-136 -764q0 -3 -3 -22.5t-3 -28.5q0 -59 58 -59q25 0 63 14l-14 -80q-40 -16 -84 -16q-127 0 -127 123q0 21 6 59l119 688h-406l-186 -1073q-22 -116 -72.5 -167.5t-142.5 -51.5q-102 0 -156 57l29 82q56 -53 117 -53q53 0 80.5 32t39.5 103l189 1071h-143
l16 86h141l25 131q57 305 319 305q129 0 207 -84l-49 -81q-33 38 -70 56.5t-92 18.5q-84 0 -138 -50t-77 -175l-20 -121h510z" />
    <glyph glyph-name="fl" unicode="fl" horiz-adv-x="974" 
d="M954 1368l-209 -1186q0 -3 -3 -22.5t-3 -28.5q0 -59 58 -59q25 0 63 14l-14 -80q-40 -16 -84 -16q-127 0 -127 123q0 21 6 59l182 1055q-32 34 -84 53.5t-108 19.5q-198 0 -240 -229l-20 -125h215l-15 -86h-217l-186 -1073q-22 -116 -72.5 -167.5t-142.5 -51.5
q-102 0 -156 57l29 82q56 -53 117 -53q53 0 80.5 32t39.5 103l189 1071h-143l16 86h141l25 131q57 305 336 305q63 0 123.5 -18.5t89.5 -46.5l92 51h22z" />
    <glyph glyph-name=".notdef" horiz-adv-x="1546" 
d="M170 0v1206h1206v-1206h-1206zM772 541l-453 -453h908zM319 1118l453 -454l455 454h-908zM834 602l454 -452v907zM711 602l-453 455v-907z" />
    <glyph glyph-name=".null" horiz-adv-x="0" 
 />
    <glyph glyph-name="nonmarkingreturn" horiz-adv-x="682" 
 />
    <glyph glyph-name="space" unicode=" " horiz-adv-x="428" 
 />
    <glyph glyph-name="exclam" unicode="!" horiz-adv-x="448" 
d="M289 1206h135l-182 -866h-74zM82 74q0 35 23.5 58.5t58.5 23.5q34 0 57 -23.5t23 -58.5q0 -34 -23 -57t-57 -23q-35 0 -58.5 23t-23.5 57z" />
    <glyph glyph-name="quotedbl" unicode="&#x22;" horiz-adv-x="540" 
d="M178 844l92 524h121l-145 -524h-68zM410 844l92 524h119l-144 -524h-67z" />
    <glyph glyph-name="numbersign" unicode="#" horiz-adv-x="1280" 
d="M1108 326h-332l-153 -326h-99l152 326h-246l-154 -326h-98l152 326h-252l14 84h279l104 223h-301l14 84h328l127 268h100l-129 -268h248l127 268h101l-129 -268h258l-15 -84h-282l-107 -223h307zM575 633l-106 -223h248l104 223h-246z" />
    <glyph glyph-name="dollar" unicode="$" horiz-adv-x="911" 
d="M57 260l93 21q0 -96 57 -152.5t145 -69.5l72 408q-122 45 -181 105t-59 157q0 131 91 201.5t241 73.5l31 172h74l-31 -177q120 -13 184 -79.5t64 -176.5l-95 -16q-1 82 -44.5 131.5t-123.5 61.5l-65 -381q125 -46 183.5 -112t58.5 -165q0 -136 -91.5 -206.5t-248.5 -73.5
l-35 -199h-74l35 203q-128 14 -204.5 86t-76.5 188zM653 250q0 66 -37.5 110.5t-123.5 81.5l-68 -387q105 3 167 52t62 143zM281 743q0 -68 37.5 -106.5t121.5 -73.5l62 361q-103 -5 -162 -50.5t-59 -130.5z" />
    <glyph glyph-name="percent" unicode="%" horiz-adv-x="1673" 
d="M336 545q59 0 106.5 38.5t73.5 97.5t39.5 120.5t13.5 116.5q0 101 -39.5 162t-119.5 61q-60 0 -107 -38t-73.5 -96.5t-40 -120t-13.5 -116.5q2 -102 41.5 -163.5t118.5 -61.5zM418 1221q115 0 177 -83t62 -220q0 -80 -20.5 -157t-59 -143t-103.5 -106.5t-146 -40.5
q-119 0 -179.5 80.5t-60.5 216.5q0 80 20.5 158t59.5 145t104 108.5t146 41.5zM1341 657q-60 0 -107.5 -38t-73.5 -96.5t-39 -119t-13 -116.5q0 -101 40 -163.5t120 -62.5q59 0 105.5 38.5t72.5 97.5t39.5 120.5t13.5 116.5q0 101 -39 162t-119 61zM1257 -12
q-118 0 -178.5 80.5t-60.5 216.5q0 79 21 157.5t60 145t104 108t145 41.5q116 0 177.5 -83t61.5 -220q0 -79 -20.5 -156.5t-59.5 -143t-104 -106t-146 -40.5zM1300 1208l-837 -1208h-88l839 1208h86z" />
    <glyph glyph-name="ampersand" unicode="&#x26;" horiz-adv-x="1132" 
d="M868 977q0 -118 -79 -199.5t-236 -152.5l264 -326q86 111 127 291l96 -23q-59 -213 -168 -338l150 -180l-78 -63l-137 168q-175 -172 -420 -172q-159 0 -245.5 74t-86.5 208q0 73 25.5 132t77 104.5t111 79.5t145.5 69l-49 60q-95 119 -95 233q0 130 92.5 206.5
t227.5 76.5q133 0 205.5 -68t72.5 -180zM389 66q213 0 369 153l-297 367q-142 -70 -189 -104q-103 -75 -113 -185q-1 -13 -1 -27q0 -92 61.5 -148t169.5 -56zM369 946q0 -51 17.5 -90.5t53.5 -85.5l62 -80q138 61 202 124t64 163q0 79 -49.5 124.5t-134.5 45.5
q-95 0 -155 -54t-60 -147z" />
    <glyph glyph-name="quotesingle" unicode="'" horiz-adv-x="311" 
d="M178 844l92 524h121l-145 -524h-68z" />
    <glyph glyph-name="parenleft" unicode="(" horiz-adv-x="661" 
d="M143 272q0 321 138.5 602t377.5 494h125q-97 -92 -173.5 -179.5t-147 -193.5t-116.5 -214.5t-73.5 -238.5t-27.5 -270q0 -186 54 -347.5t171 -338.5h-113q-104 159 -159.5 324.5t-55.5 361.5z" />
    <glyph glyph-name="parenright" unicode=")" horiz-adv-x="661" 
d="M526 682q0 -321 -138.5 -602t-379.5 -494h-123q123 117 214.5 228.5t168 246.5t116.5 291.5t40 329.5q0 186 -54 347.5t-171 338.5h110q105 -160 161 -325.5t56 -360.5z" />
    <glyph glyph-name="asterisk" unicode="*" horiz-adv-x="696" 
d="M397 907l-159 -145l-58 76l185 118l-191 109l53 76l166 -135l47 211l92 -27l-75 -203l211 23l6 -95l-219 15l88 -203l-88 -31z" />
    <glyph glyph-name="plus" unicode="+" horiz-adv-x="1015" 
d="M100 543h377l66 368h73l-65 -368h385l-12 -70h-385l-70 -397h-74l68 397h-375z" />
    <glyph glyph-name="comma" unicode="," horiz-adv-x="503" 
d="M291 29q0 -105 -75.5 -162t-190.5 -62v58q74 7 129 38t55 87q0 14 -4 22q-9 -12 -31 -12q-32 0 -52 21.5t-20 54.5q0 37 23 59.5t61 22.5q47 0 76 -34t29 -93z" />
    <glyph glyph-name="hyphen" unicode="-" horiz-adv-x="776" 
d="M147 500l17 90h459l-17 -90h-459z" />
    <glyph glyph-name="period" unicode="." horiz-adv-x="503" 
d="M96 80q0 37 25 61.5t63 24.5q37 0 61.5 -24.5t24.5 -61.5t-24.5 -61.5t-61.5 -24.5q-38 0 -63 24.5t-25 61.5z" />
    <glyph glyph-name="slash" unicode="/" horiz-adv-x="749" 
d="M-147 -416l870 1786h104l-874 -1786h-100z" />
    <glyph glyph-name="zero" unicode="0" horiz-adv-x="1146" 
d="M530 70q184 0 298 137.5t114 343.5q0 162 -85 261t-241 99q-185 0 -298 -136t-113 -343q0 -163 83.5 -262.5t241.5 -99.5zM524 -18q-107 0 -190.5 35.5t-134 97.5t-76 142.5t-25.5 174.5q0 253 148.5 412.5t376.5 159.5q107 0 190.5 -35.5t134 -98t76 -143t25.5 -174.5
q0 -252 -149 -411.5t-376 -159.5z" />
    <glyph glyph-name="one" unicode="1" horiz-adv-x="667" 
d="M346 0h-106l153 881l-301 -68l17 92l413 94z" />
    <glyph glyph-name="two" unicode="2" horiz-adv-x="903" 
d="M741 90l-16 -90h-729l14 86q152 64 268.5 129.5t211 141.5t144.5 163t50 180q0 103 -57.5 157t-159.5 54q-104 0 -169 -62t-71 -196l-98 21q5 72 28 130t57 94.5t78 61t89.5 34.5t93.5 10q148 0 233 -77t85 -225q0 -87 -41 -171.5t-107 -151t-151.5 -124t-171 -96.5
t-168.5 -63v-6h587z" />
    <glyph glyph-name="three" unicode="3" horiz-adv-x="894" 
d="M410 381v-4q146 -12 228.5 -90.5t82.5 -206.5q0 -118 -56.5 -201.5t-147 -122.5t-204.5 -39q-162 0 -260 74.5t-102 212.5l100 23q11 -224 273 -224q129 0 209.5 70t80.5 199q0 244 -356 266l12 86q209 13 319.5 81t110.5 210q0 91 -58.5 145.5t-162.5 54.5
q-213 0 -250 -225l-98 23q24 139 112.5 215t241.5 76q147 0 234.5 -74.5t87.5 -206.5q0 -161 -110.5 -249t-286.5 -93z" />
    <glyph glyph-name="four" unicode="4" horiz-adv-x="1042" 
d="M549 -268l67 379h-614l12 73l754 801h106l-137 -786h201l-14 -88h-201l-68 -379h-106zM289 199h342l80 465q9 55 19.5 103.5t17.5 69.5l6 21h-6q-50 -65 -154 -180l-318 -342q-39 -43 -74 -77t-50 -47l-15 -13v-6q52 6 152 6z" />
    <glyph glyph-name="five" unicode="5" horiz-adv-x="905" 
d="M131 324l143 661h586l-16 -92h-490l-110 -494q73 84 205 84q148 0 232.5 -95t84.5 -241q-1 -138 -60 -237t-155 -146t-217 -47q-163 0 -255 77t-97 210l100 23q6 -115 74.5 -169.5t187.5 -54.5q64 0 119.5 20t100 59t70 104t25.5 149q0 120 -65 194t-180 74
q-117 0 -199 -79h-84z" />
    <glyph glyph-name="six" unicode="6" horiz-adv-x="1015" 
d="M991 975l-98 -35q-36 199 -231 199q-174 0 -298 -166.5t-163 -462.5h6q37 127 133.5 193.5t220.5 66.5q164 0 259 -93.5t95 -248.5q0 -195 -116.5 -320.5t-315.5 -125.5q-182 0 -281.5 109.5t-99.5 324.5q0 85 15 175t43.5 181.5t76 172t108 143.5t143.5 100t178 37
q283 0 325 -250zM483 68q143 0 235.5 96t92.5 254q0 116 -72.5 189t-197.5 73q-142 0 -233 -94t-91 -244q0 -125 70 -199.5t196 -74.5z" />
    <glyph glyph-name="seven" unicode="7" horiz-adv-x="921" 
d="M764 893h-563l-33 -178h-100l47 270h784l-12 -76l-682 -1177h-113z" />
    <glyph glyph-name="eight" unicode="8" horiz-adv-x="980" 
d="M584 1225q148 0 245 -82t97 -219q0 -127 -80 -211.5t-197 -104.5v-8q97 -26 153 -99.5t56 -174.5q0 -115 -58 -194t-150 -114.5t-210 -35.5q-170 0 -276.5 82.5t-106.5 224.5q0 136 83.5 220.5t217.5 104.5l2 9q-80 24 -129 89.5t-49 157.5q0 166 114 260.5t288 94.5z
M446 68q138 0 223 69t85 193q0 111 -80 174t-199 63q-135 0 -221 -72.5t-86 -195.5q0 -110 78 -170.5t200 -60.5zM293 877q0 -102 65.5 -162t171.5 -60q129 0 206 72.5t77 194.5q0 96 -65.5 156.5t-174.5 60.5q-127 0 -203.5 -71.5t-76.5 -190.5z" />
    <glyph glyph-name="nine" unicode="9" horiz-adv-x="1013" 
d="M10 -31l90 41q25 -99 91.5 -153t168.5 -54q186 0 301.5 175t151.5 495h-6q-37 -128 -131 -194t-217 -66q-165 0 -263 97.5t-98 256.5q0 190 116.5 313.5t315.5 123.5q181 0 281 -111.5t100 -325.5q0 -126 -20 -245.5t-64 -230t-107.5 -193t-158 -132t-207.5 -49.5
q-141 0 -229.5 65t-114.5 187zM522 918q-137 0 -227 -95.5t-90 -251.5q0 -120 71.5 -195t196.5 -75q142 0 234 95t92 245q0 126 -73 201.5t-204 75.5z" />
    <glyph glyph-name="colon" unicode=":" horiz-adv-x="503" 
d="M96 80q0 37 25 61.5t63 24.5q37 0 61.5 -24.5t24.5 -61.5t-24.5 -61.5t-61.5 -24.5q-38 0 -63 24.5t-25 61.5zM227 823q0 37 24.5 61.5t61.5 24.5t61.5 -24.5t24.5 -61.5t-24.5 -61.5t-61.5 -24.5t-61.5 24.5t-24.5 61.5z" />
    <glyph glyph-name="semicolon" unicode=";" horiz-adv-x="503" 
d="M291 29q0 -105 -75.5 -162t-190.5 -62v58q74 7 129 38t55 87q0 14 -4 22q-9 -12 -31 -12q-32 0 -52 21.5t-20 54.5q0 37 23 59.5t61 22.5q47 0 76 -34t29 -93zM240 823q0 37 24.5 61.5t61.5 24.5q38 0 63 -24.5t25 -61.5t-25 -61.5t-63 -24.5q-37 0 -61.5 24.5
t-24.5 61.5z" />
    <glyph glyph-name="less" unicode="&#x3c;" horiz-adv-x="841" 
d="M121 506l594 434l45 -63l-518 -379l376 -373l-55 -55z" />
    <glyph glyph-name="equal" unicode="=" 
d="M92 406h836l-13 -70h-835zM137 668h836l-12 -72h-836z" />
    <glyph glyph-name="greater" unicode="&#x3e;" horiz-adv-x="841" 
d="M711 504l-594 -434l-45 63l518 379l-379 373l57 55z" />
    <glyph glyph-name="question" unicode="?" horiz-adv-x="825" 
d="M227 918l-86 34q84 273 363 273q156 0 244 -87.5t88 -230.5q0 -101 -38 -179t-100.5 -123.5t-136 -68t-153.5 -22.5l-35 -192h-99l48 262h45q72 0 133.5 16.5t114 51.5t82.5 98t30 149q0 107 -63 171.5t-172 64.5q-201 0 -265 -217zM205 74q0 35 23 58.5t57 23.5
q35 0 58.5 -23.5t23.5 -58.5q0 -34 -23.5 -57t-58.5 -23q-34 0 -57 23t-23 57z" />
    <glyph glyph-name="at" unicode="@" horiz-adv-x="1765" 
d="M1270 59q133 0 218 127t85 338q0 188 -83 328.5t-231 213.5t-341 73q-155 0 -287 -51t-229 -145.5t-152 -237t-55 -316.5q0 -150 40 -270.5t109.5 -202.5t166.5 -137t207.5 -80t235.5 -25q209 0 389 68l23 -80q-195 -72 -414 -72q-138 0 -260 26t-233 86t-190 150.5
t-126 227.5t-47 309q0 242 97.5 429.5t286 295t442.5 107.5q147 0 270 -36t209.5 -99.5t147 -150.5t89.5 -188t29 -212q0 -254 -111.5 -403.5t-300.5 -149.5q-85 0 -134.5 38.5t-55.5 108.5q-3 29 0 66q-31 -103 -109.5 -158t-181.5 -55q-130 0 -204 88.5t-74 253.5
q0 225 113 367.5t282 142.5q98 0 167 -53t79 -146l57 188h78l-107 -573q-10 -51 -10 -84q0 -107 115 -107zM1087 367l17 98q22 123 -36.5 206t-164.5 83q-133 0 -219 -119.5t-86 -310.5q0 -121 49.5 -189.5t145.5 -68.5q106 0 188.5 82t105.5 219z" />
    <glyph glyph-name="A" unicode="A" horiz-adv-x="1122" 
d="M893 0l-78 383h-541l-208 -383h-115l667 1206h142l244 -1206h-111zM524 836l-200 -361h475l-70 352q-16 79 -28.5 156t-17.5 115l-5 37h-6q-42 -106 -148 -299z" />
    <glyph glyph-name="B" unicode="B" horiz-adv-x="1026" 
d="M680 621v-7q106 -8 169.5 -69t63.5 -172q0 -188 -118.5 -280.5t-337.5 -92.5h-367l211 1206h328q329 0 329 -270q0 -138 -78.5 -220t-199.5 -95zM315 659h226q138 0 222.5 64.5t84.5 198.5q0 100 -61 146t-183 46h-209zM299 569l-84 -477h254q338 0 338 273
q0 204 -262 204h-246z" />
    <glyph glyph-name="C" unicode="C" horiz-adv-x="1126" 
d="M565 -18q-211 0 -331.5 133t-120.5 354q0 174 48 318.5t130.5 239t192.5 146.5t235 52q157 0 255.5 -75t127.5 -216l-96 -41q-21 117 -100 178.5t-195 61.5q-145 0 -256.5 -86t-171.5 -235t-60 -335q0 -184 93 -293.5t259 -109.5q123 0 204.5 49.5t144.5 171.5l90 -47
q-129 -266 -449 -266z" />
    <glyph glyph-name="D" unicode="D" horiz-adv-x="1193" 
d="M215 92h229q124 0 225.5 39t177.5 116.5t117.5 201t41.5 284.5q0 191 -105 286t-293 95h-213zM449 0h-359l211 1206h322q241 0 369 -120t128 -345q0 -151 -34.5 -274.5t-95.5 -209t-146 -144t-184 -86t-211 -27.5z" />
    <glyph glyph-name="E" unicode="E" horiz-adv-x="964" 
d="M793 94l-17 -94h-686l211 1206h686l-16 -94h-576l-82 -461h514l-16 -94h-514l-82 -463h578z" />
    <glyph glyph-name="F" unicode="F" horiz-adv-x="894" 
d="M201 0h-111l211 1206h657l-16 -94h-547l-82 -461h484l-17 -94h-483z" />
    <glyph glyph-name="G" unicode="G" horiz-adv-x="1185" 
d="M651 590h434l-104 -590h-86l16 203q-39 -101 -130 -161t-218 -60q-210 0 -330 133t-120 354q0 174 48 318.5t131 239t193 146.5t236 52q156 0 254 -75t127 -216l-96 -41q-21 117 -100 178.5t-195 61.5q-144 0 -256 -86t-172 -235t-60 -335q0 -185 91.5 -294t260.5 -109
q139 0 241 87t132 255l13 76h-328z" />
    <glyph glyph-name="H" unicode="H" horiz-adv-x="1257" 
d="M1106 1206h108l-208 -1206h-111l96 561h-694l-96 -561h-111l211 1206h111l-97 -549h695z" />
    <glyph glyph-name="I" unicode="I" horiz-adv-x="452" 
d="M301 1206h111l-211 -1206h-111z" />
    <glyph glyph-name="J" unicode="J" horiz-adv-x="858" 
d="M727 1206h111l-154 -870q-35 -193 -124.5 -273.5t-254.5 -80.5q-137 0 -218.5 67.5t-102.5 179.5l90 54q20 -105 80 -159t157 -54q120 0 180 65t87 219z" />
    <glyph glyph-name="K" unicode="K" horiz-adv-x="1009" 
d="M905 0h-123l-370 561h-115l-96 -561h-111l211 1206h111l-97 -551h101l538 551h133l-587 -592z" />
    <glyph glyph-name="L" unicode="L" horiz-adv-x="892" 
d="M301 1206h111l-197 -1112h559l-14 -94h-670z" />
    <glyph glyph-name="M" unicode="M" horiz-adv-x="1413" 
d="M723 301h-82l-192 547q-22 61 -38 113.5t-21 74.5l-5 23h-6q-6 -66 -31 -211l-147 -848h-111l211 1206h129l227 -655q14 -39 23.5 -75t12.5 -52l3 -16h6q19 51 80 139l459 659h131l-209 -1206h-110l147 848q11 64 22 116.5t16 73.5l5 21h-6q-33 -72 -127 -207z" />
    <glyph glyph-name="N" unicode="N" horiz-adv-x="1255" 
d="M418 1206l401 -831q27 -56 52 -114.5t36 -88.5l11 -31h6q14 121 39 256l141 809h108l-208 -1206h-115l-406 829q-24 50 -49.5 108.5t-39.5 92.5l-13 33h-6q-8 -119 -33 -254l-141 -809h-111l211 1206h117z" />
    <glyph glyph-name="O" unicode="O" horiz-adv-x="1249" 
d="M575 74q141 0 252 85t171.5 234t60.5 334t-90 294t-262 109q-141 0 -252 -85t-171.5 -233.5t-60.5 -334.5q0 -187 93 -295t259 -108zM567 -18q-211 0 -332.5 132.5t-121.5 356.5q0 172 48 315.5t130.5 238.5t192 147.5t233.5 52.5q210 0 332 -133.5t122 -358.5
q0 -172 -48 -315t-131 -237.5t-192.5 -146.5t-232.5 -52z" />
    <glyph glyph-name="P" unicode="P" horiz-adv-x="962" 
d="M395 1114l-96 -549h215q165 0 256.5 85t91.5 245q0 114 -63 166.5t-197 52.5h-207zM201 0h-111l211 1206h313q182 0 271.5 -74t89.5 -229q0 -207 -126.5 -317.5t-336.5 -110.5h-229z" />
    <glyph glyph-name="Q" unicode="Q" horiz-adv-x="1253" 
d="M905 -276q-177 -9 -292 62.5t-138 205.5q-167 28 -262.5 155.5t-95.5 323.5q0 172 48 315.5t131 238.5t192.5 147.5t232.5 52.5q211 0 333 -133t122 -359q0 -169 -46.5 -310.5t-127 -235.5t-187.5 -147.5t-229 -57.5q39 -96 133.5 -133t220.5 -27zM582 74q141 0 251.5 85
t171 234t60.5 334q0 184 -91 293.5t-261 109.5q-141 0 -252.5 -84.5t-172.5 -233.5t-61 -335q0 -187 94.5 -295t260.5 -108z" />
    <glyph glyph-name="R" unicode="R" horiz-adv-x="1077" 
d="M948 0h-117q-32 43 -43 121l-28 213q-15 108 -69.5 152t-170.5 44h-227l-92 -530h-111l211 1206h363q180 0 264 -71.5t84 -212.5q0 -82 -28.5 -148.5t-76.5 -108.5t-107 -65.5t-124 -26.5v-6q87 -12 130 -60t58 -151l33 -223q12 -82 51 -133zM395 1114l-86 -491h256
q157 0 245.5 72t88.5 214q0 105 -61.5 155t-188.5 50h-254z" />
    <glyph glyph-name="S" unicode="S" horiz-adv-x="966" 
d="M45 309l98 19q0 -129 74 -194.5t209 -65.5q133 0 210 61.5t77 187.5q0 99 -57 157.5t-189 105.5q-70 25 -115 48.5t-86.5 59t-61.5 87t-20 120.5q0 70 22.5 127t59 94t85.5 62t101 36t107 11q174 0 266 -75.5t93 -240.5l-103 -16q-3 246 -262 246q-120 0 -193 -60
t-73 -172q0 -51 13.5 -86t47.5 -62.5t72.5 -46t107.5 -44.5q149 -57 221 -132t72 -208q0 -115 -54.5 -194.5t-143.5 -115.5t-205 -36q-179 0 -276 83t-97 244z" />
    <glyph glyph-name="T" unicode="T" horiz-adv-x="974" 
d="M455 0h-111l195 1112h-398l17 94h895l-17 -94h-389z" />
    <glyph glyph-name="U" unicode="U" horiz-adv-x="1175" 
d="M1049 1206h108l-141 -817q-20 -114 -65 -195t-110.5 -126.5t-141 -65.5t-169.5 -20q-182 0 -292.5 92.5t-110.5 271.5q0 54 12 119l129 741h109l-131 -749q-8 -60 -8 -105q0 -139 83 -209.5t220 -70.5q146 0 241 77.5t127 258.5z" />
    <glyph glyph-name="V" unicode="V" horiz-adv-x="1069" 
d="M272 1206l148 -878q12 -73 19 -136.5t9 -90.5l1 -27h6q30 88 118 258l465 874h117l-643 -1206h-145l-205 1206h110z" />
    <glyph glyph-name="W" unicode="W" horiz-adv-x="1630" 
d="M985 1206l82 -829q8 -84 13 -161t6 -112l1 -34h7q36 119 120 309l371 827h115l-549 -1206h-152l-73 803q-7 83 -11 158t-4 109v34h-6q-35 -113 -121 -301l-364 -803h-152l-84 1206h109l53 -825q5 -84 8 -161.5t4 -113.5v-36h7q34 121 122 311l377 825h121z" />
    <glyph glyph-name="X" unicode="X" horiz-adv-x="1052" 
d="M811 0l-211 406q-24 44 -38.5 78t-17.5 46l-3 11h-6q-15 -32 -105 -138l-344 -403h-129l532 621l-299 585h119l189 -370q24 -46 38.5 -81t17.5 -47l3 -12h4q13 27 105 138l313 372h127l-500 -585l318 -621h-113z" />
    <glyph glyph-name="Y" unicode="Y" horiz-adv-x="993" 
d="M281 1206l165 -442q23 -59 38.5 -109.5t19.5 -70.5l4 -21h6q31 66 123 201l313 442h119l-516 -723l-84 -483h-109l84 483l-276 723h113z" />
    <glyph glyph-name="Z" unicode="Z" horiz-adv-x="991" 
d="M1022 1133l-748 -889q-40 -48 -76 -85.5t-52 -50.5l-15 -14v-8q51 8 180 8h541l-14 -94h-848l10 63l756 902q41 49 76.5 86.5t51.5 50.5l15 12v6q-53 -8 -182 -8h-508l16 94h811z" />
    <glyph glyph-name="bracketleft" unicode="[" horiz-adv-x="647" 
d="M446 1288l-284 -1622h321l-14 -82h-420l313 1786h420l-14 -82h-322z" />
    <glyph glyph-name="backslash" unicode="\" horiz-adv-x="702" 
d="M313 1370l250 -1786h-90l-250 1786h90z" />
    <glyph glyph-name="bracketright" unicode="]" horiz-adv-x="647" 
d="M199 -334l286 1622h-321l14 82h420l-313 -1786h-420l14 82h320z" />
    <glyph glyph-name="asciicircum" unicode="^" horiz-adv-x="983" 
d="M821 676l-133 387q-22 63 -36 118t-18 79l-3 24h-8q-36 -80 -136 -221l-272 -387h-111l494 692h82l248 -692h-107z" />
    <glyph glyph-name="underscore" unicode="_" horiz-adv-x="931" 
d="M2 -178l16 88h707l-16 -88h-707z" />
    <glyph glyph-name="grave" unicode="`" horiz-adv-x="542" 
d="M406 1092h-87l-182 278h142z" />
    <glyph glyph-name="a" unicode="a" horiz-adv-x="1054" 
d="M780 549q15 86 -4.5 160t-77.5 122t-145 48q-161 0 -263 -143.5t-102 -360.5q0 -142 62.5 -223.5t177.5 -81.5q123 0 212 91t114 242zM872 72q26 0 64 14l-16 -80q-37 -16 -82 -16q-61 0 -92 33t-31 92q0 24 12 94q-38 -103 -126 -165t-198 -62q-144 0 -230.5 99.5
t-86.5 283.5q0 165 56 301t162.5 217.5t242.5 81.5q112 0 183.5 -59t86.5 -161l51 201h86l-133 -764q-6 -27 -6 -51q0 -59 57 -59z" />
    <glyph glyph-name="b" unicode="b" horiz-adv-x="1050" 
d="M430 1368l-113 -643q42 109 130 174.5t204 65.5q149 0 231.5 -99t82.5 -286q0 -169 -56 -304.5t-162.5 -214.5t-244.5 -79q-115 0 -192 61.5t-91 155.5l-55 -199h-76l238 1368h104zM285 539l-29 -158q-6 -46 -3 -90.5t22.5 -84.5t48 -70t73.5 -48t99 -18q164 0 263 146.5
t99 363.5q0 141 -61 220t-174 79q-123 0 -217.5 -95t-120.5 -245z" />
    <glyph glyph-name="c" unicode="c" horiz-adv-x="903" 
d="M188 387q0 -159 67.5 -240t193.5 -81q203 0 268 206l96 -22q-90 -268 -377 -268q-163 0 -256.5 102t-93.5 291q0 89 18 174t56 160.5t91.5 132.5t130 90t165.5 33q152 0 225.5 -81t73.5 -225l-92 -16q-2 107 -54 169t-163 62q-83 0 -151 -42.5t-110.5 -112.5t-65 -155.5
t-22.5 -176.5z" />
    <glyph glyph-name="d" unicode="d" horiz-adv-x="1048" 
d="M754 401l28 148q23 134 -38 232t-191 98q-161 0 -264 -144.5t-103 -361.5q0 -140 62.5 -221.5t177.5 -81.5q124 0 213.5 90.5t114.5 240.5zM727 209q-35 -106 -123.5 -166.5t-200.5 -60.5q-144 0 -230.5 99.5t-86.5 283.5q0 165 56 301t162.5 217.5t242.5 81.5
q112 0 183.5 -59t86.5 -161l109 623h102l-207 -1186q-6 -27 -6 -51q0 -59 57 -59q26 0 64 14l-16 -80q-37 -16 -82 -16q-61 0 -92 33t-31 92q0 20 12 94z" />
    <glyph glyph-name="e" unicode="e" horiz-adv-x="923" 
d="M713 256l94 -25q-82 -249 -361 -249q-173 0 -266.5 103.5t-93.5 291.5q0 256 129 422t324 166q81 0 142.5 -26t98 -71.5t54.5 -102.5t18 -124q0 -103 -39 -174h-625q-6 -41 -6 -82q0 -147 66.5 -233t197.5 -86q112 0 174 47.5t93 142.5zM535 879q-130 0 -215.5 -91.5
t-118.5 -234.5h536q15 38 15 90q0 105 -54 170.5t-163 65.5z" />
    <glyph glyph-name="f" unicode="f" horiz-adv-x="540" 
d="M63 -211l189 1071h-143l16 86h141l29 146q29 159 101.5 224.5t187.5 65.5q119 0 194 -69l-49 -84q-60 63 -141 63q-77 0 -124 -43.5t-69 -156.5l-24 -146h237l-14 -86h-240l-186 -1073q-22 -116 -72.5 -167.5t-142.5 -51.5q-102 0 -156 57l29 82q56 -53 117 -53
q53 0 80.5 32t39.5 103z" />
    <glyph glyph-name="g" unicode="g" horiz-adv-x="1003" 
d="M680 -35l45 242q-39 -104 -122.5 -164.5t-194.5 -60.5q-145 0 -232.5 100t-87.5 283q0 165 57 301.5t163.5 217.5t242.5 81q111 0 182 -59t86 -161l51 201h86l-172 -977q-36 -203 -143 -302t-299 -99q-164 0 -251.5 69.5t-98.5 190.5l92 31q9 -100 78 -155.5t186 -55.5
q145 0 224 81.5t108 235.5zM756 399l28 150q15 86 -4.5 160t-77.5 122t-145 48q-108 0 -193 -66.5t-130.5 -181.5t-45.5 -258q0 -140 62.5 -221.5t177.5 -81.5q126 0 214.5 89.5t113.5 239.5z" />
    <glyph glyph-name="h" unicode="h" horiz-adv-x="1009" 
d="M692 172l80 455q10 65 10 94q0 72 -40.5 112.5t-120.5 40.5q-115 0 -212 -91t-126 -263l-90 -520h-105l238 1368h106l-115 -643q46 109 131 174.5t199 65.5q110 0 175 -58t65 -166q0 -40 -13 -116l-77 -443q0 -3 -3 -22.5t-3 -28.5q0 -59 57 -59q25 0 63 14l-14 -80
q-37 -16 -82 -16q-129 0 -129 123q0 25 6 59z" />
    <glyph glyph-name="i" unicode="i" horiz-adv-x="446" 
d="M346 946l-133 -764q-6 -27 -6 -51q0 -59 57 -59q26 0 64 14l-17 -80q-37 -16 -82 -16q-127 0 -127 123q0 15 7 59l133 774h104zM262 1237q0 34 22 57t54 23t55 -23t23 -57q0 -32 -23 -54t-55 -22t-54 22t-22 54z" />
    <glyph glyph-name="j" unicode="j" horiz-adv-x="417" 
d="M49 -176l199 1122h104l-198 -1120q-23 -133 -85.5 -195.5t-168.5 -62.5q-50 0 -93.5 16t-68.5 41l39 84q61 -55 129 -55q60 0 94 41t49 129zM270 1237q0 34 22 57t54 23q34 0 56 -23t22 -57q0 -32 -22 -54t-56 -22q-32 0 -54 22t-22 54z" />
    <glyph glyph-name="k" unicode="k" horiz-adv-x="882" 
d="M745 74q33 0 72 16l-16 -84q-39 -16 -88 -16q-50 0 -85.5 27t-66.5 87l-201 367h-86l-81 -471h-105l238 1368h106l-143 -817h82l385 395h129l-434 -432l190 -352q25 -46 48.5 -67t55.5 -21z" />
    <glyph glyph-name="l" unicode="l" horiz-adv-x="442" 
d="M420 1368l-207 -1186q-6 -27 -6 -51q0 -59 57 -59q26 0 64 14l-17 -80q-37 -16 -82 -16q-127 0 -127 123q0 15 7 59l206 1196h105z" />
    <glyph glyph-name="m" unicode="m" horiz-adv-x="1525" 
d="M858 717q99 248 322 248q104 0 163.5 -57t59.5 -167q0 -45 -12 -116l-76 -443q-6 -27 -6 -51q0 -59 57 -59q26 0 61 14l-14 -80q-37 -16 -82 -16q-129 0 -129 123q0 21 6 59l80 455q12 58 12 94q0 153 -155 153q-106 0 -196.5 -92t-121.5 -262l-90 -520h-102l108 627
q13 63 13 94q0 153 -156 153q-106 0 -196 -92t-121 -262l-90 -520h-103l164 946h90l-25 -221q48 114 123.5 177t192.5 63q99 0 158 -54.5t63 -156.5q0 -6 1 -18t1 -19z" />
    <glyph glyph-name="n" unicode="n" horiz-adv-x="1011" 
d="M694 172l80 455q10 65 10 94q0 72 -40.5 112.5t-120.5 40.5q-115 0 -212.5 -91t-127.5 -263l-90 -520h-103l164 946h90l-25 -221q47 110 130.5 175t197.5 65q111 0 176.5 -58t65.5 -166q0 -45 -12 -116l-78 -443q0 -3 -3 -22.5t-3 -28.5q0 -59 57 -59q25 0 63 14l-14 -80
q-40 -16 -84 -16q-127 0 -127 123q0 21 6 59z" />
    <glyph glyph-name="o" unicode="o" horiz-adv-x="983" 
d="M444 66q108 0 189.5 71.5t121.5 182.5t40 241q0 154 -67 233.5t-191 79.5q-81 0 -148 -40.5t-110.5 -108.5t-67 -155.5t-23.5 -182.5q0 -159 67 -240t189 -81zM434 -18q-162 0 -255 102t-93 293q0 92 19 178t57.5 160.5t93 130t130.5 87.5t165 32q165 0 255.5 -104.5
t90.5 -293.5q0 -116 -30.5 -221t-87.5 -186.5t-146.5 -129.5t-198.5 -48z" />
    <glyph glyph-name="p" unicode="p" horiz-adv-x="1050" 
d="M342 946l-27 -221q42 109 131 174.5t205 65.5q149 0 231.5 -99t82.5 -286q0 -169 -56 -304.5t-162.5 -214.5t-244.5 -79q-113 0 -188 61t-89 156l-106 -615h-103l238 1362h88zM285 539l-29 -158q-14 -78 8 -148t83 -116.5t149 -46.5q164 0 263 146.5t99 363.5
q0 141 -61 219t-174 78q-122 0 -217 -94.5t-121 -243.5z" />
    <glyph glyph-name="q" unicode="q" horiz-adv-x="995" 
d="M754 399l26 150q15 86 -4.5 160t-77.5 122t-145 48q-161 0 -263 -144t-102 -362q0 -141 62.5 -223t177.5 -82q123 0 212 91t114 240zM717 -416h-105l109 621q-37 -103 -122.5 -163t-195.5 -60q-144 0 -230.5 99.5t-86.5 283.5q0 165 56 301t162.5 217.5t242.5 81.5
q112 0 183.5 -59t86.5 -161l51 201h86z" />
    <glyph glyph-name="r" unicode="r" horiz-adv-x="643" 
d="M682 952l-29 -118q-32 14 -71 14q-106 0 -191.5 -86t-109.5 -225l-93 -537h-104l164 946h90l-27 -233q40 108 119 180t184 72q33 0 68 -13z" />
    <glyph glyph-name="s" unicode="s" horiz-adv-x="811" 
d="M43 258l94 18q1 -110 64.5 -161.5t165.5 -51.5q213 0 213 173q0 75 -48 122.5t-155 87.5q-116 42 -169.5 100.5t-53.5 158.5q0 122 84.5 191t222.5 69q140 0 211 -64t71 -186l-98 -10q0 88 -49 133t-143 45q-92 0 -147.5 -44.5t-55.5 -125.5q0 -68 39 -107.5t151 -83.5
q126 -48 183 -112t57 -166q0 -129 -84.5 -195.5t-233.5 -66.5q-150 0 -234.5 72.5t-84.5 203.5z" />
    <glyph glyph-name="t" unicode="t" horiz-adv-x="604" 
d="M494 129l8 -88q-78 -59 -187 -59q-96 0 -147 46.5t-51 137.5q0 46 8 90l106 604h-131l15 86h133l37 199l104 16l-37 -215h248l-16 -86h-248l-107 -614q-8 -33 -8 -66q0 -55 29 -82.5t78 -27.5q91 0 166 59z" />
    <glyph glyph-name="u" unicode="u" horiz-adv-x="991" 
d="M891 946l-133 -764q-6 -27 -6 -51q0 -59 57 -59q25 0 63 14l-16 -80q-37 -16 -82 -16q-125 0 -125 119q0 18 15 106q-41 -110 -123 -171.5t-199 -61.5t-180.5 61t-63.5 176q0 37 13 113l106 614h105l-111 -633q-8 -36 -8 -86q0 -76 43 -120t123 -44q115 0 205.5 90
t117.5 242l94 551h105z" />
    <glyph glyph-name="v" unicode="v" horiz-adv-x="845" 
d="M246 0l-140 946h107l80 -602q11 -84 16.5 -152.5t5.5 -95.5v-26h7q25 82 127 270l337 606h113l-537 -946h-116z" />
    <glyph glyph-name="w" unicode="w" horiz-adv-x="1325" 
d="M965 350l292 596h109l-467 -946h-127l-53 582q-5 68 -7 132t-2 94l1 30h-6q-31 -98 -105 -260l-264 -578h-129l-88 946h104l51 -598q6 -67 9.5 -134.5t3.5 -101.5v-34h6q36 118 108 272l275 596h108l50 -600q4 -44 7 -88t4 -75.5t1.5 -56.5t-0.5 -38v-12h6
q35 112 113 274z" />
    <glyph glyph-name="x" unicode="x" horiz-adv-x="862" 
d="M625 0l-138 281q-22 46 -34 79t-13 42l-2 10h-8q-12 -24 -104 -133l-240 -279h-119l418 481l-223 465h110l119 -258q23 -49 36.5 -83t16.5 -43l2 -9h7q14 24 102 133l219 260h121l-395 -465l233 -481h-108z" />
    <glyph glyph-name="y" unicode="y" horiz-adv-x="854" 
d="M260 -31l-147 977h108l80 -604q12 -78 18.5 -145t7.5 -95l1 -28h6q31 92 125 264l336 608h110l-626 -1118q-82 -150 -154.5 -206t-169.5 -56q-85 0 -143 47l28 80q59 -45 119 -45q69 0 119.5 45.5t114.5 161.5z" />
    <glyph glyph-name="z" unicode="z" horiz-adv-x="841" 
d="M844 874l-563 -636q-42 -48 -79 -85.5t-53 -50.5l-16 -14v-6q60 6 189 6h380l-14 -88h-694l12 59l565 648q43 49 80 87t53 51l15 13v6q-58 -8 -187 -8h-350l17 90h659z" />
    <glyph glyph-name="braceleft" unicode="{" horiz-adv-x="800" 
d="M88 436l14 84h91q148 0 178 172l69 414q47 274 287 274q98 0 176 -34l-37 -80q-66 34 -135 34q-79 0 -125 -47.5t-65 -150.5l-74 -418q-19 -104 -66 -149.5t-125 -53.5v-6q61 -6 92 -38t31 -101q0 -26 -6 -64l-74 -417q-8 -54 -8 -72q0 -127 129 -127q68 0 148 35l10 -82
q-95 -33 -186 -33q-106 0 -153.5 48t-47.5 140q0 42 8 86l74 412q6 34 6 62q0 63 -33 87.5t-90 24.5h-88z" />
    <glyph glyph-name="bar" unicode="|" horiz-adv-x="475" 
d="M131 -416h-94l313 1786h94z" />
    <glyph glyph-name="braceright" unicode="}" horiz-adv-x="800" 
d="M707 520l-17 -84h-88q-150 0 -178 -174l-72 -412q-47 -274 -284 -274q-95 0 -177 33l35 82q72 -35 137 -35q78 0 125.5 48t65.5 151l74 417q18 104 65 149.5t125 53.5v6q-60 6 -91.5 38.5t-31.5 101.5q0 23 6 63l72 418q8 50 8 72q0 126 -127 126q-68 0 -149 -34l-8 80
q90 34 186 34q105 0 153 -48t48 -140q0 -26 -11 -86l-71 -414q-6 -30 -6 -61q0 -111 120 -111h91z" />
    <glyph glyph-name="asciitilde" unicode="~" horiz-adv-x="765" 
d="M401 477l-84 49q-50 33 -79 33q-38 0 -57 -24.5t-23 -81.5l-45 20q-7 31 -7 49q0 60 41 94.5t97 34.5q33 0 58 -10t60 -33l84 -51q43 -31 82 -31q75 0 78 113l51 -23q5 -20 5 -45q-1 -62 -41.5 -99.5t-98.5 -37.5q-35 0 -60.5 10.5t-60.5 32.5z" />
    <glyph glyph-name="nbspace" unicode="&#xa0;" horiz-adv-x="313" 
 />
    <glyph glyph-name="exclamdown" unicode="&#xa1;" horiz-adv-x="448" 
d="M162 -254h-135l182 866h74zM369 877q0 -34 -23.5 -57t-58.5 -23q-34 0 -57 23t-23 57q0 35 23 58t57 23q35 0 58.5 -23t23.5 -58z" />
    <glyph glyph-name="cent" unicode="&#xa2;" horiz-adv-x="991" 
d="M485 -18h-4l-35 -199h-75l35 207q-138 24 -220 129.5t-82 269.5q0 263 132 431t350 181l30 175h74l-31 -175q237 -15 287 -237l-98 -45q-34 175 -205 194l-147 -845h4q205 0 305 196l78 -55q-121 -227 -398 -227zM211 401q0 -129 55.5 -214.5t155.5 -110.5l147 837
q-158 -17 -258 -159t-100 -353z" />
    <glyph glyph-name="sterling" unicode="&#xa3;" horiz-adv-x="1005" 
d="M698 436h-301q15 -62 15 -96q0 -93 -45 -161t-111 -89h389q74 0 123 24t76 89l78 -41q-67 -162 -279 -162h-606l14 94h80q68 0 126 62t58 149q0 45 -20 131h-186l12 74h155q-18 77 -18 156q0 88 30.5 155t81.5 106t112 58t128 19q145 0 224 -69.5t79 -205.5l-100 -16
q-2 100 -54.5 152.5t-156.5 52.5q-111 0 -176.5 -63t-65.5 -187q0 -79 21 -158h330z" />
    <glyph glyph-name="currency" unicode="&#xa4;" horiz-adv-x="964" 
d="M461 270q-131 0 -193 86l-176 -149l-45 51l186 158q-18 52 -18 119q0 154 78 264l-121 147l57 47l115 -141q82 72 197 72q128 0 188 -84l182 153l43 -51l-188 -160q20 -62 20 -125q0 -144 -73 -256l121 -143l-56 -47l-116 137q-85 -78 -201 -78zM469 342
q104 0 165.5 92.5t61.5 218.5q0 97 -43 147t-121 50q-107 0 -169 -90t-62 -217q0 -99 44 -150t124 -51z" />
    <glyph glyph-name="yen" unicode="&#xa5;" horiz-adv-x="960" 
d="M831 506h-227l-98 -131h307l-8 -74h-311l-54 -301h-106l51 301h-301l8 74h303l-49 131h-235l6 74h200l-161 405h110l137 -356q21 -56 35.5 -100.5t18.5 -60.5l4 -17h6q25 55 115 178l262 356h119l-306 -405h183z" />
    <glyph glyph-name="brokenbar" unicode="&#xa6;" horiz-adv-x="475" 
d="M305 569h-94l139 801h94zM131 -416h-94l141 801h94z" />
    <glyph glyph-name="section" unicode="&#xa7;" horiz-adv-x="808" 
d="M733 485q0 -104 -62.5 -166.5t-172.5 -80.5q53 -42 78.5 -88t25.5 -111q0 -125 -89.5 -191.5t-233.5 -66.5q-147 0 -221 63.5t-74 184.5l90 12q3 -182 211 -182q96 0 156.5 44t60.5 124q0 69 -39.5 110t-153.5 103q-67 36 -103 59t-71.5 56.5t-50 71.5t-14.5 89
q0 105 63.5 168.5t169.5 81.5q-52 38 -76 83t-24 112q0 126 88 193t221 67q141 0 213 -63.5t72 -184.5l-99 -12q0 178 -196 178q-88 0 -144.5 -44.5t-56.5 -123.5q0 -65 39.5 -105t157.5 -102q127 -68 181 -127t54 -152zM635 471q0 38 -11 66t-43 55.5t-62 46t-95 53.5
l-43 25q-101 -9 -157 -60t-56 -133q0 -67 43.5 -106.5t169.5 -106.5q3 -3 21.5 -13.5t21.5 -10.5q92 3 151.5 54t59.5 130z" />
    <glyph glyph-name="dieresis" unicode="&#xa8;" horiz-adv-x="778" 
d="M137 1219q0 32 22 54.5t54 22.5q33 0 55.5 -22t22.5 -55t-22.5 -55.5t-55.5 -22.5q-32 0 -54 23t-22 55zM487 1217q0 33 22.5 55t55.5 22t55.5 -22t22.5 -55q0 -31 -23 -53.5t-55 -22.5t-55 22.5t-23 53.5z" />
    <glyph glyph-name="copyright" unicode="&#xa9;" horiz-adv-x="1439" 
d="M1366 602q0 -133 -49.5 -249t-133.5 -197t-198.5 -127.5t-241.5 -46.5q-128 0 -242.5 46.5t-198 127.5t-132.5 197t-49 249q0 177 83.5 320.5t225.5 223t313 79.5q170 0 312.5 -79.5t226.5 -223t84 -320.5zM1315 602q0 163 -77 295.5t-208 205.5t-287 73q-155 0 -285 -73
t-207 -205.5t-77 -295.5t77 -295t206.5 -204t285.5 -72q117 0 222 42.5t182 117t122.5 181.5t45.5 230zM702 205q-136 0 -217.5 85.5t-81.5 233.5q0 213 111 345t293 132q107 0 171 -49.5t85 -138.5l-86 -39q-12 73 -59.5 112.5t-122.5 39.5q-131 0 -216 -110.5t-85 -283.5
q0 -115 59 -183t162 -68q154 0 231 153l68 -47q-96 -182 -312 -182z" />
    <glyph glyph-name="ordfeminine" unicode="&#xaa;" horiz-adv-x="757" 
d="M467 1159q-110 0 -180 -91t-70 -230q0 -90 42.5 -141.5t119.5 -51.5q82 0 140 57t77 154l18 96q18 84 -21.5 145.5t-125.5 61.5zM662 717q-5 -25 -5 -29q0 -35 35 -35q17 0 51 11l-14 -68q-27 -12 -63 -12q-39 0 -64 18t-31 49q-2 7 2 60q-30 -59 -88 -96t-127 -37
q-104 0 -167.5 66.5t-63.5 189.5q0 166 93 280.5t241 114.5q71 0 119.5 -37.5t64.5 -97.5l35 123h76z" />
    <glyph glyph-name="guillemotleft" unicode="&#xab;" horiz-adv-x="933" 
d="M483 477v-8q15 -6 78 -98l180 -260l-71 -56l-283 422l432 422l53 -59l-264 -260q-36 -36 -67 -61.5t-45 -33.5zM186 477v-8q15 -6 78 -98l180 -260l-71 -56l-285 422l432 422l55 -59l-264 -260q-36 -36 -67.5 -61.5t-44.5 -33.5z" />
    <glyph glyph-name="logicalnot" unicode="&#xac;" horiz-adv-x="1015" 
d="M834 575h-736l11 70h817l-68 -385h-80z" />
    <glyph glyph-name="uni00AD" unicode="&#xad;" horiz-adv-x="776" 
d="M150 500l16 90h459l-17 -90h-458z" />
    <glyph glyph-name="registered" unicode="&#xae;" horiz-adv-x="1439" 
d="M999 244h-96q-21 30 -24 84l-7 114q-5 62 -32.5 87.5t-100.5 25.5h-164l-53 -311h-90l131 741h266q224 0 224 -182q0 -100 -63.5 -155t-155.5 -60q61 -8 92 -37t35 -88l8 -127q3 -54 30 -92zM639 911l-51 -286h170q98 0 151.5 43t53.5 129q0 114 -148 114h-176zM1366 602
q0 -133 -49.5 -249t-133.5 -197t-198.5 -127.5t-241.5 -46.5q-128 0 -242.5 46.5t-198 127.5t-132.5 197t-49 249q0 177 83.5 320.5t225.5 223t313 79.5q170 0 312.5 -79.5t226.5 -223t84 -320.5zM1313 602q0 163 -76.5 295.5t-207 205.5t-286.5 73q-155 0 -284.5 -73
t-206 -205.5t-76.5 -295.5t76.5 -294.5t205.5 -204t285 -72.5q157 0 287 72.5t206.5 204t76.5 294.5z" />
    <glyph glyph-name="macron" unicode="&#xaf;" horiz-adv-x="741" 
d="M590 1155h-453l15 88h454z" />
    <glyph glyph-name="degree" unicode="&#xb0;" horiz-adv-x="530" 
d="M305 874q66 0 109 46.5t43 113.5q0 62 -34 99.5t-95 37.5q-69 0 -112.5 -46t-43.5 -113q0 -64 34.5 -101t98.5 -37zM297 813q-93 0 -143 54.5t-50 138.5q0 95 64 160t166 65q89 0 140.5 -55t51.5 -136q0 -97 -64 -162t-165 -65z" />
    <glyph glyph-name="plusminus" unicode="&#xb1;" horiz-adv-x="1101" 
d="M156 670h376l54 295h76l-54 -295h383l-12 -72h-383l-57 -322h-76l57 322h-377zM86 182h836l-13 -69h-835z" />
    <glyph glyph-name="twosuperior" unicode="&#xb2;" horiz-adv-x="614" 
d="M211 979l-72 37q14 90 82.5 147.5t173.5 57.5q104 0 166 -56t62 -155q0 -61 -31.5 -122t-77 -107.5t-108.5 -91t-114 -73t-106 -53.5v-6h387l-12 -74h-506l13 70q77 43 137.5 80.5t124 84.5t105 90t68.5 92.5t27 96.5q0 69 -38.5 107.5t-106.5 38.5q-76 0 -121 -46
t-53 -118z" />
    <glyph glyph-name="threesuperior" unicode="&#xb3;" horiz-adv-x="593" 
d="M301 471q-112 0 -171 52t-64 136l81 19q6 -69 46 -104t108 -35q76 0 124 37t48 108q0 137 -217 137l12 68q246 3 246 149q0 48 -33 78.5t-94 30.5q-119 0 -149 -127l-74 29q47 172 231 172q94 0 151.5 -45t57.5 -129q0 -81 -57 -130t-154 -57v-6q79 -7 124.5 -53
t45.5 -117q0 -101 -75.5 -157t-186.5 -56z" />
    <glyph glyph-name="acute" unicode="&#xb4;" horiz-adv-x="581" 
d="M225 1092h-88l162 278h147z" />
    <glyph glyph-name="mu" unicode="&#xb5;" horiz-adv-x="991" 
d="M891 946l-133 -764q-6 -27 -6 -51q0 -59 57 -59q25 0 63 14l-16 -80q-37 -16 -82 -16q-125 0 -125 119q0 14 15 106q-41 -111 -120 -172t-196 -61q-67 0 -117 27.5t-63 74.5l-86 -500h-98l233 1362h105l-111 -633q-8 -36 -8 -86q0 -76 43 -120t123 -44q115 0 205.5 90
t117.5 242l94 551h105z" />
    <glyph glyph-name="mu" unicode="&#x3bc;" horiz-adv-x="991" 
d="M891 946l-133 -764q-6 -27 -6 -51q0 -59 57 -59q25 0 63 14l-16 -80q-37 -16 -82 -16q-125 0 -125 119q0 14 15 106q-41 -111 -120 -172t-196 -61q-67 0 -117 27.5t-63 74.5l-86 -500h-98l233 1362h105l-111 -633q-8 -36 -8 -86q0 -76 43 -120t123 -44q115 0 205.5 90
t117.5 242l94 551h105z" />
    <glyph glyph-name="paragraph" unicode="&#xb6;" horiz-adv-x="950" 
d="M643 473h-84q-203 0 -301 89t-76 255q21 195 164.5 292t390.5 97h303l-14 -86h-162l-211 -1200q-23 -127 -95 -190.5t-181 -63.5t-189 62l52 94q61 -64 147 -64q130 0 156 148z" />
    <glyph glyph-name="periodcentered" unicode="&#xb7;" horiz-adv-x="503" 
d="M166 510q0 37 25 61.5t63 24.5q37 0 61.5 -24.5t24.5 -61.5t-24.5 -61.5t-61.5 -24.5q-38 0 -63 24.5t-25 61.5z" />
    <glyph glyph-name="cedilla" unicode="&#xb8;" horiz-adv-x="651" 
d="M514 -254q0 -77 -56.5 -121.5t-144.5 -44.5q-116 0 -174 82l39 66q47 -78 135 -78q50 0 80.5 25.5t30.5 70.5q0 96 -154 102l64 162h61l-43 -104q162 -26 162 -160z" />
    <glyph glyph-name="onesuperior" unicode="&#xb9;" horiz-adv-x="602" 
d="M573 483h-493l12 72h207l98 561l-235 -41l12 78l332 57l-115 -655h197z" />
    <glyph glyph-name="ordmasculine" unicode="&#xba;" horiz-adv-x="692" 
d="M381 649q104 0 165.5 92.5t61.5 219.5q0 95 -43 144.5t-121 49.5q-106 0 -168.5 -90.5t-62.5 -216.5q0 -99 44 -149t124 -50zM373 578q-113 0 -179.5 68.5t-66.5 193.5q0 104 36.5 191.5t112.5 143.5t177 56q117 0 181 -70t64 -196q0 -162 -87.5 -274.5t-237.5 -112.5z
" />
    <glyph glyph-name="guillemotright" unicode="&#xbb;" horiz-adv-x="933" 
d="M457 477v8q-15 7 -76 99l-182 260l71 55l285 -422l-432 -422l-55 60l264 260q36 36 67.5 61.5t44.5 33.5zM756 477v8q-15 7 -78 99l-180 260l69 55l285 -422l-432 -422l-55 60l264 260q36 36 68 61.5t45 33.5z" />
    <glyph glyph-name="onequarter" unicode="&#xbc;" horiz-adv-x="1609" 
d="M596 483h-494l13 72h207l98 561l-238 -41l15 78l331 57l-114 -655h196zM397 0l840 1208h88l-840 -1208h-88zM1286 0l33 193h-379l12 71l453 459h96l-80 -461h123l-14 -69h-123l-33 -193h-88zM1133 262h200l45 260q5 32 12.5 62t11.5 44l5 13h-6q-29 -45 -90 -111
l-174 -178q-27 -27 -53.5 -49.5t-39.5 -31.5l-12 -9v-6q33 6 101 6z" />
    <glyph glyph-name="onehalf" unicode="&#xbd;" horiz-adv-x="1636" 
d="M596 483h-494l13 72h207l98 561l-238 -41l15 78l331 57l-114 -655h196zM397 0l840 1208h88l-840 -1208h-88zM1128 496l-71 36q14 90 82.5 147.5t173.5 57.5q104 0 165.5 -56t61.5 -155q0 -61 -31 -122t-76.5 -107t-108.5 -90.5t-114 -73t-106 -53.5v-6h387l-12 -74h-506
l12 70q99 55 172 102.5t144 105.5t109 118t38 118q0 69 -38.5 107t-106.5 38q-76 0 -121.5 -46t-53.5 -117z" />
    <glyph glyph-name="threequarters" unicode="&#xbe;" horiz-adv-x="1550" 
d="M299 471q-112 0 -171.5 52t-64.5 136l82 19q6 -69 46 -104t108 -35q76 0 124 37t48 108q0 66 -50 101.5t-167 35.5l12 68q246 3 246 149q0 48 -33 78.5t-94 30.5q-120 0 -147 -127l-74 29q44 172 229 172q94 0 152.5 -45t58.5 -129q0 -80 -58 -129.5t-155 -57.5v-6
q81 -7 126.5 -53t45.5 -117q0 -101 -76.5 -157t-187.5 -56zM340 0l840 1208h86l-838 -1208h-88zM1227 0l33 193h-379l14 71l453 459h94l-80 -461h123l-15 -69h-120l-35 -193h-88zM1075 262h201l45 260q4 32 11 61.5t12 43.5l4 14h-7q-29 -45 -90 -111l-174 -178
q-26 -27 -51.5 -49.5t-37.5 -31.5l-13 -9l-2 -6q32 6 102 6z" />
    <glyph glyph-name="questiondown" unicode="&#xbf;" horiz-adv-x="825" 
d="M645 33l86 -35q-83 -272 -362 -272q-157 0 -244.5 87.5t-87.5 231.5q0 100 38 178t100.5 123t136.5 67.5t153 22.5l35 195h98l-47 -264h-45q-57 0 -107.5 -10t-98 -33t-81 -58t-54 -89.5t-20.5 -123.5q0 -107 63.5 -172t172.5 -65q199 0 264 217zM668 877q0 -34 -23 -57
t-57 -23q-35 0 -58.5 23t-23.5 57q0 35 23.5 58t58.5 23q34 0 57 -23t23 -58z" />
    <glyph glyph-name="Agrave" unicode="&#xc0;" horiz-adv-x="1122" 
d="M893 0l-78 383h-541l-208 -383h-115l667 1206h142l244 -1206h-111zM524 836l-200 -361h475l-70 352q-16 79 -28.5 156t-17.5 115l-5 37h-6q-42 -106 -148 -299zM756 1315h-92l-162 248h141z" />
    <glyph glyph-name="Aacute" unicode="&#xc1;" horiz-adv-x="1122" 
d="M893 0l-78 383h-541l-208 -383h-115l667 1206h142l244 -1206h-111zM524 836l-200 -361h475l-70 352q-16 79 -28.5 156t-17.5 115l-5 37h-6q-42 -106 -148 -299zM754 1315h-95l150 248h145z" />
    <glyph glyph-name="Acircumflex" unicode="&#xc2;" horiz-adv-x="1122" 
d="M893 0l-78 383h-541l-208 -383h-115l667 1206h142l244 -1206h-111zM524 836l-200 -361h475l-70 352q-16 79 -28.5 156t-17.5 115l-5 37h-6q-42 -106 -148 -299zM707 1571h63l188 -256h-114l-68 98l-47 78h-4q1 0 -8 -10.5t-27 -30t-39 -39.5l-100 -96h-125z" />
    <glyph glyph-name="Atilde" unicode="&#xc3;" horiz-adv-x="1122" 
d="M893 0l-78 383h-541l-208 -383h-115l667 1206h142l244 -1206h-111zM524 836l-200 -361h475l-70 352q-16 79 -28.5 156t-17.5 115l-5 37h-6q-42 -106 -148 -299zM492 1335l-68 2q-6 24 -6 45q0 68 44 113t109 45q60 0 125 -45l74 -55q43 -29 76 -29q71 0 80 119l67 -4
q4 -28 4 -45q0 -67 -43 -111.5t-108 -44.5q-60 0 -125 45l-74 55q-41 27 -76 27q-37 0 -55.5 -28.5t-23.5 -88.5z" />
    <glyph glyph-name="Adieresis" unicode="&#xc4;" horiz-adv-x="1122" 
d="M893 0l-78 383h-541l-208 -383h-115l667 1206h142l244 -1206h-111zM524 836l-200 -361h475l-70 352q-16 79 -28.5 156t-17.5 115l-5 37h-6q-42 -106 -148 -299zM465 1413q0 32 23 55t55 23t55 -23t23 -55t-23 -55t-55 -23t-55 23t-23 55zM817 1411q0 34 22 56t54 22
q34 0 56 -22t22 -56q0 -33 -22.5 -55.5t-55.5 -22.5q-32 0 -54 23t-22 55z" />
    <glyph glyph-name="Aring" unicode="&#xc5;" horiz-adv-x="1122" 
d="M893 0l-78 383h-541l-208 -383h-115l667 1206h142l244 -1206h-111zM524 836l-200 -361h475l-70 352q-16 79 -28.5 156t-17.5 115l-5 37h-6q-42 -106 -148 -299zM725 1348q52 0 85.5 37t33.5 90q0 47 -26.5 75.5t-76.5 28.5q-53 0 -86.5 -36.5t-33.5 -88.5
q0 -49 26.5 -77.5t77.5 -28.5zM717 1290q-77 0 -120.5 44t-43.5 114q0 78 54 133t138 55q76 0 120 -44t44 -111q0 -80 -54 -135.5t-138 -55.5z" />
    <glyph glyph-name="AE" unicode="&#xc6;" horiz-adv-x="1658" 
d="M1473 0h-687l68 387h-467l-313 -387h-123l973 1206h759l-16 -94h-575l-82 -461h514l-17 -94h-514l-82 -463h578zM989 1135l-530 -658h409l70 391q16 87 30 153.5t20 90.5l7 23h-6z" />
    <glyph glyph-name="Ccedilla" unicode="&#xc7;" horiz-adv-x="1126" 
d="M668 -254q0 -77 -56.5 -121.5t-142.5 -44.5q-118 0 -176 82l39 66q50 -78 137 -78q50 0 80.5 25.5t30.5 70.5q0 96 -156 102l55 140q-172 26 -269 154.5t-97 326.5q0 174 48 318.5t130.5 239t192.5 146.5t235 52q157 0 255.5 -75t127.5 -216l-96 -41q-21 117 -100 178.5
t-195 61.5q-145 0 -256.5 -86t-171.5 -235t-60 -335q0 -184 93 -293.5t259 -109.5q123 0 204.5 49.5t144.5 171.5l90 -47q-129 -266 -449 -266h-28l-31 -76q162 -26 162 -160z" />
    <glyph glyph-name="Egrave" unicode="&#xc8;" horiz-adv-x="964" 
d="M793 94l-17 -94h-686l211 1206h686l-16 -94h-576l-82 -461h514l-16 -94h-514l-82 -463h578zM700 1315h-90l-164 248h144z" />
    <glyph glyph-name="Eacute" unicode="&#xc9;" horiz-adv-x="964" 
d="M793 94l-17 -94h-686l211 1206h686l-16 -94h-576l-82 -461h514l-16 -94h-514l-82 -463h578zM688 1315h-94l149 248h146z" />
    <glyph glyph-name="Ecircumflex" unicode="&#xca;" horiz-adv-x="964" 
d="M793 94l-17 -94h-686l211 1206h686l-16 -94h-576l-82 -461h514l-16 -94h-514l-82 -463h578zM653 1571h64l188 -256h-114l-68 98l-47 78h-4q1 0 -8.5 -10.5t-27.5 -30t-38 -39.5l-102 -96h-123z" />
    <glyph glyph-name="Edieresis" unicode="&#xcb;" horiz-adv-x="964" 
d="M793 94l-17 -94h-686l211 1206h686l-16 -94h-576l-82 -461h514l-16 -94h-514l-82 -463h578zM410 1413q0 32 22.5 55t54.5 23q33 0 55.5 -22.5t22.5 -55.5t-22.5 -55.5t-55.5 -22.5q-32 0 -54.5 23t-22.5 55zM762 1411q0 33 22.5 55.5t55.5 22.5t55.5 -22.5t22.5 -55.5
q0 -32 -23 -55t-55 -23t-55 23t-23 55z" />
    <glyph glyph-name="Igrave" unicode="&#xcc;" horiz-adv-x="452" 
d="M301 1206h111l-211 -1206h-111zM428 1315h-92l-162 248h141z" />
    <glyph glyph-name="Iacute" unicode="&#xcd;" horiz-adv-x="452" 
d="M301 1206h111l-211 -1206h-111zM414 1315h-95l150 248h145z" />
    <glyph glyph-name="Icircumflex" unicode="&#xce;" horiz-adv-x="452" 
d="M301 1206h111l-211 -1206h-111zM379 1571h63l189 -256h-115l-67 98q-13 19 -24.5 38.5t-16.5 29.5l-5 10h-4q-30 -37 -75 -80l-101 -96h-125z" />
    <glyph glyph-name="Idieresis" unicode="&#xcf;" horiz-adv-x="452" 
d="M301 1206h111l-211 -1206h-111zM137 1413q0 32 22.5 55t53.5 23q33 0 55.5 -22.5t22.5 -55.5t-22.5 -55.5t-55.5 -22.5q-31 0 -53.5 23t-22.5 55zM487 1411q0 33 22.5 55.5t55.5 22.5t55.5 -22.5t22.5 -55.5q0 -32 -23 -55t-55 -23t-55 23t-23 55z" />
    <glyph glyph-name="Eth" unicode="&#xd0;" horiz-adv-x="1200" 
d="M449 0h-359l96 557h-127l17 94h129l96 555h322q241 0 369 -120t128 -345q0 -151 -34.5 -274.5t-95.5 -209t-146 -144t-184 -86t-211 -27.5zM215 92h229q124 0 225.5 39t177.5 116.5t117.5 201t41.5 284.5q0 191 -105 286t-293 95h-213l-82 -463h299l-16 -94h-299z" />
    <glyph glyph-name="Ntilde" unicode="&#xd1;" horiz-adv-x="1255" 
d="M553 1335l-68 2q-6 24 -6 45q0 68 44.5 113t109.5 45q61 0 123 -45l75 -55q40 -29 76 -29q72 0 78 119l70 -4q4 -28 4 -45q0 -67 -44.5 -111.5t-109.5 -44.5q-61 0 -123 45l-75 55q-37 27 -76 27q-72 0 -78 -117zM418 1206l401 -831q27 -56 52 -114.5t36 -88.5l11 -31h6
q14 121 39 256l141 809h108l-208 -1206h-115l-406 829q-24 50 -49.5 108.5t-39.5 92.5l-13 33h-6q-8 -119 -33 -254l-141 -809h-111l211 1206h117z" />
    <glyph glyph-name="Ograve" unicode="&#xd2;" horiz-adv-x="1249" 
d="M575 74q141 0 252 85t171.5 234t60.5 334t-90 294t-262 109q-141 0 -252 -85t-171.5 -233.5t-60.5 -334.5q0 -187 93 -295t259 -108zM567 -18q-211 0 -332.5 132.5t-121.5 356.5q0 172 48 315.5t130.5 238.5t192 147.5t233.5 52.5q210 0 332 -133.5t122 -358.5
q0 -172 -48 -315t-131 -237.5t-192.5 -146.5t-232.5 -52zM807 1315h-92l-162 248h141z" />
    <glyph glyph-name="Oacute" unicode="&#xd3;" horiz-adv-x="1249" 
d="M575 74q141 0 252 85t171.5 234t60.5 334t-90 294t-262 109q-141 0 -252 -85t-171.5 -233.5t-60.5 -334.5q0 -187 93 -295t259 -108zM567 -18q-211 0 -332.5 132.5t-121.5 356.5q0 172 48 315.5t130.5 238.5t192 147.5t233.5 52.5q210 0 332 -133.5t122 -358.5
q0 -172 -48 -315t-131 -237.5t-192.5 -146.5t-232.5 -52zM793 1315h-93l150 248h143z" />
    <glyph glyph-name="Ocircumflex" unicode="&#xd4;" horiz-adv-x="1249" 
d="M575 74q141 0 252 85t171.5 234t60.5 334t-90 294t-262 109q-141 0 -252 -85t-171.5 -233.5t-60.5 -334.5q0 -187 93 -295t259 -108zM567 -18q-211 0 -332.5 132.5t-121.5 356.5q0 172 48 315.5t130.5 238.5t192 147.5t233.5 52.5q210 0 332 -133.5t122 -358.5
q0 -172 -48 -315t-131 -237.5t-192.5 -146.5t-232.5 -52zM760 1571h61l191 -256h-117l-70 98q-14 20 -24.5 39.5t-14.5 29.5l-4 9h-4q-22 -33 -73 -80l-103 -96h-123z" />
    <glyph glyph-name="Otilde" unicode="&#xd5;" horiz-adv-x="1249" 
d="M575 74q141 0 252 85t171.5 234t60.5 334t-90 294t-262 109q-141 0 -252 -85t-171.5 -233.5t-60.5 -334.5q0 -187 93 -295t259 -108zM567 -18q-211 0 -332.5 132.5t-121.5 356.5q0 172 48 315.5t130.5 238.5t192 147.5t233.5 52.5q210 0 332 -133.5t122 -358.5
q0 -172 -48 -315t-131 -237.5t-192.5 -146.5t-232.5 -52zM545 1335l-68 2q-6 24 -6 45q0 68 44.5 113t109.5 45q61 0 123 -45l75 -55q40 -29 76 -29q72 0 78 119l70 -4q4 -28 4 -45q0 -67 -44 -111.5t-110 -44.5q-61 0 -123 45l-74 55q-41 27 -77 27q-72 0 -78 -117z" />
    <glyph glyph-name="Odieresis" unicode="&#xd6;" horiz-adv-x="1249" 
d="M575 74q141 0 252 85t171.5 234t60.5 334t-90 294t-262 109q-141 0 -252 -85t-171.5 -233.5t-60.5 -334.5q0 -187 93 -295t259 -108zM567 -18q-211 0 -332.5 132.5t-121.5 356.5q0 172 48 315.5t130.5 238.5t192 147.5t233.5 52.5q210 0 332 -133.5t122 -358.5
q0 -172 -48 -315t-131 -237.5t-192.5 -146.5t-232.5 -52zM516 1413q0 32 23 55t55 23t55 -23t23 -55t-23 -55t-55 -23t-55 23t-23 55zM868 1411q0 33 22.5 55.5t53.5 22.5q34 0 56 -22t22 -56q0 -33 -22.5 -55.5t-55.5 -22.5q-31 0 -53.5 23t-22.5 55z" />
    <glyph glyph-name="multiply" unicode="&#xd7;" horiz-adv-x="972" 
d="M252 846l233 -285l346 295l48 -57l-347 -295l246 -291l-59 -49l-242 291l-346 -291l-45 57l342 291l-231 285z" />
    <glyph glyph-name="Oslash" unicode="&#xd8;" horiz-adv-x="1249" 
d="M567 -18q-213 0 -336 135l-131 -137l-61 57l143 147q-69 115 -69 287t48 315.5t130.5 238.5t192 147.5t233.5 52.5q210 0 332 -138l133 138l63 -60l-143 -149q69 -117 69 -283q0 -172 -48 -315t-131 -237.5t-192.5 -146.5t-232.5 -52zM223 477q0 -120 41 -207l713 740
q-91 120 -270 120q-141 0 -252 -85t-171.5 -233.5t-60.5 -334.5zM575 74q141 0 252 85t171.5 234t60.5 334q0 118 -41 205l-711 -739q92 -119 268 -119z" />
    <glyph glyph-name="Ugrave" unicode="&#xd9;" horiz-adv-x="1175" 
d="M1049 1206h108l-141 -817q-20 -114 -65 -195t-110.5 -126.5t-141 -65.5t-169.5 -20q-182 0 -292.5 92.5t-110.5 271.5q0 54 12 119l129 741h109l-131 -749q-8 -60 -8 -105q0 -139 83 -209.5t220 -70.5q146 0 241 77.5t127 258.5zM776 1315h-92l-162 248h142z" />
    <glyph glyph-name="Uacute" unicode="&#xda;" horiz-adv-x="1175" 
d="M1049 1206h108l-141 -817q-20 -114 -65 -195t-110.5 -126.5t-141 -65.5t-169.5 -20q-182 0 -292.5 92.5t-110.5 271.5q0 54 12 119l129 741h109l-131 -749q-8 -60 -8 -105q0 -139 83 -209.5t220 -70.5q146 0 241 77.5t127 258.5zM764 1315h-94l149 248h146z" />
    <glyph glyph-name="Ucircumflex" unicode="&#xdb;" horiz-adv-x="1175" 
d="M1049 1206h108l-141 -817q-20 -114 -65 -195t-110.5 -126.5t-141 -65.5t-169.5 -20q-182 0 -292.5 92.5t-110.5 271.5q0 54 12 119l129 741h109l-131 -749q-8 -60 -8 -105q0 -139 83 -209.5t220 -70.5q146 0 241 77.5t127 258.5zM729 1571h62l190 -256h-117l-69 98
q-14 20 -24.5 39.5t-14.5 29.5l-4 9h-4q-23 -33 -74 -80l-103 -96h-122z" />
    <glyph glyph-name="Udieresis" unicode="&#xdc;" horiz-adv-x="1175" 
d="M1049 1206h108l-141 -817q-20 -114 -65 -195t-110.5 -126.5t-141 -65.5t-169.5 -20q-182 0 -292.5 92.5t-110.5 271.5q0 54 12 119l129 741h109l-131 -749q-8 -60 -8 -105q0 -139 83 -209.5t220 -70.5q146 0 241 77.5t127 258.5zM485 1413q0 32 23 55t55 23
q33 0 55.5 -22.5t22.5 -55.5t-22.5 -55.5t-55.5 -22.5q-32 0 -55 23t-23 55zM838 1411q0 33 22 55.5t55 22.5q32 0 54 -22t22 -56q0 -32 -22 -55t-54 -23t-54.5 23t-22.5 55z" />
    <glyph glyph-name="Yacute" unicode="&#xdd;" horiz-adv-x="993" 
d="M281 1206l165 -442q23 -59 38.5 -109.5t19.5 -70.5l4 -21h6q31 66 123 201l313 442h119l-516 -723l-84 -483h-109l84 483l-276 723h113zM680 1315h-94l149 248h146z" />
    <glyph glyph-name="Thorn" unicode="&#xde;" horiz-adv-x="972" 
d="M354 889l-92 -539h215q166 0 257 80t91 238q0 115 -64 168t-198 53h-209zM201 0h-111l211 1206h111l-41 -227h204q182 0 272.5 -73.5t90.5 -229.5q0 -204 -125.5 -310t-337.5 -106h-229z" />
    <glyph glyph-name="germandbls" unicode="&#xdf;" horiz-adv-x="1052" 
d="M678 1298q-265 0 -324 -337l-204 -1174q-20 -115 -72.5 -167t-145.5 -52q-101 0 -155 57l28 82q56 -53 117 -53q53 0 81 32t40 103l207 1176q20 114 62.5 197t101.5 130t126 68.5t146 21.5q154 0 236 -76t82 -204q0 -77 -28 -138.5t-74.5 -100.5t-101 -62t-114.5 -31v-6
q130 -10 206.5 -96.5t76.5 -223.5q0 -215 -113 -338.5t-289 -123.5q-211 0 -254 159l74 62q39 -140 186 -140q122 0 205.5 97t83.5 280q0 133 -80.5 209t-230.5 76h-80l16 86h72q92 0 167.5 30t124 95t48.5 154q0 97 -56.5 152.5t-164.5 55.5z" />
    <glyph glyph-name="agrave" unicode="&#xe0;" horiz-adv-x="1054" 
d="M780 549q15 86 -4.5 160t-77.5 122t-145 48q-161 0 -263 -143.5t-102 -360.5q0 -142 62.5 -223.5t177.5 -81.5q123 0 212 91t114 242zM936 86l-16 -80q-37 -16 -82 -16q-61 0 -92 33t-31 92q0 24 12 94q-38 -103 -126 -165t-198 -62q-144 0 -230.5 99.5t-86.5 283.5
q0 165 56 301t162.5 217.5t242.5 81.5q112 0 183.5 -59t86.5 -161l51 201h86l-133 -764q-6 -27 -6 -51q0 -59 57 -59q26 0 64 14zM657 1092h-86l-182 278h141z" />
    <glyph glyph-name="aacute" unicode="&#xe1;" horiz-adv-x="1054" 
d="M780 549q15 86 -4.5 160t-77.5 122t-145 48q-161 0 -263 -143.5t-102 -360.5q0 -142 62.5 -223.5t177.5 -81.5q123 0 212 91t114 242zM936 86l-16 -80q-37 -16 -82 -16q-61 0 -92 33t-31 92q0 24 12 94q-38 -103 -126 -165t-198 -62q-144 0 -230.5 99.5t-86.5 283.5
q0 165 56 301t162.5 217.5t242.5 81.5q112 0 183.5 -59t86.5 -161l51 201h86l-133 -764q-6 -27 -6 -51q0 -59 57 -59q26 0 64 14zM637 1092h-88l162 278h147z" />
    <glyph glyph-name="acircumflex" unicode="&#xe2;" horiz-adv-x="1054" 
d="M780 549q15 86 -4.5 160t-77.5 122t-145 48q-161 0 -263 -143.5t-102 -360.5q0 -142 62.5 -223.5t177.5 -81.5q123 0 212 91t114 242zM936 86l-16 -80q-37 -16 -82 -16q-61 0 -92 33t-31 92q0 24 12 94q-38 -103 -126 -165t-198 -62q-144 0 -230.5 99.5t-86.5 283.5
q0 165 56 301t162.5 217.5t242.5 81.5q112 0 183.5 -59t86.5 -161l51 201h86l-133 -764q-6 -27 -6 -51q0 -59 57 -59q26 0 64 14zM612 1370h60l186 -278h-108l-72 110q-14 21 -25 41.5t-15 30.5l-5 10h-6q-23 -35 -74 -84l-109 -108h-116z" />
    <glyph glyph-name="atilde" unicode="&#xe3;" horiz-adv-x="1054" 
d="M780 549q15 86 -4.5 160t-77.5 122t-145 48q-161 0 -263 -143.5t-102 -360.5q0 -142 62.5 -223.5t177.5 -81.5q123 0 212 91t114 242zM936 86l-16 -80q-37 -16 -82 -16q-61 0 -92 33t-31 92q0 24 12 94q-38 -103 -126 -165t-198 -62q-144 0 -230.5 99.5t-86.5 283.5
q0 165 56 301t162.5 217.5t242.5 81.5q112 0 183.5 -59t86.5 -161l51 201h86l-133 -764q-6 -27 -6 -51q0 -59 57 -59q26 0 64 14zM406 1112l-68 4q-6 21 -6 45q0 67 44 111.5t109 44.5q61 0 123 -45l76 -55q40 -27 76 -27q72 0 78 117l69 -2q4 -32 4 -45q0 -69 -43.5 -113.5
t-109.5 -44.5q-61 0 -123 45l-74 55q-43 29 -76 29q-70 0 -79 -119z" />
    <glyph glyph-name="adieresis" unicode="&#xe4;" horiz-adv-x="1054" 
d="M780 549q15 86 -4.5 160t-77.5 122t-145 48q-161 0 -263 -143.5t-102 -360.5q0 -142 62.5 -223.5t177.5 -81.5q123 0 212 91t114 242zM936 86l-16 -80q-37 -16 -82 -16q-61 0 -92 33t-31 92q0 24 12 94q-38 -103 -126 -165t-198 -62q-144 0 -230.5 99.5t-86.5 283.5
q0 165 56 301t162.5 217.5t242.5 81.5q112 0 183.5 -59t86.5 -161l51 201h86l-133 -764q-6 -27 -6 -51q0 -59 57 -59q26 0 64 14zM371 1219q0 32 23 54.5t55 22.5t54.5 -22.5t22.5 -54.5t-22.5 -55t-54.5 -23t-55 23t-23 55zM723 1217q0 33 21.5 55t54.5 22q34 0 56 -21.5
t22 -55.5q0 -31 -22.5 -53.5t-55.5 -22.5q-32 0 -54 22.5t-22 53.5z" />
    <glyph glyph-name="aring" unicode="&#xe5;" horiz-adv-x="1054" 
d="M754 403l26 146q15 86 -4.5 160t-77.5 122t-145 48q-161 0 -263 -143.5t-102 -360.5q0 -142 62.5 -223.5t177.5 -81.5q123 0 212 91t114 242zM936 86l-16 -80q-37 -16 -82 -16q-61 0 -92 33t-31 92q0 24 12 94q-38 -103 -126 -165t-198 -62q-144 0 -230.5 99.5
t-86.5 283.5q0 165 56 301t162.5 217.5t242.5 81.5q112 0 183.5 -59t86.5 -161l51 201h86l-133 -764q-6 -27 -6 -51q0 -59 57 -59q26 0 64 14zM623 1139q53 0 86.5 36.5t33.5 90.5q0 47 -26 75.5t-76 28.5q-53 0 -88 -37t-35 -90q0 -47 27.5 -75.5t77.5 -28.5zM616 1081
q-79 0 -121 44t-42 114q0 78 54 133t138 55q76 0 120 -44.5t44 -112.5q0 -78 -54.5 -133.5t-138.5 -55.5z" />
    <glyph glyph-name="ae" unicode="&#xe6;" horiz-adv-x="1495" 
d="M1384 463h-624q-6 -40 -6 -82q0 -146 66.5 -230.5t197.5 -84.5q112 0 173.5 47t92.5 143l94 -25q-42 -129 -133.5 -189t-234.5 -60q-231 0 -312 186q-47 -86 -136 -136t-208 -50q-139 0 -208.5 64.5t-69.5 178.5q0 154 125.5 235t351.5 87q14 2 123 2q15 72 45 133
q7 96 -46 146.5t-149 50.5q-200 0 -247 -185l-95 17q33 134 130 194t225 60q217 0 264 -152q129 152 307 152q81 0 142.5 -26t98 -71.5t54.5 -102.5t18 -124q0 -107 -39 -178zM365 61q100 0 180 50t123 147q-11 64 -11 119q0 35 7 86h-111q-173 -5 -273 -62.5t-100 -171.5
q0 -80 47.5 -124t137.5 -44zM1106 879q-128 0 -214 -94.5t-118 -235.5h535q14 35 14 94q0 105 -54 170.5t-163 65.5z" />
    <glyph glyph-name="ccedilla" unicode="&#xe7;" horiz-adv-x="903" 
d="M535 -254q0 -77 -57.5 -121.5t-143.5 -44.5q-118 0 -176 82l39 66q50 -78 137 -78q50 0 80 25.5t30 70.5q0 96 -153 102l55 144q-123 25 -191.5 123t-68.5 260q0 89 18 174t56 160.5t91.5 132.5t130 90t165.5 33q152 0 225.5 -81t73.5 -225l-92 -16q-2 107 -54 169
t-163 62q-83 0 -151 -42.5t-110.5 -112.5t-65 -155.5t-22.5 -176.5q0 -159 67.5 -240t193.5 -81q203 0 268 206l96 -22q-90 -268 -377 -268q-6 0 -17 1t-16 1l-32 -78q164 -26 164 -160z" />
    <glyph glyph-name="egrave" unicode="&#xe8;" horiz-adv-x="923" 
d="M713 256l94 -25q-82 -249 -361 -249q-173 0 -266.5 103.5t-93.5 291.5q0 256 129 422t324 166q81 0 142.5 -26t98 -71.5t54.5 -102.5t18 -124q0 -103 -39 -174h-625q-6 -41 -6 -82q0 -147 66.5 -233t197.5 -86q112 0 174 47.5t93 142.5zM535 879q-130 0 -215.5 -91.5
t-118.5 -234.5h536q15 38 15 90q0 105 -54 170.5t-163 65.5zM606 1092h-86l-182 278h141z" />
    <glyph glyph-name="eacute" unicode="&#xe9;" horiz-adv-x="923" 
d="M713 256l94 -25q-82 -249 -361 -249q-173 0 -266.5 103.5t-93.5 291.5q0 256 129 422t324 166q81 0 142.5 -26t98 -71.5t54.5 -102.5t18 -124q0 -103 -39 -174h-625q-6 -41 -6 -82q0 -147 66.5 -233t197.5 -86q112 0 174 47.5t93 142.5zM535 879q-130 0 -215.5 -91.5
t-118.5 -234.5h536q15 38 15 90q0 105 -54 170.5t-163 65.5zM586 1092h-88l164 278h145z" />
    <glyph glyph-name="ecircumflex" unicode="&#xea;" horiz-adv-x="923" 
d="M713 256l94 -25q-82 -249 -361 -249q-173 0 -266.5 103.5t-93.5 291.5q0 256 129 422t324 166q81 0 142.5 -26t98 -71.5t54.5 -102.5t18 -124q0 -103 -39 -174h-625q-6 -41 -6 -82q0 -147 66.5 -233t197.5 -86q112 0 174 47.5t93 142.5zM535 879q-130 0 -215.5 -91.5
t-118.5 -234.5h536q15 38 15 90q0 105 -54 170.5t-163 65.5zM584 1370h59l188 -278h-110l-72 110q-14 21 -24.5 41.5t-14.5 30.5l-4 10h-6q-25 -35 -74 -84l-110 -108h-115z" />
    <glyph glyph-name="edieresis" unicode="&#xeb;" horiz-adv-x="923" 
d="M713 256l94 -25q-82 -249 -361 -249q-173 0 -266.5 103.5t-93.5 291.5q0 256 129 422t324 166q81 0 142.5 -26t98 -71.5t54.5 -102.5t18 -124q0 -103 -39 -174h-625q-6 -41 -6 -82q0 -147 66.5 -233t197.5 -86q112 0 174 47.5t93 142.5zM535 879q-130 0 -215.5 -91.5
t-118.5 -234.5h536q15 38 15 90q0 105 -54 170.5t-163 65.5zM319 1219q0 32 23 54.5t55 22.5t55 -22.5t23 -54.5t-23 -55t-55 -23t-55 23t-23 55zM672 1217q0 33 22 55t54 22q34 0 55.5 -21.5t21.5 -55.5q0 -31 -22 -53.5t-55 -22.5q-32 0 -54 22.5t-22 53.5z" />
    <glyph glyph-name="igrave" unicode="&#xec;" horiz-adv-x="446" 
d="M346 946l-133 -764q-6 -27 -6 -51q0 -59 57 -59q26 0 64 14l-17 -80q-37 -16 -82 -16q-127 0 -127 123q0 15 7 59l133 774h104zM381 1092h-88l-182 278h143z" />
    <glyph glyph-name="iacute" unicode="&#xed;" horiz-adv-x="446" 
d="M346 946l-133 -764q-6 -27 -6 -51q0 -59 57 -59q26 0 64 14l-17 -80q-37 -16 -82 -16q-127 0 -127 123q0 15 7 59l133 774h104zM356 1092h-88l164 278h146z" />
    <glyph glyph-name="icircumflex" unicode="&#xee;" horiz-adv-x="446" 
d="M346 946l-133 -764q-6 -27 -6 -51q0 -59 57 -59q26 0 64 14l-17 -80q-37 -16 -82 -16q-127 0 -127 123q0 15 7 59l133 774h104zM334 1370h59l187 -278h-109l-72 110q-14 21 -24.5 41.5t-14.5 30.5l-4 10h-6q-1 0 -8.5 -10t-26 -31.5t-39.5 -42.5l-110 -108h-117z" />
    <glyph glyph-name="idieresis" unicode="&#xef;" horiz-adv-x="446" 
d="M346 946l-133 -764q-6 -27 -6 -51q0 -59 57 -59q26 0 64 14l-17 -80q-37 -16 -82 -16q-127 0 -127 123q0 15 7 59l133 774h104zM92 1219q0 32 23 54.5t55 22.5t55 -22.5t23 -54.5t-23 -55t-55 -23t-55 23t-23 55zM442 1217q0 33 22.5 55t55.5 22q34 0 56 -21.5t22 -55.5
q0 -31 -22.5 -53.5t-55.5 -22.5q-32 0 -55 22.5t-23 53.5z" />
    <glyph glyph-name="eth" unicode="&#xf0;" horiz-adv-x="980" 
d="M291 1034l-15 60l291 73q-132 104 -325 152l75 57q225 -61 355 -180l186 47l16 -61l-151 -39q172 -199 172 -563q0 -168 -51.5 -301.5t-157.5 -215t-252 -81.5q-163 0 -255.5 100t-92.5 289q0 115 30 219t85.5 185t142 129t191.5 48q84 0 151 -38t96 -105h6
q-45 191 -163 309zM444 63q82 0 149 41.5t110 110.5t66.5 156.5t23.5 183.5q0 155 -66 232t-190 77q-107 0 -188.5 -69.5t-121 -177.5t-39.5 -236q0 -156 67 -237t189 -81z" />
    <glyph glyph-name="ntilde" unicode="&#xf1;" horiz-adv-x="1011" 
d="M694 172l80 455q10 65 10 94q0 72 -40.5 112.5t-120.5 40.5q-115 0 -212.5 -91t-127.5 -263l-90 -520h-103l164 946h90l-25 -221q47 110 130.5 175t197.5 65q111 0 176.5 -58t65.5 -166q0 -45 -12 -116l-78 -443q0 -3 -3 -22.5t-3 -28.5q0 -59 57 -59q25 0 63 14l-14 -80
q-40 -16 -84 -16q-127 0 -127 123q0 21 6 59zM410 1112l-70 4q-4 28 -4 45q0 67 44 111.5t109 44.5q61 0 123 -45l76 -55q37 -27 76 -27q72 0 78 117l67 -2q6 -24 6 -45q0 -68 -44 -113t-109 -45q-61 0 -123 45l-76 55q-40 29 -76 29q-71 0 -77 -119z" />
    <glyph glyph-name="ograve" unicode="&#xf2;" horiz-adv-x="983" 
d="M444 66q108 0 189.5 71.5t121.5 182.5t40 241q0 154 -67 233.5t-191 79.5q-81 0 -148 -40.5t-110.5 -108.5t-67 -155.5t-23.5 -182.5q0 -159 67 -240t189 -81zM434 -18q-162 0 -255 102t-93 293q0 92 19 178t57.5 160.5t93 130t130.5 87.5t165 32q165 0 255.5 -104.5
t90.5 -293.5q0 -116 -30.5 -221t-87.5 -186.5t-146.5 -129.5t-198.5 -48zM637 1092h-88l-182 278h143z" />
    <glyph glyph-name="oacute" unicode="&#xf3;" horiz-adv-x="983" 
d="M444 66q108 0 189.5 71.5t121.5 182.5t40 241q0 154 -67 233.5t-191 79.5q-81 0 -148 -40.5t-110.5 -108.5t-67 -155.5t-23.5 -182.5q0 -159 67 -240t189 -81zM434 -18q-162 0 -255 102t-93 293q0 92 19 178t57.5 160.5t93 130t130.5 87.5t165 32q165 0 255.5 -104.5
t90.5 -293.5q0 -116 -30.5 -221t-87.5 -186.5t-146.5 -129.5t-198.5 -48zM614 1092h-88l164 278h146z" />
    <glyph glyph-name="ocircumflex" unicode="&#xf4;" horiz-adv-x="983" 
d="M444 66q108 0 189.5 71.5t121.5 182.5t40 241q0 154 -67 233.5t-191 79.5q-81 0 -148 -40.5t-110.5 -108.5t-67 -155.5t-23.5 -182.5q0 -159 67 -240t189 -81zM434 -18q-162 0 -255 102t-93 293q0 92 19 178t57.5 160.5t93 130t130.5 87.5t165 32q165 0 255.5 -104.5
t90.5 -293.5q0 -116 -30.5 -221t-87.5 -186.5t-146.5 -129.5t-198.5 -48zM592 1370h57l189 -278h-111l-72 110q-14 21 -24.5 41.5t-14.5 30.5l-4 10h-6q-23 -35 -74 -84l-110 -108h-115z" />
    <glyph glyph-name="otilde" unicode="&#xf5;" horiz-adv-x="983" 
d="M444 66q108 0 189.5 71.5t121.5 182.5t40 241q0 154 -67 233.5t-191 79.5q-81 0 -148 -40.5t-110.5 -108.5t-67 -155.5t-23.5 -182.5q0 -159 67 -240t189 -81zM434 -18q-162 0 -255 102t-93 293q0 92 19 178t57.5 160.5t93 130t130.5 87.5t165 32q165 0 255.5 -104.5
t90.5 -293.5q0 -116 -30.5 -221t-87.5 -186.5t-146.5 -129.5t-198.5 -48zM387 1112l-70 4q-4 28 -4 45q0 67 44 111.5t110 44.5q61 0 123 -45l74 -55q40 -27 75 -27q74 0 80 117l68 -2q6 -24 6 -45q0 -68 -44.5 -113t-109.5 -45q-61 0 -123 45l-75 55q-44 29 -76 29
q-72 0 -78 -119z" />
    <glyph glyph-name="odieresis" unicode="&#xf6;" horiz-adv-x="983" 
d="M444 66q108 0 189.5 71.5t121.5 182.5t40 241q0 154 -67 233.5t-191 79.5q-81 0 -148 -40.5t-110.5 -108.5t-67 -155.5t-23.5 -182.5q0 -159 67 -240t189 -81zM434 -18q-162 0 -255 102t-93 293q0 92 19 178t57.5 160.5t93 130t130.5 87.5t165 32q165 0 255.5 -104.5
t90.5 -293.5q0 -116 -30.5 -221t-87.5 -186.5t-146.5 -129.5t-198.5 -48zM348 1219q0 32 23 54.5t55 22.5q34 0 56 -22t22 -55t-22.5 -55.5t-55.5 -22.5q-32 0 -55 23t-23 55zM700 1217q0 33 22.5 55t55.5 22t55.5 -22t22.5 -55q0 -31 -23 -53.5t-55 -22.5t-55 22.5
t-23 53.5z" />
    <glyph glyph-name="divide" unicode="&#xf7;" horiz-adv-x="1015" 
d="M100 543h836l-12 -70h-836zM502 850q0 31 20 52.5t49 21.5t50.5 -21.5t21.5 -52.5q0 -29 -21.5 -49.5t-50.5 -20.5t-49 20.5t-20 49.5zM360 152q0 29 20.5 50t49.5 21t50.5 -21t21.5 -50t-21.5 -49.5t-50.5 -20.5t-49.5 20.5t-20.5 49.5z" />
    <glyph glyph-name="oslash" unicode="&#xf8;" horiz-adv-x="983" 
d="M434 -18q-171 0 -258 106l-110 -108l-58 55l121 123q-43 87 -43 219q0 92 19 178t57.5 160.5t93 130t130.5 87.5t165 32q172 0 264 -115l113 113l57 -60l-127 -129q39 -79 39 -207q0 -116 -30.5 -221t-87.5 -186.5t-146.5 -129.5t-198.5 -48zM444 66q108 0 189.5 71.5
t121.5 182.5t40 241q0 70 -23 131l-526 -534q63 -92 198 -92zM188 387q0 -87 21 -149l532 538q-67 98 -204 98q-81 0 -148 -40.5t-110.5 -108.5t-67 -155.5t-23.5 -182.5z" />
    <glyph glyph-name="ugrave" unicode="&#xf9;" horiz-adv-x="991" 
d="M891 946l-133 -764q-6 -27 -6 -51q0 -59 57 -59q25 0 63 14l-16 -80q-37 -16 -82 -16q-125 0 -125 119q0 18 15 106q-41 -110 -123 -171.5t-199 -61.5t-180.5 61t-63.5 176q0 37 13 113l106 614h105l-111 -633q-8 -36 -8 -86q0 -76 43 -120t123 -44q115 0 205.5 90
t117.5 242l94 551h105zM627 1092h-86l-183 278h142z" />
    <glyph glyph-name="uacute" unicode="&#xfa;" horiz-adv-x="991" 
d="M891 946l-133 -764q-6 -27 -6 -51q0 -59 57 -59q25 0 63 14l-16 -80q-37 -16 -82 -16q-125 0 -125 119q0 18 15 106q-41 -110 -123 -171.5t-199 -61.5t-180.5 61t-63.5 176q0 37 13 113l106 614h105l-111 -633q-8 -36 -8 -86q0 -76 43 -120t123 -44q115 0 205.5 90
t117.5 242l94 551h105zM606 1092h-88l164 278h145z" />
    <glyph glyph-name="ucircumflex" unicode="&#xfb;" horiz-adv-x="991" 
d="M891 946l-133 -764q-6 -27 -6 -51q0 -59 57 -59q25 0 63 14l-16 -80q-37 -16 -82 -16q-125 0 -125 119q0 18 15 106q-41 -110 -123 -171.5t-199 -61.5t-180.5 61t-63.5 176q0 37 13 113l106 614h105l-111 -633q-8 -36 -8 -86q0 -76 43 -120t123 -44q115 0 205.5 90
t117.5 242l94 551h105zM582 1370h59l186 -278h-108l-72 110q-14 21 -24.5 41.5t-14.5 30.5l-4 10h-8q-23 -35 -74 -84l-108 -108h-117z" />
    <glyph glyph-name="udieresis" unicode="&#xfc;" horiz-adv-x="991" 
d="M891 946l-133 -764q-6 -27 -6 -51q0 -59 57 -59q25 0 63 14l-16 -80q-37 -16 -82 -16q-125 0 -125 119q0 18 15 106q-41 -110 -123 -171.5t-199 -61.5t-180.5 61t-63.5 176q0 37 13 113l106 614h105l-111 -633q-8 -36 -8 -86q0 -76 43 -120t123 -44q115 0 205.5 90
t117.5 242l94 551h105zM340 1219q0 32 23 54.5t55 22.5t55 -22.5t23 -54.5t-23 -55t-55 -23t-55 23t-23 55zM692 1217q0 33 22 55t54 22q34 0 56 -21.5t22 -55.5q0 -31 -22.5 -53.5t-55.5 -22.5q-32 0 -54 22.5t-22 53.5z" />
    <glyph glyph-name="yacute" unicode="&#xfd;" horiz-adv-x="854" 
d="M260 -31l-147 977h108l80 -604q12 -78 18.5 -145t7.5 -95l1 -28h6q31 92 125 264l336 608h110l-626 -1118q-82 -150 -154.5 -206t-169.5 -56q-85 0 -143 47l28 80q59 -45 119 -45q69 0 119.5 45.5t114.5 161.5zM543 1092h-90l163 278h148z" />
    <glyph glyph-name="thorn" unicode="&#xfe;" horiz-adv-x="1050" 
d="M428 1368l-113 -643q42 109 131 174.5t205 65.5q149 0 231.5 -99t82.5 -286q0 -169 -56 -304.5t-162.5 -214.5t-244.5 -79q-113 0 -188 61t-89 156l-106 -615h-103l312 1784h100zM285 537l-29 -162q-15 -78 7 -149.5t83.5 -119t149.5 -47.5q164 0 263 148t99 368
q0 144 -61 224t-174 80q-122 0 -217 -96t-121 -246z" />
    <glyph glyph-name="ydieresis" unicode="&#xff;" horiz-adv-x="854" 
d="M260 -31l-147 977h108l80 -604q12 -78 18.5 -145t7.5 -95l1 -28h6q31 92 125 264l336 608h110l-626 -1118q-82 -150 -154.5 -206t-169.5 -56q-85 0 -143 47l28 80q59 -45 119 -45q69 0 119.5 45.5t114.5 161.5zM276 1219q0 32 23 54.5t55 22.5t54 -22.5t22 -54.5t-22 -55
t-54 -23t-55 23t-23 55zM627 1217q0 33 22.5 55t55.5 22q34 0 55.5 -21.5t21.5 -55.5q0 -31 -22 -53.5t-55 -22.5q-32 0 -55 22.5t-23 53.5z" />
    <glyph glyph-name="Amacron" unicode="&#x100;" horiz-adv-x="1122" 
d="M893 0l-78 383h-541l-208 -383h-115l667 1206h142l244 -1206h-111zM524 836l-200 -361h475l-70 352q-16 79 -28.5 156t-17.5 115l-5 37h-6q-42 -106 -148 -299zM940 1366h-455l15 84h454z" />
    <glyph glyph-name="amacron" unicode="&#x101;" horiz-adv-x="1054" 
d="M754 403l26 146q15 86 -4.5 160t-77.5 122t-145 48q-161 0 -263 -143.5t-102 -360.5q0 -142 62.5 -223.5t177.5 -81.5q123 0 212 91t114 242zM936 86l-16 -80q-37 -16 -82 -16q-61 0 -92 33t-31 92q0 24 12 94q-38 -103 -126 -165t-198 -62q-144 0 -230.5 99.5
t-86.5 283.5q0 165 56 301t162.5 217.5t242.5 81.5q112 0 183.5 -59t86.5 -161l51 201h86l-133 -764q-6 -27 -6 -51q0 -59 57 -59q26 0 64 14zM840 1155h-455l16 88h453z" />
    <glyph glyph-name="Abreve" unicode="&#x102;" horiz-adv-x="1122" 
d="M893 0l-78 383h-541l-208 -383h-115l667 1206h142l244 -1206h-111zM524 836l-200 -361h475l-70 352q-16 79 -28.5 156t-17.5 115l-5 37h-6q-42 -106 -148 -299zM702 1307q-99 0 -152.5 49t-53.5 139q0 29 6 64h86q-2 -18 -2 -48q0 -122 129 -122q80 0 126 42t68 128h84
q-22 -120 -98 -186t-193 -66z" />
    <glyph glyph-name="abreve" unicode="&#x103;" horiz-adv-x="1054" 
d="M780 549q15 86 -4.5 160t-77.5 122t-145 48q-161 0 -263 -143.5t-102 -360.5q0 -142 62.5 -223.5t177.5 -81.5q123 0 212 91t114 242zM936 86l-16 -80q-37 -16 -82 -16q-61 0 -92 33t-31 92q0 24 12 94q-38 -103 -126 -165t-198 -62q-144 0 -230.5 99.5t-86.5 283.5
q0 165 56 301t162.5 217.5t242.5 81.5q112 0 183.5 -59t86.5 -161l51 201h86l-133 -764q-6 -27 -6 -51q0 -59 57 -59q26 0 64 14zM594 1085q-99 0 -153 51t-54 144q0 30 6 68h86q-4 -18 -4 -52q0 -129 129 -129q82 0 129 45.5t68 135.5h86q-23 -125 -99.5 -194t-193.5 -69z
" />
    <glyph glyph-name="Aogonek" unicode="&#x104;" horiz-adv-x="1122" 
d="M911 -262l41 -51q-63 -99 -184 -99q-79 0 -121.5 40.5t-42.5 113.5t43.5 138t104.5 106t131 65l-68 332h-541l-208 -383h-115l667 1206h142l244 -1206q-140 -25 -223 -91.5t-83 -158.5q0 -41 23 -63.5t63 -22.5q42 0 71.5 18t55.5 56zM524 836l-200 -361h475l-70 352
q-16 79 -28.5 156t-17.5 115l-5 37h-6q-42 -106 -148 -299z" />
    <glyph glyph-name="aogonek" unicode="&#x105;" horiz-adv-x="1054" 
d="M858 -262l41 -51q-63 -99 -184 -99q-79 0 -121.5 40.5t-42.5 113.5q0 86 60 157t149 117q-45 25 -45 103q0 18 12 90q-37 -101 -126 -164t-198 -63q-144 0 -230.5 99.5t-86.5 283.5q0 165 56 301t162.5 217.5t242.5 81.5q112 0 183.5 -59t86.5 -161l51 201h86l-133 -764
q-6 -27 -6 -51q0 -59 57 -59q26 0 64 14l-16 -80q-50 -13 -94.5 -32.5t-87.5 -50t-68 -75.5t-25 -98q0 -41 22.5 -63.5t63.5 -22.5q42 0 71.5 18t55.5 56zM780 549q15 86 -4.5 160t-77.5 122t-145 48q-161 0 -263 -143.5t-102 -360.5q0 -142 62.5 -223.5t177.5 -81.5
q123 0 212 91t114 242z" />
    <glyph glyph-name="Cacute" unicode="&#x106;" horiz-adv-x="1126" 
d="M786 1315h-94l150 248h145zM565 -18q-211 0 -331.5 133t-120.5 354q0 174 48 318.5t130.5 239t192.5 146.5t235 52q157 0 255.5 -75t127.5 -216l-96 -41q-21 117 -100 178.5t-195 61.5q-145 0 -256.5 -86t-171.5 -235t-60 -335q0 -184 93 -293.5t259 -109.5
q123 0 204.5 49.5t144.5 171.5l90 -47q-129 -266 -449 -266z" />
    <glyph glyph-name="cacute" unicode="&#x107;" horiz-adv-x="903" 
d="M188 387q0 -159 67.5 -240t193.5 -81q203 0 268 206l96 -22q-90 -268 -377 -268q-163 0 -256.5 102t-93.5 291q0 89 18 174t56 160.5t91.5 132.5t130 90t165.5 33q152 0 225.5 -81t73.5 -225l-92 -16q-2 107 -54 169t-163 62q-83 0 -151 -42.5t-110.5 -112.5t-65 -155.5
t-22.5 -176.5zM610 1092h-88l162 278h147z" />
    <glyph glyph-name="Ccircumflex" unicode="&#x108;" horiz-adv-x="1126" 
d="M752 1571h63l189 -256h-115l-70 98q-14 20 -25 39.5t-16 29.5l-4 9h-4q-23 -33 -72 -80l-104 -96h-123zM565 -18q-211 0 -331.5 133t-120.5 354q0 174 48 318.5t130.5 239t192.5 146.5t235 52q157 0 255.5 -75t127.5 -216l-96 -41q-21 117 -100 178.5t-195 61.5
q-145 0 -256.5 -86t-171.5 -235t-60 -335q0 -184 93 -293.5t259 -109.5q123 0 204.5 49.5t144.5 171.5l90 -47q-129 -266 -449 -266z" />
    <glyph glyph-name="ccircumflex" unicode="&#x109;" horiz-adv-x="903" 
d="M188 387q0 -159 67.5 -240t193.5 -81q203 0 268 206l96 -22q-90 -268 -377 -268q-163 0 -256.5 102t-93.5 291q0 89 18 174t56 160.5t91.5 132.5t130 90t165.5 33q152 0 225.5 -81t73.5 -225l-92 -16q-2 107 -54 169t-163 62q-83 0 -151 -42.5t-110.5 -112.5t-65 -155.5
t-22.5 -176.5zM586 1370h59l189 -278h-111l-72 110q-14 21 -24.5 41.5t-14.5 30.5l-4 10h-6q-25 -35 -74 -84l-110 -108h-117z" />
    <glyph glyph-name="Cdotaccent" unicode="&#x10a;" horiz-adv-x="1126" 
d="M688 1430q0 34 22 55.5t54 21.5q34 0 56 -21.5t22 -55.5q0 -33 -22.5 -55.5t-55.5 -22.5q-32 0 -54 23t-22 55zM565 -18q-211 0 -331.5 133t-120.5 354q0 174 48 318.5t130.5 239t192.5 146.5t235 52q157 0 255.5 -75t127.5 -216l-96 -41q-21 117 -100 178.5t-195 61.5
q-145 0 -256.5 -86t-171.5 -235t-60 -335q0 -184 93 -293.5t259 -109.5q123 0 204.5 49.5t144.5 171.5l90 -47q-129 -266 -449 -266z" />
    <glyph glyph-name="cdotaccent" unicode="&#x10b;" horiz-adv-x="903" 
d="M188 387q0 -159 67.5 -240t193.5 -81q203 0 268 206l96 -22q-90 -268 -377 -268q-163 0 -256.5 102t-93.5 291q0 89 18 174t56 160.5t91.5 132.5t130 90t165.5 33q152 0 225.5 -81t73.5 -225l-92 -16q-2 107 -54 169t-163 62q-83 0 -151 -42.5t-110.5 -112.5t-65 -155.5
t-22.5 -176.5zM516 1237q0 34 22 57t54 23q34 0 57 -23t23 -57q0 -32 -23 -54t-57 -22q-32 0 -54 22t-22 54z" />
    <glyph glyph-name="Ccaron" unicode="&#x10c;" horiz-adv-x="1126" 
d="M774 1315h-63l-191 256h117l70 -98q14 -20 25 -39.5t16 -29.5l4 -9h4q22 33 71 80l105 96h123zM565 -18q-211 0 -331.5 133t-120.5 354q0 174 48 318.5t130.5 239t192.5 146.5t235 52q157 0 255.5 -75t127.5 -216l-96 -41q-21 117 -100 178.5t-195 61.5
q-145 0 -256.5 -86t-171.5 -235t-60 -335q0 -184 93 -293.5t259 -109.5q123 0 204.5 49.5t144.5 171.5l90 -47q-129 -266 -449 -266z" />
    <glyph glyph-name="ccaron" unicode="&#x10d;" horiz-adv-x="903" 
d="M188 387q0 -159 67.5 -240t193.5 -81q203 0 268 206l96 -22q-90 -268 -377 -268q-163 0 -256.5 102t-93.5 291q0 89 18 174t56 160.5t91.5 132.5t130 90t165.5 33q152 0 225.5 -81t73.5 -225l-92 -16q-2 107 -54 169t-163 62q-83 0 -151 -42.5t-110.5 -112.5t-65 -155.5
t-22.5 -176.5zM604 1092h-59l-187 278h109l72 -110q14 -22 24.5 -43t14.5 -31l4 -10h8q23 35 72 86l110 108h117z" />
    <glyph glyph-name="Dcaron" unicode="&#x10e;" horiz-adv-x="1200" 
d="M215 92h229q124 0 225.5 39t177.5 116.5t117.5 201t41.5 284.5q0 191 -105 286t-293 95h-213zM449 0h-359l211 1206h322q241 0 369 -120t128 -345q0 -151 -34.5 -274.5t-95.5 -209t-146 -144t-184 -86t-211 -27.5zM692 1315h-61l-191 256h117l70 -98q14 -20 24.5 -39.5
t14.5 -29.5l4 -9h4q23 33 74 80l102 96h123z" />
    <glyph glyph-name="dcaron" unicode="&#x10f;" horiz-adv-x="1048" 
d="M754 401l28 148q23 134 -38 232t-191 98q-161 0 -264 -144.5t-103 -361.5q0 -140 62.5 -221.5t177.5 -81.5q124 0 213.5 90.5t114.5 240.5zM727 209q-35 -106 -123.5 -166.5t-200.5 -60.5q-144 0 -230.5 99.5t-86.5 283.5q0 165 56 301t162.5 217.5t242.5 81.5
q112 0 183.5 -59t86.5 -161l109 623h102l-207 -1186q-6 -27 -6 -51q0 -59 57 -59q26 0 64 14l-16 -80q-37 -16 -82 -16q-61 0 -92 33t-31 92q0 20 12 94zM1282 1368l-108 -358h-76l61 358h123z" />
    <glyph glyph-name="Dcroat" unicode="&#x110;" horiz-adv-x="1200" 
d="M449 0h-359l96 557h-127l17 94h129l96 555h322q241 0 369 -120t128 -345q0 -151 -34.5 -274.5t-95.5 -209t-146 -144t-184 -86t-211 -27.5zM215 92h229q124 0 225.5 39t177.5 116.5t117.5 201t41.5 284.5q0 191 -105 286t-293 95h-213l-82 -463h299l-16 -94h-299z" />
    <glyph glyph-name="dcroat" unicode="&#x111;" horiz-adv-x="1048" 
d="M557 1108l16 84h320l33 176h102l-33 -176h152l-17 -84h-149l-160 -926q-6 -27 -6 -51q0 -59 57 -59q26 0 64 14l-16 -80q-37 -16 -82 -16q-61 0 -92 33t-31 92q0 24 12 94q-35 -106 -123.5 -166.5t-200.5 -60.5q-144 0 -230.5 99.5t-86.5 283.5q0 165 56 301t162.5 217.5
t242.5 81.5q112 0 183.5 -59t86.5 -161l62 363h-322zM754 401l28 148q23 134 -38 232t-191 98q-161 0 -264 -144.5t-103 -361.5q0 -140 62.5 -221.5t177.5 -81.5q124 0 213.5 90.5t114.5 240.5z" />
    <glyph glyph-name="Emacron" unicode="&#x112;" horiz-adv-x="964" 
d="M793 94l-17 -94h-686l211 1206h686l-16 -94h-576l-82 -461h514l-16 -94h-514l-82 -463h578zM887 1366h-455l14 84h455z" />
    <glyph glyph-name="emacron" unicode="&#x113;" horiz-adv-x="923" 
d="M713 256l94 -25q-42 -128 -134 -188.5t-235 -60.5q-167 0 -259.5 103.5t-92.5 291.5q0 256 129 422t324 166q81 0 142.5 -26t98 -71.5t54.5 -102.5t18 -124q0 -103 -39 -174h-625q-6 -41 -6 -82q0 -147 66.5 -233t197.5 -86q112 0 174 47.5t93 142.5zM535 879
q-130 0 -215.5 -91.5t-118.5 -234.5h536q15 38 15 90q0 105 -54 170.5t-163 65.5zM788 1155h-454l16 88h453z" />
    <glyph glyph-name="Ebreve" unicode="&#x114;" horiz-adv-x="964" 
d="M793 94l-17 -94h-686l211 1206h686l-16 -94h-576l-82 -461h514l-16 -94h-514l-82 -463h578zM647 1307q-98 0 -151.5 49.5t-53.5 138.5q0 24 7 64h83q-2 -18 -2 -48q0 -122 129 -122q154 0 195 170h86q-22 -120 -99 -186t-194 -66z" />
    <glyph glyph-name="ebreve" unicode="&#x115;" horiz-adv-x="923" 
d="M713 256l94 -25q-82 -249 -361 -249q-173 0 -266.5 103.5t-93.5 291.5q0 256 129 422t324 166q81 0 142.5 -26t98 -71.5t54.5 -102.5t18 -124q0 -103 -39 -174h-625q-6 -41 -6 -82q0 -147 66.5 -233t197.5 -86q112 0 174 47.5t93 142.5zM535 879q-130 0 -215.5 -91.5
t-118.5 -234.5h536q15 38 15 90q0 105 -54 170.5t-163 65.5zM565 1085q-99 0 -152 51t-53 144q0 24 7 68h84q-2 -18 -2 -52q0 -129 129 -129q82 0 127.5 45.5t68.5 135.5h84q-22 -125 -99 -194t-194 -69z" />
    <glyph glyph-name="Edotaccent" unicode="&#x116;" horiz-adv-x="964" 
d="M793 94l-17 -94h-686l211 1206h686l-16 -94h-576l-82 -461h514l-16 -94h-514l-82 -463h578zM588 1430q0 34 22 55.5t54 21.5q34 0 56.5 -21.5t22.5 -55.5q0 -32 -22.5 -55t-56.5 -23q-32 0 -54 23t-22 55z" />
    <glyph glyph-name="edotaccent" unicode="&#x117;" horiz-adv-x="923" 
d="M713 256l94 -25q-82 -249 -361 -249q-173 0 -266.5 103.5t-93.5 291.5q0 256 129 422t324 166q81 0 142.5 -26t98 -71.5t54.5 -102.5t18 -124q0 -103 -39 -174h-625q-6 -41 -6 -82q0 -147 66.5 -233t197.5 -86q112 0 174 47.5t93 142.5zM535 879q-130 0 -215.5 -91.5
t-118.5 -234.5h536q15 38 15 90q0 105 -54 170.5t-163 65.5zM514 1237q0 34 22 57t54 23q34 0 57 -23t23 -57q0 -32 -23 -54t-57 -22q-32 0 -54 22t-22 54z" />
    <glyph glyph-name="Eogonek" unicode="&#x118;" horiz-adv-x="964" 
d="M717 -262l41 -51q-63 -99 -185 -99q-79 0 -121 40.5t-42 113.5q0 75 51 145t129 113h-500l211 1206h686l-16 -94h-576l-82 -461h514l-16 -94h-514l-82 -463h578l-17 -94q-124 -23 -198 -90t-74 -160q0 -41 22.5 -63.5t63.5 -22.5q42 0 71.5 18t55.5 56z" />
    <glyph glyph-name="eogonek" unicode="&#x119;" horiz-adv-x="923" 
d="M606 -256l43 -51q-63 -99 -186 -99q-79 0 -121.5 40.5t-42.5 113.5q0 137 137 236q-17 0 -53 4q-143 17 -220 117.5t-77 271.5q0 256 129 422t324 166q81 0 142.5 -26t98 -71.5t54.5 -102.5t18 -124q0 -103 -39 -174h-625q-6 -41 -6 -82q0 -147 66.5 -233t197.5 -86
q112 0 174 47.5t93 142.5l94 -25q-31 -93 -89 -146.5t-151 -88.5q-78 -32 -126 -98.5t-48 -141.5q0 -41 23 -64.5t63 -23.5q74 0 127 76zM535 879q-130 0 -215.5 -91.5t-118.5 -234.5h536q15 38 15 90q0 105 -54 170.5t-163 65.5z" />
    <glyph glyph-name="Ecaron" unicode="&#x11a;" horiz-adv-x="964" 
d="M793 94l-17 -94h-686l211 1206h686l-16 -94h-576l-82 -461h514l-16 -94h-514l-82 -463h578zM674 1315h-64l-188 256h115l67 -98l47 -78h4q-1 0 8 10.5t27 30t39 39.5l100 96h125z" />
    <glyph glyph-name="ecaron" unicode="&#x11b;" horiz-adv-x="923" 
d="M713 256l94 -25q-82 -249 -361 -249q-173 0 -266.5 103.5t-93.5 291.5q0 256 129 422t324 166q81 0 142.5 -26t98 -71.5t54.5 -102.5t18 -124q0 -103 -39 -174h-625q-6 -41 -6 -82q0 -147 66.5 -233t197.5 -86q112 0 174 47.5t93 142.5zM535 879q-130 0 -215.5 -91.5
t-118.5 -234.5h536q15 38 15 90q0 105 -54 170.5t-163 65.5zM580 1092h-60l-186 278h108l72 -110q14 -22 24.5 -43t14.5 -31l4 -10h8q23 35 74 86l109 108h116z" />
    <glyph glyph-name="Gcircumflex" unicode="&#x11c;" horiz-adv-x="1185" 
d="M745 1571h64l188 -256h-114l-68 98q-13 19 -24 38.5t-16 29.5l-5 10h-4q-31 -37 -76 -80l-100 -96h-125zM651 590h434l-104 -590h-86l16 203q-39 -101 -130 -161t-218 -60q-210 0 -330 133t-120 354q0 174 48 318.5t131 239t193 146.5t236 52q156 0 254 -75t127 -216
l-96 -41q-21 117 -100 178.5t-195 61.5q-144 0 -256 -86t-172 -235t-60 -335q0 -185 91.5 -294t260.5 -109q139 0 241 87t132 255l13 76h-328z" />
    <glyph glyph-name="gcircumflex" unicode="&#x11d;" horiz-adv-x="1003" 
d="M680 -35l45 242q-39 -104 -122.5 -164.5t-194.5 -60.5q-145 0 -232.5 100t-87.5 283q0 165 57 301.5t163.5 217.5t242.5 81q111 0 182 -59t86 -161l51 201h86l-172 -977q-36 -203 -143 -302t-299 -99q-164 0 -251.5 69.5t-98.5 190.5l92 31q9 -100 78 -155.5t186 -55.5
q145 0 224 81.5t108 235.5zM756 399l28 150q15 86 -4.5 160t-77.5 122t-145 48q-108 0 -193 -66.5t-130.5 -181.5t-45.5 -258q0 -140 62.5 -221.5t177.5 -81.5q126 0 214.5 89.5t113.5 239.5zM612 1370h58l188 -278h-110l-72 110q-14 21 -24.5 41.5t-14.5 30.5l-4 10h-6
q-25 -35 -74 -84l-111 -108h-114z" />
    <glyph glyph-name="Gbreve" unicode="&#x11e;" horiz-adv-x="1185" 
d="M739 1307q-98 0 -151 49t-53 139q0 29 6 64h86q-4 -18 -4 -48q0 -122 131 -122q80 0 126 42t68 128h84q-22 -120 -98.5 -186t-194.5 -66zM651 590h434l-104 -590h-86l16 203q-39 -101 -130 -161t-218 -60q-210 0 -330 133t-120 354q0 174 48 318.5t131 239t193 146.5
t236 52q156 0 254 -75t127 -216l-96 -41q-21 117 -100 178.5t-195 61.5q-144 0 -256 -86t-172 -235t-60 -335q0 -185 91.5 -294t260.5 -109q139 0 241 87t132 255l13 76h-328z" />
    <glyph glyph-name="gbreve" unicode="&#x11f;" horiz-adv-x="1003" 
d="M680 -35l45 242q-39 -104 -122.5 -164.5t-194.5 -60.5q-145 0 -232.5 100t-87.5 283q0 165 57 301.5t163.5 217.5t242.5 81q111 0 182 -59t86 -161l51 201h86l-172 -977q-36 -203 -143 -302t-299 -99q-164 0 -251.5 69.5t-98.5 190.5l92 31q9 -100 78 -155.5t186 -55.5
q145 0 224 81.5t108 235.5zM756 399l28 150q15 86 -4.5 160t-77.5 122t-145 48q-108 0 -193 -66.5t-130.5 -181.5t-45.5 -258q0 -140 62.5 -221.5t177.5 -81.5q126 0 214.5 89.5t113.5 239.5zM592 1085q-99 0 -152 51t-53 144q0 30 6 68h86q-4 -18 -4 -52q0 -129 129 -129
q82 0 128 45.5t69 135.5h84q-22 -125 -98.5 -194t-194.5 -69z" />
    <glyph glyph-name="Gdotaccent" unicode="&#x120;" horiz-adv-x="1185" 
d="M682 1430q0 34 22 55.5t54 21.5q34 0 56 -21.5t22 -55.5q0 -33 -22.5 -55.5t-55.5 -22.5q-32 0 -54 23t-22 55zM651 590h434l-104 -590h-86l16 203q-39 -101 -130 -161t-218 -60q-210 0 -330 133t-120 354q0 174 48 318.5t131 239t193 146.5t236 52q156 0 254 -75
t127 -216l-96 -41q-21 117 -100 178.5t-195 61.5q-144 0 -256 -86t-172 -235t-60 -335q0 -185 91.5 -294t260.5 -109q139 0 241 87t132 255l13 76h-328z" />
    <glyph glyph-name="gdotaccent" unicode="&#x121;" horiz-adv-x="1003" 
d="M680 -35l45 242q-39 -104 -122.5 -164.5t-194.5 -60.5q-145 0 -232.5 100t-87.5 283q0 165 57 301.5t163.5 217.5t242.5 81q111 0 182 -59t86 -161l51 201h86l-172 -977q-36 -203 -143 -302t-299 -99q-164 0 -251.5 69.5t-98.5 190.5l92 31q9 -100 78 -155.5t186 -55.5
q145 0 224 81.5t108 235.5zM756 399l28 150q15 86 -4.5 160t-77.5 122t-145 48q-108 0 -193 -66.5t-130.5 -181.5t-45.5 -258q0 -140 62.5 -221.5t177.5 -81.5q126 0 214.5 89.5t113.5 239.5zM541 1237q0 34 21.5 57t53.5 23q34 0 57 -23t23 -57q0 -32 -23 -54t-57 -22
q-32 0 -53.5 22t-21.5 54z" />
    <glyph glyph-name="Gcommaaccent" unicode="&#x122;" horiz-adv-x="1185" 
d="M575 -289q0 -90 -64 -138t-167 -48v51q64 3 110 27t46 69q0 9 -4 21q-10 -10 -31 -10q-29 0 -47.5 18t-18.5 47q0 33 22 53.5t58 20.5q41 0 68.5 -29t27.5 -82zM651 590h434l-104 -590h-86l16 203q-39 -101 -130 -161t-218 -60q-210 0 -330 133t-120 354q0 174 48 318.5
t131 239t193 146.5t236 52q156 0 254 -75t127 -216l-96 -41q-21 117 -100 178.5t-195 61.5q-144 0 -256 -86t-172 -235t-60 -335q0 -185 91.5 -294t260.5 -109q139 0 241 87t132 255l13 76h-328z" />
    <glyph glyph-name="gcommaaccent" unicode="&#x123;" horiz-adv-x="1003" 
d="M680 -35l45 242q-39 -104 -122.5 -164.5t-194.5 -60.5q-145 0 -232.5 100t-87.5 283q0 165 57 301.5t163.5 217.5t242.5 81q111 0 182 -59t86 -161l51 201h86l-172 -977q-36 -203 -143 -302t-299 -99q-164 0 -251.5 69.5t-98.5 190.5l92 31q9 -100 78 -155.5t186 -55.5
q145 0 224 81.5t108 235.5zM756 399l28 150q15 86 -4.5 160t-77.5 122t-145 48q-108 0 -193 -66.5t-130.5 -181.5t-45.5 -258q0 -140 62.5 -221.5t177.5 -81.5q126 0 214.5 89.5t113.5 239.5zM532 1227q0 90 64.5 138t167.5 48v-53q-64 -2 -110 -25t-46 -69q0 -9 4 -21
q13 10 31 10q29 0 46.5 -18t17.5 -47q0 -34 -21.5 -54t-56.5 -20q-41 0 -69 29t-28 82z" />
    <glyph glyph-name="Hcircumflex" unicode="&#x124;" horiz-adv-x="1257" 
d="M1106 1206h108l-208 -1206h-111l96 561h-694l-96 -561h-111l211 1206h111l-97 -549h695zM782 1571h62l190 -256h-114l-68 98q-14 19 -25.5 38.5t-16.5 29.5l-5 10h-4q1 0 -8.5 -10.5t-27.5 -30t-38 -39.5l-102 -96h-123z" />
    <glyph glyph-name="hcircumflex" unicode="&#x125;" horiz-adv-x="1009" 
d="M692 172l80 455q10 65 10 94q0 72 -40.5 112.5t-120.5 40.5q-115 0 -212 -91t-126 -263l-90 -520h-105l238 1368h106l-115 -643q46 109 131 174.5t199 65.5q110 0 175 -58t65 -166q0 -40 -13 -116l-77 -443q0 -3 -3 -22.5t-3 -28.5q0 -59 57 -59q25 0 63 14l-14 -80
q-37 -16 -82 -16q-129 0 -129 123q0 21 6 59zM403 1688h62l190 -258h-116l-70 100q-14 19 -24.5 38.5t-14.5 29.5l-4 10h-4q-23 -33 -74 -80l-102 -98h-123z" />
    <glyph glyph-name="Hbar" unicode="&#x126;" horiz-adv-x="1284" 
d="M1116 1206h109l-43 -241h164l-19 -95h-162l-149 -870h-111l96 561h-694l-96 -561h-111l152 870h-152l17 95h151l43 241h111l-43 -241h694zM326 657h694l35 213h-695z" />
    <glyph glyph-name="hbar" unicode="&#x127;" horiz-adv-x="1009" 
d="M125 1108l16 84h152l33 176h106l-33 -176h316l-17 -84h-315l-66 -383q46 109 131 174.5t199 65.5q110 0 175 -58t65 -166q0 -40 -13 -116l-77 -443q0 -3 -3 -22.5t-3 -28.5q0 -59 57 -59q25 0 63 14l-14 -80q-37 -16 -82 -16q-129 0 -129 123q0 21 6 59l80 455
q10 65 10 94q0 72 -40.5 112.5t-120.5 40.5q-115 0 -212 -91t-126 -263l-90 -520h-105l191 1108h-154z" />
    <glyph glyph-name="Itilde" unicode="&#x128;" horiz-adv-x="452" 
d="M301 1206h111l-211 -1206h-111zM166 1335l-70 2q-4 32 -4 45q0 69 43.5 113.5t108.5 44.5q60 0 125 -45l73 -55q43 -29 76 -29q71 0 80 119l68 -4q6 -21 6 -45q0 -67 -44.5 -111.5t-109.5 -44.5q-61 0 -123 45l-76 55q-40 27 -75 27q-72 0 -78 -117z" />
    <glyph glyph-name="itilde" unicode="&#x129;" horiz-adv-x="446" 
d="M346 946l-133 -764q-6 -27 -6 -51q0 -59 57 -59q26 0 64 14l-17 -80q-37 -16 -82 -16q-127 0 -127 123q0 19 7 59l133 774h104zM129 1112l-70 4q-4 28 -4 45q0 67 43.5 111.5t108.5 44.5q57 0 119 -45l73 -55q36 -27 72 -27q37 0 55 28.5t21 88.5l69 -2q7 -28 7 -45
q0 -69 -43.5 -113.5t-108.5 -44.5q-57 0 -119 45l-73 55q-43 29 -74 29q-67 0 -76 -119z" />
    <glyph glyph-name="Imacron" unicode="&#x12a;" horiz-adv-x="452" 
d="M301 1206h111l-211 -1206h-111zM612 1366h-452l12 84h455z" />
    <glyph glyph-name="imacron" unicode="&#x12b;" horiz-adv-x="446" 
d="M346 946l-133 -764q-6 -27 -6 -51q0 -59 57 -59q26 0 64 14l-17 -80q-37 -16 -82 -16q-127 0 -127 123q0 15 7 59l133 774h104zM547 1155h-426l14 88h428z" />
    <glyph glyph-name="Ibreve" unicode="&#x12c;" horiz-adv-x="452" 
d="M301 1206h111l-211 -1206h-111zM373 1307q-98 0 -151.5 49.5t-53.5 138.5q0 29 6 64h86q-4 -18 -4 -48q0 -122 131 -122q80 0 126.5 42t68.5 128h84q-22 -120 -98.5 -186t-194.5 -66z" />
    <glyph glyph-name="ibreve" unicode="&#x12d;" horiz-adv-x="446" 
d="M346 946l-133 -764q-6 -27 -6 -51q0 -59 57 -59q26 0 64 14l-17 -80q-37 -16 -82 -16q-127 0 -127 123q0 19 7 59l133 774h104zM315 1085q-100 0 -153 51t-53 144q0 30 6 68h86q-4 -18 -4 -52q0 -129 129 -129q82 0 127.5 45.5t68.5 135.5h84q-22 -125 -98 -194t-193 -69
z" />
    <glyph glyph-name="Iogonek" unicode="&#x12e;" horiz-adv-x="452" 
d="M150 -262l43 -51q-63 -99 -187 -99q-79 0 -121.5 40.5t-42.5 113.5q0 100 74.5 180.5t181.5 126.5l203 1157h111l-211 -1206q-109 -25 -186.5 -92.5t-77.5 -157.5q0 -41 23 -63.5t63 -22.5q42 0 71.5 18t55.5 56z" />
    <glyph glyph-name="iogonek" unicode="&#x12f;" horiz-adv-x="446" 
d="M262 1237q0 34 22 57t54 23t55 -23t23 -57q0 -32 -23 -54t-55 -22t-54 22t-22 54zM102 111q0 17 7 61l133 774h104l-133 -764q-6 -27 -6 -51q0 -59 57 -59q26 0 64 14l-17 -80q-50 -11 -93.5 -30t-82.5 -49t-61.5 -75.5t-22.5 -101.5q0 -41 23 -63.5t63 -22.5
q42 0 71.5 18t55.5 56l41 -51q-63 -99 -184 -99q-79 0 -121.5 41.5t-42.5 116.5q0 83 52 155.5t136 114.5q-43 25 -43 95z" />
    <glyph glyph-name="Idotaccent" unicode="&#x130;" horiz-adv-x="452" 
d="M301 1206h111l-211 -1206h-111zM315 1430q0 34 21.5 55.5t54.5 21.5q34 0 56 -21.5t22 -55.5q0 -33 -22.5 -55.5t-55.5 -22.5q-32 0 -54 23t-22 55z" />
    <glyph glyph-name="dotlessi" unicode="&#x131;" horiz-adv-x="446" 
d="M346 946l-133 -764q-6 -27 -6 -51q0 -59 57 -59q26 0 64 14l-17 -80q-37 -16 -82 -16q-127 0 -127 123q0 15 7 59l133 774h104z" />
    <glyph glyph-name="IJ" unicode="&#x132;" horiz-adv-x="1296" 
d="M301 1206h111l-211 -1206h-111zM1165 1206h111l-154 -870q-33 -192 -123 -273t-254 -81q-139 0 -220.5 67.5t-102.5 179.5l90 54q44 -213 238 -213q121 0 180 64.5t86 219.5z" />
    <glyph glyph-name="ij" unicode="&#x133;" horiz-adv-x="866" 
d="M346 946l-133 -764q-6 -27 -6 -51q0 -59 57 -59q26 0 64 14l-17 -80q-37 -16 -82 -16q-127 0 -127 123q0 15 7 59l133 774h104zM262 1237q0 34 22 57t54 23t55 -23t23 -57q0 -32 -23 -54t-55 -22t-54 22t-22 54zM498 -176l200 1122h105l-201 -1120q-23 -133 -85.5 -195.5
t-168.5 -62.5q-101 0 -162 57l39 84q61 -55 131 -55q58 0 92.5 41t49.5 129zM719 1237q0 34 22 57t54 23q34 0 56.5 -23t22.5 -57q0 -32 -22.5 -54t-56.5 -22q-32 0 -54 22t-22 54z" />
    <glyph glyph-name="Jcircumflex" unicode="&#x134;" horiz-adv-x="858" 
d="M727 1206h111l-154 -870q-35 -193 -124.5 -273.5t-254.5 -80.5q-137 0 -218.5 67.5t-102.5 179.5l90 54q20 -105 80 -159t157 -54q120 0 180 65t87 219zM805 1571h63l189 -256h-115l-70 98q-14 20 -25 39.5t-15 29.5l-5 9h-4q-22 -33 -71 -80l-105 -96h-123z" />
    <glyph glyph-name="jcircumflex" unicode="&#x135;" horiz-adv-x="417" 
d="M49 -176l199 1122h104l-198 -1120q-23 -133 -85.5 -195.5t-168.5 -62.5q-50 0 -93.5 16t-68.5 41l39 84q61 -55 129 -55q60 0 94 41t49 129zM338 1370h59l189 -278h-111l-72 110q-14 21 -24.5 41.5t-14.5 30.5l-4 10h-6q-24 -35 -73 -84l-111 -108h-115z" />
    <glyph glyph-name="Kcommaaccent" unicode="&#x136;" horiz-adv-x="1009" 
d="M905 0h-123l-370 561h-115l-96 -561h-111l211 1206h111l-97 -551h101l538 551h133l-587 -592zM489 -289q0 -90 -65 -138t-168 -48v51q65 3 110.5 26.5t45.5 69.5q0 15 -4 21q-8 -10 -31 -10q-29 0 -46.5 18t-17.5 47q0 34 21.5 54t58.5 20q41 0 68.5 -29t27.5 -82z" />
    <glyph glyph-name="kcommaaccent" unicode="&#x137;" horiz-adv-x="882" 
d="M745 74q33 0 72 16l-16 -84q-39 -16 -88 -16q-50 0 -85.5 27t-66.5 87l-201 367h-86l-81 -471h-105l238 1368h106l-143 -817h82l385 395h129l-434 -432l190 -352q25 -46 48.5 -67t55.5 -21zM432 -289q0 -90 -65 -138t-168 -48v51q65 3 110 26.5t45 69.5q0 15 -4 21
q-8 -10 -31 -10q-29 0 -46 18t-17 47q0 34 21.5 54t58.5 20q41 0 68.5 -29t27.5 -82z" />
    <glyph glyph-name="kgreenlandic" unicode="&#x138;" horiz-adv-x="882" 
d="M745 74q33 0 72 16l-16 -84q-39 -16 -88 -16q-50 0 -84.5 27t-67.5 87l-201 367h-86l-81 -471h-105l164 946h106l-69 -395h82l385 395h129l-434 -432l190 -352q25 -46 48.5 -67t55.5 -21z" />
    <glyph glyph-name="Lacute" unicode="&#x139;" horiz-adv-x="892" 
d="M301 1206h111l-197 -1112h559l-14 -94h-670zM416 1315h-94l149 248h145z" />
    <glyph glyph-name="lacute" unicode="&#x13a;" horiz-adv-x="442" 
d="M420 1368l-207 -1186q-6 -27 -6 -51q0 -59 57 -59q26 0 64 14l-17 -80q-37 -16 -82 -16q-127 0 -127 123q0 15 7 59l206 1196h105zM426 1425h-94l149 248h144z" />
    <glyph glyph-name="Lcommaaccent" unicode="&#x13b;" horiz-adv-x="892" 
d="M301 1206h111l-197 -1112h559l-14 -94h-670zM483 -289q0 -90 -64 -138t-167 -48v51q64 3 110 27t46 69q0 6 -5 21q-10 -10 -30 -10q-29 0 -46.5 18t-17.5 47q0 34 21.5 54t56.5 20q41 0 68.5 -29t27.5 -82z" />
    <glyph glyph-name="lcommaaccent" unicode="&#x13c;" horiz-adv-x="442" 
d="M420 1368l-207 -1186q-6 -27 -6 -51q0 -59 57 -59q26 0 64 14l-17 -80q-37 -16 -82 -16q-127 0 -127 123q0 15 7 59l206 1196h105zM231 -289q0 -90 -64 -138t-167 -48v51q64 3 110 27t46 69q0 9 -4 21q-10 -10 -31 -10q-29 0 -47.5 18t-18.5 47q0 33 22 53.5t58 20.5
q41 0 68.5 -29t27.5 -82z" />
    <glyph glyph-name="Lcaron" unicode="&#x13d;" horiz-adv-x="892" 
d="M301 1206h111l-197 -1112h559l-14 -94h-670zM758 1294l-107 -358h-78l62 358h123z" />
    <glyph glyph-name="lcaron" unicode="&#x13e;" horiz-adv-x="442" 
d="M420 1368l-207 -1186q-6 -27 -6 -51q0 -59 57 -59q26 0 64 14l-17 -80q-37 -16 -82 -16q-127 0 -127 123q0 15 7 59l206 1196h105zM674 1368l-109 -358h-76l62 358h123z" />
    <glyph glyph-name="Ldot" unicode="&#x13f;" horiz-adv-x="892" 
d="M301 1206h111l-197 -1112h559l-14 -94h-670zM612 618q0 37 24.5 62t61.5 25t61.5 -25t24.5 -62q0 -38 -24.5 -63t-61.5 -25t-61.5 25t-24.5 63z" />
    <glyph glyph-name="ldot" unicode="&#x140;" horiz-adv-x="536" 
d="M420 1368l-207 -1186q-6 -27 -6 -51q0 -59 57 -59q26 0 64 14l-17 -80q-37 -16 -82 -16q-127 0 -127 123q0 15 7 59l206 1196h105zM422 659q0 37 24.5 61.5t61.5 24.5t61.5 -24.5t24.5 -61.5q0 -38 -24.5 -63t-61.5 -25t-61.5 25t-24.5 63z" />
    <glyph glyph-name="Lslash" unicode="&#x141;" horiz-adv-x="899" 
d="M307 1206h109l-99 -565l334 139l-18 -98l-332 -137l-80 -451h559l-14 -94h-670l88 502l-145 -60l18 95l144 59z" />
    <glyph glyph-name="lslash" unicode="&#x142;" horiz-adv-x="448" 
d="M422 1368l-94 -545l166 82l-19 -102l-166 -80l-94 -541q0 -3 -3 -22.5t-3 -28.5q0 -59 57 -59q26 0 64 14l-15 -80q-40 -16 -84 -16q-127 0 -127 123q0 15 7 59l86 498l-127 -60l18 97l125 61l104 600h105z" />
    <glyph glyph-name="Nacute" unicode="&#x143;" horiz-adv-x="1255" 
d="M801 1315h-92l147 248h145zM418 1206l401 -831q27 -56 52 -114.5t36 -88.5l11 -31h6q14 121 39 256l141 809h108l-208 -1206h-115l-406 829q-24 50 -49.5 108.5t-39.5 92.5l-13 33h-6q-8 -119 -33 -254l-141 -809h-111l211 1206h117z" />
    <glyph glyph-name="nacute" unicode="&#x144;" horiz-adv-x="1011" 
d="M694 172l80 455q10 65 10 94q0 72 -40.5 112.5t-120.5 40.5q-115 0 -212.5 -91t-127.5 -263l-90 -520h-103l164 946h90l-25 -221q47 110 130.5 175t197.5 65q111 0 176.5 -58t65.5 -166q0 -45 -12 -116l-78 -443q0 -3 -3 -22.5t-3 -28.5q0 -59 57 -59q25 0 63 14l-14 -80
q-40 -16 -84 -16q-127 0 -127 123q0 21 6 59zM639 1092h-88l164 278h145z" />
    <glyph glyph-name="Ncommaaccent" unicode="&#x145;" horiz-adv-x="1255" 
d="M600 -289q0 -90 -64.5 -138t-166.5 -48v51q40 2 73 11.5t56.5 31.5t23.5 53q0 15 -4 21q-8 -10 -31 -10q-28 0 -45.5 18t-17.5 47q0 34 21.5 54t58.5 20q41 0 68.5 -29t27.5 -82zM418 1206l401 -831q27 -56 52 -114.5t36 -88.5l11 -31h6q14 121 39 256l141 809h108
l-208 -1206h-115l-406 829q-24 50 -49.5 108.5t-39.5 92.5l-13 33h-6q-8 -119 -33 -254l-141 -809h-111l211 1206h117z" />
    <glyph glyph-name="ncommaaccent" unicode="&#x146;" horiz-adv-x="1011" 
d="M694 172l80 455q10 65 10 94q0 72 -40.5 112.5t-120.5 40.5q-115 0 -212.5 -91t-127.5 -263l-90 -520h-103l164 946h90l-25 -221q47 110 130.5 175t197.5 65q111 0 176.5 -58t65.5 -166q0 -45 -12 -116l-78 -443q0 -3 -3 -22.5t-3 -28.5q0 -59 57 -59q25 0 63 14l-14 -80
q-40 -16 -84 -16q-127 0 -127 123q0 21 6 59zM498 -289q0 -90 -64.5 -138t-167.5 -48v51q64 3 110 27t46 69q0 9 -4 21q-10 -10 -31 -10q-29 0 -47 18t-18 47q0 34 22 54t57 20q41 0 69 -29t28 -82z" />
    <glyph glyph-name="Ncaron" unicode="&#x147;" horiz-adv-x="1255" 
d="M788 1315h-61l-190 256h116l70 -98q14 -20 24.5 -39.5t14.5 -29.5l4 -9h4q23 33 74 80l102 96h123zM418 1206l401 -831q27 -56 52 -114.5t36 -88.5l11 -31h6q14 121 39 256l141 809h108l-208 -1206h-115l-406 829q-24 50 -49.5 108.5t-39.5 92.5l-13 33h-6
q-8 -119 -33 -254l-141 -809h-111l211 1206h117z" />
    <glyph glyph-name="ncaron" unicode="&#x148;" horiz-adv-x="1011" 
d="M694 172l80 455q10 65 10 94q0 72 -40.5 112.5t-120.5 40.5q-115 0 -212.5 -91t-127.5 -263l-90 -520h-103l164 946h90l-25 -221q47 110 130.5 175t197.5 65q111 0 176.5 -58t65.5 -166q0 -45 -12 -116l-78 -443q0 -3 -3 -22.5t-3 -28.5q0 -59 57 -59q25 0 63 14l-14 -80
q-40 -16 -84 -16q-127 0 -127 123q0 21 6 59zM635 1092h-60l-188 278h111l71 -110q14 -22 24.5 -43t14.5 -31l4 -10h6l2 4q3 3 9.5 11t14.5 18t21 24.5t27 28.5l111 108h117z" />
    <glyph glyph-name="Eng" unicode="&#x14a;" horiz-adv-x="1255" 
d="M317 -272l78 75q31 -65 89 -104t137 -39q119 0 176.5 66.5t87.5 224.5l8 45l-414 833q-25 53 -49.5 110.5t-36.5 88.5l-12 31h-6q-8 -115 -33 -250l-141 -809h-111l211 1206h117l405 -831q27 -56 51 -113.5t34 -87.5l10 -29h6q14 117 39 252l141 809h108l-223 -1282
q-33 -191 -122 -272.5t-253 -81.5q-214 0 -297 158z" />
    <glyph glyph-name="eng" unicode="&#x14b;" horiz-adv-x="999" 
d="M633 -176l141 803q10 65 10 94q0 72 -40.5 112.5t-120.5 40.5q-115 0 -212.5 -91t-127.5 -263l-90 -520h-103l164 946h90l-25 -221q47 110 130.5 175t197.5 65q111 0 176.5 -58t65.5 -166q0 -45 -12 -116l-138 -799q-23 -132 -86 -195t-170 -63q-49 0 -91.5 16t-67.5 41
l36 84q61 -55 132 -55q58 0 92 41t49 129z" />
    <glyph glyph-name="Omacron" unicode="&#x14c;" horiz-adv-x="1249" 
d="M575 74q141 0 252 85t171.5 234t60.5 334t-90 294t-262 109q-141 0 -252 -85t-171.5 -233.5t-60.5 -334.5q0 -187 93 -295t259 -108zM567 -18q-211 0 -332.5 132.5t-121.5 356.5q0 172 48 315.5t130.5 238.5t192 147.5t233.5 52.5q210 0 332 -133.5t122 -358.5
q0 -172 -48 -315t-131 -237.5t-192.5 -146.5t-232.5 -52zM993 1366h-454l14 84h455z" />
    <glyph glyph-name="omacron" unicode="&#x14d;" horiz-adv-x="983" 
d="M444 66q108 0 189.5 71.5t121.5 182.5t40 241q0 154 -67 233.5t-191 79.5q-81 0 -148 -40.5t-110.5 -108.5t-67 -155.5t-23.5 -182.5q0 -159 67 -240t189 -81zM434 -18q-162 0 -255 102t-93 293q0 92 19 178t57.5 160.5t93 130t130.5 87.5t165 32q165 0 255.5 -104.5
t90.5 -293.5q0 -116 -30.5 -221t-87.5 -186.5t-146.5 -129.5t-198.5 -48zM817 1155h-455l17 88h455z" />
    <glyph glyph-name="Obreve" unicode="&#x14e;" horiz-adv-x="1249" 
d="M575 74q141 0 252 85t171.5 234t60.5 334t-90 294t-262 109q-141 0 -252 -85t-171.5 -233.5t-60.5 -334.5q0 -187 93 -295t259 -108zM567 -18q-211 0 -332.5 132.5t-121.5 356.5q0 172 48 315.5t130.5 238.5t192 147.5t233.5 52.5q210 0 332 -133.5t122 -358.5
q0 -172 -48 -315t-131 -237.5t-192.5 -146.5t-232.5 -52zM754 1307q-99 0 -153 49t-54 139q0 29 6 64h86q-2 -18 -2 -48q0 -122 129 -122q80 0 126.5 42t68.5 128h83q-22 -120 -97.5 -186t-192.5 -66z" />
    <glyph glyph-name="obreve" unicode="&#x14f;" horiz-adv-x="983" 
d="M444 66q108 0 189.5 71.5t121.5 182.5t40 241q0 154 -67 233.5t-191 79.5q-81 0 -148 -40.5t-110.5 -108.5t-67 -155.5t-23.5 -182.5q0 -159 67 -240t189 -81zM434 -18q-162 0 -255 102t-93 293q0 92 19 178t57.5 160.5t93 130t130.5 87.5t165 32q165 0 255.5 -104.5
t90.5 -293.5q0 -116 -30.5 -221t-87.5 -186.5t-146.5 -129.5t-198.5 -48zM567 1085q-99 0 -152 51t-53 144q0 24 7 68h84q-2 -18 -2 -52q0 -129 129 -129q82 0 127.5 45.5t68.5 135.5h84q-22 -125 -99 -194t-194 -69z" />
    <glyph glyph-name="Ohungarumlaut" unicode="&#x150;" horiz-adv-x="1249" 
d="M575 74q141 0 252 85t171.5 234t60.5 334t-90 294t-262 109q-141 0 -252 -85t-171.5 -233.5t-60.5 -334.5q0 -187 93 -295t259 -108zM567 -18q-211 0 -332.5 132.5t-121.5 356.5q0 172 48 315.5t130.5 238.5t192 147.5t233.5 52.5q210 0 332 -133.5t122 -358.5
q0 -172 -48 -315t-131 -237.5t-192.5 -146.5t-232.5 -52zM651 1315h-80l152 248h139zM903 1315h-82l164 248h139z" />
    <glyph glyph-name="ohungarumlaut" unicode="&#x151;" horiz-adv-x="983" 
d="M444 66q108 0 189.5 71.5t121.5 182.5t40 241q0 154 -67 233.5t-191 79.5q-81 0 -148 -40.5t-110.5 -108.5t-67 -155.5t-23.5 -182.5q0 -159 67 -240t189 -81zM434 -18q-162 0 -255 102t-93 293q0 92 19 178t57.5 160.5t93 130t130.5 87.5t165 32q165 0 255.5 -104.5
t90.5 -293.5q0 -116 -30.5 -221t-87.5 -186.5t-146.5 -129.5t-198.5 -48zM502 1092h-80l151 278h140zM756 1092h-84l164 278h139z" />
    <glyph glyph-name="OE" unicode="&#x152;" horiz-adv-x="1699" 
d="M567 -18q-211 0 -332.5 132.5t-121.5 356.5q0 172 48 315.5t130.5 238.5t192 147.5t233.5 52.5q71 0 139 -19h866l-16 -94h-690q155 -130 155 -379q0 -28 -4 -82h394l-17 -94h-389q-24 -157 -93.5 -274.5t-172.5 -188.5h639l-17 -94h-802q-71 -18 -142 -18zM575 74
q141 0 252 85t171.5 234t60.5 334t-90 294t-262 109q-141 0 -252 -85t-171.5 -233.5t-60.5 -334.5q0 -187 93 -295t259 -108z" />
    <glyph glyph-name="oe" unicode="&#x153;" horiz-adv-x="1624" 
d="M434 -18q-162 0 -255 102t-93 293q0 92 19 178t57.5 160.5t93 130t130.5 87.5t165 32q125 0 207 -65.5t108 -186.5q54 116 150.5 184t218.5 68q82 0 144 -26t98.5 -71.5t54.5 -102.5t18 -124q0 -98 -39 -174h-622q-6 -41 -6 -84q0 -147 65.5 -232t194.5 -85q113 0 174 47
t94 143l94 -25q-42 -129 -133.5 -189t-234.5 -60q-130 0 -215.5 65.5t-110.5 185.5q-55 -115 -152 -183t-225 -68zM444 66q108 0 189.5 71.5t121.5 182.5t40 241q0 154 -67 233.5t-191 79.5q-81 0 -148 -40.5t-110.5 -108.5t-67 -155.5t-23.5 -182.5q0 -159 67 -240t189 -81
zM1231 879q-125 0 -209.5 -90.5t-118.5 -235.5h531q14 35 14 90q0 105 -53.5 170.5t-163.5 65.5z" />
    <glyph glyph-name="Racute" unicode="&#x154;" horiz-adv-x="1077" 
d="M948 0h-117q-32 43 -43 121l-28 213q-15 108 -69.5 152t-170.5 44h-227l-92 -530h-111l211 1206h363q180 0 264 -71.5t84 -212.5q0 -82 -28.5 -148.5t-76.5 -108.5t-107 -65.5t-124 -26.5v-6q87 -12 130 -60t58 -151l33 -223q12 -82 51 -133zM395 1114l-86 -491h256
q157 0 245.5 72t88.5 214q0 105 -61.5 155t-188.5 50h-254zM698 1315h-94l150 248h145z" />
    <glyph glyph-name="racute" unicode="&#x155;" horiz-adv-x="643" 
d="M682 952l-29 -118q-32 14 -71 14q-106 0 -191.5 -86t-109.5 -225l-93 -537h-104l164 946h90l-27 -233q40 108 119 180t184 72q33 0 68 -13zM516 1092h-88l164 278h145z" />
    <glyph glyph-name="Rcommaaccent" unicode="&#x156;" horiz-adv-x="1077" 
d="M948 0h-117q-32 43 -43 121l-28 213q-15 108 -69.5 152t-170.5 44h-227l-92 -530h-111l211 1206h363q180 0 264 -71.5t84 -212.5q0 -82 -28.5 -148.5t-76.5 -108.5t-107 -65.5t-124 -26.5v-6q87 -12 130 -60t58 -151l33 -223q12 -82 51 -133zM395 1114l-86 -491h256
q157 0 245.5 72t88.5 214q0 105 -61.5 155t-188.5 50h-254zM516 -289q0 -90 -64 -138t-167 -48v51q40 2 73.5 11.5t57.5 31.5t24 53q0 9 -4 21q-10 -10 -30 -10q-29 0 -47.5 18t-18.5 47q0 33 22 53.5t58 20.5q41 0 68.5 -29t27.5 -82z" />
    <glyph glyph-name="rcommaaccent" unicode="&#x157;" horiz-adv-x="643" 
d="M682 952l-29 -118q-32 14 -71 14q-106 0 -191.5 -86t-109.5 -225l-93 -537h-104l164 946h90l-27 -233q40 108 119 180t184 72q33 0 68 -13zM203 -289q0 -90 -64.5 -138t-167.5 -48v51q64 3 110 27t46 69q0 9 -4 21q-10 -10 -31 -10q-29 0 -47 18t-18 47q0 34 22 54t57 20
q41 0 69 -29t28 -82z" />
    <glyph glyph-name="Rcaron" unicode="&#x158;" horiz-adv-x="1077" 
d="M948 0h-117q-32 43 -43 121l-28 213q-15 108 -69.5 152t-170.5 44h-227l-92 -530h-111l211 1206h363q180 0 264 -71.5t84 -212.5q0 -82 -28.5 -148.5t-76.5 -108.5t-107 -65.5t-124 -26.5v-6q87 -12 130 -60t58 -151l33 -223q12 -82 51 -133zM395 1114l-86 -491h256
q157 0 245.5 72t88.5 214q0 105 -61.5 155t-188.5 50h-254zM686 1315h-63l-191 256h117l69 -98q14 -20 25.5 -39.5t16.5 -29.5l4 -9h4q22 33 71 80l105 96h123z" />
    <glyph glyph-name="rcaron" unicode="&#x159;" horiz-adv-x="643" 
d="M682 952l-29 -118q-32 14 -71 14q-106 0 -191.5 -86t-109.5 -225l-93 -537h-104l164 946h90l-27 -233q40 108 119 180t184 72q33 0 68 -13zM506 1092h-60l-188 278h111l71 -110q14 -22 24.5 -43t14.5 -31l4 -10h6l3 4q2 3 8.5 11t14.5 18t21 24.5t27 28.5l111 108h114z
" />
    <glyph glyph-name="Sacute" unicode="&#x15a;" horiz-adv-x="966" 
d="M45 309l98 19q0 -129 74 -194.5t209 -65.5q133 0 210 61.5t77 187.5q0 99 -57 157.5t-189 105.5q-70 25 -115 48.5t-86.5 59t-61.5 87t-20 120.5q0 70 22.5 127t59 94t85.5 62t101 36t107 11q174 0 266 -75.5t93 -240.5l-103 -16q-3 246 -262 246q-120 0 -193 -60
t-73 -172q0 -51 13.5 -86t47.5 -62.5t72.5 -46t107.5 -44.5q149 -57 221 -132t72 -208q0 -115 -54.5 -194.5t-143.5 -115.5t-205 -36q-179 0 -276 83t-97 244zM645 1315h-94l149 248h146z" />
    <glyph glyph-name="sacute" unicode="&#x15b;" horiz-adv-x="811" 
d="M43 258l94 18q1 -110 64.5 -161.5t165.5 -51.5q213 0 213 173q0 75 -48 122.5t-155 87.5q-116 42 -169.5 100.5t-53.5 158.5q0 122 84.5 191t222.5 69q140 0 211 -64t71 -186l-98 -10q0 88 -49 133t-143 45q-92 0 -147.5 -44.5t-55.5 -125.5q0 -68 39 -107.5t151 -83.5
q126 -48 183 -112t57 -166q0 -129 -84.5 -195.5t-233.5 -66.5q-150 0 -234.5 72.5t-84.5 203.5zM537 1092h-88l163 278h146z" />
    <glyph glyph-name="Scircumflex" unicode="&#x15c;" horiz-adv-x="966" 
d="M45 309l98 19q0 -129 74 -194.5t209 -65.5q133 0 210 61.5t77 187.5q0 99 -57 157.5t-189 105.5q-70 25 -115 48.5t-86.5 59t-61.5 87t-20 120.5q0 70 22.5 127t59 94t85.5 62t101 36t107 11q174 0 266 -75.5t93 -240.5l-103 -16q-3 246 -262 246q-120 0 -193 -60
t-73 -172q0 -51 13.5 -86t47.5 -62.5t72.5 -46t107.5 -44.5q149 -57 221 -132t72 -208q0 -115 -54.5 -194.5t-143.5 -115.5t-205 -36q-179 0 -276 83t-97 244zM610 1571h64l188 -256h-114l-72 98q-14 20 -24.5 39.5t-14.5 29.5l-4 9h-4q-23 -33 -74 -80l-102 -96h-123z" />
    <glyph glyph-name="scircumflex" unicode="&#x15d;" horiz-adv-x="811" 
d="M43 258l94 18q1 -110 64.5 -161.5t165.5 -51.5q213 0 213 173q0 75 -48 122.5t-155 87.5q-116 42 -169.5 100.5t-53.5 158.5q0 122 84.5 191t222.5 69q140 0 211 -64t71 -186l-98 -10q0 88 -49 133t-143 45q-92 0 -147.5 -44.5t-55.5 -125.5q0 -68 39 -107.5t151 -83.5
q126 -48 183 -112t57 -166q0 -129 -84.5 -195.5t-233.5 -66.5q-150 0 -234.5 72.5t-84.5 203.5zM514 1370h57l189 -278h-109l-73 110q-14 21 -24.5 41.5t-14.5 30.5l-4 10h-7q-22 -35 -73 -84l-111 -108h-115z" />
    <glyph glyph-name="Scedilla" unicode="&#x15e;" horiz-adv-x="966" 
d="M526 -254q0 -77 -56.5 -121.5t-143.5 -44.5q-116 0 -174 82l38 66q47 -78 136 -78q50 0 80 25.5t30 70.5q0 96 -153 102l53 138q-140 17 -215.5 99.5t-75.5 223.5l98 19q0 -129 74 -194.5t209 -65.5q133 0 210 61.5t77 187.5q0 99 -57 157.5t-189 105.5q-70 25 -115 48.5
t-86.5 59t-61.5 87t-20 120.5q0 70 22.5 127t59 94t85.5 62t101 36t107 11q174 0 266 -75.5t93 -240.5l-103 -16q-3 246 -262 246q-120 0 -193 -60t-73 -172q0 -51 13.5 -86t47.5 -62.5t72.5 -46t107.5 -44.5q149 -57 221 -132t72 -208q0 -159 -97.5 -246t-258.5 -98
q-23 -2 -70 -2l-30 -76q161 -26 161 -160z" />
    <glyph glyph-name="scedilla" unicode="&#x15f;" horiz-adv-x="811" 
d="M461 -254q0 -77 -56.5 -121.5t-144.5 -44.5q-116 0 -174 82l39 66q47 -78 135 -78q50 0 80.5 25.5t30.5 70.5q0 96 -154 102l53 142q-108 20 -167.5 89.5t-59.5 178.5l94 18q1 -110 64.5 -161.5t165.5 -51.5q213 0 213 173q0 75 -48 122.5t-155 87.5
q-116 42 -169.5 100.5t-53.5 158.5q0 122 84.5 191t222.5 69q140 0 211 -64t71 -186l-98 -10q0 88 -49 133t-143 45q-91 0 -147 -44.5t-56 -125.5q0 -68 39 -107.5t151 -83.5q126 -48 183 -112t57 -166q0 -129 -84.5 -195.5t-233.5 -66.5q-5 0 -16 1t-16 1l-31 -78
q162 -26 162 -160z" />
    <glyph glyph-name="Scaron" unicode="&#x160;" horiz-adv-x="966" 
d="M45 309l98 19q0 -129 74 -194.5t209 -65.5q133 0 210 61.5t77 187.5q0 99 -57 157.5t-189 105.5q-70 25 -115 48.5t-86.5 59t-61.5 87t-20 120.5q0 70 22.5 127t59 94t85.5 62t101 36t107 11q174 0 266 -75.5t93 -240.5l-103 -16q-3 246 -262 246q-120 0 -193 -60
t-73 -172q0 -51 13.5 -86t47.5 -62.5t72.5 -46t107.5 -44.5q149 -57 221 -132t72 -208q0 -115 -54.5 -194.5t-143.5 -115.5t-205 -36q-179 0 -276 83t-97 244zM633 1315h-64l-190 256h117l69 -98q14 -20 25 -39.5t16 -29.5l4 -9h4q23 33 72 80l105 96h120z" />
    <glyph glyph-name="scaron" unicode="&#x161;" horiz-adv-x="811" 
d="M43 258l94 18q1 -110 64.5 -161.5t165.5 -51.5q213 0 213 173q0 75 -48 122.5t-155 87.5q-116 42 -169.5 100.5t-53.5 158.5q0 122 84.5 191t222.5 69q140 0 211 -64t71 -186l-98 -10q0 88 -49 133t-143 45q-92 0 -147.5 -44.5t-55.5 -125.5q0 -68 39 -107.5t151 -83.5
q126 -48 183 -112t57 -166q0 -129 -84.5 -195.5t-233.5 -66.5q-150 0 -234.5 72.5t-84.5 203.5zM530 1092h-57l-188 278h110l72 -110q14 -22 24.5 -43t14.5 -31l4 -10h6q25 35 74 86l110 108h115z" />
    <glyph glyph-name="Tcommaaccent" unicode="&#x162;" horiz-adv-x="974" 
d="M455 0h-111l195 1112h-398l17 94h895l-17 -94h-389zM467 -289q0 -90 -64.5 -138t-166.5 -48v51q40 2 73.5 11.5t57.5 31.5t24 53q0 9 -4 21q-10 -10 -31 -10q-29 0 -47 18t-18 47q0 34 21.5 54t58.5 20q41 0 68.5 -29t27.5 -82z" />
    <glyph glyph-name="tcommaaccent" unicode="&#x163;" horiz-adv-x="604" 
d="M494 129l8 -88q-78 -59 -187 -59q-96 0 -147 46.5t-51 137.5q0 46 8 90l106 604h-131l15 86h133l37 199l104 16l-37 -215h248l-16 -86h-248l-107 -614q-8 -33 -8 -66q0 -55 29 -82.5t78 -27.5q91 0 166 59zM315 -289q0 -90 -64.5 -138t-166.5 -48v51q40 2 73 11.5
t57 31.5t24 53q0 14 -5 21q-8 -10 -30 -10q-28 0 -46 18t-18 47q0 34 21.5 54t58.5 20q41 0 68.5 -29t27.5 -82z" />
    <glyph glyph-name="Tcaron" unicode="&#x164;" horiz-adv-x="974" 
d="M455 0h-111l195 1112h-398l17 94h895l-17 -94h-389zM657 1315h-63l-188 256h114l72 -98q14 -20 24.5 -39.5t14.5 -29.5l4 -9h4q23 33 72 80l104 96h123z" />
    <glyph glyph-name="tcaron" unicode="&#x165;" horiz-adv-x="604" 
d="M494 129l8 -88q-78 -59 -187 -59q-96 0 -147 46.5t-51 137.5q0 46 8 90l106 604h-131l15 86h133l37 199l104 16l-37 -215h248l-16 -86h-248l-107 -614q-8 -33 -8 -66q0 -55 29 -82.5t78 -27.5q91 0 166 59zM649 1368l-106 -358h-78l61 358h123z" />
    <glyph glyph-name="Tbar" unicode="&#x166;" horiz-adv-x="974" 
d="M455 0h-111l100 578h-239l16 92h240l78 442h-398l17 94h895l-17 -94h-389l-78 -442h262l-16 -92h-260z" />
    <glyph glyph-name="tbar" unicode="&#x167;" horiz-adv-x="632" 
d="M68 545l16 84h123l41 231h-131l16 86h133l35 199l107 16l-39 -215h247l-16 -86h-246l-41 -231h252l-16 -84h-252l-51 -299q-6 -37 -6 -66q0 -55 27.5 -82.5t76.5 -27.5q91 0 168 59l8 -88q-81 -59 -188 -59q-96 0 -147.5 46.5t-51.5 137.5q0 35 10 90l50 289h-125z" />
    <glyph glyph-name="Utilde" unicode="&#x168;" horiz-adv-x="1175" 
d="M1049 1206h108l-141 -817q-20 -114 -65 -195t-110.5 -126.5t-141 -65.5t-169.5 -20q-182 0 -292.5 92.5t-110.5 271.5q0 54 12 119l129 741h109l-131 -749q-8 -60 -8 -105q0 -139 83 -209.5t220 -70.5q146 0 241 77.5t127 258.5zM516 1335l-70 2q-4 32 -4 45
q0 69 44 113.5t110 44.5q61 0 123 -45l74 -55q43 -29 75 -29q71 0 80 119l68 -4q6 -21 6 -45q0 -67 -44.5 -111.5t-109.5 -44.5q-61 0 -123 45l-75 55q-41 27 -76 27q-72 0 -78 -117z" />
    <glyph glyph-name="utilde" unicode="&#x169;" horiz-adv-x="991" 
d="M891 946l-133 -764q-6 -27 -6 -51q0 -59 57 -59q25 0 63 14l-16 -80q-37 -16 -82 -16q-125 0 -125 119q0 18 15 106q-41 -110 -123 -171.5t-199 -61.5t-180.5 61t-63.5 176q0 37 13 113l106 614h105l-111 -633q-8 -36 -8 -86q0 -76 43 -120t123 -44q115 0 205.5 90
t117.5 242l94 551h105zM373 1112l-70 4q-4 28 -4 45q0 67 44 111.5t110 44.5q60 0 122 -45l74 -55q40 -27 76 -27q74 0 80 117l67 -2q7 -28 7 -45q0 -68 -44.5 -113t-109.5 -45q-61 0 -123 45l-76 55q-44 29 -75 29q-72 0 -78 -119z" />
    <glyph glyph-name="Umacron" unicode="&#x16a;" horiz-adv-x="1175" 
d="M1049 1206h108l-141 -817q-20 -114 -65 -195t-110.5 -126.5t-141 -65.5t-169.5 -20q-182 0 -292.5 92.5t-110.5 271.5q0 54 12 119l129 741h109l-131 -749q-8 -60 -8 -105q0 -139 83 -209.5t220 -70.5q146 0 241 77.5t127 258.5zM963 1366h-453l12 84h455z" />
    <glyph glyph-name="umacron" unicode="&#x16b;" horiz-adv-x="991" 
d="M891 946l-133 -764q-6 -27 -6 -51q0 -59 57 -59q25 0 63 14l-16 -80q-37 -16 -82 -16q-125 0 -125 119q0 18 15 106q-41 -110 -123 -171.5t-199 -61.5t-180.5 61t-63.5 176q0 37 13 113l106 614h105l-111 -633q-8 -36 -8 -86q0 -76 43 -120t123 -44q115 0 205.5 90
t117.5 242l94 551h105zM809 1155h-455l17 88h452z" />
    <glyph glyph-name="Ubreve" unicode="&#x16c;" horiz-adv-x="1175" 
d="M1049 1206h108l-141 -817q-20 -114 -65 -195t-110.5 -126.5t-141 -65.5t-169.5 -20q-182 0 -292.5 92.5t-110.5 271.5q0 54 12 119l129 741h109l-131 -749q-8 -60 -8 -105q0 -139 83 -209.5t220 -70.5q309 0 368 336zM725 1307q-99 0 -153 49t-54 139q0 29 6 64h86
q-4 -18 -4 -48q0 -122 131 -122q80 0 126.5 42t68.5 128h84q-22 -120 -98 -186t-193 -66z" />
    <glyph glyph-name="ubreve" unicode="&#x16d;" horiz-adv-x="991" 
d="M891 946l-133 -764q-6 -27 -6 -51q0 -59 57 -59q25 0 63 14l-16 -80q-37 -16 -82 -16q-125 0 -125 119q0 18 15 106q-41 -110 -123 -171.5t-199 -61.5t-180.5 61t-63.5 176q0 37 13 113l106 614h105l-111 -633q-8 -36 -8 -86q0 -76 43 -120t123 -44q115 0 205.5 90
t117.5 242l94 551h105zM563 1085q-99 0 -153 51t-54 144q0 30 6 68h87q-5 -22 -5 -52q0 -129 129 -129q83 0 129.5 45.5t67.5 135.5h86q-23 -125 -99.5 -194t-193.5 -69z" />
    <glyph glyph-name="Uring" unicode="&#x16e;" horiz-adv-x="1175" 
d="M1049 1206h108l-141 -817q-20 -114 -65 -195t-110.5 -126.5t-141 -65.5t-169.5 -20q-182 0 -292.5 92.5t-110.5 271.5q0 54 12 119l129 741h109l-131 -749q-8 -60 -8 -105q0 -139 83 -209.5t220 -70.5q146 0 241 77.5t127 258.5zM745 1348q52 0 85.5 37t33.5 90
q0 47 -26 75.5t-76 28.5q-53 0 -87 -36.5t-34 -88.5q0 -49 26.5 -77.5t77.5 -28.5zM737 1290q-77 0 -120.5 44t-43.5 114q0 78 54.5 133t140.5 55q74 0 118 -44t44 -111q0 -80 -53.5 -135.5t-139.5 -55.5z" />
    <glyph glyph-name="uring" unicode="&#x16f;" horiz-adv-x="991" 
d="M891 946l-133 -764q-6 -27 -6 -51q0 -59 57 -59q25 0 63 14l-16 -80q-37 -16 -82 -16q-125 0 -125 119q0 18 15 106q-41 -110 -123 -171.5t-199 -61.5t-180.5 61t-63.5 176q0 37 13 113l106 614h105l-111 -633q-8 -36 -8 -86q0 -76 43 -120t123 -44q115 0 205.5 90
t117.5 242l94 551h105zM592 1139q52 0 85.5 37t33.5 90q0 47 -26.5 75.5t-76.5 28.5q-53 0 -87 -37t-34 -90q0 -47 27 -75.5t78 -28.5zM584 1081q-77 0 -119.5 44t-42.5 114q0 78 54 133t138 55q75 0 118.5 -44.5t43.5 -112.5q0 -79 -53.5 -134t-138.5 -55z" />
    <glyph glyph-name="Uhungarumlaut" unicode="&#x170;" horiz-adv-x="1175" 
d="M1049 1206h108l-141 -817q-20 -114 -65 -195t-110.5 -126.5t-141 -65.5t-169.5 -20q-182 0 -292.5 92.5t-110.5 271.5q0 54 12 119l129 741h109l-131 -749q-8 -60 -8 -105q0 -139 83 -209.5t220 -70.5q146 0 241 77.5t127 258.5zM621 1315h-80l151 248h139zM874 1315h-83
l163 248h140z" />
    <glyph glyph-name="uhungarumlaut" unicode="&#x171;" horiz-adv-x="991" 
d="M891 946l-133 -764q-6 -27 -6 -51q0 -59 57 -59q25 0 63 14l-16 -80q-37 -16 -82 -16q-125 0 -125 119q0 18 15 106q-41 -110 -123 -171.5t-199 -61.5t-180.5 61t-63.5 176q0 37 13 113l106 614h105l-111 -633q-8 -36 -8 -86q0 -76 43 -120t123 -44q115 0 205.5 90
t117.5 242l94 551h105zM494 1092h-82l151 278h139zM745 1092h-83l163 278h142z" />
    <glyph glyph-name="Uogonek" unicode="&#x172;" horiz-adv-x="1175" 
d="M647 -262l43 -51q-63 -99 -186 -99q-79 0 -121.5 40.5t-42.5 113.5q0 69 40 132.5t107 113.5q-5 1 -15.5 1.5t-19 1.5t-14.5 3q-143 15 -227 106t-84 244q0 56 12 121l129 741h109l-131 -749q-8 -60 -8 -105q0 -139 83 -209.5t220 -70.5q146 0 241 77.5t127 258.5
l140 798h108l-141 -817q-35 -193 -137.5 -287t-260.5 -114q-82 -42 -133 -104.5t-51 -133.5q0 -41 23 -63.5t63 -22.5q44 0 73 18.5t54 55.5z" />
    <glyph glyph-name="uogonek" unicode="&#x173;" horiz-adv-x="991" 
d="M649 115q0 10 15 100q-41 -110 -123 -171.5t-199 -61.5t-180.5 61t-63.5 176q0 37 13 113l106 614h105l-111 -633q-8 -36 -8 -86q0 -76 43 -120t123 -44q115 0 205.5 90t117.5 242l94 551h105l-133 -764q-6 -27 -6 -51q0 -59 57 -59q25 0 63 14l-16 -80
q-50 -13 -94.5 -32.5t-87 -50t-67.5 -75.5t-25 -98q0 -41 23 -63.5t63 -22.5q42 0 71.5 18t55.5 56l41 -51q-63 -99 -185 -99q-79 0 -121.5 40.5t-42.5 113.5q0 86 60 157t149 117q-47 18 -47 99z" />
    <glyph glyph-name="Wcircumflex" unicode="&#x174;" horiz-adv-x="1630" 
d="M946 1571h62l190 -256h-117l-69 98q-14 20 -24.5 39.5t-14.5 29.5l-4 9h-4q-23 -33 -74 -80l-103 -96h-122zM985 1206l82 -829q8 -84 13 -161t6 -112l1 -34h7q36 119 120 309l371 827h115l-549 -1206h-152l-73 803q-7 83 -11 158t-4 109v34h-6q-35 -113 -121 -301
l-364 -803h-152l-84 1206h109l53 -825q5 -84 8 -161.5t4 -113.5v-36h7q34 121 122 311l377 825h121z" />
    <glyph glyph-name="wcircumflex" unicode="&#x175;" horiz-adv-x="1325" 
d="M965 350l292 596h109l-467 -946h-127l-53 582q-5 68 -7 132t-2 94l1 30h-6q-31 -98 -105 -260l-264 -578h-129l-88 946h104l51 -598q6 -67 9.5 -134.5t3.5 -101.5v-34h6q36 118 108 272l275 596h108l50 -600q4 -44 7 -88t4 -75.5t1.5 -56.5t-0.5 -38v-12h6
q35 112 113 274zM766 1370h59l189 -278h-111l-72 110q-14 21 -24.5 41.5t-14.5 30.5l-4 10h-6q-24 -35 -73 -84l-111 -108h-117z" />
    <glyph glyph-name="Ycircumflex" unicode="&#x176;" horiz-adv-x="993" 
d="M281 1206l165 -442q23 -59 38.5 -109.5t19.5 -70.5l4 -21h6q31 66 123 201l313 442h119l-516 -723l-84 -483h-109l84 483l-276 723h113zM645 1571h62l190 -256h-117l-69 98q-14 20 -24.5 39.5t-14.5 29.5l-4 9h-4q-23 -33 -74 -80l-103 -96h-122z" />
    <glyph glyph-name="ycircumflex" unicode="&#x177;" horiz-adv-x="854" 
d="M260 -31l-147 977h108l80 -604q12 -78 18.5 -145t7.5 -95l1 -28h6q31 92 125 264l336 608h110l-626 -1118q-82 -150 -154.5 -206t-169.5 -56q-85 0 -143 47l28 80q59 -45 119 -45q69 0 119.5 45.5t114.5 161.5zM518 1370h57l189 -278h-111l-71 110q-14 21 -24.5 41.5
t-14.5 30.5l-4 10h-7q-22 -35 -73 -84l-111 -108h-115z" />
    <glyph glyph-name="Ydieresis" unicode="&#x178;" horiz-adv-x="993" 
d="M281 1206l165 -442q23 -59 38.5 -109.5t19.5 -70.5l4 -21h6q31 66 123 201l313 442h119l-516 -723l-84 -483h-109l84 483l-276 723h113zM403 1413q0 32 23 55t55 23t54 -23t22 -55t-22 -55t-54 -23t-55 23t-23 55zM754 1411q0 33 22 55.5t55 22.5q34 0 56 -22t22 -56
q0 -33 -22.5 -55.5t-55.5 -22.5q-32 0 -54.5 23t-22.5 55z" />
    <glyph glyph-name="Zacute" unicode="&#x179;" horiz-adv-x="991" 
d="M899 1120q-53 -8 -182 -8h-508l16 94h811l-14 -73l-748 -889q-40 -48 -76 -85.5t-52 -50.5l-15 -14v-8q51 8 180 8h541l-14 -94h-848l10 63l756 902q41 49 76.5 86.5t51.5 50.5l15 12v6zM692 1315h-92l148 248h145z" />
    <glyph glyph-name="zacute" unicode="&#x17a;" horiz-adv-x="841" 
d="M844 874l-563 -636q-42 -48 -79 -85.5t-53 -50.5l-16 -14v-6q60 6 189 6h380l-14 -88h-694l12 59l565 648q43 49 80 87t53 51l15 13v6q-58 -8 -187 -8h-350l17 90h659zM567 1092h-90l164 278h147z" />
    <glyph glyph-name="Zdotaccent" unicode="&#x17b;" horiz-adv-x="991" 
d="M899 1120q-53 -8 -182 -8h-508l16 94h811l-14 -73l-748 -889q-40 -48 -76 -85.5t-52 -50.5l-15 -14v-8q51 8 180 8h541l-14 -94h-848l10 63l756 902q41 49 76.5 86.5t51.5 50.5l15 12v6zM594 1430q0 34 22 55.5t54 21.5q34 0 56 -21.5t22 -55.5q0 -33 -22.5 -55.5
t-55.5 -22.5q-32 0 -54 23t-22 55z" />
    <glyph glyph-name="zdotaccent" unicode="&#x17c;" horiz-adv-x="841" 
d="M844 874l-563 -636q-42 -48 -79 -85.5t-53 -50.5l-16 -14v-6q60 6 189 6h380l-14 -88h-694l12 59l565 648q43 49 80 87t53 51l15 13v6q-58 -8 -187 -8h-350l17 90h659zM471 1237q0 34 23 57t55 23q34 0 56 -23t22 -57q0 -32 -22 -54t-56 -22q-32 0 -55 22t-23 54z" />
    <glyph glyph-name="Zcaron" unicode="&#x17d;" horiz-adv-x="991" 
d="M899 1120q-53 -8 -182 -8h-508l16 94h811l-14 -73l-748 -889q-40 -48 -76 -85.5t-52 -50.5l-15 -14v-8q51 8 180 8h541l-14 -94h-848l10 63l756 902q41 49 76.5 86.5t51.5 50.5l15 12v6zM616 1315l-190 256h117l69 -98q14 -20 25 -39.5t15 -29.5l5 -9h5q22 33 71 80
l105 96h123l-281 -256h-64z" />
    <glyph glyph-name="zcaron" unicode="&#x17e;" horiz-adv-x="841" 
d="M844 874l-563 -636q-42 -48 -79 -85.5t-53 -50.5l-16 -14v-6q60 6 189 6h380l-14 -88h-694l12 59l565 648q43 49 80 87t53 51l15 13v6q-58 -8 -187 -8h-350l17 90h659zM561 1092h-59l-189 278h111l72 -110q14 -22 24.5 -43t14.5 -31l4 -10h6q24 35 73 86l111 108h117z
" />
    <glyph glyph-name="Schwa" unicode="&#x18f;" horiz-adv-x="1153" 
d="M262 883l-90 24q53 159 168.5 238.5t282.5 79.5q219 0 335.5 -131.5t116.5 -368.5q0 -214 -75.5 -384.5t-205.5 -264.5t-290 -94q-104 0 -183.5 35t-126 95t-69.5 133.5t-23 157.5q0 128 50 226h813q6 43 6 82q0 195 -92 308.5t-267 113.5q-262 0 -350 -250zM504 72
q171 0 288.5 130t157.5 335h-723q-22 -49 -22 -142q0 -86 30 -157t99.5 -118.5t169.5 -47.5z" />
    <glyph glyph-name="florin" unicode="&#x192;" horiz-adv-x="804" 
d="M82 393l27 94h157l66 238q38 148 113 213.5t184 65.5q71 0 123 -28t75 -71l-67 -78q-26 47 -58.5 66.5t-83.5 19.5q-70 0 -112 -43.5t-70 -142.5l-65 -240h250l-25 -94h-250l-170 -641h-102l168 641h-160z" />
    <glyph glyph-name="Khook" unicode="&#x198;" horiz-adv-x="1009" 
d="M416 655l262 361q77 112 135.5 160.5t138.5 48.5q59 0 96 -28.5t46 -76.5l-74 -61q-17 65 -78 65q-43 0 -77 -31.5t-93 -113.5l-272 -365l405 -614h-123l-370 561h-115l-96 -561h-111l211 1206h111l-97 -551h101z" />
    <glyph glyph-name="khook" unicode="&#x199;" horiz-adv-x="882" 
d="M383 1092l-94 -541h82l385 395h129l-434 -432l190 -352q25 -46 48.5 -67t55.5 -21q33 0 72 16l-16 -84q-39 -16 -88 -16q-50 0 -84.5 27t-67.5 87l-201 367h-86l-81 -471h-105l191 1092q26 158 99 224t189 66q117 0 195 -69l-49 -84q-60 63 -144 63q-75 0 -120 -43.5
t-66 -156.5z" />
    <glyph glyph-name="Ezh" unicode="&#x1b7;" horiz-adv-x="987" 
d="M991 1133l-569 -588l-2 -8q196 -2 309 -106.5t113 -295.5q0 -118 -41.5 -215.5t-110.5 -160t-157.5 -96.5t-184.5 -34q-192 0 -298.5 97t-106.5 280l92 25q0 -159 82.5 -237.5t230.5 -78.5q167 0 278 111.5t111 308.5q0 337 -444 334l14 82l395 416q43 45 82.5 82
t57.5 51l18 14v6q-53 -8 -182 -8h-475l16 94h787z" />
    <glyph glyph-name="Acaron" unicode="&#x1cd;" horiz-adv-x="1122" 
d="M893 0l-78 383h-541l-208 -383h-115l667 1206h142l244 -1206h-111zM524 836l-200 -361h475l-70 352q-16 79 -28.5 156t-17.5 115l-5 37h-6q-42 -106 -148 -299zM729 1315h-63l-191 256h117l67 -98q13 -19 24.5 -38.5t16.5 -29.5l5 -10h4q30 37 75 80l101 96h125z" />
    <glyph glyph-name="acaron" unicode="&#x1ce;" horiz-adv-x="1054" 
d="M780 549q15 86 -4.5 160t-77.5 122t-145 48q-161 0 -263 -143.5t-102 -360.5q0 -142 62.5 -223.5t177.5 -81.5q123 0 212 91t114 242zM936 86l-16 -80q-37 -16 -82 -16q-61 0 -92 33t-31 92q0 24 12 94q-38 -103 -126 -165t-198 -62q-144 0 -230.5 99.5t-86.5 283.5
q0 165 56 301t162.5 217.5t242.5 81.5q112 0 183.5 -59t86.5 -161l51 201h86l-133 -764q-6 -27 -6 -51q0 -59 57 -59q26 0 64 14zM631 1092h-60l-188 278h111l71 -110q14 -22 24.5 -43t14.5 -31l4 -10h6q25 35 74 86l111 108h114z" />
    <glyph glyph-name="Icaron" unicode="&#x1cf;" horiz-adv-x="452" 
d="M301 1206h111l-211 -1206h-111zM401 1315h-63l-191 256h117l68 -98q13 -19 24 -38.5t16 -29.5l5 -10h4q31 37 76 80l100 96h125z" />
    <glyph glyph-name="icaron" unicode="&#x1d0;" horiz-adv-x="446" 
d="M346 946l-133 -764q-6 -27 -6 -51q0 -59 57 -59q26 0 64 14l-17 -80q-37 -16 -82 -16q-127 0 -127 123q0 15 7 59l133 774h104zM352 1092h-59l-187 278h109l72 -110q14 -22 24.5 -43t14.5 -31l4 -10h6l2 4q3 3 9.5 11t14.5 18t21 24.5t27 28.5l110 108h117z" />
    <glyph glyph-name="Ocaron" unicode="&#x1d1;" horiz-adv-x="1249" 
d="M575 74q141 0 252 85t171.5 234t60.5 334t-90 294t-262 109q-141 0 -252 -85t-171.5 -233.5t-60.5 -334.5q0 -187 93 -295t259 -108zM567 -18q-211 0 -332.5 132.5t-121.5 356.5q0 172 48 315.5t130.5 238.5t192 147.5t233.5 52.5q210 0 332 -133.5t122 -358.5
q0 -172 -48 -315t-131 -237.5t-192.5 -146.5t-232.5 -52zM780 1315h-61l-191 256h117l70 -98q14 -20 24.5 -39.5t14.5 -29.5l4 -9h4q23 33 74 80l102 96h123z" />
    <glyph glyph-name="ocaron" unicode="&#x1d2;" horiz-adv-x="983" 
d="M444 66q108 0 189.5 71.5t121.5 182.5t40 241q0 154 -67 233.5t-191 79.5q-81 0 -148 -40.5t-110.5 -108.5t-67 -155.5t-23.5 -182.5q0 -159 67 -240t189 -81zM434 -18q-162 0 -255 102t-93 293q0 92 19 178t57.5 160.5t93 130t130.5 87.5t165 32q165 0 255.5 -104.5
t90.5 -293.5q0 -116 -30.5 -221t-87.5 -186.5t-146.5 -129.5t-198.5 -48zM608 1092h-57l-189 278h111l72 -110q14 -22 24.5 -43t14.5 -31l4 -10h6q23 35 74 86l110 108h115z" />
    <glyph glyph-name="Ucaron" unicode="&#x1d3;" horiz-adv-x="1175" 
d="M1049 1206h108l-141 -817q-20 -114 -65 -195t-110.5 -126.5t-141 -65.5t-169.5 -20q-182 0 -292.5 92.5t-110.5 271.5q0 54 12 119l129 741h109l-131 -749q-8 -60 -8 -105q0 -139 83 -209.5t220 -70.5q146 0 241 77.5t127 258.5zM752 1315h-64l-190 256h116l70 -98
q14 -20 24.5 -39.5t14.5 -29.5l4 -9h4q25 33 74 80l102 96h123z" />
    <glyph glyph-name="ucaron" unicode="&#x1d4;" horiz-adv-x="991" 
d="M891 946l-133 -764q-6 -27 -6 -51q0 -59 57 -59q25 0 63 14l-16 -80q-37 -16 -82 -16q-125 0 -125 119q0 18 15 106q-41 -110 -123 -171.5t-199 -61.5t-180.5 61t-63.5 176q0 37 13 113l106 614h105l-111 -633q-8 -36 -8 -86q0 -76 43 -120t123 -44q115 0 205.5 90
t117.5 242l94 551h105zM600 1092h-59l-189 278h111l72 -110q14 -22 24.5 -43t14.5 -31l4 -10h6l2 4q3 3 9 11t14 18t21 24.5t27 28.5l111 108h115z" />
    <glyph glyph-name="uni01D9" unicode="&#x1d9;" horiz-adv-x="1175" 
d="M1049 1206h108l-141 -817q-20 -114 -65 -195t-110.5 -126.5t-141 -65.5t-169.5 -20q-182 0 -292.5 92.5t-110.5 271.5q0 54 12 119l129 741h109l-131 -749q-8 -60 -8 -105q0 -139 83 -209.5t220 -70.5q146 0 241 77.5t127 258.5zM479 1366q0 33 22.5 55.5t55.5 22.5
t55.5 -22.5t22.5 -55.5q0 -31 -23 -53.5t-55 -22.5t-55 22.5t-23 53.5zM831 1366q0 32 22 55t54 23q33 0 55.5 -22.5t22.5 -55.5t-22.5 -55.5t-55.5 -22.5q-32 0 -54 23t-22 55zM788 1489h-63l-188 256h114l72 -98q14 -20 24.5 -39.5t14.5 -29.5l4 -9h4q23 33 74 80l102 96
h123z" />
    <glyph glyph-name="uni01DA" unicode="&#x1da;" horiz-adv-x="991" 
d="M891 946l-133 -764q-6 -27 -6 -51q0 -59 57 -59q25 0 63 14l-16 -80q-37 -16 -82 -16q-125 0 -125 119q0 18 15 106q-41 -110 -123 -171.5t-199 -61.5t-180.5 61t-63.5 176q0 37 13 113l106 614h105l-111 -633q-8 -36 -8 -86q0 -76 43 -120t123 -44q115 0 205.5 90
t117.5 242l94 551h105zM328 1122q0 34 21.5 56t53.5 22q34 0 56 -22t22 -56q0 -33 -22.5 -55.5t-55.5 -22.5q-32 0 -53.5 22.5t-21.5 55.5zM678 1120q0 33 22.5 55.5t55.5 22.5t55.5 -22.5t22.5 -55.5q0 -31 -23 -53.5t-55 -22.5t-55 22.5t-23 53.5zM635 1245h-62l-190 258
h117l69 -100q14 -20 24.5 -39.5t14.5 -29.5l4 -9h4q23 33 74 80l103 98h122z" />
    <glyph glyph-name="uni004100A800AF" unicode="&#x1de;" horiz-adv-x="1122" 
d="M893 0l-78 383h-541l-208 -383h-115l667 1206h142l244 -1206h-111zM524 836l-200 -361h475l-70 352q-16 79 -28.5 156t-17.5 115l-5 37h-6q-42 -106 -148 -299zM451 1343q0 33 22.5 55.5t54.5 22.5q34 0 56 -22t22 -56q0 -33 -22 -55t-56 -22q-32 0 -54.5 22.5
t-22.5 54.5zM803 1343q0 32 23 55t55 23t54.5 -23t22.5 -55t-22.5 -54.5t-54.5 -22.5t-55 22.5t-23 54.5zM963 1518h-453l12 84h455z" />
    <glyph glyph-name="adieresismacron" unicode="&#x1df;" horiz-adv-x="1054" 
d="M754 403l26 146q15 86 -4.5 160t-77.5 122t-145 48q-161 0 -263 -143.5t-102 -360.5q0 -142 62.5 -223.5t177.5 -81.5q123 0 212 91t114 242zM936 86l-16 -80q-37 -16 -82 -16q-61 0 -92 33t-31 92q0 24 12 94q-38 -103 -126 -165t-198 -62q-144 0 -230.5 99.5
t-86.5 283.5q0 165 56 301t162.5 217.5t242.5 81.5q112 0 183.5 -59t86.5 -161l51 201h86l-133 -764q-6 -27 -6 -51q0 -59 57 -59q26 0 64 14zM365 1137q0 33 22 55t55 22q34 0 56 -21.5t22 -55.5q0 -33 -22.5 -55.5t-55.5 -22.5q-32 0 -54.5 23t-22.5 55zM717 1137
q0 32 22.5 53.5t55.5 21.5q32 0 54.5 -21.5t22.5 -53.5t-22.5 -55t-54.5 -23t-55 23t-23 55zM881 1317h-455l14 86h455z" />
    <glyph glyph-name="AEmacron" unicode="&#x1e2;" horiz-adv-x="1658" 
d="M1473 0h-687l68 387h-467l-313 -387h-123l973 1206h759l-16 -94h-575l-82 -461h514l-17 -94h-514l-82 -463h578zM989 1135l-530 -658h409l70 391q16 87 30 153.5t20 90.5l7 23h-6zM1526 1366h-453l12 84h455z" />
    <glyph glyph-name="aemacron" unicode="&#x1e3;" horiz-adv-x="1495" 
d="M1384 463h-624q-6 -40 -6 -82q0 -146 66.5 -230.5t197.5 -84.5q112 0 173.5 47t92.5 143l94 -25q-42 -129 -133.5 -189t-234.5 -60q-231 0 -312 186q-47 -86 -136 -136t-208 -50q-139 0 -208.5 64.5t-69.5 178.5q0 154 125.5 235t351.5 87q14 2 123 2q15 72 45 133
q7 96 -46 146.5t-149 50.5q-200 0 -247 -185l-95 17q33 134 130 194t225 60q217 0 264 -152q129 152 307 152q81 0 142.5 -26t98 -71.5t54.5 -102.5t18 -124q0 -107 -39 -178zM365 61q100 0 180 50t123 147q-11 64 -11 119q0 35 7 86h-111q-173 -5 -273 -62.5t-100 -171.5
q0 -80 47.5 -124t137.5 -44zM1106 879q-128 0 -214 -94.5t-118 -235.5h535q14 35 14 94q0 105 -54 170.5t-163 65.5zM1092 1155h-455l14 88h455z" />
    <glyph glyph-name="Gstroke" unicode="&#x1e4;" horiz-adv-x="1202" 
d="M1165 354h-121l-63 -354h-86l16 203q-39 -101 -130 -161t-218 -60q-210 0 -330 133t-120 354q0 174 48 318.5t131 239t193 146.5t236 52q156 0 254 -75t127 -216l-96 -41q-21 117 -100 178.5t-195 61.5q-144 0 -256 -86t-172 -235t-60 -335q0 -185 91.5 -294t260.5 -109
q125 0 223 72t136 208h-324l15 86h327l21 115h-328l17 92h434l-37 -207h121z" />
    <glyph glyph-name="gstroke" unicode="&#x1e5;" horiz-adv-x="1003" 
d="M680 -35l45 242q-39 -104 -122.5 -164.5t-194.5 -60.5q-145 0 -232.5 100t-87.5 283q0 165 57 301.5t163.5 217.5t242.5 81q111 0 182 -59t86 -161l51 201h86l-172 -977q-5 -32 -20 -86h139l-10 -55h-145q-103 -260 -406 -260q-164 0 -251.5 69.5t-98.5 190.5l92 31
q9 -100 78 -155.5t186 -55.5q208 0 289 180h-342l8 55h356q11 38 21 82zM756 399l28 150q15 86 -4.5 160t-77.5 122t-145 48q-108 0 -193 -66.5t-130.5 -181.5t-45.5 -258q0 -140 62.5 -221.5t177.5 -81.5q126 0 214.5 89.5t113.5 239.5z" />
    <glyph glyph-name="Gcaron" unicode="&#x1e6;" horiz-adv-x="1185" 
d="M768 1315h-63l-191 256h117l67 -98q13 -19 24 -38.5t16 -29.5l5 -10h5q30 37 75 80l101 96h125zM651 590h434l-104 -590h-86l16 203q-39 -101 -130 -161t-218 -60q-210 0 -330 133t-120 354q0 174 48 318.5t131 239t193 146.5t236 52q156 0 254 -75t127 -216l-96 -41
q-21 117 -100 178.5t-195 61.5q-144 0 -256 -86t-172 -235t-60 -335q0 -185 91.5 -294t260.5 -109q139 0 241 87t132 255l13 76h-328z" />
    <glyph glyph-name="gcaron" unicode="&#x1e7;" horiz-adv-x="1003" 
d="M680 -35l45 242q-39 -104 -122.5 -164.5t-194.5 -60.5q-145 0 -232.5 100t-87.5 283q0 165 57 301.5t163.5 217.5t242.5 81q111 0 182 -59t86 -161l51 201h86l-172 -977q-36 -203 -143 -302t-299 -99q-164 0 -251.5 69.5t-98.5 190.5l92 31q9 -100 78 -155.5t186 -55.5
q145 0 224 81.5t108 235.5zM756 399l28 150q15 86 -4.5 160t-77.5 122t-145 48q-108 0 -193 -66.5t-130.5 -181.5t-45.5 -258q0 -140 62.5 -221.5t177.5 -81.5q126 0 214.5 89.5t113.5 239.5zM629 1092h-58l-188 278h109l73 -110q14 -22 24.5 -43t14.5 -31l4 -10h6
q23 35 74 86l111 108h114z" />
    <glyph glyph-name="Kcaron" unicode="&#x1e8;" horiz-adv-x="1009" 
d="M905 0h-123l-370 561h-115l-96 -561h-111l211 1206h111l-97 -551h101l538 551h133l-587 -592zM680 1315h-62l-190 256h117l69 -98q14 -20 24.5 -39.5t14.5 -29.5l4 -9h5q22 33 73 80l103 96h123z" />
    <glyph glyph-name="kcaron" unicode="&#x1e9;" horiz-adv-x="882" 
d="M745 74q33 0 72 16l-16 -84q-39 -16 -88 -16q-50 0 -85.5 27t-66.5 87l-201 367h-86l-81 -471h-105l238 1368h106l-143 -817h82l385 395h129l-434 -432l190 -352q25 -46 48.5 -67t55.5 -21zM418 1425h-64l-190 256h117l69 -98q18 -24 43 -75q1 -4 2 -3h4q23 33 72 80
l104 96h123z" />
    <glyph glyph-name="Oogonek" unicode="&#x1ea;" horiz-adv-x="1249" 
d="M645 -262l43 -51q-63 -99 -184 -99q-81 0 -122.5 40.5t-41.5 113.5q0 140 147 248q-174 23 -274 151t-100 330q0 172 48 315.5t130.5 238.5t192 147.5t233.5 52.5q210 0 332 -133.5t122 -358.5q0 -165 -44.5 -304t-121.5 -233t-179.5 -149t-219.5 -63q-78 -42 -125 -103
t-47 -131q0 -41 22.5 -63.5t63.5 -22.5q76 0 125 74zM575 74q141 0 252 85t171.5 234t60.5 334t-90 294t-262 109q-141 0 -252 -85t-171.5 -233.5t-60.5 -334.5q0 -187 93 -295t259 -108z" />
    <glyph glyph-name="oogonek" unicode="&#x1eb;" horiz-adv-x="983" 
d="M524 -262l43 -51q-63 -99 -186 -99q-79 0 -121.5 40.5t-42.5 113.5q0 135 150 248q-133 19 -207 118.5t-74 268.5q0 92 19 178t57.5 160.5t93 130t130.5 87.5t165 32q165 0 255.5 -104.5t90.5 -293.5q0 -147 -45 -271.5t-138.5 -209.5t-221.5 -100q-82 -43 -131.5 -103
t-49.5 -133q0 -41 23 -63.5t63 -22.5q44 0 73 18.5t54 55.5zM444 66q108 0 189.5 71.5t121.5 182.5t40 241q0 154 -67 233.5t-191 79.5q-81 0 -148 -40.5t-110.5 -108.5t-67 -155.5t-23.5 -182.5q0 -159 67 -240t189 -81z" />
    <glyph glyph-name="uni004F02DB00AF" unicode="&#x1ec;" horiz-adv-x="1249" 
d="M645 -262l43 -51q-63 -99 -184 -99q-81 0 -122.5 40.5t-41.5 113.5q0 140 147 248q-174 23 -274 151t-100 330q0 172 48 315.5t130.5 238.5t192 147.5t233.5 52.5q210 0 332 -133.5t122 -358.5q0 -165 -44.5 -304t-121.5 -233t-179.5 -149t-219.5 -63q-78 -42 -125 -103
t-47 -131q0 -41 22.5 -63.5t63.5 -22.5q76 0 125 74zM575 74q141 0 252 85t171.5 234t60.5 334t-90 294t-262 109q-141 0 -252 -85t-171.5 -233.5t-60.5 -334.5q0 -187 93 -295t259 -108zM993 1366h-454l14 84h455z" />
    <glyph glyph-name="oogonekmacron" unicode="&#x1ed;" horiz-adv-x="983" 
d="M524 -262l43 -51q-63 -99 -186 -99q-79 0 -121.5 40.5t-42.5 113.5q0 135 150 248q-133 19 -207 118.5t-74 268.5q0 92 19 178t57.5 160.5t93 130t130.5 87.5t165 32q165 0 255.5 -104.5t90.5 -293.5q0 -147 -45 -271.5t-138.5 -209.5t-221.5 -100q-82 -43 -131.5 -103
t-49.5 -133q0 -41 23 -63.5t63 -22.5q44 0 73 18.5t54 55.5zM444 66q108 0 189.5 71.5t121.5 182.5t40 241q0 154 -67 233.5t-191 79.5q-81 0 -148 -40.5t-110.5 -108.5t-67 -155.5t-23.5 -182.5q0 -159 67 -240t189 -81zM817 1155h-455l17 88h455z" />
    <glyph glyph-name="Ezhcaron" unicode="&#x1ee;" horiz-adv-x="987" 
d="M991 1133l-569 -588l-2 -8q196 -2 309 -106.5t113 -295.5q0 -118 -41.5 -215.5t-110.5 -160t-157.5 -96.5t-184.5 -34q-192 0 -298.5 97t-106.5 280l92 25q0 -159 82.5 -237.5t230.5 -78.5q167 0 278 111.5t111 308.5q0 337 -444 334l14 82l395 416q43 45 82.5 82
t57.5 51l18 14v6q-53 -8 -182 -8h-475l16 94h787zM655 1315h-61l-191 256h117l70 -98q14 -20 24.5 -39.5t14.5 -29.5l4 -9h4q23 33 74 80l102 96h123z" />
    <glyph glyph-name="ezhcaron" unicode="&#x1ef;" horiz-adv-x="815" 
d="M545 1092h-58l-188 278h111l71 -110q14 -22 24.5 -43t14.5 -31l4 -10h6q25 35 74 86l111 108h114zM244 414l282 299q38 41 75 76.5t52.5 49.5t14.5 15l2 6q-62 -4 -191 -4h-329l16 90h649l-12 -72l-465 -483q155 0 248.5 -87t93.5 -228q0 -93 -36 -168.5t-96 -123.5
t-134 -73.5t-154 -25.5q-153 0 -234 78.5t-81 207.5l88 21q0 -106 64.5 -167t168.5 -61q137 0 224.5 83.5t87.5 226.5q0 249 -347 264z" />
    <glyph glyph-name="jcaron" unicode="&#x1f0;" horiz-adv-x="417" 
d="M49 -176l199 1122h104l-198 -1120q-23 -133 -85.5 -195.5t-168.5 -62.5q-50 0 -93.5 16t-68.5 41l39 84q61 -55 129 -55q60 0 94 41t49 129zM356 1092h-57l-188 278h110l72 -110q14 -22 24.5 -43t14.5 -31l4 -10h6q25 35 74 86l110 108h115z" />
    <glyph glyph-name="jcaron" unicode="&#xe10c;" horiz-adv-x="417" 
d="M49 -176l199 1122h104l-198 -1120q-23 -133 -85.5 -195.5t-168.5 -62.5q-50 0 -93.5 16t-68.5 41l39 84q61 -55 129 -55q60 0 94 41t49 129zM356 1092h-57l-188 278h110l72 -110q14 -22 24.5 -43t14.5 -31l4 -10h6q25 35 74 86l110 108h115z" />
    <glyph glyph-name="Gacute" unicode="&#x1f4;" horiz-adv-x="1185" 
d="M780 1315h-94l150 248h145zM651 590h434l-104 -590h-86l16 203q-39 -101 -130 -161t-218 -60q-210 0 -330 133t-120 354q0 174 48 318.5t131 239t193 146.5t236 52q156 0 254 -75t127 -216l-96 -41q-21 117 -100 178.5t-195 61.5q-144 0 -256 -86t-172 -235t-60 -335
q0 -185 91.5 -294t260.5 -109q139 0 241 87t132 255l13 76h-328z" />
    <glyph glyph-name="gacute" unicode="&#x1f5;" horiz-adv-x="1003" 
d="M680 -35l45 242q-39 -104 -122.5 -164.5t-194.5 -60.5q-145 0 -232.5 100t-87.5 283q0 165 57 301.5t163.5 217.5t242.5 81q111 0 182 -59t86 -161l51 201h86l-172 -977q-36 -203 -143 -302t-299 -99q-164 0 -251.5 69.5t-98.5 190.5l92 31q9 -100 78 -155.5t186 -55.5
q145 0 224 81.5t108 235.5zM756 399l28 150q15 86 -4.5 160t-77.5 122t-145 48q-108 0 -193 -66.5t-130.5 -181.5t-45.5 -258q0 -140 62.5 -221.5t177.5 -81.5q126 0 214.5 89.5t113.5 239.5zM635 1092h-88l164 278h145z" />
    <glyph glyph-name="Ngrave" unicode="&#x1f8;" horiz-adv-x="1255" 
d="M815 1315h-92l-162 248h141zM418 1206l401 -831q27 -56 52 -114.5t36 -88.5l11 -31h6q14 121 39 256l141 809h108l-208 -1206h-115l-406 829q-24 50 -49.5 108.5t-39.5 92.5l-13 33h-6q-8 -119 -33 -254l-141 -809h-111l211 1206h117z" />
    <glyph glyph-name="ngrave" unicode="&#x1f9;" horiz-adv-x="1011" 
d="M694 172l80 455q10 65 10 94q0 72 -40.5 112.5t-120.5 40.5q-115 0 -212.5 -91t-127.5 -263l-90 -520h-103l164 946h90l-25 -221q47 110 130.5 175t197.5 65q111 0 176.5 -58t65.5 -166q0 -45 -12 -116l-78 -443q0 -3 -3 -22.5t-3 -28.5q0 -59 57 -59q25 0 63 14l-14 -80
q-40 -16 -84 -16q-127 0 -127 123q0 21 6 59zM662 1092h-89l-182 278h144z" />
    <glyph glyph-name="uni004102DA00B4" unicode="&#x1fa;" horiz-adv-x="1122" 
d="M893 0l-78 383h-541l-208 -383h-115l667 1206h142l244 -1206h-111zM524 836l-200 -361h475l-70 352q-16 79 -28.5 156t-17.5 115l-5 37h-6q-42 -106 -148 -299zM719 1294q53 0 87 37.5t34 89.5q0 48 -27 77.5t-76 29.5q-53 0 -88 -37.5t-35 -89.5q0 -48 27.5 -77.5
t77.5 -29.5zM713 1237q-79 0 -121.5 44.5t-42.5 113.5q0 80 53.5 135t138.5 55q74 0 118 -45t44 -113q0 -80 -53 -135t-137 -55zM809 1618h-92l147 248h146z" />
    <glyph glyph-name="aringacute" unicode="&#x1fb;" horiz-adv-x="1054" 
d="M780 549q15 86 -4.5 160t-77.5 122t-145 48q-161 0 -263 -143.5t-102 -360.5q0 -142 62.5 -223.5t177.5 -81.5q123 0 212 91t114 242zM936 86l-16 -80q-37 -16 -82 -16q-61 0 -92 33t-31 92q0 24 12 94q-38 -103 -126 -165t-198 -62q-144 0 -230.5 99.5t-86.5 283.5
q0 165 56 301t162.5 217.5t242.5 81.5q112 0 183.5 -59t86.5 -161l51 201h86l-133 -764q-6 -27 -6 -51q0 -59 57 -59q26 0 64 14zM616 1090q53 0 87 37t34 90q0 47 -26 75.5t-76 28.5q-53 0 -88 -37t-35 -90q0 -47 27 -75.5t77 -28.5zM610 1032q-77 0 -120.5 44t-43.5 114
q0 78 54.5 133t138.5 55q76 0 120 -44.5t44 -112.5q0 -78 -54.5 -133.5t-138.5 -55.5zM721 1440h-94l149 248h146z" />
    <glyph glyph-name="AEacute" unicode="&#x1fc;" horiz-adv-x="1658" 
d="M1473 0h-687l68 387h-467l-313 -387h-123l973 1206h759l-16 -94h-575l-82 -461h514l-17 -94h-514l-82 -463h578zM989 1135l-530 -658h409l70 391q16 87 30 153.5t20 90.5l7 23h-6zM1300 1315h-94l150 248h145z" />
    <glyph glyph-name="aeacute" unicode="&#x1fd;" horiz-adv-x="1495" 
d="M1384 463h-624q-6 -40 -6 -82q0 -146 66.5 -230.5t197.5 -84.5q112 0 173.5 47t92.5 143l94 -25q-42 -129 -133.5 -189t-234.5 -60q-231 0 -312 186q-47 -86 -136 -136t-208 -50q-139 0 -208.5 64.5t-69.5 178.5q0 154 125.5 235t351.5 87q14 2 123 2q15 72 45 133
q7 96 -46 146.5t-149 50.5q-200 0 -247 -185l-95 17q33 134 130 194t225 60q217 0 264 -152q129 152 307 152q81 0 142.5 -26t98 -71.5t54.5 -102.5t18 -124q0 -107 -39 -178zM365 61q100 0 180 50t123 147q-11 64 -11 119q0 35 7 86h-111q-173 -5 -273 -62.5t-100 -171.5
q0 -80 47.5 -124t137.5 -44zM1106 879q-128 0 -214 -94.5t-118 -235.5h535q14 35 14 94q0 105 -54 170.5t-163 65.5zM889 1092h-90l164 278h147z" />
    <glyph glyph-name="Oslashacute" unicode="&#x1fe;" horiz-adv-x="1249" 
d="M567 -18q-213 0 -336 135l-131 -137l-61 57l143 147q-69 115 -69 287t48 315.5t130.5 238.5t192 147.5t233.5 52.5q210 0 332 -138l133 138l63 -60l-143 -149q69 -117 69 -283q0 -172 -48 -315t-131 -237.5t-192.5 -146.5t-232.5 -52zM223 477q0 -120 41 -207l713 740
q-91 120 -270 120q-141 0 -252 -85t-171.5 -233.5t-60.5 -334.5zM575 74q141 0 252 85t171.5 234t60.5 334q0 118 -41 205l-711 -739q92 -119 268 -119zM807 1315h-94l149 248h144z" />
    <glyph glyph-name="oslashacute" unicode="&#x1ff;" horiz-adv-x="983" 
d="M434 -18q-171 0 -258 106l-110 -108l-58 55l121 123q-43 87 -43 219q0 92 19 178t57.5 160.5t93 130t130.5 87.5t165 32q172 0 264 -115l113 113l57 -60l-127 -129q39 -79 39 -207q0 -116 -30.5 -221t-87.5 -186.5t-146.5 -129.5t-198.5 -48zM444 66q108 0 189.5 71.5
t121.5 182.5t40 241q0 70 -23 131l-526 -534q63 -92 198 -92zM188 387q0 -87 21 -149l532 538q-67 98 -204 98q-81 0 -148 -40.5t-110.5 -108.5t-67 -155.5t-23.5 -182.5zM612 1092h-88l164 278h146z" />
    <glyph glyph-name="Adoublegrave" unicode="&#x200;" horiz-adv-x="1122" 
d="M893 0l-78 383h-541l-208 -383h-115l667 1206h142l244 -1206h-111zM524 836l-200 -361h475l-70 352q-16 79 -28.5 156t-17.5 115l-5 37h-6q-42 -106 -148 -299zM629 1315h-82l-182 248h137zM879 1315h-80l-170 248h133z" />
    <glyph glyph-name="edoublegrave" unicode="&#x201;" horiz-adv-x="923" 
d="M713 256l94 -25q-82 -249 -361 -249q-173 0 -266.5 103.5t-93.5 291.5q0 256 129 422t324 166q81 0 142.5 -26t98 -71.5t54.5 -102.5t18 -124q0 -103 -39 -174h-625q-6 -41 -6 -82q0 -147 66.5 -233t197.5 -86q112 0 174 47.5t93 142.5zM535 879q-130 0 -215.5 -91.5
t-118.5 -234.5h536q15 38 15 90q0 105 -54 170.5t-163 65.5zM473 1092h-82l-182 278h137zM723 1092h-80l-172 278h135z" />
    <glyph glyph-name="edoublegrave" unicode="&#x205;" horiz-adv-x="923" 
d="M713 256l94 -25q-82 -249 -361 -249q-173 0 -266.5 103.5t-93.5 291.5q0 256 129 422t324 166q81 0 142.5 -26t98 -71.5t54.5 -102.5t18 -124q0 -103 -39 -174h-625q-6 -41 -6 -82q0 -147 66.5 -233t197.5 -86q112 0 174 47.5t93 142.5zM535 879q-130 0 -215.5 -91.5
t-118.5 -234.5h536q15 38 15 90q0 105 -54 170.5t-163 65.5zM473 1092h-82l-182 278h137zM723 1092h-80l-172 278h135z" />
    <glyph glyph-name="Ainvertedbreve" unicode="&#x202;" horiz-adv-x="1122" 
d="M893 0l-78 383h-541l-208 -383h-115l667 1206h142l244 -1206h-111zM524 836l-200 -361h475l-70 352q-16 79 -28.5 156t-17.5 115l-5 37h-6q-42 -106 -148 -299zM752 1567q99 0 152.5 -49.5t53.5 -139.5q0 -28 -6 -63h-86q4 32 4 45q0 125 -131 125q-80 0 -126 -42
t-68 -128h-84q22 120 98 186t193 66z" />
    <glyph glyph-name="ainvertedbreve" unicode="&#x203;" horiz-adv-x="1054" 
d="M780 549q15 86 -4.5 160t-77.5 122t-145 48q-161 0 -263 -143.5t-102 -360.5q0 -142 62.5 -223.5t177.5 -81.5q123 0 212 91t114 242zM936 86l-16 -80q-37 -16 -82 -16q-61 0 -92 33t-31 92q0 24 12 94q-38 -103 -126 -165t-198 -62q-144 0 -230.5 99.5t-86.5 283.5
q0 165 56 301t162.5 217.5t242.5 81.5q112 0 183.5 -59t86.5 -161l51 201h86l-133 -764q-6 -27 -6 -51q0 -59 57 -59q26 0 64 14zM643 1354q99 0 152 -51.5t53 -145.5q0 -29 -6 -67h-84q0 10 1 27t1 26q0 129 -129 129q-82 0 -128 -46t-69 -136h-84q22 126 99 195t194 69z
" />
    <glyph glyph-name="Edoublegrave" unicode="&#x204;" horiz-adv-x="964" 
d="M793 94l-17 -94h-686l211 1206h686l-16 -94h-576l-82 -461h514l-16 -94h-514l-82 -463h578zM575 1315h-81l-183 248h138zM825 1315h-80l-170 248h134z" />
    <glyph glyph-name="Einvertedbreve" unicode="&#x206;" horiz-adv-x="964" 
d="M793 94l-17 -94h-686l211 1206h686l-16 -94h-576l-82 -461h514l-16 -94h-514l-82 -463h578zM698 1567q98 0 151.5 -49.5t53.5 -139.5q0 -28 -6 -63h-84q2 16 2 45q0 125 -129 125q-80 0 -126.5 -42.5t-67.5 -127.5h-86q22 120 98.5 186t193.5 66z" />
    <glyph glyph-name="einvertedbreve" unicode="&#x207;" horiz-adv-x="923" 
d="M713 256l94 -25q-82 -249 -361 -249q-173 0 -266.5 103.5t-93.5 291.5q0 256 129 422t324 166q81 0 142.5 -26t98 -71.5t54.5 -102.5t18 -124q0 -103 -39 -174h-625q-6 -41 -6 -82q0 -147 66.5 -233t197.5 -86q112 0 174 47.5t93 142.5zM535 879q-130 0 -215.5 -91.5
t-118.5 -234.5h536q15 38 15 90q0 105 -54 170.5t-163 65.5zM614 1354q99 0 153 -51.5t54 -145.5q0 -29 -6 -67h-86q4 40 4 53q0 129 -129 129q-83 0 -129 -45.5t-67 -136.5h-86q23 126 99 195t193 69z" />
    <glyph glyph-name="Idoublegrave" unicode="&#x208;" horiz-adv-x="452" 
d="M301 1206h111l-211 -1206h-111zM301 1315h-82l-182 248h137zM551 1315h-80l-170 248h135z" />
    <glyph glyph-name="idoublegrave" unicode="&#x209;" horiz-adv-x="446" 
d="M346 946l-133 -764q-6 -27 -6 -51q0 -59 57 -59q26 0 64 14l-17 -80q-37 -16 -82 -16q-127 0 -127 123q0 15 7 59l133 774h104zM244 1092h-82l-182 278h137zM494 1092h-80l-170 278h133z" />
    <glyph glyph-name="Iinvertedbreve" unicode="&#x20a;" horiz-adv-x="452" 
d="M301 1206h111l-211 -1206h-111zM424 1567q99 0 153 -49.5t54 -139.5q0 -28 -6 -63h-86q2 16 2 45q0 125 -129 125q-80 0 -126.5 -42t-68.5 -128h-84q22 120 98 186t193 66z" />
    <glyph glyph-name="iinvertedbreve" unicode="&#x20b;" horiz-adv-x="446" 
d="M346 946l-133 -764q-6 -27 -6 -51q0 -59 57 -59q26 0 64 14l-17 -80q-37 -16 -82 -16q-127 0 -127 123q0 19 7 59l133 774h104zM365 1354q99 0 152.5 -51.5t53.5 -145.5q0 -29 -6 -67h-86q2 20 2 53q0 129 -127 129q-83 0 -129 -45.5t-69 -136.5h-84q23 126 99.5 195
t193.5 69z" />
    <glyph glyph-name="Odoublegrave" unicode="&#x20c;" horiz-adv-x="1249" 
d="M575 74q141 0 252 85t171.5 234t60.5 334t-90 294t-262 109q-141 0 -252 -85t-171.5 -233.5t-60.5 -334.5q0 -187 93 -295t259 -108zM567 -18q-211 0 -332.5 132.5t-121.5 356.5q0 172 48 315.5t130.5 238.5t192 147.5t233.5 52.5q210 0 332 -133.5t122 -358.5
q0 -172 -48 -315t-131 -237.5t-192.5 -146.5t-232.5 -52zM682 1315h-82l-182 248h137zM932 1315h-80l-172 248h135z" />
    <glyph glyph-name="odoublegrave" unicode="&#x20d;" horiz-adv-x="983" 
d="M444 66q108 0 189.5 71.5t121.5 182.5t40 241q0 154 -67 233.5t-191 79.5q-81 0 -148 -40.5t-110.5 -108.5t-67 -155.5t-23.5 -182.5q0 -159 67 -240t189 -81zM434 -18q-162 0 -255 102t-93 293q0 92 19 178t57.5 160.5t93 130t130.5 87.5t165 32q165 0 255.5 -104.5
t90.5 -293.5q0 -116 -30.5 -221t-87.5 -186.5t-146.5 -129.5t-198.5 -48zM502 1092h-82l-182 278h137zM752 1092h-80l-170 278h133z" />
    <glyph glyph-name="Oinvertedbreve" unicode="&#x20e;" horiz-adv-x="1249" 
d="M575 74q141 0 252 85t171.5 234t60.5 334t-90 294t-262 109q-141 0 -252 -85t-171.5 -233.5t-60.5 -334.5q0 -187 93 -295t259 -108zM567 -18q-211 0 -332.5 132.5t-121.5 356.5q0 172 48 315.5t130.5 238.5t192 147.5t233.5 52.5q210 0 332 -133.5t122 -358.5
q0 -172 -48 -315t-131 -237.5t-192.5 -146.5t-232.5 -52zM805 1567q98 0 151.5 -49.5t53.5 -139.5q0 -28 -6 -63h-86q4 32 4 45q0 125 -131 125q-80 0 -126.5 -42t-68.5 -128h-84q22 120 98.5 186t194.5 66z" />
    <glyph glyph-name="oinvertedbreve" unicode="&#x20f;" horiz-adv-x="983" 
d="M444 66q108 0 189.5 71.5t121.5 182.5t40 241q0 154 -67 233.5t-191 79.5q-81 0 -148 -40.5t-110.5 -108.5t-67 -155.5t-23.5 -182.5q0 -159 67 -240t189 -81zM434 -18q-162 0 -255 102t-93 293q0 92 19 178t57.5 160.5t93 130t130.5 87.5t165 32q165 0 255.5 -104.5
t90.5 -293.5q0 -116 -30.5 -221t-87.5 -186.5t-146.5 -129.5t-198.5 -48zM631 1354q101 0 154 -51.5t53 -145.5q0 -23 -7 -67h-86q5 50 5 53q0 129 -129 129q-82 0 -128 -46t-69 -136h-84q22 126 98 195t193 69z" />
    <glyph glyph-name="Rinvertedbreve" unicode="&#x212;" horiz-adv-x="1077" 
d="M948 0h-117q-32 43 -43 121l-28 213q-17 109 -70.5 152.5t-169.5 43.5h-227l-92 -530h-111l211 1206h363q180 0 264 -71.5t84 -212.5q0 -82 -28.5 -148.5t-76.5 -108.5t-107 -65.5t-124 -26.5v-6q87 -12 130 -60t58 -151l33 -223q12 -82 51 -133zM395 1114l-86 -491h256
q157 0 245.5 72t88.5 214q0 105 -61.5 155t-188.5 50h-254zM700 1567q99 0 153 -49.5t54 -139.5q0 -28 -6 -63h-86q4 32 4 45q0 125 -131 125q-80 0 -126 -42t-68 -128h-84q22 120 97.5 186t192.5 66z" />
    <glyph glyph-name="rinvertedbreve" unicode="&#x213;" horiz-adv-x="643" 
d="M682 952l-29 -118q-32 14 -71 14q-106 0 -191.5 -86t-109.5 -225l-93 -537h-104l164 946h90l-27 -233q40 108 119 180t184 72q33 0 68 -13zM528 1354q99 0 153 -51.5t54 -145.5q0 -29 -6 -67h-86q2 20 2 53q0 129 -127 129q-83 0 -129.5 -45.5t-69.5 -136.5h-83
q23 126 99 195t193 69z" />
    <glyph glyph-name="Udoublegrave" unicode="&#x214;" horiz-adv-x="1175" 
d="M1049 1206h108l-141 -817q-20 -114 -65 -195t-110.5 -126.5t-141 -65.5t-169.5 -20q-182 0 -292.5 92.5t-110.5 271.5q0 54 12 119l129 741h109l-131 -749q-8 -60 -8 -105q0 -139 83 -209.5t220 -70.5q146 0 241 77.5t127 258.5zM647 1315h-82l-182 248h137zM897 1315
h-80l-170 248h133z" />
    <glyph glyph-name="udoublegrave" unicode="&#x215;" horiz-adv-x="991" 
d="M891 946l-133 -764q-6 -27 -6 -51q0 -59 57 -59q25 0 63 14l-16 -80q-37 -16 -82 -16q-125 0 -125 119q0 18 15 106q-41 -110 -123 -171.5t-199 -61.5t-180.5 61t-63.5 176q0 37 13 113l106 614h105l-111 -633q-8 -36 -8 -86q0 -76 43 -120t123 -44q115 0 205.5 90
t117.5 242l94 551h105zM494 1092h-82l-183 278h138zM743 1092h-79l-172 278h135z" />
    <glyph glyph-name="Uinvertedbreve" unicode="&#x216;" horiz-adv-x="1175" 
d="M1049 1206h108l-141 -817q-20 -114 -65 -195t-110.5 -126.5t-141 -65.5t-169.5 -20q-182 0 -292.5 92.5t-110.5 271.5q0 54 12 119l129 741h109l-131 -749q-8 -60 -8 -105q0 -139 83 -209.5t220 -70.5q146 0 241 77.5t127 258.5zM774 1567q99 0 153 -49.5t54 -139.5
q0 -28 -6 -63h-86q2 16 2 45q0 125 -129 125q-80 0 -126.5 -42t-68.5 -128h-84q22 120 98 186t193 66z" />
    <glyph glyph-name="uinvertedbreve" unicode="&#x217;" horiz-adv-x="991" 
d="M891 946l-133 -764q-6 -27 -6 -51q0 -59 57 -59q25 0 63 14l-16 -80q-37 -16 -82 -16q-125 0 -125 119q0 18 15 106q-41 -110 -123 -171.5t-199 -61.5t-180.5 61t-63.5 176q0 37 13 113l106 614h105l-111 -633q-8 -36 -8 -86q0 -76 43 -120t123 -44q115 0 205.5 90
t117.5 242l94 551h105zM612 1354q99 0 153 -51.5t54 -145.5q0 -29 -6 -67h-86q2 20 2 53q0 129 -127 129q-83 0 -129 -45.5t-67 -136.5h-87q23 126 99.5 195t193.5 69z" />
    <glyph glyph-name="Scommaaccent" unicode="&#x218;" horiz-adv-x="966" 
d="M45 309l98 19q0 -129 74 -194.5t209 -65.5q133 0 210 61.5t77 187.5q0 99 -57 157.5t-189 105.5q-70 25 -115 48.5t-86.5 59t-61.5 87t-20 120.5q0 70 22.5 127t59 94t85.5 62t101 36t107 11q174 0 266 -75.5t93 -240.5l-103 -16q-3 246 -262 246q-120 0 -193 -60
t-73 -172q0 -51 13.5 -86t47.5 -62.5t72.5 -46t107.5 -44.5q149 -57 221 -132t72 -208q0 -115 -54.5 -194.5t-143.5 -115.5t-205 -36q-179 0 -276 83t-97 244zM440 -289q0 -90 -64.5 -138t-166.5 -48v51q64 3 110 27t46 69q0 6 -5 21q-10 -10 -30 -10q-29 0 -47.5 18
t-18.5 47q0 34 21.5 54t58.5 20q41 0 68.5 -29t27.5 -82z" />
    <glyph glyph-name="scommaaccent" unicode="&#x219;" horiz-adv-x="811" 
d="M43 258l94 18q1 -110 64.5 -161.5t165.5 -51.5q213 0 213 173q0 75 -48 122.5t-155 87.5q-116 42 -169.5 100.5t-53.5 158.5q0 122 84.5 191t222.5 69q140 0 211 -64t71 -186l-98 -10q0 88 -49 133t-143 45q-92 0 -147.5 -44.5t-55.5 -125.5q0 -68 39 -107.5t151 -83.5
q126 -48 183 -112t57 -166q0 -129 -84.5 -195.5t-233.5 -66.5q-150 0 -234.5 72.5t-84.5 203.5zM375 -289q0 -90 -64.5 -138t-167.5 -48v51q64 3 110 27t46 69q0 15 -4 21q-8 -10 -31 -10q-29 0 -46 18t-17 47q0 34 21.5 54t56.5 20q42 0 69 -29t27 -82z" />
    <glyph glyph-name="Hcaron" unicode="&#x21e;" horiz-adv-x="1257" 
d="M1106 1206h108l-208 -1206h-111l96 561h-694l-96 -561h-111l211 1206h111l-97 -549h695zM741 1315l-190 256h115l67 -98q14 -19 25.5 -38.5t16.5 -29.5l5 -10h4q-1 0 8.5 10.5t27.5 30t38 39.5l103 96h122l-280 -256h-62z" />
    <glyph glyph-name="hcaron" unicode="&#x21f;" horiz-adv-x="1009" 
d="M692 172l80 455q10 65 10 94q0 72 -40.5 112.5t-120.5 40.5q-115 0 -212 -91t-126 -263l-90 -520h-105l238 1368h106l-115 -643q46 109 131 174.5t199 65.5q110 0 175 -58t65 -166q0 -40 -13 -116l-77 -443q0 -3 -3 -22.5t-3 -28.5q0 -59 57 -59q25 0 63 14l-14 -80
q-37 -16 -82 -16q-129 0 -129 123q0 21 6 59zM418 1442h-64l-190 256h117l69 -99q17 -24 43 -74q1 -4 2 -3h4q23 33 72 80l104 96h123z" />
    <glyph glyph-name="Adotabove" unicode="&#x226;" horiz-adv-x="1122" 
d="M893 0l-78 383h-541l-208 -383h-115l667 1206h142l244 -1206h-111zM524 836l-200 -361h475l-70 352q-16 79 -28.5 156t-17.5 115l-5 37h-6q-42 -106 -148 -299zM637 1430q0 34 21.5 55.5t54.5 21.5q34 0 57 -22t23 -55q0 -32 -23 -55t-57 -23q-32 0 -54 23t-22 55z" />
    <glyph glyph-name="adotabove" unicode="&#x227;" horiz-adv-x="1054" 
d="M754 403l26 146q15 86 -4.5 160t-77.5 122t-145 48q-161 0 -263 -143.5t-102 -360.5q0 -142 62.5 -223.5t177.5 -81.5q123 0 212 91t114 242zM936 86l-16 -80q-37 -16 -82 -16q-61 0 -92 33t-31 92q0 24 12 94q-38 -103 -126 -165t-198 -62q-144 0 -230.5 99.5
t-86.5 283.5q0 165 56 301t162.5 217.5t242.5 81.5q112 0 183.5 -59t86.5 -161l51 201h86l-133 -764q-6 -27 -6 -51q0 -59 57 -59q26 0 64 14zM543 1237q0 34 21.5 57t53.5 23q34 0 57 -23t23 -57q0 -32 -23 -54t-57 -22q-32 0 -53.5 22t-21.5 54z" />
    <glyph glyph-name="Otildemacron" unicode="&#x22c;" horiz-adv-x="1249" 
d="M575 74q141 0 252 85t171.5 234t60.5 334t-90 294t-262 109q-141 0 -252 -85t-171.5 -233.5t-60.5 -334.5q0 -187 93 -295t259 -108zM567 -18q-211 0 -332.5 132.5t-121.5 356.5q0 172 48 315.5t130.5 238.5t192 147.5t233.5 52.5q210 0 332 -133.5t122 -358.5
q0 -172 -48 -315t-131 -237.5t-192.5 -146.5t-232.5 -52zM537 1260l-68 4q-6 24 -6 45q0 68 44 111.5t109 43.5q64 0 123 -43l76 -55q39 -29 76 -29q72 0 78 119l69 -4q4 -28 4 -45q0 -67 -43 -111.5t-108 -44.5q-60 0 -125 45l-74 54q-38 28 -76 28q-37 0 -55.5 -28
t-23.5 -90zM1028 1520h-455l15 84h454z" />
    <glyph glyph-name="otildemacron" unicode="&#x22d;" horiz-adv-x="983" 
d="M444 66q108 0 189.5 71.5t121.5 182.5t40 241q0 154 -67 233.5t-191 79.5q-81 0 -148 -40.5t-110.5 -108.5t-67 -155.5t-23.5 -182.5q0 -159 67 -240t189 -81zM434 -18q-162 0 -255 102t-93 293q0 92 19 178t57.5 160.5t93 130t130.5 87.5t165 32q165 0 255.5 -104.5
t90.5 -293.5q0 -116 -30.5 -221t-87.5 -186.5t-146.5 -129.5t-198.5 -48zM371 1036l-68 4q-6 21 -6 45q0 67 44.5 111.5t109.5 44.5q60 0 122 -45l76 -55q40 -27 76 -27q72 0 78 117l69 -2q5 -40 5 -45q0 -69 -44 -113.5t-110 -44.5q-61 0 -123 45l-74 55q-39 29 -75 29
q-74 0 -80 -119zM864 1319h-454l14 86h455z" />
    <glyph glyph-name="Odotabove" unicode="&#x22e;" horiz-adv-x="1249" 
d="M575 74q141 0 252 85t171.5 234t60.5 334t-90 294t-262 109q-141 0 -252 -85t-171.5 -233.5t-60.5 -334.5q0 -187 93 -295t259 -108zM567 -18q-211 0 -332.5 132.5t-121.5 356.5q0 172 48 315.5t130.5 238.5t192 147.5t233.5 52.5q210 0 332 -133.5t122 -358.5
q0 -172 -48 -315t-131 -237.5t-192.5 -146.5t-232.5 -52zM694 1430q0 33 22.5 55t55.5 22q34 0 56 -21.5t22 -55.5q0 -33 -22.5 -55.5t-55.5 -22.5q-32 0 -55 23t-23 55z" />
    <glyph glyph-name="odotabove" unicode="&#x22f;" horiz-adv-x="983" 
d="M444 66q108 0 189.5 71.5t121.5 182.5t40 241q0 154 -67 233.5t-191 79.5q-81 0 -148 -40.5t-110.5 -108.5t-67 -155.5t-23.5 -182.5q0 -159 67 -240t189 -81zM434 -18q-162 0 -255 102t-93 293q0 92 19 178t57.5 160.5t93 130t130.5 87.5t165 32q165 0 255.5 -104.5
t90.5 -293.5q0 -116 -30.5 -221t-87.5 -186.5t-146.5 -129.5t-198.5 -48zM565 1237q0 34 22 57t54 23q34 0 56 -23t22 -57q0 -32 -22 -54t-56 -22q-32 0 -54 22t-22 54z" />
    <glyph glyph-name="odotabovemacron" unicode="&#x231;" horiz-adv-x="983" 
d="M444 66q108 0 189.5 71.5t121.5 182.5t40 241q0 154 -67 233.5t-191 79.5q-81 0 -148 -40.5t-110.5 -108.5t-67 -155.5t-23.5 -182.5q0 -159 67 -240t189 -81zM434 -18q-162 0 -255 102t-93 293q0 92 19 178t57.5 160.5t93 130t130.5 87.5t165 32q165 0 255.5 -104.5
t90.5 -293.5q0 -116 -30.5 -221t-87.5 -186.5t-146.5 -129.5t-198.5 -48zM522 1116q0 34 22 56t54 22q34 0 57 -22t23 -56q0 -32 -23 -55t-57 -23q-32 0 -54 23t-22 55zM862 1288h-452l14 86h455z" />
    <glyph glyph-name="odotabovemacron" unicode="&#xe11e;" horiz-adv-x="983" 
d="M444 66q108 0 189.5 71.5t121.5 182.5t40 241q0 154 -67 233.5t-191 79.5q-81 0 -148 -40.5t-110.5 -108.5t-67 -155.5t-23.5 -182.5q0 -159 67 -240t189 -81zM434 -18q-162 0 -255 102t-93 293q0 92 19 178t57.5 160.5t93 130t130.5 87.5t165 32q165 0 255.5 -104.5
t90.5 -293.5q0 -116 -30.5 -221t-87.5 -186.5t-146.5 -129.5t-198.5 -48zM522 1116q0 34 22 56t54 22q34 0 57 -22t23 -56q0 -32 -23 -55t-57 -23q-32 0 -54 23t-22 55zM862 1288h-452l14 86h455z" />
    <glyph glyph-name="Ymacron" unicode="&#x232;" horiz-adv-x="993" 
d="M281 1206l165 -442q23 -59 38.5 -109.5t19.5 -70.5l4 -21h6q31 66 123 201l313 442h119l-516 -723l-84 -483h-109l84 483l-276 723h113zM879 1366h-455l14 84h455z" />
    <glyph glyph-name="ymacron" unicode="&#x233;" horiz-adv-x="854" 
d="M260 -31l-147 977h108l80 -604q12 -78 18.5 -145t7.5 -95l1 -28h6q31 92 125 264l336 608h110l-626 -1118q-82 -150 -154.5 -206t-169.5 -56q-85 0 -143 47l28 80q59 -45 119 -45q69 0 119.5 45.5t114.5 161.5zM745 1155h-454l14 88h455z" />
    <glyph glyph-name="dotlessj" unicode="&#x237;" horiz-adv-x="417" 
d="M49 -176l199 1122h104l-198 -1120q-23 -133 -85.5 -195.5t-168.5 -62.5q-50 0 -93.5 16t-68.5 41l39 84q61 -55 129 -55q60 0 94 41t49 129z" />
    <glyph glyph-name="schwa" unicode="&#x259;" horiz-adv-x="933" 
d="M217 688l-90 27q92 250 369 250q168 0 261 -104.5t93 -291.5q0 -262 -129 -424.5t-324 -162.5q-159 0 -237 90t-78 231q0 105 39 176h622q5 34 5 82q0 147 -66 233.5t-195 86.5q-104 0 -167.5 -48.5t-102.5 -144.5zM401 66q129 0 211 87t117 240h-530q-15 -37 -15 -92
q0 -105 53.5 -170t163.5 -65z" />
    <glyph glyph-name="ezh" unicode="&#x292;" horiz-adv-x="815" 
d="M244 414l282 299q39 41 74.5 76t51.5 50l16 15l2 6q-62 -4 -191 -4h-329l16 90h649l-12 -72l-465 -483q155 0 248.5 -87t93.5 -228q0 -93 -36 -168.5t-96 -123.5t-134 -73.5t-154 -25.5q-153 0 -234 78.5t-81 207.5l88 21q0 -106 64.5 -167t168.5 -61q137 0 224.5 83.5
t87.5 226.5q0 249 -347 264z" />
    <glyph glyph-name="circumflex" unicode="&#x2c6;" horiz-adv-x="802" 
d="M420 1370h59l189 -278h-111l-72 110q-14 21 -24.5 41.5t-14.5 30.5l-4 10h-6q-25 -35 -74 -84l-110 -108h-115z" />
    <glyph glyph-name="caron" unicode="&#x2c7;" horiz-adv-x="802" 
d="M383 1092h-59l-187 278h109l71 -110q14 -22 24.5 -43t14.5 -31l4 -10h7q24 35 73 86l111 108h117z" />
    <glyph glyph-name="breve" unicode="&#x2d8;" horiz-adv-x="774" 
d="M344 1085q-99 0 -152 51t-53 144q0 30 6 68h84q-2 -18 -2 -52q0 -129 129 -129q82 0 128 45.5t69 135.5h84q-23 -125 -99.5 -194t-193.5 -69z" />
    <glyph glyph-name="dotaccent" unicode="&#x2d9;" horiz-adv-x="430" 
d="M135 1237q0 34 22 57t54 23q34 0 56 -23t22 -57q0 -32 -22 -54t-56 -22q-32 0 -54 22t-22 54z" />
    <glyph glyph-name="ring" unicode="&#x2da;" horiz-adv-x="628" 
d="M307 1139q52 0 85.5 37t33.5 90q0 47 -26 75.5t-76 28.5q-53 0 -87 -37t-34 -90q0 -47 26.5 -75.5t77.5 -28.5zM299 1081q-77 0 -119.5 44t-42.5 114q0 78 54.5 133t138.5 55q75 0 118.5 -44.5t43.5 -112.5q0 -79 -53.5 -134t-139.5 -55z" />
    <glyph glyph-name="ogonek" unicode="&#x2db;" horiz-adv-x="626" 
d="M442 -262l43 -51q-63 -99 -186 -99q-79 0 -120.5 40.5t-41.5 113.5q0 60 29.5 115t76.5 95t100.5 67.5t107.5 41.5l43 -61q-110 -25 -187.5 -92.5t-77.5 -157.5q0 -41 23 -63.5t63 -22.5q44 0 73 18.5t54 55.5z" />
    <glyph glyph-name="tilde" unicode="&#x2dc;" horiz-adv-x="851" 
d="M211 1112l-70 4q-4 28 -4 45q0 67 43.5 111.5t108.5 44.5q60 0 125 -45l73 -55q40 -27 76 -27q71 0 80 117l68 -2q6 -24 6 -45q0 -68 -44.5 -113t-109.5 -45q-60 0 -125 45l-73 55q-44 29 -76 29q-72 0 -78 -119z" />
    <glyph glyph-name="hungarumlaut" unicode="&#x2dd;" horiz-adv-x="827" 
d="M217 1092h-80l152 278h137zM469 1092h-82l164 278h139z" />
    <glyph glyph-name="uni0312" unicode="&#x312;" horiz-adv-x="522" 
d="M137 1450q0 90 64.5 138t167.5 48v-53q-63 -2 -109.5 -26t-46.5 -70q0 -13 4 -19q11 11 31 11q29 0 46 -19t17 -47q0 -34 -21.5 -54t-56.5 -20q-42 0 -69 29t-27 82z" />
    <glyph glyph-name="uni0320" unicode="&#x320;" horiz-adv-x="780" 
d="M627 -346h-490l15 86h491z" />
    <glyph glyph-name="uni0323" unicode="&#x323;" horiz-adv-x="430" 
d="M135 -256q0 34 22 56t54 22q33 0 55.5 -22.5t22.5 -55.5q0 -32 -23 -55t-55 -23t-54 23t-22 55z" />
    <glyph glyph-name="uni0329" unicode="&#x329;" horiz-adv-x="385" 
d="M137 -393l21 276h90l-21 -268z" />
    <glyph glyph-name="pi" unicode="&#x3c0;" horiz-adv-x="1241" 
d="M416 985h825l-14 -88h-256l-121 -655q-10 -44 -10 -90q0 -91 84 -91q48 0 77 25t66 84l72 -45q-47 -78 -100.5 -110.5t-133.5 -32.5q-83 0 -126.5 42.5t-43.5 118.5q0 43 10 97l125 657h-325l-254 -897h-105l258 897h-53q-112 0 -172.5 -61t-75.5 -183h-92
q35 332 365 332z" />
    <glyph glyph-name="pi" unicode="&#x3d6;" horiz-adv-x="1241" 
d="M416 985h825l-14 -88h-256l-121 -655q-10 -44 -10 -90q0 -91 84 -91q48 0 77 25t66 84l72 -45q-47 -78 -100.5 -110.5t-133.5 -32.5q-83 0 -126.5 42.5t-43.5 118.5q0 43 10 97l125 657h-325l-254 -897h-105l258 897h-53q-112 0 -172.5 -61t-75.5 -183h-92
q35 332 365 332z" />
    <glyph glyph-name="uni0E3F" unicode="&#xe3f;" horiz-adv-x="962" 
d="M649 510v-6q90 -4 143.5 -59.5t53.5 -143.5q0 -298 -412 -301l-37 -217h-75l36 217h-278l172 985h280l33 191h76l-35 -191q134 -2 202.5 -56.5t68.5 -160.5q0 -112 -61.5 -178t-166.5 -80zM743 297q0 83 -54.5 123t-174.5 41l-63 -373q145 2 218.5 50t73.5 159zM266 461
l-65 -373h174l65 373h-174zM281 549h174l61 348h-174zM772 754q0 72 -46 106t-136 37l-60 -348q107 0 174.5 50.5t67.5 154.5z" />
    <glyph glyph-name="Ddotbelow" unicode="&#x1e0c;" horiz-adv-x="1200" 
d="M215 92h229q124 0 225.5 39t177.5 116.5t117.5 201t41.5 284.5q0 191 -105 286t-293 95h-213zM449 0h-359l211 1206h322q241 0 369 -120t128 -345q0 -151 -34.5 -274.5t-95.5 -209t-146 -144t-184 -86t-211 -27.5zM307 -285q0 34 22 57t54 23q34 0 57 -23t23 -57
q0 -32 -23 -54.5t-57 -22.5q-32 0 -54 22.5t-22 54.5z" />
    <glyph glyph-name="ddotbelow" unicode="&#x1e0d;" horiz-adv-x="1048" 
d="M754 401l28 148q23 134 -38 232t-191 98q-161 0 -264 -144.5t-103 -361.5q0 -140 62.5 -221.5t177.5 -81.5q124 0 213.5 90.5t114.5 240.5zM727 209q-35 -106 -123.5 -166.5t-200.5 -60.5q-144 0 -230.5 99.5t-86.5 283.5q0 165 56 301t162.5 217.5t242.5 81.5
q112 0 183.5 -59t86.5 -161l109 623h102l-207 -1186q-6 -27 -6 -51q0 -59 57 -59q26 0 64 14l-16 -80q-37 -16 -82 -16q-61 0 -92 33t-31 92q0 20 12 94zM309 -285q0 34 22 57t54 23q34 0 57 -23t23 -57q0 -32 -23 -54.5t-57 -22.5q-32 0 -54 22.5t-22 54.5z" />
    <glyph glyph-name="Dcedilla" unicode="&#x1e10;" horiz-adv-x="1200" 
d="M403 0h-313l211 1206h322q241 0 369 -120t128 -345q0 -150 -34.5 -273t-94 -207.5t-143.5 -143t-180 -86.5t-205 -31l-39 -94q164 -26 164 -160q0 -77 -57.5 -121.5t-143.5 -44.5q-120 0 -174 82l39 66q47 -78 135 -78q50 0 80.5 25.5t30.5 70.5q0 96 -154 102zM215 92
h229q124 0 225.5 39t177.5 116.5t117.5 201t41.5 284.5q0 191 -105 286t-293 95h-213z" />
    <glyph glyph-name="dcedilla" unicode="&#x1e11;" horiz-adv-x="1048" 
d="M594 -254q0 -77 -57.5 -121.5t-143.5 -44.5q-118 0 -176 82l39 66q50 -78 137 -78q50 0 80.5 25.5t30.5 70.5q0 96 -154 102l49 134q-143 2 -228 101t-85 282q0 165 56 301t162.5 217.5t242.5 81.5q112 0 183.5 -59t86.5 -161l109 623h102l-207 -1186q-6 -27 -6 -51
q0 -59 57 -59q26 0 64 14l-16 -80q-37 -16 -82 -16q-61 0 -92 33t-31 92q0 24 12 94q-31 -92 -101.5 -151.5t-162.5 -71.5l-33 -80q164 -26 164 -160zM754 401l28 148q23 134 -38 232t-191 98q-161 0 -264 -144.5t-103 -361.5q0 -140 62.5 -221.5t177.5 -81.5
q124 0 213.5 90.5t114.5 240.5z" />
    <glyph glyph-name="Hdotbelow" unicode="&#x1e24;" horiz-adv-x="1257" 
d="M1106 1206h108l-208 -1206h-111l96 561h-694l-96 -561h-111l211 1206h111l-97 -549h695zM418 -285q0 33 22.5 56.5t53.5 23.5q34 0 56.5 -23t22.5 -57q0 -32 -22.5 -54.5t-56.5 -22.5q-31 0 -53.5 22.5t-22.5 54.5z" />
    <glyph glyph-name="hdotbelow" unicode="&#x1e25;" horiz-adv-x="1009" 
d="M692 172l80 455q10 65 10 94q0 72 -40.5 112.5t-120.5 40.5q-115 0 -212 -91t-126 -263l-90 -520h-105l238 1368h106l-115 -643q46 109 131 174.5t199 65.5q110 0 175 -58t65 -166q0 -40 -13 -116l-77 -443q0 -3 -3 -22.5t-3 -28.5q0 -59 57 -59q25 0 63 14l-14 -80
q-37 -16 -82 -16q-129 0 -129 123q0 21 6 59zM338 -285q0 34 22 57t54 23q34 0 57 -23t23 -57q0 -32 -23 -54.5t-57 -22.5q-32 0 -54 22.5t-22 54.5z" />
    <glyph glyph-name="Ldotbelow" unicode="&#x1e36;" horiz-adv-x="892" 
d="M301 1206h111l-197 -1112h559l-14 -94h-670zM291 -285q0 34 22 57t54 23q33 0 55 -23t22 -57q0 -33 -22 -55t-55 -22q-32 0 -54 22.5t-22 54.5z" />
    <glyph glyph-name="ldotbelow" unicode="&#x1e37;" horiz-adv-x="442" 
d="M420 1368l-207 -1186q-6 -27 -6 -51q0 -59 57 -59q26 0 64 14l-17 -80q-37 -16 -82 -16q-127 0 -127 123q0 15 7 59l206 1196h105zM37 -285q0 34 22 57t54 23q34 0 57 -23t23 -57q0 -32 -23 -54.5t-57 -22.5q-32 0 -54 22.5t-22 54.5z" />
    <glyph glyph-name="uni004C032300AF" unicode="&#x1e38;" horiz-adv-x="892" 
d="M301 1206h111l-197 -1112h559l-14 -94h-670zM621 1366h-455l14 84h455zM291 -285q0 34 22 57t54 23q33 0 55 -23t22 -57q0 -33 -22 -55t-55 -22q-32 0 -54 22.5t-22 54.5z" />
    <glyph glyph-name="ldotbelowmacron" unicode="&#x1e39;" horiz-adv-x="442" 
d="M420 1368l-207 -1186q-6 -27 -6 -51q0 -59 57 -59q26 0 64 14l-17 -80q-37 -16 -82 -16q-127 0 -127 123q0 15 7 59l206 1196h105zM625 1454h-455l14 84h453zM37 -285q0 34 22 57t54 23q34 0 57 -23t23 -57q0 -32 -23 -54.5t-57 -22.5q-32 0 -54 22.5t-22 54.5z" />
    <glyph glyph-name="Mdotbelow" unicode="&#x1e42;" horiz-adv-x="1413" 
d="M498 -285q0 34 21.5 57t53.5 23q34 0 56 -23t22 -57q0 -33 -22.5 -55t-55.5 -22q-32 0 -53.5 22.5t-21.5 54.5zM723 301h-82l-192 547q-22 61 -38 113.5t-21 74.5l-5 23h-6q-6 -66 -31 -211l-147 -848h-111l211 1206h129l227 -655q14 -39 23.5 -75t12.5 -52l3 -16h6
q19 51 80 139l459 659h131l-209 -1206h-110l147 848q11 64 22 116.5t16 73.5l5 21h-6q-33 -72 -127 -207z" />
    <glyph glyph-name="mdotbelow" unicode="&#x1e43;" horiz-adv-x="1525" 
d="M858 717q99 248 322 248q104 0 163.5 -57t59.5 -167q0 -45 -12 -116l-76 -443q-6 -27 -6 -51q0 -59 57 -59q26 0 61 14l-14 -80q-37 -16 -82 -16q-129 0 -129 123q0 21 6 59l80 455q12 58 12 94q0 153 -155 153q-106 0 -196.5 -92t-121.5 -262l-90 -520h-102l108 627
q13 63 13 94q0 153 -156 153q-106 0 -196 -92t-121 -262l-90 -520h-103l164 946h90l-25 -221q48 114 123.5 177t192.5 63q99 0 158 -54.5t63 -156.5q0 -6 1 -18t1 -19zM553 -285q0 34 22 57t54 23q34 0 57 -23t23 -57q0 -32 -23 -54.5t-57 -22.5q-32 0 -54 22.5t-22 54.5z
" />
    <glyph glyph-name="Ndotaccent" unicode="&#x1e44;" horiz-adv-x="1255" 
d="M702 1430q0 33 22.5 55t53.5 22q35 0 57.5 -21.5t22.5 -55.5q0 -33 -22.5 -55.5t-57.5 -22.5q-31 0 -53.5 23t-22.5 55zM418 1206l401 -831q27 -56 52 -114.5t36 -88.5l11 -31h6q14 121 39 256l141 809h108l-208 -1206h-115l-406 829q-24 50 -49.5 108.5t-39.5 92.5
l-13 33h-6q-8 -119 -33 -254l-141 -809h-111l211 1206h117z" />
    <glyph glyph-name="ndotaccent" unicode="&#x1e45;" horiz-adv-x="1011" 
d="M694 172l80 455q10 65 10 94q0 72 -40.5 112.5t-120.5 40.5q-115 0 -212.5 -91t-127.5 -263l-90 -520h-103l164 946h90l-25 -221q47 110 130.5 175t197.5 65q111 0 176.5 -58t65.5 -166q0 -45 -12 -116l-78 -443q0 -3 -3 -22.5t-3 -28.5q0 -59 57 -59q25 0 63 14l-14 -80
q-40 -16 -84 -16q-127 0 -127 123q0 21 6 59zM545 1237q0 34 23 57t55 23q33 0 55 -23t22 -57q0 -33 -22 -54.5t-55 -21.5q-32 0 -55 22t-23 54z" />
    <glyph glyph-name="Ndotbelow" unicode="&#x1e46;" horiz-adv-x="1255" 
d="M403 -285q0 34 22 57t54 23q34 0 57 -23t23 -57q0 -32 -23 -54.5t-57 -22.5q-32 0 -54 22.5t-22 54.5zM418 1206l401 -831q27 -56 52 -114.5t36 -88.5l11 -31h6q14 121 39 256l141 809h108l-208 -1206h-115l-406 829q-24 50 -49.5 108.5t-39.5 92.5l-13 33h-6
q-8 -119 -33 -254l-141 -809h-111l211 1206h117z" />
    <glyph glyph-name="ndotbelow" unicode="&#x1e47;" horiz-adv-x="1011" 
d="M694 172l80 455q10 65 10 94q0 72 -40.5 112.5t-120.5 40.5q-115 0 -212.5 -91t-127.5 -263l-90 -520h-103l164 946h90l-25 -221q47 110 130.5 175t197.5 65q111 0 176.5 -58t65.5 -166q0 -45 -12 -116l-78 -443q0 -3 -3 -22.5t-3 -28.5q0 -59 57 -59q25 0 63 14l-14 -80
q-40 -16 -84 -16q-127 0 -127 123q0 21 6 59zM326 -285q0 34 21.5 57t53.5 23q34 0 56 -23t22 -57q0 -33 -22.5 -55t-55.5 -22q-32 0 -53.5 22.5t-21.5 54.5z" />
    <glyph glyph-name="Rdotbelow" unicode="&#x1e5a;" horiz-adv-x="1077" 
d="M948 0h-117q-32 43 -43 121l-28 213q-15 108 -69.5 152t-170.5 44h-227l-92 -530h-111l211 1206h363q180 0 264 -71.5t84 -212.5q0 -82 -28.5 -148.5t-76.5 -108.5t-107 -65.5t-124 -26.5v-6q87 -12 130 -60t58 -151l33 -223q12 -82 51 -133zM395 1114l-86 -491h256
q157 0 245.5 72t88.5 214q0 105 -61.5 155t-188.5 50h-254zM334 -285q0 34 22 57t54 23q34 0 56.5 -23t22.5 -57q0 -32 -22.5 -54.5t-56.5 -22.5q-32 0 -54 22.5t-22 54.5z" />
    <glyph glyph-name="rdotbelow" unicode="&#x1e5b;" horiz-adv-x="643" 
d="M682 952l-29 -118q-32 14 -71 14q-106 0 -191.5 -86t-109.5 -225l-93 -537h-104l164 946h90l-27 -233q40 108 119 180t184 72q33 0 68 -13zM14 -285q0 34 23 57t55 23q34 0 56 -23t22 -57q0 -33 -22 -55t-56 -22q-32 0 -55 22.5t-23 54.5z" />
    <glyph glyph-name="Rdotbelowmacron" unicode="&#x1e5c;" horiz-adv-x="1077" 
d="M948 0h-117q-32 43 -43 121l-28 213q-15 108 -69.5 152t-170.5 44h-227l-92 -530h-111l211 1206h363q180 0 264 -71.5t84 -212.5q0 -82 -28.5 -148.5t-76.5 -108.5t-107 -65.5t-124 -26.5v-6q87 -12 130 -60t58 -151l33 -223q12 -82 51 -133zM395 1114l-86 -491h256
q157 0 245.5 72t88.5 214q0 105 -61.5 155t-188.5 50h-254zM334 -285q0 34 22 57t54 23q34 0 56.5 -23t22.5 -57q0 -32 -22.5 -54.5t-56.5 -22.5q-32 0 -54 22.5t-22 54.5zM897 1366h-455l15 84h454z" />
    <glyph glyph-name="rdotbelowmacron" unicode="&#x1e5d;" horiz-adv-x="643" 
d="M682 952l-29 -118q-32 14 -71 14q-106 0 -191.5 -86t-109.5 -225l-93 -537h-104l164 946h90l-27 -233q40 108 119 180t184 72q33 0 68 -13zM14 -285q0 34 23 57t55 23q34 0 56 -23t22 -57q0 -33 -22 -55t-56 -22q-32 0 -55 22.5t-23 54.5zM723 1155h-453l15 88h454z" />
    <glyph glyph-name="Sdotbelow" unicode="&#x1e62;" horiz-adv-x="966" 
d="M45 309l98 19q0 -129 74 -194.5t209 -65.5q133 0 210 61.5t77 187.5q0 99 -57 157.5t-189 105.5q-70 25 -115 48.5t-86.5 59t-61.5 87t-20 120.5q0 70 22.5 127t59 94t85.5 62t101 36t107 11q174 0 266 -75.5t93 -240.5l-103 -16q-3 246 -262 246q-120 0 -193 -60
t-73 -172q0 -51 13.5 -86t47.5 -62.5t72.5 -46t107.5 -44.5q149 -57 221 -132t72 -208q0 -115 -54.5 -194.5t-143.5 -115.5t-205 -36q-179 0 -276 83t-97 244zM246 -285q0 34 23 57t55 23q33 0 55 -23t22 -57q0 -33 -22 -55t-55 -22q-32 0 -55 22.5t-23 54.5z" />
    <glyph glyph-name="sdotbelow" unicode="&#x1e63;" horiz-adv-x="811" 
d="M43 258l94 18q1 -110 64.5 -161.5t165.5 -51.5q213 0 213 173q0 75 -48 122.5t-155 87.5q-116 42 -169.5 100.5t-53.5 158.5q0 122 84.5 191t222.5 69q140 0 211 -64t71 -186l-98 -10q0 88 -49 133t-143 45q-92 0 -147.5 -44.5t-55.5 -125.5q0 -68 39 -107.5t151 -83.5
q126 -48 183 -112t57 -166q0 -129 -84.5 -195.5t-233.5 -66.5q-150 0 -234.5 72.5t-84.5 203.5zM180 -285q0 34 23 57t55 23q34 0 56 -23t22 -57q0 -33 -22 -55t-56 -22q-32 0 -55 22.5t-23 54.5z" />
    <glyph glyph-name="Tdotbelow" unicode="&#x1e6c;" horiz-adv-x="974" 
d="M455 0h-111l195 1112h-398l17 94h895l-17 -94h-389zM272 -285q0 34 23 57t55 23q34 0 56 -23t22 -57q0 -33 -22 -55t-56 -22q-32 0 -55 22.5t-23 54.5z" />
    <glyph glyph-name="tdotbelow" unicode="&#x1e6d;" horiz-adv-x="604" 
d="M494 129l8 -88q-78 -59 -187 -59q-96 0 -147 46.5t-51 137.5q0 46 8 90l106 604h-131l15 86h133l37 199l104 16l-37 -215h248l-16 -86h-248l-107 -614q-8 -33 -8 -66q0 -55 29 -82.5t78 -27.5q91 0 166 59zM121 -285q0 34 23 57t55 23q33 0 55 -23t22 -57q0 -33 -22 -55
t-55 -22q-32 0 -55 22.5t-23 54.5z" />
    <glyph glyph-name="Wgrave" unicode="&#x1e80;" horiz-adv-x="1630" 
d="M993 1315h-90l-164 248h142zM985 1206l82 -829q8 -84 13 -161t6 -112l1 -34h7q36 119 120 309l371 827h115l-549 -1206h-152l-73 803q-7 83 -11 158t-4 109v34h-6q-35 -113 -121 -301l-364 -803h-152l-84 1206h109l53 -825q5 -84 8 -161.5t4 -113.5v-36h7q34 121 122 311
l377 825h121z" />
    <glyph glyph-name="wgrave" unicode="&#x1e81;" horiz-adv-x="1325" 
d="M965 350l292 596h109l-467 -946h-127l-53 582q-5 68 -7 132t-2 94l1 30h-6q-31 -98 -105 -260l-264 -578h-129l-88 946h104l51 -598q6 -67 9.5 -134.5t3.5 -101.5v-34h6q36 118 108 272l275 596h108l50 -600q4 -44 7 -88t4 -75.5t1.5 -56.5t-0.5 -38v-12h6
q35 112 113 274zM788 1092h-86l-182 278h142z" />
    <glyph glyph-name="Wacute" unicode="&#x1e82;" horiz-adv-x="1630" 
d="M981 1315h-94l149 248h146zM985 1206l82 -829q8 -84 13 -161t6 -112l1 -34h7q36 119 120 309l371 827h115l-549 -1206h-152l-73 803q-7 83 -11 158t-4 109v34h-6q-35 -113 -121 -301l-364 -803h-152l-84 1206h109l53 -825q5 -84 8 -161.5t4 -113.5v-36h7q34 121 122 311
l377 825h121z" />
    <glyph glyph-name="wacute" unicode="&#x1e83;" horiz-adv-x="1325" 
d="M965 350l292 596h109l-467 -946h-127l-53 582q-5 68 -7 132t-2 94l1 30h-6q-31 -98 -105 -260l-264 -578h-129l-88 946h104l51 -598q6 -67 9.5 -134.5t3.5 -101.5v-34h6q36 118 108 272l275 596h108l50 -600q4 -44 7 -88t4 -75.5t1.5 -56.5t-0.5 -38v-12h6
q35 112 113 274zM803 1092h-90l164 278h145z" />
    <glyph glyph-name="Wdieresis" unicode="&#x1e84;" horiz-adv-x="1630" 
d="M702 1413q0 32 23 55t55 23q33 0 55.5 -22.5t22.5 -55.5t-22.5 -55.5t-55.5 -22.5q-32 0 -55 23t-23 55zM1055 1411q0 33 22.5 55.5t55.5 22.5t55 -22.5t22 -55.5q0 -32 -22.5 -55t-54.5 -23t-55 23t-23 55zM985 1206l82 -829q8 -84 13 -161t6 -112l1 -34h7
q36 119 120 309l371 827h115l-549 -1206h-152l-73 803q-7 83 -11 158t-4 109v34h-6q-35 -113 -121 -301l-364 -803h-152l-84 1206h109l53 -825q5 -84 8 -161.5t4 -113.5v-36h7q34 121 122 311l377 825h121z" />
    <glyph glyph-name="wdieresis" unicode="&#x1e85;" horiz-adv-x="1325" 
d="M965 350l292 596h109l-467 -946h-127l-53 582q-5 68 -7 132t-2 94l1 30h-6q-31 -98 -105 -260l-264 -578h-129l-88 946h104l51 -598q6 -67 9.5 -134.5t3.5 -101.5v-34h6q36 118 108 272l275 596h108l50 -600q4 -44 7 -88t4 -75.5t1.5 -56.5t-0.5 -38v-12h6
q35 112 113 274zM512 1219q0 32 23 54.5t55 22.5q34 0 56 -22t22 -55t-22.5 -55.5t-55.5 -22.5q-32 0 -55 23t-23 55zM864 1217q0 33 22.5 55t55.5 22t55.5 -22t22.5 -55q0 -31 -23 -53.5t-55 -22.5t-55 22.5t-23 53.5z" />
    <glyph glyph-name="Idotbelow" unicode="&#x1eca;" horiz-adv-x="452" 
d="M301 1206h111l-211 -1206h-111zM16 -285q0 34 22 57t54 23q34 0 56 -23t22 -57q0 -33 -22 -55t-56 -22q-32 0 -54 22.5t-22 54.5z" />
    <glyph glyph-name="idotbelow" unicode="&#x1ecb;" horiz-adv-x="446" 
d="M346 946l-133 -764q-6 -27 -6 -51q0 -59 57 -59q26 0 64 14l-17 -80q-37 -16 -82 -16q-127 0 -127 123q0 15 7 59l133 774h104zM262 1237q0 34 22 57t54 23t55 -23t23 -57q0 -32 -23 -54t-55 -22t-54 22t-22 54zM20 -285q0 34 22 57t54 23q34 0 57 -23t23 -57
q0 -32 -23 -54.5t-57 -22.5q-32 0 -54 22.5t-22 54.5z" />
    <glyph glyph-name="Odotbelow" unicode="&#x1ecc;" horiz-adv-x="1249" 
d="M575 74q141 0 252 85t171.5 234t60.5 334t-90 294t-262 109q-141 0 -252 -85t-171.5 -233.5t-60.5 -334.5q0 -187 93 -295t259 -108zM567 -18q-211 0 -332.5 132.5t-121.5 356.5q0 172 48 315.5t130.5 238.5t192 147.5t233.5 52.5q210 0 332 -133.5t122 -358.5
q0 -172 -48 -315t-131 -237.5t-192.5 -146.5t-232.5 -52zM395 -285q0 33 22.5 56.5t53.5 23.5q34 0 57 -23t23 -57q0 -32 -23 -54.5t-57 -22.5q-31 0 -53.5 22.5t-22.5 54.5z" />
    <glyph glyph-name="odotbelow" unicode="&#x1ecd;" horiz-adv-x="983" 
d="M444 66q108 0 189.5 71.5t121.5 182.5t40 241q0 154 -67 233.5t-191 79.5q-81 0 -148 -40.5t-110.5 -108.5t-67 -155.5t-23.5 -182.5q0 -159 67 -240t189 -81zM434 -18q-162 0 -255 102t-93 293q0 92 19 178t57.5 160.5t93 130t130.5 87.5t165 32q165 0 255.5 -104.5
t90.5 -293.5q0 -116 -30.5 -221t-87.5 -186.5t-146.5 -129.5t-198.5 -48zM258 -285q0 34 23 57t55 23q34 0 56 -23t22 -57q0 -33 -22 -55t-56 -22q-32 0 -55 22.5t-23 54.5z" />
    <glyph glyph-name="Udotbelow" unicode="&#x1ee4;" horiz-adv-x="1175" 
d="M1049 1206h108l-141 -817q-20 -114 -65 -195t-110.5 -126.5t-141 -65.5t-169.5 -20q-182 0 -292.5 92.5t-110.5 271.5q0 54 12 119l129 741h109l-131 -749q-8 -60 -8 -105q0 -139 83 -209.5t220 -70.5q146 0 241 77.5t127 258.5zM367 -285q0 34 21.5 57t53.5 23
q34 0 56 -23t22 -57q0 -33 -22 -55t-56 -22q-32 0 -53.5 22.5t-21.5 54.5z" />
    <glyph glyph-name="udotbelow" unicode="&#x1ee5;" horiz-adv-x="991" 
d="M891 946l-133 -764q-6 -27 -6 -51q0 -59 57 -59q25 0 63 14l-16 -80q-37 -16 -82 -16q-125 0 -125 119q0 18 15 106q-41 -110 -123 -171.5t-199 -61.5t-180.5 61t-63.5 176q0 37 13 113l106 614h105l-111 -633q-8 -36 -8 -86q0 -76 43 -120t123 -44q115 0 205.5 90
t117.5 242l94 551h105zM250 -285q0 34 22 57t54 23q34 0 57 -23t23 -57q0 -32 -23 -54.5t-57 -22.5q-32 0 -54 22.5t-22 54.5z" />
    <glyph glyph-name="Ygrave" unicode="&#x1ef2;" horiz-adv-x="993" 
d="M281 1206l165 -442q23 -59 38.5 -109.5t19.5 -70.5l4 -21h6q31 66 123 201l313 442h119l-516 -723l-84 -483h-109l84 483l-276 723h113zM694 1315h-92l-162 248h142z" />
    <glyph glyph-name="ygrave" unicode="&#x1ef3;" horiz-adv-x="854" 
d="M260 -31l-147 977h108l80 -604q12 -78 18.5 -145t7.5 -95l1 -28h6q31 92 125 264l336 608h110l-626 -1118q-82 -150 -154.5 -206t-169.5 -56q-85 0 -143 47l28 80q59 -45 119 -45q69 0 119.5 45.5t114.5 161.5zM563 1092h-88l-182 278h143z" />
    <glyph glyph-name="Ytilde" unicode="&#x1ef8;" horiz-adv-x="993" 
d="M281 1206l165 -442q23 -59 38.5 -109.5t19.5 -70.5l4 -21h6q31 66 123 201l313 442h119l-516 -723l-84 -483h-109l84 483l-276 723h113zM422 1335l-70 2q-4 32 -4 45q0 69 44 113.5t110 44.5q61 0 123 -45l73 -55q43 -29 76 -29q74 0 80 119l68 -4q6 -21 6 -45
q0 -67 -44.5 -111.5t-109.5 -44.5q-61 0 -123 45l-76 55q-41 27 -75 27q-72 0 -78 -117z" />
    <glyph glyph-name="ytilde" unicode="&#x1ef9;" horiz-adv-x="854" 
d="M260 -31l-147 977h108l80 -604q12 -78 18.5 -145t7.5 -95l1 -28h6q31 92 125 264l336 608h110l-626 -1118q-82 -150 -154.5 -206t-169.5 -56q-85 0 -143 47l28 80q59 -45 119 -45q69 0 119.5 45.5t114.5 161.5zM311 1112l-67 4q-4 28 -4 45q0 67 43 111.5t108 44.5
q60 0 125 -45l74 -55q40 -27 76 -27q37 0 55.5 28.5t23.5 88.5l68 -2q6 -24 6 -45q0 -68 -44 -113t-109 -45q-60 0 -125 45l-74 55q-44 29 -76 29q-71 0 -80 -119z" />
    <glyph glyph-name="enspace" unicode="&#x2002;" horiz-adv-x="921" 
 />
    <glyph glyph-name="emspace" unicode="&#x2003;" horiz-adv-x="1843" 
 />
    <glyph glyph-name="threeperemspace" unicode="&#x2004;" horiz-adv-x="614" 
 />
    <glyph glyph-name="fourperemspace" unicode="&#x2005;" horiz-adv-x="460" 
 />
    <glyph glyph-name="sixperemspace" unicode="&#x2006;" horiz-adv-x="307" 
 />
    <glyph glyph-name="figurespace" unicode="&#x2007;" horiz-adv-x="1050" 
 />
    <glyph glyph-name="punctuationspace" unicode="&#x2008;" horiz-adv-x="350" 
 />
    <glyph glyph-name="thinspace" unicode="&#x2009;" horiz-adv-x="184" 
 />
    <glyph glyph-name="hairspace" unicode="&#x200a;" horiz-adv-x="92" 
 />
    <glyph glyph-name="zerowidthspace" unicode="&#x200b;" horiz-adv-x="0" 
 />
    <glyph glyph-name="figuredash" unicode="&#x2012;" horiz-adv-x="1212" 
d="M147 492l17 79h895l-15 -79h-897z" />
    <glyph glyph-name="endash" unicode="&#x2013;" horiz-adv-x="1052" 
d="M147 492l17 79h737l-16 -79h-738z" />
    <glyph glyph-name="emdash" unicode="&#x2014;" horiz-adv-x="2076" 
d="M147 492l17 79h1761l-16 -79h-1762z" />
    <glyph glyph-name="uni2015" unicode="&#x2015;" horiz-adv-x="2578" 
d="M147 492l17 79h2261l-15 -79h-2263z" />
    <glyph glyph-name="doublebar" unicode="&#x2016;" horiz-adv-x="716" 
d="M131 -416h-94l313 1786h94zM373 -416h-94l313 1786h94z" />
    <glyph glyph-name="quoteleft" unicode="&#x2018;" horiz-adv-x="436" 
d="M244 1155q0 103 76 160t192 63v-59q-48 -4 -86.5 -16.5t-68 -41t-29.5 -67.5q0 -15 2 -23q13 13 32 13q32 0 52 -21.5t20 -54.5q0 -36 -23.5 -58t-60.5 -22q-47 0 -76.5 33.5t-29.5 93.5z" />
    <glyph glyph-name="quoteright" unicode="&#x2019;" horiz-adv-x="436" 
d="M446 1251q0 -103 -75.5 -160.5t-190.5 -62.5v57q75 7 130 38.5t55 88.5q0 11 -5 21q-10 -10 -30 -10q-32 0 -52 20.5t-20 52.5q0 37 23 59.5t61 22.5q47 0 75.5 -34t28.5 -93z" />
    <glyph glyph-name="quotesinglbase" unicode="&#x201a;" horiz-adv-x="436" 
d="M262 37q0 -105 -75.5 -161.5t-190.5 -61.5v57q74 7 129 38t55 87q0 14 -4 22q-9 -12 -31 -12q-32 0 -51.5 21.5t-19.5 54.5q0 37 23 59.5t61 22.5q47 0 75.5 -34t28.5 -93z" />
    <glyph glyph-name="reversequoteleft" unicode="&#x201b;" horiz-adv-x="385" 
d="M227 1245q0 62 30 96.5t75 34.5q39 0 62.5 -22t23.5 -60q0 -32 -21 -52.5t-53 -20.5q-21 0 -31 10q-4 -6 -4 -23q0 -58 47.5 -88t118.5 -37v-57q-112 5 -180 61t-68 158z" />
    <glyph glyph-name="quotedblleft" unicode="&#x201c;" horiz-adv-x="724" 
d="M244 1155q0 103 76 160t192 63v-59q-48 -4 -86.5 -16.5t-68 -41t-29.5 -67.5q0 -15 2 -23q13 13 32 13q32 0 52 -21.5t20 -54.5q0 -36 -23.5 -58t-60.5 -22q-47 0 -76.5 33.5t-29.5 93.5zM535 1155q0 103 75.5 160t192.5 63v-59q-77 -7 -132 -37.5t-55 -87.5q0 -13 5 -23
q10 13 30 13q32 0 53 -22t21 -54q0 -36 -23.5 -58t-62.5 -22q-46 0 -75 33.5t-29 93.5z" />
    <glyph glyph-name="quotedblright" unicode="&#x201d;" horiz-adv-x="724" 
d="M457 1237q0 -104 -76.5 -161t-192.5 -62v57q48 4 87.5 17t69.5 42t30 68q0 5 -4 21q-11 -11 -33 -11q-32 0 -52 21t-20 53q0 37 24 59.5t62 22.5q46 0 75.5 -34.5t29.5 -92.5zM745 1237q0 -105 -75.5 -161.5t-192.5 -61.5v57q48 4 87.5 17t69.5 42t30 68q0 11 -5 21
q-8 -11 -30 -11q-32 0 -52 21t-20 53q0 37 23 59.5t61 22.5q45 0 74.5 -34t29.5 -93z" />
    <glyph glyph-name="quotedblbase" unicode="&#x201e;" horiz-adv-x="724" 
d="M262 37q0 -103 -75.5 -160.5t-190.5 -62.5v57q75 7 129.5 38.5t54.5 88.5q0 14 -4 20q-10 -10 -31 -10q-32 0 -51.5 20.5t-19.5 53.5q0 37 23 59.5t61 22.5q47 0 75.5 -34t28.5 -93zM553 37q0 -103 -75.5 -160.5t-190.5 -62.5v57q75 7 129.5 38.5t54.5 88.5q0 14 -4 20
q-10 -10 -31 -10q-32 0 -51.5 20.5t-19.5 53.5q0 37 23 59.5t61 22.5q47 0 75.5 -34t28.5 -93z" />
    <glyph glyph-name="reversequotedblleft" unicode="&#x201f;" horiz-adv-x="675" 
d="M231 1247q0 62 31 97.5t76 35.5q37 0 60.5 -22.5t23.5 -59.5q0 -33 -20 -54t-52 -21q-21 0 -33 12q-2 -8 -2 -25q0 -58 47.5 -88t118.5 -35v-59q-113 6 -181.5 61.5t-68.5 157.5zM518 1247q0 62 30 97.5t75 35.5q38 0 62 -22.5t24 -59.5q0 -32 -21 -53.5t-53 -21.5
q-22 0 -31 12q-4 -8 -4 -25q0 -58 48 -88t118 -35v-59q-112 6 -180 61.5t-68 157.5z" />
    <glyph glyph-name="dagger" unicode="&#x2020;" horiz-adv-x="1093" 
d="M582 670l-414 -19l20 113l408 -16l63 458h117l-96 -458l414 16l-21 -113l-405 19l-158 -975h-117z" />
    <glyph glyph-name="daggerdbl" unicode="&#x2021;" horiz-adv-x="1091" 
d="M668 680l-84 -461l415 17l-18 -109l-408 18l-63 -452h-117l96 452l-413 -18l18 109l408 -17l82 461l-414 -16l18 108l410 -16l61 450h117l-96 -450l414 16l-19 -108z" />
    <glyph glyph-name="bullet" unicode="&#x2022;" horiz-adv-x="600" 
d="M174 514q0 54 37 91.5t88 37.5q54 0 91.5 -37.5t37.5 -91.5q0 -51 -37.5 -88t-91.5 -37q-51 0 -88 37t-37 88z" />
    <glyph glyph-name="ellipsis" unicode="&#x2026;" horiz-adv-x="1513" 
d="M96 80q0 37 25 61.5t63 24.5q37 0 61.5 -24.5t24.5 -61.5t-24.5 -61.5t-61.5 -24.5q-38 0 -63 24.5t-25 61.5zM602 80q0 37 24.5 61.5t61.5 24.5t61.5 -24.5t24.5 -61.5t-24.5 -61.5t-61.5 -24.5t-61.5 24.5t-24.5 61.5zM1106 80q0 37 24.5 61.5t61.5 24.5t61.5 -24.5
t24.5 -61.5t-24.5 -61.5t-61.5 -24.5t-61.5 24.5t-24.5 61.5z" />
    <glyph glyph-name="perthousand" unicode="&#x2030;" horiz-adv-x="2377" 
d="M336 545q59 0 106.5 38.5t73.5 97.5t39.5 120.5t13.5 116.5q0 101 -39.5 162t-119.5 61q-60 0 -107 -38t-73.5 -96.5t-40 -120t-13.5 -116.5q2 -102 41.5 -163.5t118.5 -61.5zM418 1221q115 0 177 -83t62 -220q0 -80 -20.5 -157t-59 -143t-103.5 -106.5t-146 -40.5
q-119 0 -179.5 80.5t-60.5 216.5q0 80 20.5 158t59.5 145t104 108.5t146 41.5zM375 0l839 1208h86l-837 -1208h-88zM1268 61q59 0 105.5 38.5t72.5 97.5t39.5 120.5t13.5 116.5q0 101 -39 162t-119 61q-60 0 -107.5 -38t-73.5 -96.5t-39 -119t-13 -116.5q0 -101 40 -163.5
t120 -62.5zM1348 737q116 0 177.5 -83t61.5 -220q0 -79 -20.5 -156.5t-59.5 -143t-104 -106t-146 -40.5q-118 0 -178.5 80.5t-60.5 216.5q0 79 21 157.5t60 145t104 108t145 41.5zM1972 61q60 0 107 38.5t73.5 97.5t40 120.5t13.5 116.5q0 101 -40 162t-120 61
q-60 0 -106.5 -38t-72.5 -96.5t-39 -119t-13 -116.5q0 -101 39.5 -163.5t117.5 -62.5zM2054 737q115 0 177.5 -83.5t62.5 -219.5q0 -79 -20.5 -156.5t-59.5 -143t-104 -106t-146 -40.5q-118 0 -179 81t-61 216q0 80 20.5 158t59.5 144.5t104 108t146 41.5z" />
    <glyph glyph-name="tripleprime" unicode="&#x2034;" horiz-adv-x="804" 
d="M178 844l92 524h121l-145 -524h-68zM410 844l92 524h119l-144 -524h-67zM639 844l92 524h121l-145 -524h-68z" />
    <glyph glyph-name="guilsinglleft" unicode="&#x2039;" horiz-adv-x="636" 
d="M186 477v-8q15 -6 78 -98l180 -260l-71 -56l-285 422l432 422l55 -59l-264 -260q-36 -36 -67.5 -61.5t-44.5 -33.5z" />
    <glyph glyph-name="guilsinglright" unicode="&#x203a;" horiz-adv-x="636" 
d="M457 477v8q-15 7 -76 99l-182 260l71 55l285 -422l-432 -422l-55 60l264 260q36 36 67.5 61.5t44.5 33.5z" />
    <glyph glyph-name="fraction" unicode="&#x2044;" horiz-adv-x="264" 
d="M-313 0l839 1208h86l-837 -1208h-88z" />
    <glyph glyph-name="uni2070" unicode="&#x2070;" horiz-adv-x="716" 
d="M381 545q59 0 106.5 38.5t73.5 97.5t39.5 120.5t13.5 116.5q0 101 -39.5 162t-119.5 61q-48 0 -88.5 -25.5t-66 -65.5t-44 -90.5t-26 -98.5t-7.5 -91q0 -101 40 -163t118 -62zM463 1221q115 0 177 -83t62 -220q0 -80 -20.5 -157t-59 -143t-103.5 -106.5t-146 -40.5
q-118 0 -179 81t-61 216q0 80 20.5 158t59.5 145t104 108.5t146 41.5z" />
    <glyph glyph-name="uni2074" unicode="&#x2074;" horiz-adv-x="679" 
d="M422 483l33 193h-377l12 72l453 458h94l-80 -461h123l-14 -69h-121l-35 -193h-88zM270 745h201l45 261q4 32 11.5 61.5t12.5 42.5l5 14h-8q-30 -44 -91 -110l-174 -178q-26 -27 -51.5 -50t-38.5 -32l-12 -9l-2 -6q32 6 102 6z" />
    <glyph glyph-name="uni2075" unicode="&#x2075;" horiz-adv-x="622" 
d="M172 815l84 391h389l-12 -76h-318l-55 -247q20 26 57 42.5t82 16.5q92 0 145.5 -57t53.5 -154q0 -124 -75 -192t-195 -68q-108 0 -171 47.5t-71 132.5l82 25q6 -70 49 -103.5t111 -33.5q84 0 133 49t49 139q0 68 -37 109t-94 41q-49 0 -78 -15t-57 -47h-72z" />
    <glyph glyph-name="uni2076" unicode="&#x2076;" horiz-adv-x="669" 
d="M690 1069l-78 -29q-18 105 -131 105q-100 0 -173 -98t-93 -261h6q21 78 75.5 120t139.5 42q97 0 152 -58.5t55 -144.5q0 -119 -75.5 -196.5t-202.5 -77.5q-109 0 -169.5 67.5t-60.5 194.5q0 124 43 235t126.5 182t187.5 71q85 0 135.5 -39.5t62.5 -112.5zM373 539
q77 0 130.5 53t53.5 147q0 61 -38.5 99.5t-106.5 38.5q-78 0 -129.5 -54t-51.5 -141q0 -63 38 -103t104 -40z" />
    <glyph glyph-name="uni2077" unicode="&#x2077;" horiz-adv-x="573" 
d="M528 1128h-329l-21 -112h-80l33 190h518l-8 -47l-403 -676h-99z" />
    <glyph glyph-name="uni2078" unicode="&#x2078;" horiz-adv-x="647" 
d="M436 1221q101 0 161 -48.5t60 -128.5q0 -82 -48 -130.5t-122 -61.5v-6q131 -43 131 -166q0 -96 -77.5 -152.5t-196.5 -56.5q-112 0 -176 50t-64 136q0 80 53.5 133t133.5 66v6q-50 20 -80.5 58.5t-30.5 91.5q0 97 74.5 153t181.5 56zM352 535q76 0 126 39.5t50 111.5
q0 61 -42 96t-113 35q-73 0 -124.5 -39.5t-51.5 -109.5q0 -62 42 -97.5t113 -35.5zM266 1006q0 -54 38.5 -87.5t98.5 -33.5q71 0 118.5 37.5t47.5 107.5q0 54 -38 87.5t-103 33.5q-71 0 -116.5 -38t-45.5 -107z" />
    <glyph glyph-name="uni2079" unicode="&#x2079;" horiz-adv-x="671" 
d="M96 621l76 26q17 -102 141 -102q103 0 174 93.5t91 268.5h-7q-20 -81 -73.5 -122.5t-132.5 -41.5q-104 0 -159.5 58.5t-55.5 146.5q0 118 74 195.5t200 77.5q108 0 171.5 -70.5t63.5 -200.5q0 -92 -23 -177t-66 -153t-112 -108.5t-153 -40.5q-89 0 -144 39t-65 111z
M416 1149q-77 0 -130 -52t-53 -143q0 -62 37.5 -100.5t106.5 -38.5q78 0 130 54t52 139q0 62 -38 101.5t-105 39.5z" />
    <glyph glyph-name="uni207A" unicode="&#x207a;" horiz-adv-x="897" 
d="M520 1208h64l-58 -317h334l-10 -64h-334l-61 -344h-64l62 344h-330l12 64h330z" />
    <glyph glyph-name="uni207B" unicode="&#x207b;" horiz-adv-x="899" 
d="M123 827l12 64h727l-12 -64h-727z" />
    <glyph glyph-name="uni207C" unicode="&#x207c;" horiz-adv-x="923" 
d="M115 717l12 63h727l-12 -63h-727zM156 950l12 62h727l-10 -62h-729z" />
    <glyph glyph-name="uni207D" unicode="&#x207d;" horiz-adv-x="458" 
d="M141 715q0 339 273 588h82q-139 -132 -212 -271.5t-73 -316.5q0 -92 30 -171.5t91 -170.5h-78q-113 170 -113 342z" />
    <glyph glyph-name="uni207E" unicode="&#x207e;" horiz-adv-x="458" 
d="M412 961q0 -340 -275 -588h-82q139 132 212 271.5t73 316.5q0 93 -29.5 172.5t-89.5 169.5h76q115 -168 115 -342z" />
    <glyph glyph-name="n.superior" unicode="&#x207f;" horiz-adv-x="729" 
d="M561 727l51 281q4 20 4 51q0 44 -26.5 69t-77.5 25q-81 0 -143.5 -56.5t-83.5 -166.5l-64 -340h-92l117 627h80l-15 -136q31 69 90 108.5t134 39.5q81 0 127.5 -39t46.5 -113q0 -39 -7 -73l-51 -273q-6 -30 -6 -45q0 -33 33 -33q21 0 53 11l-14 -68q-27 -12 -66 -12
q-98 0 -98 88q0 22 8 55z" />
    <glyph glyph-name="uni2080" unicode="&#x2080;" horiz-adv-x="716" 
d="M303 61q60 0 107 38.5t73.5 97.5t40 120.5t13.5 116.5q0 101 -40 162t-120 61q-60 0 -107.5 -38t-74 -96.5t-39.5 -119t-13 -116.5q2 -102 41.5 -164t118.5 -62zM385 737q115 0 177.5 -83.5t62.5 -219.5q0 -79 -20.5 -156.5t-59.5 -143t-104 -106t-146 -40.5
q-119 0 -180.5 80.5t-61.5 216.5q0 79 21 157.5t60 145t104.5 108t146.5 41.5z" />
    <glyph glyph-name="uni2081" unicode="&#x2081;" horiz-adv-x="602" 
d="M498 0h-506l12 72h219l99 561l-238 -41l12 78l334 57l-115 -655h195z" />
    <glyph glyph-name="uni2082" unicode="&#x2082;" horiz-adv-x="614" 
d="M131 496l-70 36q14 91 82 148t174 57q103 0 164.5 -56t61.5 -155q0 -61 -31 -122t-76.5 -107t-108 -90.5t-114.5 -73t-107 -53.5v-6h390l-15 -74h-506l15 70q77 44 136.5 81t123.5 84t105.5 90t68.5 92.5t27 96.5q0 69 -38 107t-106 38q-76 0 -121 -45.5t-55 -117.5z" />
    <glyph glyph-name="uni2083" unicode="&#x2083;" horiz-adv-x="593" 
d="M221 -12q-111 0 -169.5 52t-63.5 136l80 19q15 -140 153 -140q76 0 125 38t49 108q0 137 -219 137l12 68q246 3 246 149q0 48 -33 78.5t-92 30.5q-122 0 -149 -127l-74 28q44 172 229 172q94 0 152.5 -45t58.5 -129q0 -80 -57.5 -129t-153.5 -57v-6q79 -7 124.5 -53
t45.5 -117q0 -101 -76.5 -157t-187.5 -56z" />
    <glyph glyph-name="uni2084" unicode="&#x2084;" horiz-adv-x="679" 
d="M344 0l33 193h-377l12 71l453 459h94l-80 -461h123l-14 -69h-121l-35 -193h-88zM193 262h200l45 260q4 32 11.5 61.5t12.5 43.5l5 14h-8q-29 -45 -90 -111l-174 -178q-26 -27 -52 -49.5t-39 -31.5l-12 -9l-2 -6q33 6 103 6z" />
    <glyph glyph-name="uni2085" unicode="&#x2085;" horiz-adv-x="622" 
d="M92 332l86 391h389l-14 -76h-315l-58 -248q20 26 58 43t84 17q92 0 145 -57t53 -154q0 -124 -75.5 -192t-196.5 -68q-108 0 -170.5 47t-71.5 133l84 25q6 -70 49 -104t111 -34q83 0 131.5 49t48.5 140q0 68 -37 108.5t-94 40.5q-49 0 -78 -15t-55 -46h-74z" />
    <glyph glyph-name="uni2086" unicode="&#x2086;" horiz-adv-x="669" 
d="M610 586l-75 -29q-18 105 -134 105q-99 0 -171.5 -96.5t-98.5 -268.5h6q22 78 79 123t140 45q99 0 154 -58.5t55 -144.5q0 -119 -75.5 -196.5t-202.5 -77.5q-109 0 -170.5 67t-61.5 193q0 125 43 236t127 182t189 71q84 0 134.5 -39.5t61.5 -111.5zM295 55q78 0 133 53.5
t55 147.5q0 60 -39 98.5t-108 38.5q-79 0 -132.5 -54t-53.5 -140q0 -64 38 -104t107 -40z" />
    <glyph glyph-name="uni2087" unicode="&#x2087;" horiz-adv-x="573" 
d="M451 645h-332l-21 -113h-80l33 191h520l-8 -47l-403 -676h-101z" />
    <glyph glyph-name="uni2088" unicode="&#x2088;" horiz-adv-x="647" 
d="M358 737q101 0 160.5 -48t59.5 -128q0 -82 -47 -130.5t-121 -61.5v-7q129 -42 129 -165q0 -96 -78 -152.5t-195 -56.5q-112 0 -176.5 50t-64.5 136q0 80 53 133t133 66v6q-50 20 -80.5 58t-30.5 91q0 97 75.5 153t182.5 56zM272 51q77 0 127 40t50 112q0 61 -42 96
t-114 35t-123 -40t-51 -110q0 -63 41 -98t112 -35zM188 522q0 -54 38 -87.5t98 -33.5q71 0 118 38t47 108q0 54 -38 87.5t-103 33.5q-70 0 -115 -38t-45 -108z" />
    <glyph glyph-name="uni2089" unicode="&#x2089;" horiz-adv-x="671" 
d="M16 137l76 27q9 -52 47 -79.5t97 -27.5q102 0 173.5 95t92.5 274h-6q-20 -81 -75 -123.5t-136 -42.5q-103 0 -159 58.5t-56 146.5q0 117 74 194.5t200 77.5q109 0 172.5 -70t63.5 -200q0 -125 -39 -232t-121 -177t-193 -70q-91 0 -145 38.5t-66 110.5zM338 670
q-78 0 -132 -53.5t-54 -147.5q0 -61 38.5 -99t108.5 -38q79 0 132.5 53.5t53.5 138.5q0 65 -39 105.5t-108 40.5z" />
    <glyph glyph-name="uni208A" unicode="&#x208a;" horiz-adv-x="897" 
d="M442 725h62l-55 -317h333l-12 -64h-334l-61 -344h-62l62 344h-330l10 64h330z" />
    <glyph glyph-name="uni208B" unicode="&#x208b;" horiz-adv-x="899" 
d="M45 344l10 64h727l-10 -64h-727z" />
    <glyph glyph-name="uni208C" unicode="&#x208c;" horiz-adv-x="923" 
d="M35 233l12 64h727l-10 -64h-729zM78 467l10 61h727l-10 -61h-727z" />
    <glyph glyph-name="uni208D" unicode="&#x208d;" horiz-adv-x="458" 
d="M61 231q0 340 275 588h82q-139 -132 -212 -271.5t-73 -316.5q0 -93 29.5 -172.5t89.5 -169.5h-76q-115 168 -115 342z" />
    <glyph glyph-name="uni208E" unicode="&#x208e;" horiz-adv-x="458" 
d="M332 477q0 -339 -273 -588h-82q139 132 212 271.5t73 316.5q0 92 -30 171.5t-91 170.5h78q113 -170 113 -342z" />
    <glyph glyph-name="uni20A1" unicode="&#x20a1;" horiz-adv-x="991" 
d="M283 -162l-70 23l59 178q-79 50 -123.5 140.5t-44.5 209.5q0 267 135.5 436.5t358.5 178.5l59 178l68 -23l-53 -158q80 -10 127 -34l55 161l68 -22l-62 -182q65 -62 86 -160l-98 -45q-8 42 -29 82l-244 -727q153 29 232 186l78 -55q-108 -201 -340 -219l-66 -199l-69 20
l57 175q-71 3 -129 24zM211 401q0 -174 96 -264l260 776q-158 -19 -257 -160t-99 -352zM369 94q60 -26 127 -26l270 798q-45 37 -123 47z" />
    <glyph glyph-name="uni20A2" unicode="&#x20a2;" horiz-adv-x="999" 
d="M485 -18q-172 0 -276.5 110t-104.5 297q0 274 143 444.5t376 170.5q135 0 216.5 -62.5t106.5 -177.5l-98 -45q-18 97 -80.5 146.5t-159.5 49.5q-172 0 -284.5 -144.5t-112.5 -369.5q0 -132 58.5 -217.5t162.5 -107.5l78 444h84l-21 -170q32 86 94 135.5t134 49.5
q36 0 63 -15l-24 -92q-32 16 -62 16q-83 0 -146 -62.5t-85 -184.5l-23 -129q189 13 281 196l78 -55q-121 -227 -398 -227z" />
    <glyph glyph-name="franc" unicode="&#x20a3;" horiz-adv-x="886" 
d="M723 545h-375l-22 -131h372l-12 -74h-373l-59 -340h-107l60 340h-166l12 74h166l23 131h-164l12 73h166l63 367h596l-14 -90h-489l-50 -277h373z" />
    <glyph glyph-name="lira" unicode="&#x20a4;" horiz-adv-x="1005" 
d="M709 319h-299q-4 -86 -47.5 -147.5t-106.5 -81.5h389q74 0 123 24t76 89l78 -41q-67 -162 -279 -162h-606l14 94h80q68 0 126 62t58 149v14h-225l12 76h203q-3 13 -15 57.5t-18 71.5h-145l12 76h121q-2 20 -2 66q0 88 30.5 155t81.5 106t112 58t128 19q145 0 224 -69.5
t79 -205.5l-100 -16q-2 100 -54.5 152.5t-156.5 52.5q-111 0 -176.5 -63t-65.5 -187q0 -18 5 -68h393l-15 -76h-366q3 -13 15.5 -58t15.5 -71h313z" />
    <glyph glyph-name="uni20A6" unicode="&#x20a6;" horiz-adv-x="1302" 
d="M1204 350h-184l-62 -350h-114l-336 641q-24 48 -48 102.5t-36 84.5l-12 30h-9q-12 -129 -32 -254l-107 -604h-104l59 350h-172l12 76h174l21 119h-174l14 73h172l66 367h117l339 -655q24 -49 45 -98t30 -73l9 -24h7q18 119 41 246l104 604h106l-65 -367h186l-14 -73h-184
l-21 -119h185z" />
    <glyph glyph-name="peseta" unicode="&#x20a7;" horiz-adv-x="2121" 
d="M1087 0h-106l119 688h-228q-10 -176 -122 -259t-297 -83h-197l-61 -346h-107l172 985h287q287 0 321 -205h580q17 106 104 165t213 59q155 0 233.5 -67.5t78.5 -193.5l-95 -16q0 197 -219 197q-101 0 -163 -49t-62 -134q0 -74 43.5 -114t161.5 -84q134 -51 191 -115
t57 -166q0 -139 -92 -209.5t-252 -70.5q-154 0 -243 73.5t-89 204.5l92 21q0 -111 70 -167.5t176 -56.5q110 0 174.5 47.5t64.5 147.5q0 76 -49 125t-166 90q-112 40 -167.5 89.5t-67.5 131.5h-236zM352 897l-82 -463h191q150 0 227.5 67t77.5 214q0 182 -225 182h-189z" />
    <glyph glyph-name="uni20A8" unicode="&#x20a8;" horiz-adv-x="1560" 
d="M342 897l-68 -391h220q135 0 205.5 57.5t70.5 171.5q0 162 -197 162h-231zM1139 -18q-111 0 -187.5 43.5t-144.5 124.5l-100 112q-68 78 -94 101q-69 57 -160 57h-195l-72 -420h-106l172 985h338q291 0 291 -242q0 -133 -83.5 -205t-207.5 -79v-6q21 -2 38.5 -6.5
t35 -14.5t27.5 -16t28 -24.5t24.5 -25.5t28.5 -33t29 -34l106 -121q107 -123 236 -123q78 0 127 32t49 97q0 54 -36.5 90t-115.5 66q-97 40 -138.5 86t-41.5 123q0 99 73 157t181 58q119 0 179.5 -50.5t60.5 -146.5l-99 -12q0 129 -149 129q-70 0 -112 -34t-42 -91
q0 -53 30.5 -81t123.5 -66q96 -38 140 -88t44 -129q0 -108 -75.5 -160.5t-202.5 -52.5z" />
    <glyph glyph-name="uni20A9" unicode="&#x20a9;" horiz-adv-x="1570" 
d="M1468 373h-237l-168 -373h-129l-74 627q-7 68 -10.5 133t-3.5 96v31h-4q-27 -104 -99 -258l-292 -629h-134l-32 373h-232l10 76h218l-13 118h-184l14 74h164l-31 344h105l55 -657q5 -67 6.5 -131.5t0.5 -95.5l-1 -31h6q31 96 103 252l303 663h111l73 -663q7 -68 11 -132
t4.5 -92t1.5 -28h4q22 98 92 254l297 661h106l-157 -344h164l-15 -74h-182l-53 -118h215z" />
    <glyph glyph-name="uni20AA" unicode="&#x20aa;" horiz-adv-x="1300" 
d="M811 244h-106l77 456q9 56 9 70q0 127 -168 127h-281l-156 -897h-106l172 985h403q133 0 187.5 -48t54.5 -144q0 -43 -10 -111zM1128 985h107l-119 -682q-13 -75 -33.5 -126.5t-58 -93.5t-98.5 -62.5t-148 -20.5h-407l127 727h106l-112 -639h284q111 0 163.5 50t68.5 147
z" />
    <glyph glyph-name="Euro" unicode="&#x20ac;" horiz-adv-x="1085" 
d="M735 582h-407q-21 -86 -21 -160h367l-31 -74h-332q11 -130 86 -205t197 -75q207 0 307 196l78 -55q-121 -227 -397 -227q-164 0 -266.5 97.5t-114.5 268.5h-168l12 74h156q0 75 20 160h-147l12 73h156q58 163 183 256t294 93q135 0 216.5 -62.5t106.5 -177.5l-100 -45
q-17 97 -79.5 146.5t-160.5 49.5q-118 0 -209 -69t-139 -191h412z" />
    <glyph glyph-name="uni20AE" unicode="&#x20ae;" horiz-adv-x="909" 
d="M408 0h-107l61 342l-251 -41l12 74l250 41l22 123l-250 -41l13 73l250 41l51 283h-353l17 90h809l-14 -90h-353l-47 -266l266 45l-14 -74l-264 -43l-23 -123l267 43l-15 -74l-264 -43z" />
    <glyph glyph-name="uni20B1" unicode="&#x20b1;" horiz-adv-x="1132" 
d="M90 625l12 75h172l50 285h286q328 0 328 -260v-25h170l-14 -75h-166q-55 -279 -412 -279h-197l-61 -346h-106l108 625h-170zM416 897l-35 -197h448v15q0 182 -225 182h-188zM524 434q251 0 295 191h-452l-33 -191h190z" />
    <glyph glyph-name="afii61289" unicode="&#x2113;" horiz-adv-x="649" 
d="M172 383l-94 -74l-43 68l137 102v522q0 369 236 369q192 0 192 -274q0 -376 -332 -656v-207q0 -89 37 -127t111 -38q78 0 143 36v-90q-66 -32 -156 -32q-111 0 -171 57.5t-60 177.5v166zM268 1020v-475q254 226 254 561q0 186 -114 186q-67 0 -103.5 -72t-36.5 -200z" />
    <glyph glyph-name="afii61352" unicode="&#x2116;" horiz-adv-x="2123" 
d="M1372 0l17 86h579l-16 -86h-580zM268 236l168 970h117l405 -831q27 -56 51.5 -113.5t34.5 -87.5l11 -29h6q14 117 37 252l100 580q25 141 80 194.5t149 53.5q88 0 140 -45l-29 -97q-51 45 -104 45t-82 -34t-45 -129l-168 -965h-115l-410 829q-25 53 -49 110.5t-35 88.5
l-12 31h-8q-8 -115 -33 -250l-100 -580q-25 -141 -79.5 -194t-147.5 -53q-90 0 -142 45l29 90q49 -43 104 -43q53 0 82 33.5t45 128.5zM1718 373q101 0 161 89.5t60 211.5q0 94 -41.5 141t-117.5 47q-103 0 -163.5 -87t-60.5 -210q0 -96 42.5 -144t119.5 -48zM1710 293
q-115 0 -181.5 68.5t-66.5 195.5q0 104 36.5 191t113 142.5t178.5 55.5q116 0 180 -70t64 -196q0 -104 -36.5 -190.5t-111.5 -141.5t-176 -55z" />
    <glyph glyph-name="published" unicode="&#x2117;" horiz-adv-x="1439" 
d="M659 913l-59 -342h158q225 0 225 203q0 139 -164 139h-160zM752 498h-164l-45 -260h-92l131 751h247q248 0 248 -207q0 -147 -87.5 -215.5t-237.5 -68.5zM1366 602q0 -133 -49.5 -249t-133.5 -197t-198.5 -127.5t-241.5 -46.5q-128 0 -242.5 46.5t-198 127.5t-132.5 197
t-49 249q0 177 83.5 320.5t225.5 223t313 79.5q170 0 312.5 -79.5t226.5 -223t84 -320.5zM1315 602q0 163 -77 295.5t-208 205.5t-287 73q-155 0 -285 -73t-207 -205.5t-77 -295.5t77 -295t206.5 -204t285.5 -72q117 0 222 42.5t182 117t122.5 181.5t45.5 230z" />
    <glyph glyph-name="servicemark" unicode="&#x2120;" horiz-adv-x="1236" 
d="M129 840l70 12q0 -104 118 -104q113 0 113 83q0 37 -24 60t-84 45q-70 25 -99.5 55t-29.5 86q0 70 51.5 108t128.5 38q84 0 127 -38t43 -108l-76 -8q0 94 -102 94q-43 0 -71 -21t-28 -61q0 -31 22 -50.5t79 -39.5q71 -24 106 -59t35 -90q0 -74 -54 -112t-141 -38
q-88 0 -136 38t-48 110zM907 891h6l207 315h101l-95 -508h-73l71 389h-8l-188 -286h-64l-88 291h-8l-72 -394h-73l92 508h96z" />
    <glyph glyph-name="trademark" unicode="&#x2122;" horiz-adv-x="1214" 
d="M322 698h-76l82 443h-166l10 65h408l-11 -65h-168zM885 891h6l209 315h98l-92 -508h-76l72 389h-8l-189 -286h-63l-88 291h-9l-69 -394h-76l92 508h99z" />
    <glyph glyph-name="estimated" unicode="&#x212e;" horiz-adv-x="1325" 
d="M662 1229q117 0 213 -35t161.5 -94.5t110.5 -140t65.5 -170.5t20.5 -187v-53h-883v-344q122 -119 312 -119q263 0 376 211h136q-62 -147 -191 -233.5t-321 -86.5q-116 0 -211.5 35t-161 94.5t-111 139.5t-66 169.5t-20.5 186.5t20.5 187t66 170.5t111 140t161 94.5
t211.5 35zM662 1120q-193 0 -312 -119v-346h623v346q-119 119 -311 119z" />
    <glyph glyph-name="uni2153" unicode="&#x2153;" horiz-adv-x="1628" 
d="M596 483h-494l13 72h207l98 561l-238 -41l15 78l331 57l-114 -655h196zM397 0l840 1208h88l-840 -1208h-88zM1219 -12q-112 0 -171.5 52t-64.5 136l82 19q6 -69 46.5 -104.5t107.5 -35.5q76 0 124 37.5t48 108.5q0 137 -217 137l12 68q246 3 246 149q0 48 -33 78.5
t-94 30.5q-120 0 -150 -127l-74 28q47 172 232 172q94 0 151.5 -45t57.5 -129q0 -80 -57 -129t-154 -57v-6q79 -7 124.5 -53t45.5 -117q0 -101 -75.5 -157t-186.5 -56z" />
    <glyph glyph-name="uni2154" unicode="&#x2154;" horiz-adv-x="1579" 
d="M193 979l-70 37q14 91 82 148t174 57q102 0 163.5 -56t61.5 -155q0 -61 -31 -122t-76.5 -107.5t-107.5 -91t-114 -73t-107 -53.5v-6h389l-14 -74h-506l14 70q77 44 136.5 81t123.5 84t105.5 90t68.5 92.5t27 96.5q0 69 -37.5 107.5t-105.5 38.5q-76 0 -121 -46t-55 -118z
M348 0l840 1208h86l-838 -1208h-88zM1167 -12q-112 0 -171 52t-64 136l82 19q6 -69 46 -104.5t107 -35.5q76 0 124 37.5t48 108.5q0 66 -50 101.5t-167 35.5l13 68q245 3 245 149q0 48 -33 78.5t-94 30.5q-120 0 -147 -127l-74 28q44 172 230 172q94 0 152.5 -45t58.5 -129
q0 -80 -58 -129t-155 -57v-6q81 -7 126.5 -53t45.5 -117q0 -101 -77 -157t-188 -56z" />
    <glyph glyph-name="uni215B" unicode="&#x215b;" horiz-adv-x="1648" 
d="M596 483h-494l13 72h207l98 561l-238 -41l15 78l331 57l-114 -655h196zM397 0l840 1208h88l-840 -1208h-88zM1354 737q101 0 161 -48t60 -128q0 -82 -48 -130.5t-122 -61.5v-7q131 -43 131 -165q0 -96 -77.5 -152.5t-196.5 -56.5q-112 0 -176 50t-64 136q0 80 53 133
t133 66v6q-50 20 -80 58t-30 91q0 97 74.5 153t181.5 56zM1270 51q76 0 126 40t50 112q0 61 -42.5 96t-113.5 35q-73 0 -124.5 -40t-51.5 -110q0 -62 42.5 -97.5t113.5 -35.5zM1184 522q0 -54 38.5 -87.5t98.5 -33.5q70 0 118 38t48 108q0 54 -38 87.5t-103 33.5
q-71 0 -116.5 -38.5t-45.5 -107.5z" />
    </font>
</defs>
</svg>
