<?xml version="1.0" standalone="no"?>
<!DOCTYPE svg PUBLIC "-//W3C//DTD SVG 1.1//EN" "http://www.w3.org/Graphics/SVG/1.1/DTD/svg11.dtd" >
<svg xmlns="http://www.w3.org/2000/svg" xmlns:xlink="http://www.w3.org/1999/xlink" version="1.1">
<metadata>
Created by FontForge 20170731 at Fri Sep 17 22:21:33 2021
 By Aleksey,,,
Copyright (c) 2004-9 by Kris Sowersby. All rights reserved.
</metadata>
<defs>
<font id="National-MediumItalic" horiz-adv-x="1167" >
  <font-face 
    font-family="National Medium Italic"
    font-weight="610"
    font-style="italic"
    font-stretch="normal"
    units-per-em="2048"
    panose-1="2 0 5 3 0 0 0 2 0 4"
    ascent="1638"
    descent="-410"
    x-height="946"
    cap-height="1206"
    bbox="-340 -526 2443 1968"
    underline-thickness="116"
    underline-position="-173"
    unicode-range="U+0020-F778"
  />
<missing-glyph horiz-adv-x="1546" 
d="M170 0v1206h1206v-1206h-1206zM772 541l-453 -453h908zM319 1118l453 -454l455 454h-908zM834 602l454 -452v907zM711 602l-453 455v-907z" />
    <glyph glyph-name="f_b" unicode="fb" horiz-adv-x="1701" 
d="M973 528l-29 -157q-16 -95 30 -169.5t142 -74.5q87 0 152.5 61t98 158.5t32.5 214.5q0 113 -46.5 175.5t-131.5 62.5q-89 0 -158 -73t-90 -198zM664 0l204 1174q-79 49 -168 49q-168 0 -202 -183l-19 -94h187l-29 -168h-186l-170 -962q-25 -141 -89 -194.5t-186 -53.5
q-115 0 -182 49l45 160q54 -43 104 -43q41 0 63 19.5t32 70.5l168 954h-144l31 168h141l19 101q17 91 55.5 157.5t93 104.5t116 55.5t132.5 17.5q61 0 123.5 -13.5t101.5 -33.5l215 33l-106 -604q90 205 301 205q148 0 230.5 -100.5t82.5 -293.5q0 -169 -56 -304.5
t-165 -215.5t-254 -80q-100 0 -171.5 48t-84.5 127l-72 -150h-161z" />
    <glyph glyph-name="f_f_b" unicode="ffb" horiz-adv-x="2267" 
d="M1536 528l-27 -157q-16 -95 30 -169.5t142 -74.5q86 0 151 61t97.5 158.5t32.5 214.5q0 113 -46.5 175.5t-131.5 62.5q-89 0 -157 -72.5t-91 -198.5zM1227 0l205 1174q-76 49 -168 49q-166 0 -203 -183l-17 -94h185l-31 -168h-184l-166 -936q-24 -141 -88 -194.5
t-187 -53.5q-111 0 -182 50l45 159q54 -43 105 -43q41 0 63 19.5t31 70.5l166 928h-350l-170 -962q-25 -141 -89 -194.5t-186 -53.5q-115 0 -182 49l45 160q54 -43 104 -43q41 0 63 19.5t32 70.5l168 954h-144l31 168h141l19 111q57 311 321 311q63 0 108.5 -12.5
t94.5 -44.5l-74 -176q-30 29 -53.5 41t-58.5 12q-52 0 -79.5 -31t-39.5 -98l-23 -113h350l17 101q17 91 55.5 157.5t93 104.5t116 55.5t132.5 17.5q62 0 125 -13t102 -34l216 33l-109 -604q90 205 303 205q148 0 230.5 -100.5t82.5 -293.5q0 -169 -56 -304.5t-165 -215.5
t-254 -80q-100 0 -171.5 48t-86.5 127l-69 -150h-164z" />
    <glyph glyph-name="f_f_h" unicode="ffh" horiz-adv-x="2244" 
d="M1227 0l205 1174q-76 49 -168 49q-166 0 -203 -183l-17 -94h185l-31 -168h-184l-166 -936q-24 -141 -88 -194.5t-187 -53.5q-111 0 -182 50l45 159q54 -43 105 -43q41 0 63 19.5t31 70.5l166 928h-350l-170 -962q-25 -141 -89 -194.5t-186 -53.5q-115 0 -182 49l45 160
q54 -43 104 -43q41 0 63 19.5t32 70.5l168 954h-144l31 168h141l19 111q57 311 321 311q63 0 108.5 -12.5t94.5 -44.5l-74 -176q-30 29 -53.5 41t-58.5 12q-52 0 -79.5 -31t-39.5 -98l-23 -113h350l17 101q17 91 55.5 157.5t93 104.5t116 55.5t132.5 17.5q62 0 125 -13
t102 -34l216 33l-111 -614q97 215 303 215q111 0 176.5 -61.5t65.5 -170.5q0 -49 -6 -88l-70 -399q-16 -88 55 -88q29 0 62 8l-33 -160q-62 -20 -123 -20q-113 0 -158 60t-24 173l69 393q30 172 -116 172q-80 0 -149 -66.5t-95 -209.5l-88 -512h-217z" />
    <glyph glyph-name="f_f_j" unicode="ffj" horiz-adv-x="1648" 
d="M1364 778h-350l-166 -936q-24 -141 -88 -194.5t-187 -53.5q-111 0 -182 50l45 159q54 -43 105 -43q41 0 63 19.5t31 70.5l166 928h-350l-170 -962q-25 -141 -89 -194.5t-186 -53.5q-115 0 -182 49l45 160q54 -43 104 -43q41 0 63 19.5t32 70.5l168 954h-144l31 168h141
l19 111q57 311 321 311q63 0 108.5 -12.5t94.5 -44.5l-74 -176q-30 29 -53.5 41t-58.5 12q-52 0 -79.5 -31t-39.5 -98l-23 -113h350l19 98q67 338 385 338q146 0 254 -63l-74 -182q-43 33 -82 50t-90 17q-75 0 -118.5 -40.5t-61.5 -135.5l-17 -82h566l-195 -1104
q-25 -141 -90 -194.5t-186 -53.5q-115 0 -183 50l43 159q54 -43 107 -43q41 0 62 19.5t30 70.5z" />
    <glyph glyph-name="f_f_k" unicode="ffk" horiz-adv-x="2138" 
d="M1227 0l205 1174q-76 49 -168 49q-166 0 -203 -183l-17 -94h185l-31 -168h-184l-166 -936q-24 -141 -88 -194.5t-187 -53.5q-111 0 -182 50l45 159q54 -43 105 -43q41 0 63 19.5t31 70.5l166 928h-350l-170 -962q-25 -141 -89 -194.5t-186 -53.5q-115 0 -182 49l45 160
q54 -43 104 -43q41 0 63 19.5t32 70.5l168 954h-144l31 168h141l19 111q57 311 321 311q63 0 108.5 -12.5t94.5 -44.5l-74 -176q-30 29 -53.5 41t-58.5 12q-52 0 -79.5 -31t-39.5 -98l-23 -113h350l17 101q17 91 55.5 157.5t93 104.5t116 55.5t132.5 17.5q62 0 125 -13
t102 -34l216 33l-138 -770h47l322 348h264l-414 -426l144 -291q26 -54 64.5 -64.5t103.5 9.5l-33 -166q-58 -18 -127 -18q-63 0 -108 27.5t-76 93.5l-156 327h-59l-76 -438h-217z" />
    <glyph glyph-name="f_h" unicode="fh" horiz-adv-x="1679" 
d="M662 0l206 1174q-79 49 -168 49q-168 0 -202 -183l-19 -94h187l-29 -168h-186l-170 -962q-25 -141 -89 -194.5t-186 -53.5q-115 0 -182 49l45 160q54 -43 104 -43q41 0 63 19.5t32 70.5l168 954h-144l31 168h141l19 101q17 91 55.5 157.5t93 104.5t116 55.5t132.5 17.5
q61 0 123.5 -13.5t101.5 -33.5l215 33l-110 -614q51 107 124 161t179 54q112 0 177.5 -61.5t65.5 -170.5q0 -36 -8 -88l-67 -399q-7 -41 3 -64.5t52 -23.5q26 0 59 8l-32 -160q-62 -20 -123 -20q-223 0 -183 233l70 393q30 172 -115 172q-50 0 -96.5 -24.5t-88.5 -89
t-58 -162.5l-90 -512h-217z" />
    <glyph glyph-name="f_j" unicode="fj" horiz-adv-x="1085" 
d="M1047 946l-195 -1104q-25 -141 -90.5 -194.5t-188.5 -53.5q-111 0 -182 50l45 159q54 -43 105 -43q41 0 63 19.5t31 70.5l166 928h-350l-170 -962q-25 -141 -89 -194.5t-186 -53.5q-115 0 -182 49l45 160q54 -43 104 -43q41 0 63 19.5t32 70.5l168 954h-144l31 168h141
l19 98q67 338 385 338q146 0 254 -63l-74 -182q-44 33 -82 50t-90 17q-73 0 -116.5 -40.5t-63.5 -135.5l-17 -82h568z" />
    <glyph glyph-name="f_k" unicode="fk" horiz-adv-x="1572" 
d="M662 0l206 1174q-79 49 -168 49q-168 0 -202 -183l-19 -94h185l-31 -168h-182l-170 -962q-25 -141 -89 -194.5t-186 -53.5q-115 0 -182 49l45 160q54 -43 104 -43q41 0 63 19.5t32 70.5l168 954h-144l31 168h141l19 101q17 91 55.5 157.5t93 104.5t116 55.5t132.5 17.5
q61 0 123.5 -13.5t101.5 -33.5l215 33l-135 -770h45l322 348h264l-414 -426l144 -291q28 -54 66 -64.5t104 9.5l-35 -166q-55 -18 -125 -18q-64 0 -109 27.5t-76 93.5l-155 327h-60l-77 -438h-217z" />
    <glyph glyph-name="ff" unicode="ff" horiz-adv-x="1210" 
d="M1014 778l-166 -936q-24 -141 -88 -194.5t-187 -53.5q-111 0 -182 50l45 159q54 -43 105 -43q41 0 63 19.5t31 70.5l166 928h-350l-170 -962q-25 -141 -89 -194.5t-186 -53.5q-115 0 -182 49l45 160q54 -43 104 -43q41 0 63 19.5t32 70.5l168 954h-144l31 168h141l19 111
q57 311 321 311q63 0 108.5 -12.5t94.5 -44.5l-74 -176q-30 29 -53.5 41t-58.5 12q-52 0 -79.5 -31t-39.5 -98l-23 -113h350l19 109q59 327 366 327q130 0 234 -55l-74 -178q-74 53 -153 53q-68 0 -105.5 -35t-50.5 -112l-21 -109h240l-31 -168h-239z" />
    <glyph glyph-name="ffi" unicode="ffi" horiz-adv-x="1708" 
d="M1610 946l-121 -696q-16 -88 53 -88q29 0 62 8l-33 -160q-62 -20 -123 -20q-222 0 -182 233l96 555h-348l-166 -936q-24 -141 -88 -194.5t-187 -53.5q-111 0 -182 50l45 159q54 -43 105 -43q41 0 63 19.5t31 70.5l166 928h-350l-170 -962q-25 -141 -89 -194.5t-186 -53.5
q-115 0 -182 49l45 160q54 -43 104 -43q41 0 63 19.5t32 70.5l168 954h-144l31 168h141l19 111q57 311 321 311q63 0 108.5 -12.5t94.5 -44.5l-74 -176q-30 29 -53.5 41t-58.5 12q-52 0 -79.5 -31t-39.5 -98l-23 -113h350l19 98q67 338 385 338q146 0 254 -63l-74 -182
q-43 33 -82 50t-90 17q-75 0 -118.5 -40.5t-61.5 -135.5l-17 -82h566z" />
    <glyph glyph-name="ffl" unicode="ffl" horiz-adv-x="1705" 
d="M1014 778l-166 -936q-24 -141 -88 -194.5t-187 -53.5q-111 0 -182 50l45 159q54 -43 105 -43q41 0 63 19.5t31 70.5l166 928h-350l-170 -962q-25 -141 -89 -194.5t-186 -53.5q-115 0 -182 49l45 160q54 -43 104 -43q41 0 63 19.5t32 70.5l168 954h-144l31 168h141l19 111
q57 311 321 311q63 0 108.5 -12.5t94.5 -44.5l-74 -176q-30 29 -53.5 41t-58.5 12q-52 0 -79.5 -31t-39.5 -98l-23 -113h350l17 101q17 91 55.5 157.5t93 104.5t116 55.5t132.5 17.5q62 0 125 -13t102 -34l216 33l-197 -1118q-16 -88 53 -88q29 0 62 8l-33 -160
q-62 -20 -123 -20q-222 0 -182 233l166 951q-76 49 -168 49q-166 0 -203 -183l-17 -94h187l-31 -168h-186z" />
    <glyph glyph-name="fi" unicode="fi" horiz-adv-x="1142" 
d="M1047 946l-123 -696q-7 -41 3 -64.5t52 -23.5q26 0 59 8l-30 -160q-65 -20 -125 -20q-224 0 -181 233l97 555h-348l-170 -962q-25 -141 -89 -194.5t-186 -53.5q-115 0 -182 49l45 160q54 -43 104 -43q41 0 63 19.5t32 70.5l168 954h-144l31 168h141l19 98q67 338 385 338
q146 0 254 -63l-74 -182q-44 33 -82 50t-90 17q-73 0 -116.5 -40.5t-63.5 -135.5l-17 -82h568z" />
    <glyph glyph-name="fl" unicode="fl" horiz-adv-x="1140" 
d="M451 778l-170 -962q-25 -141 -89 -194.5t-186 -53.5q-115 0 -182 49l45 160q54 -43 104 -43q41 0 63 19.5t32 70.5l168 954h-144l31 168h141l19 101q17 91 55.5 157.5t93 104.5t116 55.5t132.5 17.5q61 0 123.5 -13.5t101.5 -33.5l215 33l-196 -1118q-7 -41 3 -64.5
t52 -23.5q26 0 59 8l-30 -160q-65 -20 -125 -20q-224 0 -181 233l166 951q-79 49 -168 49q-168 0 -202 -183l-19 -94h187l-29 -168h-186z" />
    <glyph glyph-name=".notdef" horiz-adv-x="1546" 
d="M170 0v1206h1206v-1206h-1206zM772 541l-453 -453h908zM319 1118l453 -454l455 454h-908zM834 602l454 -452v907zM711 602l-453 455v-907z" />
    <glyph glyph-name=".null" horiz-adv-x="0" 
 />
    <glyph glyph-name="nonmarkingreturn" horiz-adv-x="682" 
 />
    <glyph glyph-name="space" unicode=" " horiz-adv-x="456" 
 />
    <glyph glyph-name="exclam" unicode="!" horiz-adv-x="489" 
d="M244 1206h272l-219 -833h-143zM43 125q0 61 40.5 100t102.5 39t103 -39t41 -100q0 -60 -41 -98.5t-103 -38.5t-102.5 38.5t-40.5 98.5z" />
    <glyph glyph-name="quotedbl" unicode="&#x22;" horiz-adv-x="673" 
d="M158 844l92 524h223l-184 -524h-131zM479 844l92 524h224l-185 -524h-131z" />
    <glyph glyph-name="numbersign" unicode="#" horiz-adv-x="1337" 
d="M1159 279h-325l-134 -279h-180l131 279h-192l-131 -279h-183l134 279h-205l26 155h252l80 168h-260l27 156h309l108 227h185l-111 -227h191l108 227h185l-111 -227h221l-27 -156h-270l-80 -168h281zM614 602l-79 -168h190l82 168h-193z" />
    <glyph glyph-name="dollar" unicode="$" horiz-adv-x="946" 
d="M27 250l178 51q3 -72 47 -119t110 -61l54 297q-36 12 -56 22q-109 41 -158.5 102.5t-49.5 157.5q0 78 30.5 137.5t83 95.5t116.5 55t138 22l29 166h102l-30 -170q139 -15 213.5 -84t74.5 -183l-188 -41q0 59 -33 101t-94 57l-49 -283l12 -2q144 -48 202 -115t58 -173
q0 -74 -28.5 -132t-80.5 -94.5t-120 -56.5t-150 -23l-32 -194h-103l35 197q-142 14 -225 84.5t-86 185.5zM616 254q0 45 -22.5 73.5t-83.5 55.5l-45 -266q151 14 151 137zM346 733q0 -42 22.5 -69.5t80.5 -51.5l45 248q-148 -12 -148 -127z" />
    <glyph glyph-name="percent" unicode="%" horiz-adv-x="1789" 
d="M344 469q-127 0 -191.5 80.5t-64.5 220.5q0 65 13.5 129.5t42.5 123t69 103t97.5 71t123.5 26.5q123 0 190.5 -84.5t67.5 -225.5q0 -85 -22.5 -163t-64.5 -141.5t-109.5 -101.5t-151.5 -38zM420 1079q-46 0 -81 -33t-52.5 -84t-26 -99t-8.5 -91q2 -76 29.5 -122t80.5 -46
q45 0 79.5 33.5t52.5 85t27 100.5t9 90q0 77 -27.5 121.5t-82.5 44.5zM403 0l838 1208h148l-838 -1208h-148zM1352 -14q-127 0 -191.5 80.5t-64.5 220.5q0 65 13.5 129.5t42.5 122.5t69 102.5t97.5 71t123.5 26.5q123 0 190.5 -84t67.5 -225q0 -85 -22.5 -163t-64.5 -141.5
t-109.5 -101.5t-151.5 -38zM1427 596q-46 0 -81 -33t-52.5 -84t-25.5 -99t-8 -91q2 -76 29.5 -122t80.5 -46q45 0 79.5 33.5t52.5 85t27 100.5t9 90q0 76 -28 121t-83 45z" />
    <glyph glyph-name="ampersand" unicode="&#x26;" horiz-adv-x="1161" 
d="M1081 113l-163 -133l-119 141q-180 -146 -418 -146q-166 0 -259 75t-93 220q0 132 88.5 219t257.5 146l-49 61q-93 110 -93 232q0 97 54.5 167t139 103t185.5 33q152 0 236 -70.5t84 -193.5q0 -220 -299 -326l203 -244q57 75 84 215l184 -61q-23 -73 -67.5 -151
t-94.5 -132zM240 291q0 -69 47 -112.5t127 -43.5q160 0 286 107l-249 301q-46 -27 -69 -41.5t-55.5 -40t-47.5 -47.5t-27 -54t-12 -69zM594 1083q-67 0 -111 -38.5t-45 -100.5q0 -59 54 -125l65 -86q174 86 174 219q0 131 -137 131z" />
    <glyph glyph-name="quotesingle" unicode="'" horiz-adv-x="352" 
d="M158 844l92 524h223l-184 -524h-131z" />
    <glyph glyph-name="parenleft" unicode="(" horiz-adv-x="714" 
d="M344 293q0 -193 49.5 -358.5t163.5 -348.5h-219q-203 317 -203 697q0 328 137 612.5t363 472.5h244q-94 -86 -167 -166t-144.5 -184t-118.5 -210t-76 -238.5t-29 -276.5z" />
    <glyph glyph-name="parenright" unicode=")" horiz-adv-x="714" 
d="M383 662q0 193 -49.5 358.5t-165.5 347.5h221q203 -317 203 -696q0 -328 -137 -613t-363 -473h-244q94 86 167 166t144.5 184t118.5 210t76 239t29 277z" />
    <glyph glyph-name="asterisk" unicode="*" horiz-adv-x="774" 
d="M604 1188l-82 -197l207 43l10 -164l-213 19l107 -191l-158 -61l-47 209l-143 -160l-105 131l180 113l-194 88l90 137l160 -137l24 211z" />
    <glyph glyph-name="plus" unicode="+" horiz-adv-x="1019" 
d="M102 569h349l61 342h133l-61 -342h354l-20 -123h-355l-65 -370h-133l65 370h-348z" />
    <glyph glyph-name="comma" unicode="," horiz-adv-x="589" 
d="M403 80q0 -79 -30.5 -140.5t-83.5 -99t-119 -57t-143 -21.5v97q92 8 159.5 48.5t67.5 106.5q-67 -12 -113.5 22.5t-46.5 100.5q0 65 41.5 101t108.5 36q71 0 115 -53t44 -141z" />
    <glyph glyph-name="hyphen" unicode="-" horiz-adv-x="784" 
d="M135 436l31 182h483l-31 -182h-483z" />
    <glyph glyph-name="period" unicode="." horiz-adv-x="589" 
d="M86 139q0 64 43.5 108t106.5 44q66 0 109.5 -43.5t43.5 -108.5q0 -63 -43.5 -107t-109.5 -44q-63 0 -106.5 44t-43.5 107z" />
    <glyph glyph-name="slash" unicode="/" horiz-adv-x="782" 
d="M-174 -416l868 1786h195l-873 -1786h-190z" />
    <glyph glyph-name="zero" unicode="0" horiz-adv-x="1189" 
d="M545 -25q-115 0 -203.5 38t-141.5 103.5t-79.5 145.5t-26.5 170q0 133 43.5 243.5t119 183t175 112t211.5 39.5q117 0 206 -37.5t142 -103t79 -147.5t26 -177q0 -172 -75 -303.5t-199.5 -199t-276.5 -67.5zM303 444q0 -130 66.5 -209t187.5 -79q139 0 232.5 107t93.5 272
q0 129 -67.5 208.5t-186.5 79.5q-141 0 -233.5 -107.5t-92.5 -271.5z" />
    <glyph glyph-name="one" unicode="1" horiz-adv-x="741" 
d="M446 0h-219l138 784l-281 -45l33 179l506 83z" />
    <glyph glyph-name="two" unicode="2" horiz-adv-x="948" 
d="M805 180l-33 -180h-760l27 164q302 142 446 262t144 256q0 67 -37 104t-105 37q-72 0 -119 -44.5t-51 -141.5l-196 57q9 70 36.5 125t66 90t88 58.5t99 33t103.5 9.5q165 0 252.5 -80t87.5 -223q0 -82 -35 -157.5t-92.5 -132.5t-134 -104t-156 -77.5t-160.5 -47.5v-8h529
z" />
    <glyph glyph-name="three" unicode="3" horiz-adv-x="944" 
d="M465 383v-6q161 -11 238 -89.5t77 -203.5q0 -117 -61 -201.5t-162 -125t-229 -40.5q-182 0 -279.5 76.5t-103.5 210.5l205 64q0 -92 52.5 -139.5t145.5 -47.5q94 0 152.5 51.5t58.5 145.5q0 45 -13 80t-45 66t-93.5 50.5t-149.5 26.5l27 156q200 23 281 80t81 161
q0 67 -41.5 102.5t-111.5 35.5q-77 0 -124 -46t-59 -131l-202 54q33 141 136 219t275 78q160 0 255 -73t95 -210q0 -162 -107.5 -250.5t-297.5 -93.5z" />
    <glyph glyph-name="four" unicode="4" horiz-adv-x="1128" 
d="M535 -268l61 350h-584l25 143l725 760h211l-129 -739h198l-28 -164h-199l-63 -350h-217zM410 246h215l47 272q9 56 21 111.5t20 82.5l8 27h-8q-50 -70 -140 -170l-178 -198q-35 -38 -68.5 -69.5t-50.5 -43.5l-16 -12v-8q41 8 150 8z" />
    <glyph glyph-name="five" unicode="5" horiz-adv-x="958" 
d="M139 299l146 686h628l-32 -188h-447l-78 -355q60 50 164 50q141 0 220 -92t79 -234q-1 -110 -40 -197t-106.5 -141t-154.5 -82.5t-188 -28.5q-171 0 -269 77t-98 210l197 62q3 -181 198 -181q103 0 173.5 65.5t70.5 190.5q0 94 -48.5 148.5t-131.5 54.5q-75 0 -127 -45
h-156z" />
    <glyph glyph-name="six" unicode="6" horiz-adv-x="1064" 
d="M1057 1010l-164 -109q-20 76 -70.5 117t-126.5 41q-158 0 -266.5 -140t-134.5 -374h8q35 111 122 166t202 55q156 0 248 -92.5t92 -245.5q0 -203 -123 -328t-332 -125q-205 0 -311.5 123.5t-106.5 358.5q0 116 25 227.5t76.5 210.5t123.5 174t172 118.5t216 43.5
q277 0 350 -221zM561 598q-104 0 -175 -68.5t-71 -187.5q0 -93 52 -146t143 -53q106 0 177 71.5t71 193.5q0 90 -52 140t-145 50z" />
    <glyph glyph-name="seven" unicode="7" horiz-adv-x="1019" 
d="M604 797h-307l-27 -152h-188l61 340h858l-26 -149l-676 -1104h-231l569 925q30 50 57 85.5t39 45.5l12 11v8q-39 -10 -141 -10z" />
    <glyph glyph-name="eight" unicode="8" horiz-adv-x="1036" 
d="M459 -25q-186 0 -292 85t-106 219q0 133 80 221.5t211 113.5v11q-83 21 -130.5 84.5t-47.5 148.5q0 91 37 164t100.5 117.5t144 68t171.5 23.5q166 0 267 -83t101 -218q0 -123 -74.5 -208.5t-191.5 -109.5l-2 -8q92 -28 147.5 -98.5t55.5 -167.5q0 -77 -27 -139.5
t-71.5 -103.5t-106 -68.5t-128 -39.5t-138.5 -12zM606 1071q-98 0 -156.5 -60.5t-58.5 -152.5q0 -78 45.5 -119t118.5 -41q100 0 160.5 61t60.5 156q0 69 -44 112.5t-126 43.5zM528 528q-105 0 -175 -61t-70 -160q0 -77 51.5 -123.5t136.5 -46.5q110 0 178 59t68 160
q0 80 -53.5 126t-135.5 46z" />
    <glyph glyph-name="nine" unicode="9" horiz-adv-x="1062" 
d="M2 -61l150 112q29 -76 87 -120t140 -44q160 0 260.5 137t130.5 412h-8q-37 -111 -120 -166t-191 -55q-162 0 -257.5 94t-95.5 250q0 201 124 326t335 125q200 0 306 -127t106 -361q0 -169 -39.5 -314.5t-114 -255t-190.5 -172.5t-260 -63q-278 0 -363 222zM500 383
q104 0 174.5 69.5t70.5 188.5q0 94 -53 147.5t-149 53.5q-99 0 -168.5 -72t-69.5 -192q0 -90 51.5 -142.5t143.5 -52.5z" />
    <glyph glyph-name="colon" unicode=":" horiz-adv-x="589" 
d="M86 139q0 64 43.5 108t106.5 44q66 0 109.5 -43.5t43.5 -108.5q0 -63 -43.5 -107t-109.5 -44q-63 0 -106.5 44t-43.5 107zM211 838q0 66 43 109.5t106 43.5q66 0 110 -43.5t44 -109.5q0 -63 -44 -106.5t-110 -43.5q-63 0 -106 43.5t-43 106.5z" />
    <glyph glyph-name="semicolon" unicode=";" horiz-adv-x="589" 
d="M403 80q0 -79 -30.5 -140.5t-83.5 -99t-119 -57t-143 -21.5v97q92 8 159.5 48.5t67.5 106.5q-67 -12 -113.5 22.5t-46.5 100.5q0 65 41.5 101t108.5 36q71 0 115 -53t44 -141zM215 838q0 66 43.5 109.5t106.5 43.5q66 0 109.5 -43.5t43.5 -109.5q0 -63 -43.5 -106.5
t-109.5 -43.5q-63 0 -106.5 43.5t-43.5 106.5z" />
    <glyph glyph-name="less" unicode="&#x3c;" horiz-adv-x="851" 
d="M791 827l-465 -335l329 -324l-104 -102l-436 440l594 434z" />
    <glyph glyph-name="equal" unicode="=" horiz-adv-x="1071" 
d="M918 301h-836l22 125h836zM967 582h-836l23 125h835z" />
    <glyph glyph-name="greater" unicode="&#x3e;" horiz-adv-x="851" 
d="M70 178l465 336l-332 324l106 102l436 -440l-595 -434z" />
    <glyph glyph-name="question" unicode="?" horiz-adv-x="888" 
d="M301 856l-186 70q41 147 144 226t269 79q183 0 280 -89t97 -249q0 -78 -25 -143t-66.5 -109t-96.5 -74.5t-113.5 -44.5t-118.5 -14l-28 -154h-191l49 275h68q87 0 151.5 22t106 77t41.5 140q0 86 -44.5 132.5t-131.5 46.5q-83 0 -133 -46.5t-72 -144.5zM186 125
q0 61 41.5 100t102.5 39q62 0 103.5 -39t41.5 -100q0 -60 -41.5 -98.5t-103.5 -38.5q-61 0 -102.5 39t-41.5 98z" />
    <glyph glyph-name="at" unicode="@" horiz-adv-x="1808" 
d="M1042 367l17 88q18 95 -25.5 156t-118.5 61q-99 0 -162 -91.5t-63 -240.5q0 -197 139 -197q76 0 135 56.5t78 167.5zM1257 -25q-221 0 -227 189q-60 -189 -268 -189q-133 0 -209 92.5t-76 262.5q0 225 114.5 364.5t278.5 139.5q90 0 154.5 -45t75.5 -130l76 162h157
l-112 -585q-12 -67 11 -99.5t83 -32.5q108 0 180 117t72 303q0 115 -33.5 210.5t-91.5 162.5t-138.5 113t-174 68t-197.5 22q-135 0 -257 -44.5t-219 -128.5t-154.5 -219.5t-57.5 -304.5q0 -172 56 -305t156 -216.5t233 -126t292 -42.5q201 0 385 64l33 -125
q-192 -64 -420 -64q-193 0 -352.5 50t-280 148t-187.5 255.5t-67 361.5q0 178 61.5 330t171.5 259.5t268 168t345 60.5q151 0 278.5 -35.5t218.5 -97.5t155 -147t95 -184.5t31 -209.5q0 -120 -27.5 -222t-82 -181t-144 -124t-205.5 -45z" />
    <glyph glyph-name="A" unicode="A" horiz-adv-x="1239" 
d="M885 0l-56 303h-481l-158 -303h-235l649 1206h281l227 -1206h-227zM561 713l-119 -228h355q-27 132 -46.5 271t-27 215t-4.5 76h-8q-50 -144 -150 -334z" />
    <glyph glyph-name="B" unicode="B" horiz-adv-x="1085" 
d="M758 618l-2 -8q115 -12 174 -74.5t59 -162.5q0 -126 -61 -211.5t-164.5 -123.5t-245.5 -38h-444l211 1206h411q336 0 336 -270q0 -136 -78.5 -220.5t-195.5 -97.5zM416 686h170q100 0 159.5 47.5t59.5 149.5q0 74 -41 106.5t-127 32.5h-162zM387 518l-59 -334h211
q106 0 169.5 45.5t63.5 147.5q0 68 -40.5 104.5t-135.5 36.5h-209z" />
    <glyph glyph-name="C" unicode="C" horiz-adv-x="1165" 
d="M893 344l180 -96q-142 -273 -485 -273q-227 0 -353 133.5t-126 362.5q0 175 49.5 320t135 240.5t198.5 147.5t241 52q182 0 288 -82.5t138 -235.5l-225 -82q-31 211 -219 211q-117 0 -204.5 -78t-131 -204t-43.5 -279q0 -149 70.5 -234t199.5 -85q96 0 162 39t125 143z
" />
    <glyph glyph-name="D" unicode="D" horiz-adv-x="1234" 
d="M328 184h159q94 0 173.5 32t141 96t96 168.5t34.5 240.5q0 301 -322 301h-135zM479 0h-405l211 1206h364q257 0 385.5 -119t128.5 -346q0 -157 -38 -283.5t-102 -210.5t-152.5 -140.5t-186 -81.5t-205.5 -25z" />
    <glyph glyph-name="E" unicode="E" horiz-adv-x="1024" 
d="M870 190l-30 -190h-766l211 1206h766l-35 -190h-543l-55 -318h479l-33 -186h-479l-57 -322h542z" />
    <glyph glyph-name="F" unicode="F" horiz-adv-x="960" 
d="M297 0h-223l211 1206h735l-33 -190h-514l-59 -342h450l-33 -187h-450z" />
    <glyph glyph-name="G" unicode="G" horiz-adv-x="1257" 
d="M670 629h491l-108 -629h-150l-12 150q-86 -175 -316 -175q-219 0 -342.5 134t-123.5 362q0 175 50 320t135.5 240.5t198.5 147.5t240 52q183 0 289.5 -82.5t138.5 -235.5l-225 -82q-15 102 -71 155.5t-148 53.5q-118 0 -206 -77.5t-131.5 -202t-43.5 -275.5
q0 -155 71.5 -242t210.5 -87q115 0 190.5 57t96.5 176l10 57h-278z" />
    <glyph glyph-name="H" unicode="H" horiz-adv-x="1290" 
d="M297 0h-223l211 1206h223l-88 -499h534l86 499h224l-211 -1206h-224l91 518h-533z" />
    <glyph glyph-name="I" unicode="I" horiz-adv-x="534" 
d="M285 1206h223l-211 -1206h-223z" />
    <glyph glyph-name="J" unicode="J" horiz-adv-x="905" 
d="M666 1206h223l-156 -876q-33 -192 -133 -273.5t-283 -81.5q-285 0 -356 250l180 117q41 -186 189 -186q90 0 127.5 45.5t58.5 160.5z" />
    <glyph glyph-name="K" unicode="K" horiz-adv-x="1107" 
d="M1010 0h-252l-273 518h-98l-90 -518h-223l211 1206h223l-88 -501h84l416 501h262l-506 -592z" />
    <glyph glyph-name="L" unicode="L" horiz-adv-x="950" 
d="M285 1206h223l-180 -1016h514l-33 -190h-735z" />
    <glyph glyph-name="M" unicode="M" horiz-adv-x="1454" 
d="M764 289h-127l-135 362q-21 53 -35.5 106.5t-18.5 80.5l-4 28h-8q-1 -78 -26 -219l-113 -647h-223l211 1206h237l168 -489q17 -51 29 -96.5t15 -65.5l3 -20h8q21 65 101 178l344 493h237l-210 -1206h-224l113 647q11 63 23.5 117.5t18.5 77.5l7 24h-8q-39 -88 -125 -209z
" />
    <glyph glyph-name="N" unicode="N" horiz-adv-x="1292" 
d="M500 1206l303 -643q26 -54 48 -112t31 -89l9 -32h8q14 130 41 282l104 594h222l-211 -1206h-209l-309 635q-27 55 -51 115.5t-34 93.5l-10 33h-8q-6 -127 -35 -289l-102 -588h-223l211 1206h215z" />
    <glyph glyph-name="O" unicode="O" horiz-adv-x="1284" 
d="M588 -25q-227 0 -353 134.5t-126 361.5q0 175 49.5 320t135 240.5t198.5 147.5t241 52q228 0 353.5 -135.5t125.5 -362.5q0 -175 -49.5 -319.5t-135 -239.5t-198.5 -147t-241 -52zM715 1040q-117 0 -204.5 -77.5t-131 -202t-43.5 -275.5q0 -152 70.5 -237.5t199.5 -85.5
q114 0 201.5 77.5t131.5 203t44 276.5q0 145 -67.5 233t-200.5 88z" />
    <glyph glyph-name="P" unicode="P" horiz-adv-x="1036" 
d="M475 1024l-74 -420h146q127 0 194.5 65.5t67.5 194.5q0 82 -46 121t-145 39h-143zM297 0h-223l211 1206h370q201 0 290 -80t89 -243q0 -148 -65 -253.5t-171.5 -155.5t-242.5 -50h-184z" />
    <glyph glyph-name="Q" unicode="Q" horiz-adv-x="1294" 
d="M1223 733q0 -166 -45 -305t-123 -233t-181.5 -149.5t-222.5 -65.5q36 -51 93.5 -77.5t117.5 -27.5t125 2l-65 -192q-210 -3 -336.5 76.5t-155.5 238.5q-151 42 -231 165.5t-80 305.5q0 175 49.5 320t135 240.5t198.5 147.5t241 52q228 0 354 -134.5t126 -363.5zM725 1040
q-117 0 -204.5 -77.5t-131 -202t-43.5 -275.5q0 -152 70.5 -237.5t199.5 -85.5q114 0 201.5 77.5t131.5 203t44 276.5q0 145 -67.5 233t-200.5 88z" />
    <glyph glyph-name="R" unicode="R" horiz-adv-x="1144" 
d="M1024 0h-240q-33 30 -47 117l-32 198q-15 92 -54 123t-129 31h-143l-82 -469h-223l211 1206h428q194 0 280 -73t86 -226q0 -86 -28.5 -154t-76.5 -109t-103.5 -63.5t-116.5 -27.5v-8q84 -12 122.5 -52t55.5 -133l41 -233q14 -77 51 -127zM475 1022l-65 -373h202
q110 0 175 53.5t65 167.5q0 77 -42 114.5t-134 37.5h-201z" />
    <glyph glyph-name="S" unicode="S" horiz-adv-x="1021" 
d="M33 289l200 61q0 -102 58 -156.5t160 -54.5q101 0 158 43.5t57 134.5q0 76 -42.5 119.5t-152.5 83.5q-73 25 -124.5 53.5t-91 68.5t-58.5 94.5t-19 125.5q0 80 26.5 144t69 105.5t100 69t115 39t117.5 11.5q189 0 287 -77t102 -249l-215 -37q4 91 -46.5 140t-143.5 49
q-90 0 -144.5 -44.5t-54.5 -123.5q0 -71 42.5 -105.5t160.5 -78.5q156 -59 225.5 -137t69.5 -220q0 -98 -37 -171.5t-102 -116.5t-145.5 -64t-176.5 -21q-381 0 -395 314z" />
    <glyph glyph-name="T" unicode="T" horiz-adv-x="999" 
d="M524 0h-223l178 1016h-344l33 190h913l-32 -190h-349z" />
    <glyph glyph-name="U" unicode="U" horiz-adv-x="1220" 
d="M993 1206h221l-141 -807q-21 -120 -68.5 -204t-118.5 -131.5t-155 -68t-190 -20.5q-103 0 -184.5 26.5t-142.5 81.5t-84.5 151.5t-0.5 226.5l131 745h223l-133 -749q-52 -299 219 -299q128 0 196 68t93 220z" />
    <glyph glyph-name="V" unicode="V" horiz-adv-x="1134" 
d="M379 1206l102 -725q11 -79 17.5 -157t7.5 -116v-38h8q37 131 121 309l354 727h238l-609 -1206h-278l-184 1206h223z" />
    <glyph glyph-name="W" unicode="W" horiz-adv-x="1728" 
d="M1112 1206l53 -725q5 -81 6 -163.5t-1 -125.5l-1 -42h9q36 149 108 329l285 727h231l-493 -1206h-312l-55 672q-6 92 -5.5 163.5t3.5 114.5l4 43h-8q-29 -139 -107 -321l-282 -672h-305l-54 1206h224l24 -723q3 -80 3 -163.5t-1 -126.5l-2 -43h8q33 151 109 331l303 725
h256z" />
    <glyph glyph-name="X" unicode="X" horiz-adv-x="1138" 
d="M788 0l-159 305q-27 51 -42 90t-17 53l-1 13h-8q-4 -37 -104 -158l-254 -303h-260l526 616l-297 590h244l131 -272q27 -57 43 -99.5t18 -56.5l2 -14h8q7 37 111 170l219 272h254l-489 -590l311 -616h-236z" />
    <glyph glyph-name="Y" unicode="Y" horiz-adv-x="1060" 
d="M389 1206l115 -350q21 -64 33 -127t14 -94l2 -31h8q33 107 125 250l227 352h236l-504 -768l-76 -438h-223l76 438l-264 768h231z" />
    <glyph glyph-name="Z" unicode="Z" horiz-adv-x="1077" 
d="M31 141l628 738q41 47 80 83t57 48l19 12v8q-69 -14 -186 -14h-424l33 190h870l-29 -149l-630 -729q-42 -47 -81.5 -83t-57.5 -49l-19 -12v-8q71 14 188 14h459l-33 -190h-901z" />
    <glyph glyph-name="bracketleft" unicode="[" horiz-adv-x="708" 
d="M526 1208l-258 -1464h293l-26 -160h-506l313 1786h506l-29 -162h-293z" />
    <glyph glyph-name="backslash" unicode="\" horiz-adv-x="722" 
d="M367 1370l245 -1786h-174l-250 1786h179z" />
    <glyph glyph-name="bracketright" unicode="]" horiz-adv-x="708" 
d="M178 -254l256 1462h-293l29 162h506l-314 -1786h-505l28 162h293z" />
    <glyph glyph-name="asciicircum" unicode="^" horiz-adv-x="1054" 
d="M891 657l-96 299q-25 81 -37.5 146t-12.5 90v25h-8q-2 -9 -9 -27.5t-43 -85.5t-91 -146l-209 -301h-209l502 711h180l250 -711h-217z" />
    <glyph glyph-name="underscore" unicode="_" horiz-adv-x="985" 
d="M-12 -211l28 166h781l-29 -166h-780z" />
    <glyph glyph-name="grave" unicode="`" horiz-adv-x="755" 
d="M592 1081h-191l-237 303h280z" />
    <glyph glyph-name="a" unicode="a" horiz-adv-x="1112" 
d="M698 395l29 158q16 102 -21 176t-128 74q-126 0 -204.5 -122t-78.5 -300q0 -106 44 -172t128 -66q91 0 150.5 67.5t80.5 184.5zM1014 946l-123 -696q-7 -41 3 -64.5t52 -23.5q27 0 60 8l-31 -160q-65 -20 -125 -20q-179 0 -182 168q-37 -93 -111 -138t-168 -45
q-146 0 -230.5 102.5t-84.5 284.5q0 163 55 300.5t160.5 222t240.5 84.5q214 0 240 -183l53 160h191z" />
    <glyph glyph-name="b" unicode="b" horiz-adv-x="1114" 
d="M383 532l-27 -153q-16 -95 29.5 -168.5t142.5 -73.5q87 0 152.5 60t98 156t32.5 210q0 112 -46.5 174t-131.5 62q-91 0 -160 -72t-90 -195zM307 150l-69 -150h-164l239 1368h217l-106 -604q90 205 303 205q146 0 229.5 -101t83.5 -293q0 -169 -56.5 -304.5t-165.5 -215.5
t-253 -80q-100 0 -171.5 48t-86.5 127z" />
    <glyph glyph-name="c" unicode="c" horiz-adv-x="942" 
d="M672 313l207 -39q-100 -299 -418 -299q-176 0 -281.5 105.5t-105.5 294.5q0 116 32.5 221t93.5 189t159.5 134t220.5 50q165 0 247 -87.5t82 -234.5l-207 -37q0 82 -34 133.5t-111 51.5q-80 0 -140.5 -59.5t-90 -149.5t-29.5 -193q0 -125 48 -188.5t136 -63.5
q141 0 191 172z" />
    <glyph glyph-name="d" unicode="d" horiz-adv-x="1112" 
d="M702 393l31 160q11 65 -0.5 120t-51 92.5t-103.5 37.5q-85 0 -150.5 -57.5t-100 -153.5t-34.5 -213q0 -104 44.5 -170t127.5 -66q94 0 155.5 65t81.5 185zM1092 1368l-195 -1118q-7 -41 3 -64.5t52 -23.5q27 0 60 8l-33 -160q-62 -20 -123 -20q-179 0 -182 168
q-35 -95 -111 -139t-174 -44q-146 0 -230.5 102.5t-84.5 284.5q0 121 32.5 231.5t91 193.5t146.5 132.5t191 49.5q100 0 163 -45.5t76 -137.5l103 582h215z" />
    <glyph glyph-name="e" unicode="e" horiz-adv-x="974" 
d="M479 141q83 0 128 35t67 111l203 -49q-48 -141 -148.5 -202t-267.5 -61q-182 0 -284.5 109.5t-102.5 296.5q0 138 41 252t109.5 186t155 111t179.5 39t164.5 -28t113.5 -76.5t63.5 -108t21.5 -127.5q0 -116 -41 -197h-590q-14 -120 34.5 -205.5t153.5 -85.5zM315 571h385
q9 27 9 60q0 76 -39.5 125t-118.5 49q-91 0 -151 -66t-85 -168z" />
    <glyph glyph-name="f" unicode="f" horiz-adv-x="645" 
d="M68 -176l168 954h-144l31 168h141l21 109q56 327 364 327q130 0 234 -55l-74 -178q-74 53 -154 53q-67 0 -103.5 -34.5t-51.5 -112.5l-21 -109h240l-29 -168h-239l-170 -962q-25 -141 -89 -194.5t-186 -53.5q-115 0 -182 49l45 160q54 -43 104 -43q41 0 63 19.5t32 70.5z
" />
    <glyph glyph-name="g" unicode="g" horiz-adv-x="1060" 
d="M705 399l28 154q11 65 0 120t-50 92.5t-103 37.5q-129 0 -207 -119t-78 -297q0 -106 43.5 -170.5t128.5 -64.5q96 0 157 64t81 183zM1018 946l-170 -964q-37 -212 -158 -313t-342 -101q-171 0 -269.5 65.5t-127.5 180.5l174 96q11 -79 74 -128.5t157 -49.5
q122 0 187.5 67t91.5 197l31 166q-69 -176 -273 -176q-147 0 -232 102t-85 285q0 162 55 297t162 217t246 82q209 0 235 -183l55 160h189z" />
    <glyph glyph-name="h" unicode="h" horiz-adv-x="1091" 
d="M961 649l-68 -399q-7 -41 3 -64.5t52 -23.5q27 0 60 8l-33 -160q-62 -20 -123 -20q-222 0 -182 233l69 393q30 172 -114 172q-80 0 -150 -67t-94 -209l-90 -512h-217l237 1368h221l-110 -614q51 107 124 161t179 54q112 0 178 -61.5t66 -170.5q0 -36 -8 -88z" />
    <glyph glyph-name="i" unicode="i" horiz-adv-x="538" 
d="M440 946l-121 -696q-16 -88 56 -88q26 0 59 8l-33 -160q-62 -20 -122 -20q-223 0 -183 233l127 723h217zM240 1245q0 61 39 98t98 37q60 0 100.5 -37t40.5 -98q0 -59 -41 -97t-100 -38q-58 0 -97.5 38t-39.5 97z" />
    <glyph glyph-name="j" unicode="j" horiz-adv-x="479" 
d="M440 946l-188 -1081q-29 -164 -114 -230.5t-230 -66.5q-60 0 -116 15.5t-91 39.5l66 162q64 -51 137 -51q54 0 85.5 33.5t47.5 121.5l186 1057h217zM240 1245q0 61 39 98t98 37q60 0 100.5 -37t40.5 -98q0 -59 -41 -97t-100 -38q-58 0 -97.5 38t-39.5 97z" />
    <glyph glyph-name="k" unicode="k" horiz-adv-x="985" 
d="M582 111l-156 327h-57l-78 -438h-217l239 1368h219l-135 -770h45l322 348h264l-414 -426l144 -291q28 -54 66 -64.5t104 9.5l-35 -166q-56 -18 -125 -18q-64 0 -109.5 27.5t-76.5 93.5z" />
    <glyph glyph-name="l" unicode="l" horiz-adv-x="536" 
d="M516 1368l-197 -1118q-16 -88 56 -88q26 0 59 8l-33 -160q-62 -20 -122 -20q-223 0 -183 233l203 1145h217z" />
    <glyph glyph-name="m" unicode="m" horiz-adv-x="1601" 
d="M825 0h-217l109 616q14 80 -12.5 126t-98.5 46q-35 0 -68 -14.5t-64 -45.5t-55.5 -86.5t-37.5 -129.5l-90 -512h-217l166 946h188l-6 -192q48 110 114 162.5t175 52.5q107 0 170 -60.5t63 -167.5q44 115 116 171.5t185 56.5q107 0 170.5 -61.5t63.5 -170.5q0 -29 -9 -88
l-67 -399q-7 -41 3 -64.5t52 -23.5q27 0 60 8l-31 -160q-65 -20 -125 -20q-223 0 -180 233l69 393q27 172 -112 172q-75 0 -137.5 -66t-88.5 -210z" />
    <glyph glyph-name="n" unicode="n" horiz-adv-x="1091" 
d="M961 649l-68 -399q-7 -41 3 -64.5t52 -23.5q27 0 60 8l-33 -160q-62 -20 -123 -20q-222 0 -182 233l69 393q30 172 -114 172q-80 0 -150 -67t-94 -209l-90 -512h-217l166 946h188l-6 -192q97 215 303 215q112 0 178 -61.5t66 -170.5q0 -36 -8 -88z" />
    <glyph glyph-name="o" unicode="o" horiz-adv-x="1042" 
d="M580 969q183 0 286 -109t103 -303q0 -117 -33 -221.5t-94.5 -185t-159 -128t-217.5 -47.5q-175 0 -283 105.5t-108 296.5q0 95 20 182t62 161.5t101.5 130t142 87t180.5 31.5zM559 795q-79 0 -140 -56.5t-91.5 -148t-30.5 -201.5q0 -121 49 -184.5t137 -63.5
q120 0 191 119.5t71 292.5q0 117 -48.5 179.5t-137.5 62.5z" />
    <glyph glyph-name="p" unicode="p" horiz-adv-x="1114" 
d="M383 532l-27 -155q-13 -58 2.5 -112.5t60 -91t109.5 -36.5q87 0 152.5 60t98 156t32.5 210q0 111 -47 173.5t-131 62.5q-89 0 -159 -72.5t-91 -194.5zM317 150l-100 -566h-215l240 1362h188l-8 -182q93 205 305 205q148 0 230.5 -100.5t82.5 -293.5q0 -169 -56 -304.5
t-165 -215.5t-254 -80q-100 0 -167 47.5t-81 127.5z" />
    <glyph glyph-name="q" unicode="q" horiz-adv-x="1054" 
d="M702 391l31 162q11 65 -0.5 120t-51 92.5t-103.5 37.5q-126 0 -204.5 -123.5t-78.5 -302.5q0 -105 44 -169.5t128 -64.5q93 0 154 64.5t81 183.5zM780 -416h-219l101 568q-35 -90 -107 -133.5t-166 -43.5q-146 0 -230.5 102.5t-84.5 284.5q0 121 32.5 231.5t91 193.5
t146.5 132.5t191 49.5q101 0 164.5 -45.5t76.5 -137.5l53 160h189z" />
    <glyph glyph-name="r" unicode="r" horiz-adv-x="737" 
d="M782 963l-53 -252q-41 14 -85.5 15t-87 -12.5t-78 -38.5t-61.5 -67.5t-36 -97.5l-90 -510h-217l166 946h188l-12 -233q49 129 150.5 201.5t215.5 48.5z" />
    <glyph glyph-name="s" unicode="s" horiz-adv-x="858" 
d="M25 248l184 53q3 -87 49.5 -131.5t124.5 -44.5q149 0 149 119q0 56 -34 90t-123 63q-119 39 -176.5 105t-57.5 172q0 144 99.5 219.5t257.5 75.5t238.5 -66t80.5 -190l-190 -35q0 67 -37.5 103t-108.5 36q-63 0 -101 -30.5t-38 -84.5q0 -45 34 -74.5t136 -68.5
q128 -49 179.5 -115.5t51.5 -179.5q0 -146 -99.5 -217.5t-270.5 -71.5q-159 0 -250.5 70t-97.5 203z" />
    <glyph glyph-name="t" unicode="t" horiz-adv-x="675" 
d="M569 209v-182q-93 -52 -219 -52q-293 0 -237 318l86 485h-133l30 168h133l35 199l221 29l-39 -228h246l-28 -168h-246l-88 -491q-11 -65 11.5 -95t68.5 -30q78 0 159 47z" />
    <glyph glyph-name="u" unicode="u" horiz-adv-x="1085" 
d="M657 180q-44 -108 -117.5 -156.5t-187.5 -48.5q-150 0 -213.5 94.5t-34.5 264.5l107 612h217l-111 -633q-14 -86 16.5 -132t100.5 -46q84 0 150.5 64.5t87.5 185.5l98 561h217l-121 -696q-16 -88 54 -88q28 0 61 8l-33 -160q-62 -20 -123 -20q-98 0 -137.5 47t-30.5 143z
" />
    <glyph glyph-name="v" unicode="v" horiz-adv-x="894" 
d="M217 0l-143 946h221l55 -489q10 -81 14 -156.5t2 -110.5l-1 -36h8q29 131 119 301l251 491h230l-516 -946h-240z" />
    <glyph glyph-name="w" unicode="w" horiz-adv-x="1404" 
d="M879 946l41 -461q9 -84 9.5 -167t-3.5 -124l-4 -40h8q28 139 108 329l197 463h227l-420 -946h-256l-47 412q-6 76 -6.5 151t1.5 113l3 37h-8q-32 -129 -108 -301l-175 -412h-256l-96 946h221l37 -461q7 -84 8.5 -167t-0.5 -124l-2 -40h9q28 143 110 333l201 459h201z" />
    <glyph glyph-name="x" unicode="x" horiz-adv-x="935" 
d="M614 0l-100 205q-24 54 -36.5 94t-12.5 53v13h-8q-7 -39 -105 -162l-166 -203h-241l393 475l-211 471h231l78 -184q23 -54 36 -95t15 -55l2 -14h9q16 51 102 162l143 186h246l-379 -465l228 -481h-224z" />
    <glyph glyph-name="y" unicode="y" horiz-adv-x="909" 
d="M311 946l54 -512q9 -79 11.5 -152t0.5 -106l-2 -33h8q31 131 115 293l262 510h227l-567 -1048q-44 -83 -87.5 -142.5t-82.5 -96t-83 -57t-83.5 -27.5t-89.5 -7q-96 0 -164 37l55 172q61 -37 119 -37q70 0 124 47.5t112 157.5l-154 1001h225z" />
    <glyph glyph-name="z" unicode="z" horiz-adv-x="892" 
d="M18 117l447 516q42 47 80 83t55 48l18 12v8q-67 -14 -184 -14h-272l35 176h704l-20 -135l-451 -502q-42 -46 -81 -82t-57 -49l-18 -12v-8q70 14 189 14h299l-31 -172h-735z" />
    <glyph glyph-name="braceleft" unicode="{" horiz-adv-x="817" 
d="M324 475l-2 -8q85 -8 124.5 -55t20.5 -158l-64 -369q-14 -78 3.5 -114.5t80.5 -36.5q57 0 131 33l11 -152q-98 -45 -226 -45q-98 0 -151.5 37t-63 101t4.5 149l65 376q17 91 -15.5 124.5t-97.5 33.5h-84l29 162h84q66 0 110.5 33t61.5 125l62 374q25 137 99.5 213
t217.5 76q119 0 205 -45l-64 -151q-59 32 -121 32t-93 -37.5t-44 -115.5l-63 -369q-11 -60 -32.5 -101t-52.5 -63.5t-62 -33t-74 -15.5z" />
    <glyph glyph-name="bar" unicode="|" horiz-adv-x="489" 
d="M180 -416h-178l313 1786h179z" />
    <glyph glyph-name="braceright" unicode="}" horiz-adv-x="817" 
d="M487 467l2 8q-85 10 -124.5 56.5t-20.5 156.5l64 369q14 79 -3.5 116t-80.5 37q-59 0 -131 -32l-11 151q105 45 226 45q143 0 189 -76t21 -213l-65 -374q-17 -92 15 -125t98 -33h84l-29 -162h-84q-65 0 -110 -33.5t-62 -124.5l-62 -376q-25 -137 -99 -212t-218 -75
q-125 0 -205 45l64 152q61 -33 121 -33q62 0 93 37t44 114l63 369q21 114 76.5 159t144.5 54z" />
    <glyph glyph-name="asciitilde" unicode="~" horiz-adv-x="770" 
d="M416 432l-103 53q-38 19 -65 19q-69 0 -82 -82l-84 39q-10 33 -10 59q0 72 49.5 121t124.5 49q52 0 112 -31l91 -47q27 -18 69 -18q66 0 80 86l94 -41q4 -32 4 -49q-2 -77 -50.5 -130.5t-123.5 -53.5q-49 0 -106 26z" />
    <glyph glyph-name="nbspace" unicode="&#xa0;" horiz-adv-x="313" 
 />
    <glyph glyph-name="exclamdown" unicode="&#xa1;" horiz-adv-x="489" 
d="M242 -260h-273l219 833h146zM444 821q0 -61 -41 -100t-102 -39q-62 0 -103.5 39t-41.5 100q0 60 41.5 98.5t103.5 38.5q61 0 102 -39t41 -98z" />
    <glyph glyph-name="cent" unicode="&#xa2;" horiz-adv-x="1019" 
d="M774 319l168 -108q-71 -119 -171.5 -176t-248.5 -60l-33 -192h-102l35 199q-151 24 -239.5 131t-88.5 282q0 165 56.5 298.5t173.5 219.5t278 95l31 168h102l-30 -170q247 -24 303 -258l-207 -84q-19 131 -127 161l-119 -675q134 12 219 169zM313 412q0 -94 37 -159.5
t105 -90.5l116 669q-116 -19 -187 -135t-71 -284z" />
    <glyph glyph-name="sterling" unicode="&#xa3;" horiz-adv-x="1011" 
d="M731 416h-256q0 -22 -8 -54q-6 -68 -41.5 -117t-87.5 -67h321q56 0 98 20t70 78l140 -86q-35 -92 -115.5 -141t-189.5 -49h-642l31 182h94q57 0 100.5 49.5t43.5 114.5q0 40 -6 70h-191l21 121h143q-14 61 -14 145t33 149t88.5 103t121 57t138.5 19q154 0 241.5 -67.5
t87.5 -209.5l-200 -45q0 154 -152 154q-75 0 -118.5 -42t-43.5 -126q0 -47 21 -137h293z" />
    <glyph glyph-name="currency" unicode="&#xa4;" horiz-adv-x="956" 
d="M33 272l168 144q-27 52 -27 127q0 157 86 266l-104 129l77 66l103 -127q82 57 203 57q122 0 194 -66l164 140l59 -72l-165 -141q28 -61 28 -136q0 -154 -88 -262l109 -129l-78 -65l-105 127q-80 -56 -198 -56q-128 0 -203 66l-164 -139zM524 807q-83 0 -131.5 -74
t-48.5 -182q0 -76 33.5 -116t91.5 -40q82 0 130 76t48 186q0 72 -32 111t-91 39z" />
    <glyph glyph-name="yen" unicode="&#xa5;" horiz-adv-x="1056" 
d="M936 494h-223l-72 -101h285l-8 -104h-328l-49 -289h-219l49 289h-301l8 104h274l-39 101h-225l8 104h178l-147 387h229l103 -295q20 -58 32 -109t13 -73l2 -21h8q21 74 111 201l200 297h240l-277 -387h156z" />
    <glyph glyph-name="brokenbar" unicode="&#xa6;" horiz-adv-x="489" 
d="M354 569h-178l139 801h179zM180 -416h-178l141 801h179z" />
    <glyph glyph-name="section" unicode="&#xa7;" horiz-adv-x="860" 
d="M49 483q0 108 59 174t156 91q-74 71 -74 184q0 79 31.5 138t85 92t115 49t129.5 16q319 0 319 -256l-190 -37q1 67 -39.5 103t-108.5 36q-59 0 -98 -30t-39 -82q0 -46 34 -77t144 -79q128 -53 182 -119t54 -164q0 -104 -58.5 -169t-158.5 -89q74 -77 74 -186
q0 -145 -104.5 -216t-274.5 -71q-332 0 -338 252l180 43q4 -77 49.5 -115.5t120.5 -38.5q69 0 112.5 28.5t43.5 84.5q0 53 -32.5 84.5t-133.5 75.5q-128 50 -184 113.5t-56 164.5zM432 362l37 -16q55 9 93 49t38 90q0 52 -33.5 84t-136.5 78q-5 2 -22 8t-25 9
q-63 -13 -98 -53t-35 -91q0 -47 35 -78.5t147 -79.5z" />
    <glyph glyph-name="dieresis" unicode="&#xa8;" horiz-adv-x="1009" 
d="M164 1219q0 60 37.5 96.5t93.5 36.5q58 0 95.5 -36.5t37.5 -96.5q0 -58 -38 -95t-95 -37q-55 0 -93 37t-38 95zM580 1219q0 60 38.5 96.5t92.5 36.5q58 0 96.5 -36.5t38.5 -96.5q0 -59 -38.5 -96.5t-96.5 -37.5q-54 0 -92.5 37.5t-38.5 96.5z" />
    <glyph glyph-name="copyright" unicode="&#xa9;" horiz-adv-x="1429" 
d="M899 477l139 -90q-56 -95 -137 -139.5t-203 -44.5q-144 0 -232.5 86t-88.5 239q0 98 27.5 183.5t79.5 151t133.5 103.5t183.5 38q239 0 289 -207l-170 -66q-6 58 -41.5 90.5t-96.5 32.5q-100 0 -162.5 -90t-62.5 -221q0 -90 43 -144.5t121 -54.5q110 0 178 133zM113 602
q0 179 84 323.5t227 225t315 80.5q128 0 244 -47.5t200.5 -129.5t134.5 -200t50 -252t-50 -251.5t-134.5 -199.5t-200.5 -129t-244 -47t-243.5 47t-199.5 129t-133.5 199.5t-49.5 251.5zM176 602q0 -122 44.5 -228.5t121 -180t180.5 -116t219 -42.5q155 0 284 71.5
t205.5 202.5t76.5 293t-76.5 293.5t-205.5 203.5t-284 72q-115 0 -219 -42.5t-180.5 -117t-121 -181t-44.5 -228.5z" />
    <glyph glyph-name="ordfeminine" unicode="&#xaa;" horiz-adv-x="841" 
d="M528 850l23 102q13 65 -15 112.5t-96 47.5q-91 0 -146.5 -78t-55.5 -196q0 -67 31.5 -108.5t90.5 -41.5q66 0 109.5 42t58.5 120zM774 1214l-90 -456q-11 -51 35 -51q22 0 51 6l-25 -117q-46 -14 -96 -14q-131 0 -143 98q-30 -53 -85 -81t-120 -28q-110 0 -175 69
t-65 189q0 168 96 285t253 117q69 0 115 -30t61 -85l39 98h149z" />
    <glyph glyph-name="guillemotleft" unicode="&#xab;" horiz-adv-x="1095" 
d="M666 481v-8q27 -12 86 -94l168 -229l-134 -105l-311 436l465 434l98 -108l-239 -232q-34 -32 -67 -55.5t-50 -31.5zM250 481v-8q27 -12 86 -94l166 -229l-133 -105l-312 436l465 434l101 -108l-242 -232q-33 -32 -65.5 -55.5t-49.5 -31.5z" />
    <glyph glyph-name="logicalnot" unicode="&#xac;" horiz-adv-x="1019" 
d="M772 522h-690l20 123h836l-68 -389h-145z" />
    <glyph glyph-name="uni00AD" unicode="&#xad;" horiz-adv-x="759" 
d="M135 436l31 182h459l-31 -182h-459z" />
    <glyph glyph-name="registered" unicode="&#xae;" horiz-adv-x="1429" 
d="M1038 244h-182q-21 30 -27 82l-8 86q-5 50 -26 71t-76 21h-107l-45 -260h-170l131 741h308q243 0 243 -199q0 -106 -62 -160t-159 -61v-4q61 -5 93 -31t38 -79l17 -115q6 -60 32 -92zM674 850l-39 -217h127q73 0 111 30.5t38 100.5q0 86 -102 86h-135zM113 602
q0 179 84 323.5t227 225t315 80.5q128 0 244 -47.5t200.5 -129.5t134.5 -200t50 -252t-50 -251.5t-134.5 -199.5t-200.5 -129t-244 -47t-243.5 47t-199.5 129t-133.5 199.5t-49.5 251.5zM176 602q0 -122 44.5 -228.5t121 -180t180.5 -116t219 -42.5q155 0 284 71.5
t205.5 202.5t76.5 293t-76.5 293.5t-205.5 203.5t-284 72q-115 0 -219 -42.5t-180.5 -117t-121 -181t-44.5 -228.5z" />
    <glyph glyph-name="macron" unicode="&#xaf;" horiz-adv-x="917" 
d="M723 1130h-559l31 173h559z" />
    <glyph glyph-name="degree" unicode="&#xb0;" horiz-adv-x="591" 
d="M104 969q0 110 74 186t193 76q100 0 161.5 -63t61.5 -156q0 -110 -74.5 -186t-189.5 -76q-108 0 -167 61.5t-59 157.5zM362 1128q-62 0 -100.5 -44t-38.5 -107q0 -56 32 -89.5t87 -33.5q60 0 97.5 44t37.5 106q0 56 -31.5 90t-83.5 34z" />
    <glyph glyph-name="plusminus" unicode="&#xb1;" horiz-adv-x="1110" 
d="M178 709h348l47 268h134l-48 -268h355l-21 -123h-354l-53 -297h-133l51 297h-346zM903 76h-835l20 123h836z" />
    <glyph glyph-name="twosuperior" unicode="&#xb2;" horiz-adv-x="663" 
d="M571 614l-22 -131h-553l20 115q217 123 321.5 210.5t104.5 172.5q0 104 -104 104q-55 0 -90 -36t-47 -103l-131 55q18 99 92.5 160.5t195.5 61.5q117 0 184.5 -56.5t67.5 -160.5q0 -61 -28 -116.5t-68 -94t-99 -74.5t-104 -56.5t-100 -41.5v-9h360z" />
    <glyph glyph-name="threesuperior" unicode="&#xb3;" horiz-adv-x="641" 
d="M389 858v-6q85 -10 126.5 -54t41.5 -114q0 -105 -84.5 -160t-212.5 -55q-118 0 -183 52t-71 138l144 43q10 -114 110 -114q55 0 91 25.5t36 72.5q0 52 -38.5 81t-145.5 30l18 102q203 8 203 115q0 36 -24 57t-64 21q-90 0 -115 -97l-129 52q60 176 264 176q106 0 172 -46
t66 -137q0 -75 -53.5 -123.5t-151.5 -58.5z" />
    <glyph glyph-name="acute" unicode="&#xb4;" horiz-adv-x="755" 
d="M354 1081h-190l149 303h279z" />
    <glyph glyph-name="mu" unicode="&#xb5;" horiz-adv-x="1085" 
d="M655 166q-41 -105 -104.5 -148t-161.5 -43q-46 0 -81.5 16.5t-41.5 41.5l-80 -449h-213l238 1362h217l-111 -633q-14 -86 16.5 -132t100.5 -46q84 0 150.5 64.5t87.5 185.5l98 561h217l-121 -696q-16 -88 54 -88q28 0 61 8l-33 -160q-62 -20 -123 -20q-96 0 -134.5 43
t-35.5 133z" />
    <glyph glyph-name="mu" unicode="&#x3bc;" horiz-adv-x="1085" 
d="M655 166q-41 -105 -104.5 -148t-161.5 -43q-46 0 -81.5 16.5t-41.5 41.5l-80 -449h-213l238 1362h217l-111 -633q-14 -86 16.5 -132t100.5 -46q84 0 150.5 64.5t87.5 185.5l98 561h217l-121 -696q-16 -88 54 -88q28 0 61 8l-33 -160q-62 -20 -123 -20q-96 0 -134.5 43
t-35.5 133z" />
    <glyph glyph-name="paragraph" unicode="&#xb6;" horiz-adv-x="1095" 
d="M1032 1034l-190 -1069q-26 -155 -121 -227t-236 -72q-64 0 -112 12t-99 43l82 191q59 -59 148 -59q54 0 84.5 27t42.5 93l67 383h-98q-224 0 -328 103t-67 309q75 438 614 438h404l-29 -172h-162z" />
    <glyph glyph-name="periodcentered" unicode="&#xb7;" horiz-adv-x="589" 
d="M139 543q0 66 43.5 109.5t106.5 43.5q66 0 109.5 -43.5t43.5 -109.5q0 -63 -43.5 -106.5t-109.5 -43.5q-63 0 -106.5 43.5t-43.5 106.5z" />
    <glyph glyph-name="cedilla" unicode="&#xb8;" horiz-adv-x="747" 
d="M584 -250q0 -88 -64 -135t-162 -47q-134 0 -194 76l49 114q58 -73 129 -73q35 0 55.5 16t20.5 47q0 77 -121 86l76 189h94l-43 -103q83 -18 121.5 -57t38.5 -113z" />
    <glyph glyph-name="onesuperior" unicode="&#xb9;" horiz-adv-x="614" 
d="M545 483h-529l23 127h184l78 441l-217 -19l25 131l387 45l-107 -598h178z" />
    <glyph glyph-name="ordmasculine" unicode="&#xba;" horiz-adv-x="768" 
d="M426 1231q132 0 206.5 -73.5t74.5 -201.5q0 -106 -40 -192t-123.5 -139.5t-197.5 -53.5q-127 0 -206 70.5t-79 198.5q0 106 40 193t124.5 142.5t200.5 55.5zM412 1104q-82 0 -131.5 -74.5t-49.5 -181.5q0 -77 33.5 -116.5t93.5 -39.5q82 0 130.5 76t48.5 186
q0 72 -33 111t-92 39z" />
    <glyph glyph-name="guillemotright" unicode="&#xbb;" horiz-adv-x="1095" 
d="M430 481v8q-27 11 -86 93l-168 229l133 104l314 -434l-467 -436l-99 109l242 231q33 32 65.5 56t49.5 32zM846 481v8q-27 11 -86 93l-166 229l133 104l311 -434l-465 -436l-98 109l240 231q34 32 66.5 56t48.5 32z" />
    <glyph glyph-name="onequarter" unicode="&#xbc;" horiz-adv-x="1779" 
d="M586 483h-529l23 127h184l78 441l-217 -19l25 131l387 45l-107 -598h178zM397 0l838 1208h147l-837 -1208h-148zM1393 0l28 166h-362l22 119l437 438h168l-76 -436h112l-22 -121h-113l-28 -166h-166zM1448 285l29 159q5 35 13.5 71.5t14.5 55.5l6 19h-8q-31 -54 -90 -117
l-94 -94q-26 -26 -55 -50t-44 -35l-16 -11l-2 -9q37 11 117 11h129z" />
    <glyph glyph-name="onehalf" unicode="&#xbd;" horiz-adv-x="1779" 
d="M586 483h-529l23 127h184l78 441l-217 -19l25 131l387 45l-107 -598h178zM397 0l838 1208h147l-837 -1208h-148zM1614 131l-23 -131h-553l21 115q217 123 321.5 210.5t104.5 172.5q0 104 -105 104q-55 0 -90 -36t-47 -103l-131 55q18 98 93 159.5t196 61.5
q117 0 184.5 -56.5t67.5 -160.5q0 -231 -400 -383v-8h361z" />
    <glyph glyph-name="threequarters" unicode="&#xbe;" horiz-adv-x="1779" 
d="M438 858v-6q85 -10 126.5 -54t41.5 -114q0 -105 -84.5 -160t-212.5 -55q-118 0 -183 52t-71 138l144 43q9 -114 110 -114q55 0 91 25.5t36 72.5q0 52 -38.5 81t-145.5 30l18 102q203 8 203 115q0 36 -24 57t-64 21q-90 0 -115 -97l-129 52q60 176 265 176
q106 0 171.5 -46t65.5 -137q0 -75 -53.5 -123.5t-151.5 -58.5zM397 0l838 1208h147l-837 -1208h-148zM1393 0l28 166h-362l22 119l437 438h168l-76 -436h112l-22 -121h-113l-28 -166h-166zM1448 285l29 159q5 35 13.5 71.5t14.5 55.5l6 19h-8q-31 -54 -90 -117l-94 -94
q-26 -26 -55 -50t-44 -35l-16 -11l-2 -9q37 11 117 11h129z" />
    <glyph glyph-name="questiondown" unicode="&#xbf;" horiz-adv-x="888" 
d="M625 90l186 -70q-88 -305 -416 -305q-181 0 -278 89t-97 249q0 78 25 143t66 109t96 74.5t113.5 44.5t119.5 14l29 154h190l-51 -275h-65q-136 0 -218.5 -57.5t-82.5 -181.5q0 -85 45.5 -131.5t132.5 -46.5q163 0 205 190zM737 821q0 -61 -40 -100t-101 -39
q-62 0 -103.5 39t-41.5 100q0 60 41.5 98.5t103.5 38.5q60 0 100.5 -38.5t40.5 -98.5z" />
    <glyph glyph-name="Agrave" unicode="&#xc0;" horiz-adv-x="1239" 
d="M885 0l-56 303h-481l-158 -303h-235l649 1206h281l227 -1206h-227zM862 1333h-196l-213 266h278zM561 713l-119 -228h355q-27 132 -46.5 271t-27 215t-4.5 76h-8q-50 -144 -150 -334z" />
    <glyph glyph-name="Aacute" unicode="&#xc1;" horiz-adv-x="1239" 
d="M885 0l-56 303h-481l-158 -303h-235l649 1206h281l227 -1206h-227zM840 1333h-197l131 266h279zM561 713l-119 -228h355q-27 132 -46.5 271t-27 215t-4.5 76h-8q-50 -144 -150 -334z" />
    <glyph glyph-name="Acircumflex" unicode="&#xc2;" horiz-adv-x="1239" 
d="M885 0l-56 303h-481l-158 -303h-235l649 1206h281l227 -1206h-227zM717 1608h135l211 -275h-211l-51 66q-14 18 -22.5 35t-10.5 24l-2 8h-6q2 -3 -16 -24.5t-51 -52.5t-66 -56h-221zM561 713l-119 -228h355q-27 132 -46.5 271t-27 215t-4.5 76h-8q-50 -144 -150 -334z
" />
    <glyph glyph-name="Atilde" unicode="&#xc3;" horiz-adv-x="1239" 
d="M885 0l-56 303h-481l-158 -303h-235l649 1206h281l227 -1206h-227zM885 1335q-45 0 -87.5 16t-69 35.5t-56 35.5t-51.5 16q-34 0 -56.5 -26.5t-23.5 -76.5h-127q-24 116 37 196.5t165 80.5q70 0 132 -41q7 -5 21 -14t19 -12.5t15.5 -10t14.5 -9t12.5 -6.5t13 -5.5
t11 -3.5t12 -2.5t12.5 -0.5q65 0 73 103h131q25 -121 -31 -198t-167 -77zM561 713l-119 -228h355q-27 132 -46.5 271t-27 215t-4.5 76h-8q-50 -144 -150 -334z" />
    <glyph glyph-name="Adieresis" unicode="&#xc4;" horiz-adv-x="1239" 
d="M885 0l-56 303h-481l-158 -303h-235l649 1206h281l227 -1206h-227zM842 1466q0 60 38.5 96.5t92.5 36.5q58 0 96.5 -36.5t38.5 -96.5q0 -59 -38.5 -96t-96.5 -37q-54 0 -92.5 37.5t-38.5 95.5zM426 1466q0 60 37.5 96.5t93.5 36.5q58 0 95.5 -36.5t37.5 -96.5
q0 -58 -37.5 -94.5t-95.5 -36.5q-55 0 -93 37t-38 94zM561 713l-119 -228h355q-27 132 -46.5 271t-27 215t-4.5 76h-8q-50 -144 -150 -334z" />
    <glyph glyph-name="Aring" unicode="&#xc5;" horiz-adv-x="1239" 
d="M885 0l-56 303h-481l-158 -303h-235l649 1206h281l227 -1206h-227zM575 1489q0 95 64 160t166 65q87 0 140.5 -54t53.5 -134q0 -96 -64 -162t-163 -66q-95 0 -146 53t-51 138zM561 713l-119 -228h355q-27 132 -46.5 271t-27 215t-4.5 76h-8q-50 -144 -150 -334zM797 1616
q-46 0 -77.5 -35t-31.5 -82q0 -46 25 -72t69 -26q46 0 76.5 35t30.5 82q0 44 -24.5 71t-67.5 27z" />
    <glyph glyph-name="AE" unicode="&#xc6;" horiz-adv-x="1769" 
d="M821 0l51 303h-448l-236 -303h-249l942 1206h915l-33 -190h-542l-56 -318h480l-33 -186h-479l-58 -322h543l-33 -190h-764zM1006 1051l-441 -566h340l58 326q15 86 27.5 146t17.5 77l6 17h-8z" />
    <glyph glyph-name="Ccedilla" unicode="&#xc7;" horiz-adv-x="1165" 
d="M686 -250q0 -88 -63.5 -135t-161.5 -47q-135 0 -195 76l49 114q55 -73 127 -73q76 0 76 63q0 78 -119 86l60 154q-169 35 -259.5 162t-90.5 321q0 175 49.5 320t135 240.5t198.5 147.5t241 52q182 0 288 -82.5t138 -235.5l-225 -82q-31 211 -219 211q-117 0 -204.5 -78
t-131 -204t-43.5 -279q0 -149 70.5 -234t199.5 -85q96 0 162 39t125 143l180 -96q-142 -273 -485 -273q-25 0 -39 2l-25 -57q84 -18 123 -57.5t39 -112.5z" />
    <glyph glyph-name="Egrave" unicode="&#xc8;" horiz-adv-x="1024" 
d="M870 190l-30 -190h-766l211 1206h766l-35 -190h-543l-55 -318h479l-33 -186h-479l-57 -322h542zM772 1333h-197l-210 266h278z" />
    <glyph glyph-name="Eacute" unicode="&#xc9;" horiz-adv-x="1024" 
d="M870 190l-30 -190h-766l211 1206h766l-35 -190h-543l-55 -318h479l-33 -186h-479l-57 -322h542zM752 1333h-197l129 266h279z" />
    <glyph glyph-name="Ecircumflex" unicode="&#xca;" horiz-adv-x="1024" 
d="M870 190l-30 -190h-766l211 1206h766l-35 -190h-543l-55 -318h479l-33 -186h-479l-57 -322h542zM627 1608h135l213 -275h-213l-51 66q-14 18 -22 35t-9 24l-2 8h-8q-11 -26 -56 -67l-75 -66h-224z" />
    <glyph glyph-name="Edieresis" unicode="&#xcb;" horiz-adv-x="1024" 
d="M870 190l-30 -190h-766l211 1206h766l-35 -190h-543l-55 -318h479l-33 -186h-479l-57 -322h542zM338 1466q0 60 37.5 96.5t93.5 36.5q57 0 95 -36.5t38 -96.5q0 -58 -38.5 -94.5t-94.5 -36.5q-55 0 -93 37t-38 94zM754 1466q0 60 37.5 96.5t93.5 36.5q58 0 95.5 -36.5
t37.5 -96.5q0 -59 -37.5 -96t-95.5 -37q-55 0 -93 37t-38 96z" />
    <glyph glyph-name="Igrave" unicode="&#xcc;" horiz-adv-x="534" 
d="M285 1206h223l-211 -1206h-223zM524 1333h-196l-211 266h278z" />
    <glyph glyph-name="Iacute" unicode="&#xcd;" horiz-adv-x="534" 
d="M285 1206h223l-211 -1206h-223zM504 1333h-197l129 266h279z" />
    <glyph glyph-name="Icircumflex" unicode="&#xce;" horiz-adv-x="534" 
d="M285 1206h223l-211 -1206h-223zM381 1608h135l213 -275h-213l-51 66q-14 18 -22 35t-9 24l-2 8h-8q-10 -26 -55 -67l-76 -66h-223z" />
    <glyph glyph-name="Idieresis" unicode="&#xcf;" horiz-adv-x="534" 
d="M285 1206h223l-211 -1206h-223zM90 1466q0 60 37.5 96.5t93.5 36.5q57 0 95 -36.5t38 -96.5q0 -58 -38.5 -94.5t-94.5 -36.5q-55 0 -93 37t-38 94zM506 1466q0 60 37.5 96.5t93.5 36.5q58 0 95.5 -36.5t37.5 -96.5q0 -59 -37.5 -96t-95.5 -37q-55 0 -93 37t-38 96z" />
    <glyph glyph-name="Eth" unicode="&#xd0;" horiz-adv-x="1241" 
d="M479 0h-405l88 514h-133l32 182h134l90 510h364q257 0 385.5 -119t128.5 -346q0 -157 -38 -283.5t-102 -210.5t-152.5 -140.5t-186 -81.5t-205.5 -25zM328 184h159q94 0 173.5 32t141 96t96 168.5t34.5 240.5q0 301 -322 301h-135l-57 -326h244l-33 -182h-244z" />
    <glyph glyph-name="Ntilde" unicode="&#xd1;" horiz-adv-x="1292" 
d="M500 1206l303 -643q26 -54 48 -112t31 -89l9 -32h8q14 130 41 282l104 594h222l-211 -1206h-209l-309 635q-27 55 -51 115.5t-34 93.5l-10 33h-8q-6 -127 -35 -289l-102 -588h-223l211 1206h215zM907 1335q-16 0 -30 1t-27.5 4.5t-21 5.5t-20.5 9t-17 9t-19 11t-18 11
q-7 4 -20 13t-18 12l-15 9t-15.5 8t-13.5 5t-15.5 4t-15.5 1q-33 0 -55 -26.5t-25 -76.5h-125q-24 116 37 196.5t166 80.5q35 0 65 -9.5t42.5 -17.5t44.5 -29q6 -4 20 -13t18.5 -11.5t15 -8.5t15 -7.5t12.5 -4.5t14.5 -3.5t14.5 -0.5q67 0 72 103h133q23 -121 -33.5 -198
t-165.5 -77z" />
    <glyph glyph-name="Ograve" unicode="&#xd2;" horiz-adv-x="1284" 
d="M588 -25q-227 0 -353 134.5t-126 361.5q0 175 49.5 320t135 240.5t198.5 147.5t241 52q228 0 353.5 -135.5t125.5 -362.5q0 -175 -49.5 -319.5t-135 -239.5t-198.5 -147t-241 -52zM715 1040q-117 0 -204.5 -77.5t-131 -202t-43.5 -275.5q0 -152 70.5 -237.5t199.5 -85.5
q114 0 201.5 77.5t131.5 203t44 276.5q0 145 -67.5 233t-200.5 88zM874 1333h-196l-211 266h278z" />
    <glyph glyph-name="Oacute" unicode="&#xd3;" horiz-adv-x="1284" 
d="M588 -25q-227 0 -353 134.5t-126 361.5q0 175 49.5 320t135 240.5t198.5 147.5t241 52q228 0 353.5 -135.5t125.5 -362.5q0 -175 -49.5 -319.5t-135 -239.5t-198.5 -147t-241 -52zM715 1040q-117 0 -204.5 -77.5t-131 -202t-43.5 -275.5q0 -152 70.5 -237.5t199.5 -85.5
q114 0 201.5 77.5t131.5 203t44 276.5q0 145 -67.5 233t-200.5 88zM854 1333h-197l129 266h279z" />
    <glyph glyph-name="Ocircumflex" unicode="&#xd4;" horiz-adv-x="1284" 
d="M588 -25q-227 0 -353 134.5t-126 361.5q0 175 49.5 320t135 240.5t198.5 147.5t241 52q228 0 353.5 -135.5t125.5 -362.5q0 -175 -49.5 -319.5t-135 -239.5t-198.5 -147t-241 -52zM715 1040q-117 0 -204.5 -77.5t-131 -202t-43.5 -275.5q0 -152 70.5 -237.5t199.5 -85.5
q114 0 201.5 77.5t131.5 203t44 276.5q0 145 -67.5 233t-200.5 88zM731 1608h135l213 -275h-213l-51 66q-14 18 -22 35t-9 24l-2 8h-8q-10 -26 -55 -67l-76 -66h-223z" />
    <glyph glyph-name="Otilde" unicode="&#xd5;" horiz-adv-x="1284" 
d="M588 -25q-227 0 -353 134.5t-126 361.5q0 175 49.5 320t135 240.5t198.5 147.5t241 52q228 0 353.5 -135.5t125.5 -362.5q0 -175 -49.5 -319.5t-135 -239.5t-198.5 -147t-241 -52zM715 1040q-117 0 -204.5 -77.5t-131 -202t-43.5 -275.5q0 -152 70.5 -237.5t199.5 -85.5
q114 0 201.5 77.5t131.5 203t44 276.5q0 145 -67.5 233t-200.5 88zM899 1335q-16 0 -29.5 1t-26.5 4.5t-20.5 5.5t-20.5 9t-17 9t-19 11t-18 11q-5 3 -16 10t-15 10t-12.5 8t-12.5 7t-11 6t-11.5 5t-11 3t-12 2.5t-11.5 0.5q-34 0 -56.5 -26.5t-23.5 -76.5h-125
q-26 116 36 196.5t167 80.5q12 0 22.5 -1t20.5 -3t17.5 -4t17.5 -6t15 -6.5t15 -8.5t14 -8.5t14.5 -9.5t14.5 -9q33 -21 45 -28.5t29.5 -14t34.5 -6.5q66 0 74 103h131q25 -121 -31.5 -198t-167.5 -77z" />
    <glyph glyph-name="Odieresis" unicode="&#xd6;" horiz-adv-x="1284" 
d="M588 -25q-227 0 -353 134.5t-126 361.5q0 175 49.5 320t135 240.5t198.5 147.5t241 52q228 0 353.5 -135.5t125.5 -362.5q0 -175 -49.5 -319.5t-135 -239.5t-198.5 -147t-241 -52zM715 1040q-117 0 -204.5 -77.5t-131 -202t-43.5 -275.5q0 -152 70.5 -237.5t199.5 -85.5
q114 0 201.5 77.5t131.5 203t44 276.5q0 145 -67.5 233t-200.5 88zM440 1466q0 60 37.5 96.5t93.5 36.5q57 0 95.5 -36.5t38.5 -96.5q0 -58 -38.5 -94.5t-95.5 -36.5q-55 0 -93 37t-38 94zM856 1466q0 60 37.5 96.5t93.5 36.5q58 0 95.5 -36.5t37.5 -96.5q0 -59 -37.5 -96
t-95.5 -37q-55 0 -93 37t-38 96z" />
    <glyph glyph-name="multiply" unicode="&#xd7;" horiz-adv-x="991" 
d="M76 240l321 272l-213 266l103 86l215 -262l329 279l84 -99l-331 -280l233 -279l-102 -88l-232 279l-323 -275z" />
    <glyph glyph-name="Oslash" unicode="&#xd8;" horiz-adv-x="1284" 
d="M135 -27l-90 82l129 135q-65 115 -65 281q0 175 49.5 320t135 240.5t198.5 147.5t241 52q206 0 332 -117l113 117l96 -84l-129 -131q67 -119 67 -283q0 -175 -49.5 -319.5t-135 -239.5t-198.5 -147t-241 -52q-206 0 -336 117zM983 719q0 63 -14 115l-566 -584
q69 -88 203 -88q114 0 201.5 77.5t131.5 203t44 276.5zM715 1040q-117 0 -204.5 -77.5t-131 -202t-43.5 -275.5q0 -72 12 -114l563 583q-73 86 -196 86z" />
    <glyph glyph-name="Ugrave" unicode="&#xd9;" horiz-adv-x="1220" 
d="M993 1206h221l-141 -807q-21 -120 -68.5 -204t-118.5 -131.5t-155 -68t-190 -20.5q-103 0 -184.5 26.5t-142.5 81.5t-84.5 151.5t-0.5 226.5l131 745h223l-133 -749q-52 -299 219 -299q128 0 196 68t93 220zM856 1333h-194l-213 266h278z" />
    <glyph glyph-name="Uacute" unicode="&#xda;" horiz-adv-x="1220" 
d="M993 1206h221l-141 -807q-21 -120 -68.5 -204t-118.5 -131.5t-155 -68t-190 -20.5q-103 0 -184.5 26.5t-142.5 81.5t-84.5 151.5t-0.5 226.5l131 745h223l-133 -749q-52 -299 219 -299q128 0 196 68t93 220zM838 1333h-197l129 266h279z" />
    <glyph glyph-name="Ucircumflex" unicode="&#xdb;" horiz-adv-x="1220" 
d="M993 1206h221l-141 -807q-21 -120 -68.5 -204t-118.5 -131.5t-155 -68t-190 -20.5q-103 0 -184.5 26.5t-142.5 81.5t-84.5 151.5t-0.5 226.5l131 745h223l-133 -749q-52 -299 219 -299q128 0 196 68t93 220zM713 1608h135l213 -275h-213l-51 66q-13 18 -21 35t-10 24
l-2 8h-6q-13 -26 -58 -67l-75 -66h-222z" />
    <glyph glyph-name="Udieresis" unicode="&#xdc;" horiz-adv-x="1220" 
d="M993 1206h221l-141 -807q-21 -120 -68.5 -204t-118.5 -131.5t-155 -68t-190 -20.5q-103 0 -184.5 26.5t-142.5 81.5t-84.5 151.5t-0.5 226.5l131 745h223l-133 -749q-52 -299 219 -299q128 0 196 68t93 220zM422 1466q0 60 37.5 96.5t93.5 36.5q58 0 95.5 -36.5
t37.5 -96.5q0 -58 -37.5 -94.5t-95.5 -36.5q-55 0 -93 37t-38 94zM838 1466q0 60 38.5 96.5t92.5 36.5q58 0 95.5 -36.5t37.5 -96.5q0 -59 -37.5 -96t-95.5 -37q-54 0 -92.5 37.5t-38.5 95.5z" />
    <glyph glyph-name="Yacute" unicode="&#xdd;" horiz-adv-x="1060" 
d="M389 1206l115 -350q21 -64 33 -127t14 -94l2 -31h8q33 107 125 250l227 352h236l-504 -768l-76 -438h-223l76 438l-264 768h231zM768 1333h-197l129 266h279z" />
    <glyph glyph-name="Thorn" unicode="&#xde;" horiz-adv-x="1038" 
d="M440 819l-69 -399h143q131 0 196.5 57.5t65.5 184.5q0 80 -46.5 118.5t-145.5 38.5h-144zM297 0h-223l211 1206h223l-37 -205h150q197 0 288.5 -81t91.5 -242q0 -111 -37 -196t-102.5 -136.5t-151 -77.5t-188.5 -26h-184z" />
    <glyph glyph-name="germandbls" unicode="&#xdf;" horiz-adv-x="1128" 
d="M35 -176l188 1081q23 129 73 224t120 149t150 79t175 25q172 0 259 -81t87 -207q0 -76 -23 -135.5t-64 -97t-91.5 -59.5t-109.5 -30v-8q128 -17 192 -102t64 -218q0 -226 -120.5 -347.5t-311.5 -121.5q-198 0 -256 131l102 148q43 -111 160 -111q88 0 148.5 71.5
t60.5 221.5q0 240 -234 240h-96l31 172h96q111 0 176.5 52.5t65.5 154.5q0 157 -162 157q-107 0 -176.5 -70.5t-98.5 -236.5l-190 -1089q-24 -141 -89 -194.5t-188 -53.5q-115 0 -182 49l45 160q54 -43 105 -43q41 0 62.5 19.5t31.5 70.5z" />
    <glyph glyph-name="agrave" unicode="&#xe0;" horiz-adv-x="1112" 
d="M698 395l29 158q16 102 -21 176t-128 74q-126 0 -204.5 -122t-78.5 -300q0 -106 44 -172t128 -66q91 0 150.5 67.5t80.5 184.5zM1014 946l-123 -696q-7 -41 3 -64.5t52 -23.5q27 0 60 8l-31 -160q-65 -20 -125 -20q-179 0 -182 168q-37 -93 -111 -138t-168 -45
q-146 0 -230.5 102.5t-84.5 284.5q0 163 55 300.5t160.5 222t240.5 84.5q214 0 240 -183l53 160h191zM733 1081h-190l-238 303h279z" />
    <glyph glyph-name="aacute" unicode="&#xe1;" horiz-adv-x="1112" 
d="M698 395l29 158q16 102 -21 176t-128 74q-126 0 -204.5 -122t-78.5 -300q0 -106 44 -172t128 -66q91 0 150.5 67.5t80.5 184.5zM1014 946l-123 -696q-7 -41 3 -64.5t52 -23.5q27 0 60 8l-31 -160q-65 -20 -125 -20q-179 0 -182 168q-37 -93 -111 -138t-168 -45
q-146 0 -230.5 102.5t-84.5 284.5q0 163 55 300.5t160.5 222t240.5 84.5q214 0 240 -183l53 160h191zM705 1081h-191l148 303h280z" />
    <glyph glyph-name="acircumflex" unicode="&#xe2;" horiz-adv-x="1112" 
d="M698 395l29 158q16 102 -21 176t-128 74q-126 0 -204.5 -122t-78.5 -300q0 -106 44 -172t128 -66q91 0 150.5 67.5t80.5 184.5zM1014 946l-123 -696q-7 -41 3 -64.5t52 -23.5q27 0 60 8l-31 -160q-65 -20 -125 -20q-179 0 -182 168q-37 -93 -111 -138t-168 -45
q-146 0 -230.5 102.5t-84.5 284.5q0 163 55 300.5t160.5 222t240.5 84.5q214 0 240 -183l53 160h191zM598 1389h129l209 -310h-203l-55 80q-14 20 -22 38.5t-10 26.5l-1 9h-8q-12 -29 -59 -74l-82 -80h-215z" />
    <glyph glyph-name="atilde" unicode="&#xe3;" horiz-adv-x="1112" 
d="M698 395l29 158q16 102 -21 176t-128 74q-126 0 -204.5 -122t-78.5 -300q0 -106 44 -172t128 -66q91 0 150.5 67.5t80.5 184.5zM1014 946l-123 -696q-7 -41 3 -64.5t52 -23.5q27 0 60 8l-31 -160q-65 -20 -125 -20q-179 0 -182 168q-37 -93 -111 -138t-168 -45
q-146 0 -230.5 102.5t-84.5 284.5q0 163 55 300.5t160.5 222t240.5 84.5q214 0 240 -183l53 160h191zM772 1077q-12 0 -23 0.5t-21.5 3t-18 4t-17.5 5.5l-15 6t-15.5 7.5t-14 7.5t-15 9.5t-14.5 9.5q-7 5 -22.5 15t-21 13.5t-16.5 9.5t-17.5 8t-15.5 4t-19 2
q-33 0 -55 -26.5t-25 -76.5h-125q-24 115 37 195t166 80q35 0 64.5 -9t43 -17t43.5 -28q63 -41 83 -47q14 -4 28 -4q66 0 74 103h131q23 -121 -33.5 -198t-165.5 -77z" />
    <glyph glyph-name="adieresis" unicode="&#xe4;" horiz-adv-x="1112" 
d="M698 395l29 158q16 102 -21 176t-128 74q-126 0 -204.5 -122t-78.5 -300q0 -106 44 -172t128 -66q91 0 150.5 67.5t80.5 184.5zM1014 946l-123 -696q-7 -41 3 -64.5t52 -23.5q27 0 60 8l-31 -160q-65 -20 -125 -20q-179 0 -182 168q-37 -93 -111 -138t-168 -45
q-146 0 -230.5 102.5t-84.5 284.5q0 163 55 300.5t160.5 222t240.5 84.5q214 0 240 -183l53 160h191zM301 1219q0 60 37.5 96.5t93.5 36.5q57 0 95 -36.5t38 -96.5q0 -58 -38.5 -95t-94.5 -37q-55 0 -93 37t-38 95zM717 1219q0 60 37.5 96.5t93.5 36.5q58 0 95.5 -36.5
t37.5 -96.5q0 -59 -37.5 -96.5t-95.5 -37.5q-55 0 -93 37.5t-38 96.5z" />
    <glyph glyph-name="aring" unicode="&#xe5;" horiz-adv-x="1112" 
d="M698 395l29 158q16 102 -21 176t-128 74q-126 0 -204.5 -122t-78.5 -300q0 -106 44 -172t128 -66q91 0 150.5 67.5t80.5 184.5zM1014 946l-123 -696q-7 -41 3 -64.5t52 -23.5q27 0 60 8l-31 -160q-65 -20 -125 -20q-179 0 -182 168q-37 -93 -111 -138t-168 -45
q-146 0 -230.5 102.5t-84.5 284.5q0 163 55 300.5t160.5 222t240.5 84.5q214 0 240 -183l53 160h191zM440 1247q0 95 65 161.5t167 66.5q87 0 139.5 -54.5t52.5 -134.5q0 -97 -63 -163t-164 -66q-93 0 -145 53.5t-52 136.5zM664 1374q-47 0 -79 -34.5t-32 -82.5
q0 -45 25.5 -71.5t70.5 -26.5q46 0 76.5 35t30.5 84q0 44 -24.5 70t-67.5 26z" />
    <glyph glyph-name="ae" unicode="&#xe6;" horiz-adv-x="1523" 
d="M1028 141q83 0 128 35t67 111l200 -49q-46 -141 -146 -202t-267 -61q-215 0 -320 150q-106 -150 -334 -150q-144 0 -220.5 65t-76.5 185q0 173 148 253t434 83q9 38 33 101q7 71 -28.5 106t-102.5 35q-70 0 -117.5 -39t-60.5 -111l-203 35q16 74 55.5 130t95.5 88
t120 47.5t136 15.5q198 0 265 -99q120 99 274 99q92 0 163 -28t113.5 -76.5t64 -108t21.5 -127.5q0 -120 -40 -207h-590q-9 -75 7 -137.5t62.5 -103t118.5 -40.5zM635 252q-14 55 -14 129q0 27 2 41q-344 -7 -344 -180q0 -52 31.5 -80.5t90.5 -28.5q153 0 234 119zM862 561
h385q8 24 8 70q0 77 -38.5 125.5t-118.5 48.5q-89 0 -148.5 -69.5t-87.5 -174.5z" />
    <glyph glyph-name="ccedilla" unicode="&#xe7;" horiz-adv-x="942" 
d="M569 -250q0 -88 -63.5 -135t-161.5 -47q-134 0 -194 76l49 114q55 -73 127 -73q75 0 75 63q0 78 -118 86l59 156q-126 31 -197 130.5t-71 254.5q0 116 32.5 221t93.5 189t159.5 134t220.5 50q165 0 247 -87.5t82 -234.5l-207 -37q0 82 -34 133.5t-111 51.5
q-80 0 -140.5 -59.5t-90 -149.5t-29.5 -193q0 -125 48 -188.5t136 -63.5q141 0 191 172l207 -39q-100 -299 -418 -299q-5 0 -15 1t-14 1l-24 -57q84 -18 122.5 -57t38.5 -113z" />
    <glyph glyph-name="egrave" unicode="&#xe8;" horiz-adv-x="974" 
d="M479 141q83 0 128 35t67 111l203 -49q-48 -141 -148.5 -202t-267.5 -61q-182 0 -284.5 109.5t-102.5 296.5q0 138 41 252t109.5 186t155 111t179.5 39t164.5 -28t113.5 -76.5t63.5 -108t21.5 -127.5q0 -116 -41 -197h-590q-14 -120 34.5 -205.5t153.5 -85.5zM315 571h385
q9 27 9 60q0 76 -39.5 125t-118.5 49q-91 0 -151 -66t-85 -168zM680 1081h-193l-235 303h278z" />
    <glyph glyph-name="eacute" unicode="&#xe9;" horiz-adv-x="974" 
d="M479 141q83 0 128 35t67 111l203 -49q-48 -141 -148.5 -202t-267.5 -61q-182 0 -284.5 109.5t-102.5 296.5q0 138 41 252t109.5 186t155 111t179.5 39t164.5 -28t113.5 -76.5t63.5 -108t21.5 -127.5q0 -116 -41 -197h-590q-14 -120 34.5 -205.5t153.5 -85.5zM315 571h385
q9 27 9 60q0 76 -39.5 125t-118.5 49q-91 0 -151 -66t-85 -168zM651 1081h-192l149 303h281z" />
    <glyph glyph-name="ecircumflex" unicode="&#xea;" horiz-adv-x="974" 
d="M479 141q83 0 128 35t67 111l203 -49q-48 -141 -148.5 -202t-267.5 -61q-182 0 -284.5 109.5t-102.5 296.5q0 138 41 252t109.5 186t155 111t179.5 39t164.5 -28t113.5 -76.5t63.5 -108t21.5 -127.5q0 -116 -41 -197h-590q-14 -120 34.5 -205.5t153.5 -85.5zM315 571h385
q9 27 9 60q0 76 -39.5 125t-118.5 49q-91 0 -151 -66t-85 -168zM545 1389h129l209 -310h-205l-53 80q-14 20 -22 38.5t-9 26.5l-2 9h-8q-13 -29 -60 -74l-82 -80h-215z" />
    <glyph glyph-name="edieresis" unicode="&#xeb;" horiz-adv-x="974" 
d="M479 141q83 0 128 35t67 111l203 -49q-48 -141 -148.5 -202t-267.5 -61q-182 0 -284.5 109.5t-102.5 296.5q0 138 41 252t109.5 186t155 111t179.5 39t164.5 -28t113.5 -76.5t63.5 -108t21.5 -127.5q0 -116 -41 -197h-590q-14 -120 34.5 -205.5t153.5 -85.5zM315 571h385
q9 27 9 60q0 76 -39.5 125t-118.5 49q-91 0 -151 -66t-85 -168zM246 1219q0 60 38.5 96.5t92.5 36.5q58 0 96.5 -36.5t38.5 -96.5q0 -58 -38.5 -95t-96.5 -37q-54 0 -92.5 37.5t-38.5 94.5zM664 1219q0 60 37.5 96.5t93.5 36.5q58 0 95.5 -36.5t37.5 -96.5
q0 -59 -37.5 -96.5t-95.5 -37.5q-55 0 -93 37.5t-38 96.5z" />
    <glyph glyph-name="igrave" unicode="&#xec;" horiz-adv-x="538" 
d="M469 1081h-193l-235 303h278zM440 946l-121 -696q-16 -88 56 -88q26 0 59 8l-33 -160q-62 -20 -122 -20q-223 0 -183 233l127 723h217z" />
    <glyph glyph-name="iacute" unicode="&#xed;" horiz-adv-x="538" 
d="M438 1081h-190l147 303h281zM440 946l-121 -696q-16 -88 56 -88q26 0 59 8l-33 -160q-62 -20 -122 -20q-223 0 -183 233l127 723h217z" />
    <glyph glyph-name="icircumflex" unicode="&#xee;" horiz-adv-x="538" 
d="M440 946l-121 -696q-16 -88 56 -88q26 0 59 8l-33 -160q-62 -20 -122 -20q-223 0 -183 233l127 723h217zM334 1389h129l209 -310h-205l-53 80q-14 20 -22 38.5t-10 26.5l-1 9h-8q-13 -29 -60 -74l-82 -80h-215z" />
    <glyph glyph-name="idieresis" unicode="&#xef;" horiz-adv-x="538" 
d="M35 1219q0 60 38.5 96.5t92.5 36.5q58 0 96.5 -36.5t38.5 -96.5q0 -58 -38.5 -95t-96.5 -37q-54 0 -92.5 37.5t-38.5 94.5zM453 1219q0 60 37.5 96.5t93.5 36.5q58 0 95.5 -36.5t37.5 -96.5q0 -59 -37.5 -96.5t-95.5 -37.5q-55 0 -93 37.5t-38 96.5zM440 946l-121 -696
q-16 -88 56 -88q26 0 59 8l-33 -160q-62 -20 -122 -20q-223 0 -183 233l127 723h217z" />
    <glyph glyph-name="eth" unicode="&#xf0;" horiz-adv-x="1038" 
d="M266 989l-24 92l260 74q-121 76 -293 119l184 106q202 -53 326 -161l194 57l27 -92l-143 -43q168 -204 168 -545q0 -134 -32.5 -246.5t-94 -196.5t-157.5 -131t-216 -47q-176 0 -283.5 104.5t-107.5 299.5q0 153 55 281.5t162 207t244 78.5q75 0 130.5 -32t79.5 -93h9
q-41 154 -156 260zM557 778q-79 0 -139.5 -55t-91.5 -145t-31 -197q0 -117 49.5 -179.5t138.5 -62.5q79 0 139.5 56t90.5 147t30 201q0 235 -186 235z" />
    <glyph glyph-name="ntilde" unicode="&#xf1;" horiz-adv-x="1091" 
d="M961 649l-68 -399q-7 -41 3 -64.5t52 -23.5q27 0 60 8l-33 -160q-62 -20 -123 -20q-222 0 -182 233l69 393q30 172 -114 172q-80 0 -150 -67t-94 -209l-90 -512h-217l166 946h188l-6 -192q97 215 303 215q112 0 178 -61.5t66 -170.5q0 -36 -8 -88zM784 1077
q-13 0 -24 0.5t-22 3t-18 3.5t-17.5 5.5t-14.5 6t-15 8t-13 8t-14.5 9.5t-14.5 9q-7 4 -20 13t-18 12l-15 9t-15.5 8t-13.5 5t-15.5 4t-15.5 1q-34 0 -55.5 -26t-24.5 -77h-125q-24 115 37 195t166 80q35 0 64.5 -8.5t44 -17t43.5 -28.5q32 -22 44.5 -30t29.5 -14.5t34 -6.5
q66 0 74 103h131q25 -121 -31.5 -198t-165.5 -77z" />
    <glyph glyph-name="ograve" unicode="&#xf2;" horiz-adv-x="1042" 
d="M580 969q183 0 286 -109t103 -303q0 -117 -33 -221.5t-94.5 -185t-159 -128t-217.5 -47.5q-175 0 -283 105.5t-108 296.5q0 95 20 182t62 161.5t101.5 130t142 87t180.5 31.5zM559 795q-79 0 -140 -56.5t-91.5 -148t-30.5 -201.5q0 -121 49 -184.5t137 -63.5
q120 0 191 119.5t71 292.5q0 117 -48.5 179.5t-137.5 62.5zM707 1081h-191l-237 303h280z" />
    <glyph glyph-name="oacute" unicode="&#xf3;" horiz-adv-x="1042" 
d="M580 969q183 0 286 -109t103 -303q0 -117 -33 -221.5t-94.5 -185t-159 -128t-217.5 -47.5q-175 0 -283 105.5t-108 296.5q0 95 20 182t62 161.5t101.5 130t142 87t180.5 31.5zM559 795q-79 0 -140 -56.5t-91.5 -148t-30.5 -201.5q0 -121 49 -184.5t137 -63.5
q120 0 191 119.5t71 292.5q0 117 -48.5 179.5t-137.5 62.5zM678 1081h-191l148 303h280z" />
    <glyph glyph-name="ocircumflex" unicode="&#xf4;" horiz-adv-x="1042" 
d="M580 969q183 0 286 -109t103 -303q0 -117 -33 -221.5t-94.5 -185t-159 -128t-217.5 -47.5q-175 0 -283 105.5t-108 296.5q0 95 20 182t62 161.5t101.5 130t142 87t180.5 31.5zM559 795q-79 0 -140 -56.5t-91.5 -148t-30.5 -201.5q0 -121 49 -184.5t137 -63.5
q120 0 191 119.5t71 292.5q0 117 -48.5 179.5t-137.5 62.5zM571 1389h129l211 -310h-204l-56 80q-14 20 -21.5 38.5t-7.5 26.5l-1 9h-11q-10 -29 -57 -74l-84 -80h-213z" />
    <glyph glyph-name="otilde" unicode="&#xf5;" horiz-adv-x="1042" 
d="M580 969q183 0 286 -109t103 -303q0 -117 -33 -221.5t-94.5 -185t-159 -128t-217.5 -47.5q-175 0 -283 105.5t-108 296.5q0 95 20 182t62 161.5t101.5 130t142 87t180.5 31.5zM559 795q-79 0 -140 -56.5t-91.5 -148t-30.5 -201.5q0 -121 49 -184.5t137 -63.5
q120 0 191 119.5t71 292.5q0 117 -48.5 179.5t-137.5 62.5zM748 1077q-37 0 -67 9t-42 15.5t-45 28.5q-7 4 -20 13t-18 12l-15 9t-15.5 8t-13.5 5t-15.5 4t-15.5 1q-34 0 -55.5 -26t-24.5 -77h-125q-24 115 37 195t166 80q35 0 64.5 -8.5t44 -17t43.5 -28.5q32 -22 44.5 -30
t29.5 -14.5t34 -6.5q66 0 74 103h131q25 -121 -31 -198t-165 -77z" />
    <glyph glyph-name="odieresis" unicode="&#xf6;" horiz-adv-x="1042" 
d="M580 969q183 0 286 -109t103 -303q0 -117 -33 -221.5t-94.5 -185t-159 -128t-217.5 -47.5q-175 0 -283 105.5t-108 296.5q0 95 20 182t62 161.5t101.5 130t142 87t180.5 31.5zM559 795q-79 0 -140 -56.5t-91.5 -148t-30.5 -201.5q0 -121 49 -184.5t137 -63.5
q120 0 191 119.5t71 292.5q0 117 -48.5 179.5t-137.5 62.5zM274 1219q0 60 38 96.5t94 36.5q58 0 95.5 -36.5t37.5 -96.5q0 -58 -38 -95t-95 -37q-55 0 -93.5 37.5t-38.5 94.5zM690 1219q0 60 38.5 96.5t92.5 36.5q58 0 95.5 -36.5t37.5 -96.5q0 -59 -37.5 -96.5
t-95.5 -37.5q-54 0 -92.5 37.5t-38.5 96.5z" />
    <glyph glyph-name="divide" unicode="&#xf7;" horiz-adv-x="1019" 
d="M918 446h-836l20 123h836zM322 160q0 41 29.5 70.5t72.5 29.5q41 0 71.5 -29.5t30.5 -70.5t-30.5 -71t-71.5 -30q-42 0 -72 29.5t-30 71.5zM477 844q0 43 30 73.5t73 30.5q41 0 71.5 -30.5t30.5 -73.5q0 -41 -30.5 -71t-71.5 -30q-43 0 -73 30t-30 71z" />
    <glyph glyph-name="oslash" unicode="&#xf8;" horiz-adv-x="1042" 
d="M580 969q179 0 280 -107l111 107l86 -90l-127 -121q39 -79 39 -201q0 -117 -33 -221.5t-94.5 -185t-159 -128t-217.5 -47.5q-161 0 -266 88l-99 -92l-86 84l109 105q-49 88 -49 217q0 95 20 182t62 161.5t101.5 130t142 87t180.5 31.5zM559 795q-113 0 -182.5 -104
t-77.5 -257q0 -71 4 -104l404 387q-50 78 -148 78zM483 141q112 0 181 105.5t77 259.5q3 38 0 76l-395 -379q50 -62 137 -62z" />
    <glyph glyph-name="ugrave" unicode="&#xf9;" horiz-adv-x="1085" 
d="M657 180q-44 -108 -117.5 -156.5t-187.5 -48.5q-150 0 -213.5 94.5t-34.5 264.5l107 612h217l-111 -633q-14 -86 16.5 -132t100.5 -46q84 0 150.5 64.5t87.5 185.5l98 561h217l-121 -696q-16 -88 54 -88q28 0 61 8l-33 -160q-62 -20 -123 -20q-98 0 -137.5 47t-30.5 143z
M725 1081h-190l-238 303h281z" />
    <glyph glyph-name="uacute" unicode="&#xfa;" horiz-adv-x="1085" 
d="M657 180q-44 -108 -117.5 -156.5t-187.5 -48.5q-150 0 -213.5 94.5t-34.5 264.5l107 612h217l-111 -633q-14 -86 16.5 -132t100.5 -46q84 0 150.5 64.5t87.5 185.5l98 561h217l-121 -696q-16 -88 54 -88q28 0 61 8l-33 -160q-62 -20 -123 -20q-98 0 -137.5 47t-30.5 143z
M696 1081h-190l149 303h279z" />
    <glyph glyph-name="ucircumflex" unicode="&#xfb;" horiz-adv-x="1085" 
d="M657 180q-44 -108 -117.5 -156.5t-187.5 -48.5q-150 0 -213.5 94.5t-34.5 264.5l107 612h217l-111 -633q-14 -86 16.5 -132t100.5 -46q84 0 150.5 64.5t87.5 185.5l98 561h217l-121 -696q-16 -88 54 -88q28 0 61 8l-33 -160q-62 -20 -123 -20q-98 0 -137.5 47t-30.5 143z
M590 1389h131l209 -310h-205l-55 80q-14 20 -21.5 38.5t-8.5 26.5l-1 9h-10q-11 -29 -58 -74l-84 -80h-213z" />
    <glyph glyph-name="udieresis" unicode="&#xfc;" horiz-adv-x="1085" 
d="M657 180q-44 -108 -117.5 -156.5t-187.5 -48.5q-150 0 -213.5 94.5t-34.5 264.5l107 612h217l-111 -633q-14 -86 16.5 -132t100.5 -46q84 0 150.5 64.5t87.5 185.5l98 561h217l-121 -696q-16 -88 54 -88q28 0 61 8l-33 -160q-62 -20 -123 -20q-98 0 -137.5 47t-30.5 143z
M293 1219q0 60 37.5 96.5t93.5 36.5q57 0 95 -36.5t38 -96.5q0 -58 -38.5 -95t-94.5 -37q-55 0 -93 37t-38 95zM709 1219q0 60 37.5 96.5t93.5 36.5q58 0 95.5 -36.5t37.5 -96.5q0 -59 -37.5 -96.5t-95.5 -37.5q-55 0 -93 37.5t-38 96.5z" />
    <glyph glyph-name="yacute" unicode="&#xfd;" horiz-adv-x="909" 
d="M311 946l54 -512q9 -79 11.5 -152t0.5 -106l-2 -33h8q31 131 115 293l262 510h227l-567 -1048q-44 -83 -87.5 -142.5t-82.5 -96t-83 -57t-83.5 -27.5t-89.5 -7q-96 0 -164 37l55 172q61 -37 119 -37q70 0 124 47.5t112 157.5l-154 1001h225zM612 1081h-190l149 303h279z
" />
    <glyph glyph-name="thorn" unicode="&#xfe;" horiz-adv-x="1114" 
d="M383 528l-27 -157q-20 -93 27.5 -168.5t144.5 -75.5q87 0 152.5 61t98 158.5t32.5 214.5q0 113 -46.5 175.5t-131.5 62.5q-90 0 -159.5 -73t-90.5 -198zM317 150l-100 -566h-215l311 1784h215l-106 -604q93 205 305 205q148 0 230.5 -100.5t82.5 -293.5
q0 -169 -56 -304.5t-165 -215.5t-254 -80q-100 0 -167 47.5t-81 127.5z" />
    <glyph glyph-name="ydieresis" unicode="&#xff;" horiz-adv-x="909" 
d="M311 946l54 -512q9 -79 11.5 -152t0.5 -106l-2 -33h8q31 131 115 293l262 510h227l-567 -1048q-44 -83 -87.5 -142.5t-82.5 -96t-83 -57t-83.5 -27.5t-89.5 -7q-96 0 -164 37l55 172q61 -37 119 -37q70 0 124 47.5t112 157.5l-154 1001h225zM209 1219q0 60 37.5 96.5
t93.5 36.5q58 0 95.5 -36.5t37.5 -96.5q0 -58 -38 -95t-95 -37q-55 0 -93 37t-38 95zM625 1219q0 60 38.5 96.5t92.5 36.5q58 0 96.5 -36.5t38.5 -96.5q0 -59 -38.5 -96.5t-96.5 -37.5q-54 0 -92.5 37.5t-38.5 96.5z" />
    <glyph glyph-name="Amacron" unicode="&#x100;" horiz-adv-x="1239" 
d="M885 0l-56 303h-481l-158 -303h-235l649 1206h281l227 -1206h-227zM1044 1374h-565l31 170h565zM561 713l-119 -228h355q-27 132 -46.5 271t-27 215t-4.5 76h-8q-50 -144 -150 -334z" />
    <glyph glyph-name="amacron" unicode="&#x101;" horiz-adv-x="1112" 
d="M698 395l29 158q16 102 -21 176t-128 74q-126 0 -204.5 -122t-78.5 -300q0 -106 44 -172t128 -66q91 0 150.5 67.5t80.5 184.5zM1014 946l-123 -696q-7 -41 3 -64.5t52 -23.5q27 0 60 8l-31 -160q-65 -20 -125 -20q-179 0 -182 168q-37 -93 -111 -138t-168 -45
q-146 0 -230.5 102.5t-84.5 284.5q0 163 55 300.5t160.5 222t240.5 84.5q214 0 240 -183l53 160h191zM907 1130h-559l31 173h559z" />
    <glyph glyph-name="Abreve" unicode="&#x102;" horiz-adv-x="1239" 
d="M885 0l-56 303h-481l-158 -303h-235l649 1206h281l227 -1206h-227zM748 1325q-140 0 -200 75.5t-36 205.5h166q-8 -64 13.5 -94.5t86.5 -30.5q63 0 96.5 31t49.5 94h163q-24 -131 -111 -206t-228 -75zM561 713l-119 -228h355q-27 132 -46.5 271t-27 215t-4.5 76h-8
q-50 -144 -150 -334z" />
    <glyph glyph-name="abreve" unicode="&#x103;" horiz-adv-x="1112" 
d="M698 395l29 158q16 102 -21 176t-128 74q-126 0 -204.5 -122t-78.5 -300q0 -106 44 -172t128 -66q91 0 150.5 67.5t80.5 184.5zM1014 946l-123 -696q-7 -41 3 -64.5t52 -23.5q27 0 60 8l-31 -160q-65 -20 -125 -20q-179 0 -182 168q-37 -93 -111 -138t-168 -45
q-146 0 -230.5 102.5t-84.5 284.5q0 163 55 300.5t160.5 222t240.5 84.5q214 0 240 -183l53 160h191zM608 1075q-140 0 -199.5 82t-35.5 217h166q-10 -72 9 -107.5t87 -35.5t100 35.5t49 107.5h166q-26 -136 -114 -217.5t-228 -81.5z" />
    <glyph glyph-name="Aogonek" unicode="&#x104;" horiz-adv-x="1239" 
d="M518 -231q0 93 56 168t133 114t159 49l-37 203h-481l-158 -303h-235l649 1206h281l227 -1206h-102q-140 0 -227 -50.5t-87 -148.5q0 -42 23 -66t63 -24q43 0 72 17.5t55 54.5l60 -105q-74 -110 -228 -110q-103 0 -163 52t-60 149zM561 713l-119 -228h355
q-27 132 -46.5 271t-27 215t-4.5 76h-8q-50 -144 -150 -334z" />
    <glyph glyph-name="aogonek" unicode="&#x105;" horiz-adv-x="1112" 
d="M504 -231q0 93 59.5 163.5t143.5 106.5q-39 59 -39 119q-37 -87 -112.5 -135t-166.5 -48q-146 0 -230.5 102.5t-84.5 284.5q0 163 55 300.5t160.5 222t240.5 84.5q214 0 240 -183l53 160h191l-123 -696q-7 -41 3 -64.5t52 -23.5q27 0 60 8l-31 -160q-47 -8 -83 -16.5
t-78 -25t-68.5 -37.5t-45 -54.5t-18.5 -75.5t23.5 -66t62.5 -24q44 0 72.5 17.5t54.5 54.5l59 -105q-74 -110 -227 -110q-103 0 -163 52t-60 149zM698 395l29 158q16 102 -21 176t-128 74q-126 0 -204.5 -122t-78.5 -300q0 -106 44 -172t128 -66q91 0 150.5 67.5t80.5 184.5
z" />
    <glyph glyph-name="Cacute" unicode="&#x106;" horiz-adv-x="1165" 
d="M893 344l180 -96q-142 -273 -485 -273q-227 0 -353 133.5t-126 362.5q0 175 49.5 320t135 240.5t198.5 147.5t241 52q182 0 288 -82.5t138 -235.5l-225 -82q-31 211 -219 211q-117 0 -204.5 -78t-131 -204t-43.5 -279q0 -149 70.5 -234t199.5 -85q96 0 162 39t125 143z
M840 1333h-195l129 266h279z" />
    <glyph glyph-name="cacute" unicode="&#x107;" horiz-adv-x="942" 
d="M672 313l207 -39q-100 -299 -418 -299q-176 0 -281.5 105.5t-105.5 294.5q0 116 32.5 221t93.5 189t159.5 134t220.5 50q165 0 247 -87.5t82 -234.5l-207 -37q0 82 -34 133.5t-111 51.5q-80 0 -140.5 -59.5t-90 -149.5t-29.5 -193q0 -125 48 -188.5t136 -63.5
q141 0 191 172zM680 1081h-193l150 303h281z" />
    <glyph glyph-name="Ccircumflex" unicode="&#x108;" horiz-adv-x="1165" 
d="M893 344l180 -96q-142 -273 -485 -273q-227 0 -353 133.5t-126 362.5q0 175 49.5 320t135 240.5t198.5 147.5t241 52q182 0 288 -82.5t138 -235.5l-225 -82q-31 211 -219 211q-117 0 -204.5 -78t-131 -204t-43.5 -279q0 -149 70.5 -234t199.5 -85q96 0 162 39t125 143z
M719 1608h133l213 -275h-211l-51 66q-14 18 -22.5 35t-10.5 24l-2 8h-6q-12 -26 -57 -67l-76 -66h-221z" />
    <glyph glyph-name="ccircumflex" unicode="&#x109;" horiz-adv-x="942" 
d="M672 313l207 -39q-100 -299 -418 -299q-176 0 -281.5 105.5t-105.5 294.5q0 116 32.5 221t93.5 189t159.5 134t220.5 50q165 0 247 -87.5t82 -234.5l-207 -37q0 82 -34 133.5t-111 51.5q-80 0 -140.5 -59.5t-90 -149.5t-29.5 -193q0 -125 48 -188.5t136 -63.5
q141 0 191 172zM573 1389h129l209 -310h-204l-54 80q-14 20 -22 38.5t-9 26.5l-1 9h-9q-12 -29 -59 -74l-82 -80h-215z" />
    <glyph glyph-name="Cdotaccent" unicode="&#x10a;" horiz-adv-x="1165" 
d="M893 344l180 -96q-142 -273 -485 -273q-227 0 -353 133.5t-126 362.5q0 175 49.5 320t135 240.5t198.5 147.5t241 52q182 0 288 -82.5t138 -235.5l-225 -82q-31 211 -219 211q-117 0 -204.5 -78t-131 -204t-43.5 -279q0 -149 70.5 -234t199.5 -85q96 0 162 39t125 143z
M637 1491q0 61 39 98t98 37q61 0 101 -36.5t40 -98.5q0 -59 -40 -96t-101 -37q-58 0 -97.5 37t-39.5 96z" />
    <glyph glyph-name="cdotaccent" unicode="&#x10b;" horiz-adv-x="942" 
d="M672 313l207 -39q-100 -299 -418 -299q-176 0 -281.5 105.5t-105.5 294.5q0 116 32.5 221t93.5 189t159.5 134t220.5 50q165 0 247 -87.5t82 -234.5l-207 -37q0 82 -34 133.5t-111 51.5q-80 0 -140.5 -59.5t-90 -149.5t-29.5 -193q0 -125 48 -188.5t136 -63.5
q141 0 191 172zM475 1239q0 61 39 98t98 37q63 0 102.5 -36.5t39.5 -98.5q0 -59 -40 -96t-102 -37q-58 0 -97.5 37t-39.5 96z" />
    <glyph glyph-name="Ccaron" unicode="&#x10c;" horiz-adv-x="1165" 
d="M893 344l180 -96q-142 -273 -485 -273q-227 0 -353 133.5t-126 362.5q0 175 49.5 320t135 240.5t198.5 147.5t241 52q182 0 288 -82.5t138 -235.5l-225 -82q-31 211 -219 211q-117 0 -204.5 -78t-131 -204t-43.5 -279q0 -149 70.5 -234t199.5 -85q96 0 162 39t125 143z
M813 1333h-135l-213 275h213l51 -66q14 -17 22 -34t9 -25l2 -8h8q10 28 55 67l76 66h223z" />
    <glyph glyph-name="ccaron" unicode="&#x10d;" horiz-adv-x="942" 
d="M672 313l207 -39q-100 -299 -418 -299q-176 0 -281.5 105.5t-105.5 294.5q0 116 32.5 221t93.5 189t159.5 134t220.5 50q165 0 247 -87.5t82 -234.5l-207 -37q0 82 -34 133.5t-111 51.5q-80 0 -140.5 -59.5t-90 -149.5t-29.5 -193q0 -125 48 -188.5t136 -63.5
q141 0 191 172zM653 1079h-129l-209 310h203l55 -80q14 -21 22 -40t9 -27l2 -9h8q13 29 60 76l82 80h215z" />
    <glyph glyph-name="Dcaron" unicode="&#x10e;" horiz-adv-x="1241" 
d="M328 184h159q94 0 173.5 32t141 96t96 168.5t34.5 240.5q0 301 -322 301h-135zM479 0h-405l211 1206h364q257 0 385.5 -119t128.5 -346q0 -157 -38 -283.5t-102 -210.5t-152.5 -140.5t-186 -81.5t-205.5 -25zM739 1333h-133l-213 275h211l51 -66q14 -17 22.5 -34
t10.5 -25l2 -8h6q13 28 58 67l75 66h222z" />
    <glyph glyph-name="dcaron" unicode="&#x10f;" horiz-adv-x="1112" 
d="M1444 1393l-113 -363h-153l32 363h234zM702 393l31 160q11 65 -0.5 120t-51 92.5t-103.5 37.5q-85 0 -150.5 -57.5t-100 -153.5t-34.5 -213q0 -104 44.5 -170t127.5 -66q94 0 155.5 65t81.5 185zM1092 1368l-195 -1118q-7 -41 3 -64.5t52 -23.5q27 0 60 8l-33 -160
q-62 -20 -123 -20q-179 0 -182 168q-35 -95 -111 -139t-174 -44q-146 0 -230.5 102.5t-84.5 284.5q0 121 32.5 231.5t91 193.5t146.5 132.5t191 49.5q100 0 163 -45.5t76 -137.5l103 582h215z" />
    <glyph glyph-name="Dcroat" unicode="&#x110;" horiz-adv-x="1241" 
d="M479 0h-405l88 514h-133l32 182h134l90 510h364q257 0 385.5 -119t128.5 -346q0 -157 -38 -283.5t-102 -210.5t-152.5 -140.5t-186 -81.5t-205.5 -25zM328 184h159q94 0 173.5 32t141 96t96 168.5t34.5 240.5q0 301 -322 301h-135l-57 -326h244l-33 -182h-244z" />
    <glyph glyph-name="dcroat" unicode="&#x111;" horiz-adv-x="1112" 
d="M1092 1368l-27 -147h152l-27 -144h-150l-143 -827q-7 -41 3 -64.5t52 -23.5q27 0 60 8l-33 -160q-62 -20 -123 -20q-179 0 -182 168q-35 -95 -111 -139t-174 -44q-146 0 -230.5 102.5t-84.5 284.5q0 121 32.5 231.5t91 193.5t146.5 132.5t191 49.5q100 0 163 -45.5
t76 -137.5l49 291h-282l26 144h281l29 147h215zM702 393l31 160q11 65 -0.5 120t-51 92.5t-103.5 37.5q-85 0 -150.5 -57.5t-100 -153.5t-34.5 -213q0 -104 44.5 -170t127.5 -66q94 0 155.5 65t81.5 185z" />
    <glyph glyph-name="Emacron" unicode="&#x112;" horiz-adv-x="1024" 
d="M870 190l-30 -190h-766l211 1206h766l-35 -190h-543l-55 -318h479l-33 -186h-479l-57 -322h542zM956 1374h-565l29 170h565z" />
    <glyph glyph-name="emacron" unicode="&#x113;" horiz-adv-x="974" 
d="M479 141q83 0 128 35t67 111l203 -49q-48 -141 -148.5 -202t-267.5 -61q-182 0 -284.5 109.5t-102.5 296.5q0 138 41 252t109.5 186t155 111t179.5 39t164.5 -28t113.5 -76.5t63.5 -108t21.5 -127.5q0 -116 -41 -197h-590q-14 -120 34.5 -205.5t153.5 -85.5zM315 571h385
q9 27 9 60q0 76 -39.5 125t-118.5 49q-91 0 -151 -66t-85 -168zM852 1130h-557l31 173h559z" />
    <glyph glyph-name="Ebreve" unicode="&#x114;" horiz-adv-x="1024" 
d="M870 190l-30 -190h-766l211 1206h766l-35 -190h-543l-55 -318h479l-33 -186h-479l-57 -322h542zM659 1325q-140 0 -200 75.5t-35 205.5h164q-8 -63 14.5 -94t85.5 -31q64 0 97 30.5t49 94.5h163q-24 -131 -111 -206t-227 -75z" />
    <glyph glyph-name="ebreve" unicode="&#x115;" horiz-adv-x="974" 
d="M479 141q83 0 128 35t67 111l203 -49q-48 -141 -148.5 -202t-267.5 -61q-182 0 -284.5 109.5t-102.5 296.5q0 138 41 252t109.5 186t155 111t179.5 39t164.5 -28t113.5 -76.5t63.5 -108t21.5 -127.5q0 -116 -41 -197h-590q-14 -120 34.5 -205.5t153.5 -85.5zM315 571h385
q9 27 9 60q0 76 -39.5 125t-118.5 49q-91 0 -151 -66t-85 -168zM555 1075q-140 0 -200 82t-36 217h164q-8 -72 11.5 -107.5t87.5 -35.5t100 35.5t49 107.5h164q-24 -135 -113 -217t-227 -82z" />
    <glyph glyph-name="Edotaccent" unicode="&#x116;" horiz-adv-x="1024" 
d="M870 190l-30 -190h-766l211 1206h766l-35 -190h-543l-55 -318h479l-33 -186h-479l-57 -322h542zM547 1491q0 61 39 98t98 37q61 0 101 -36.5t40 -98.5q0 -59 -40 -96t-101 -37q-58 0 -97.5 37t-39.5 96z" />
    <glyph glyph-name="edotaccent" unicode="&#x117;" horiz-adv-x="974" 
d="M479 141q83 0 128 35t67 111l203 -49q-48 -141 -148.5 -202t-267.5 -61q-182 0 -284.5 109.5t-102.5 296.5q0 138 41 252t109.5 186t155 111t179.5 39t164.5 -28t113.5 -76.5t63.5 -108t21.5 -127.5q0 -116 -41 -197h-590q-14 -120 34.5 -205.5t153.5 -85.5zM315 571h385
q9 27 9 60q0 76 -39.5 125t-118.5 49q-91 0 -151 -66t-85 -168zM446 1239q0 61 39.5 98t98.5 37q63 0 102 -36.5t39 -98.5q0 -60 -39.5 -96.5t-101.5 -36.5q-58 0 -98 37t-40 96z" />
    <glyph glyph-name="Eogonek" unicode="&#x118;" horiz-adv-x="1024" 
d="M356 -231q0 72 41 135t105 96h-428l211 1206h766l-35 -190h-543l-55 -318h479l-33 -186h-479l-57 -322h542l-30 -190h-58q-106 0 -178 -56t-72 -143q0 -42 24.5 -66t64.5 -24q42 0 70.5 17t56.5 55l59 -105q-77 -110 -229 -110q-103 0 -162.5 52t-59.5 149z" />
    <glyph glyph-name="eogonek" unicode="&#x119;" horiz-adv-x="974" 
d="M301 -231q0 122 96 211q-153 19 -238 125t-85 276q0 138 41 252t109.5 186t155 111t179.5 39t164.5 -28t113.5 -76.5t63.5 -108t21.5 -127.5q0 -116 -41 -197h-590q-14 -120 34.5 -205.5t153.5 -85.5q83 0 128 35t67 111l203 -49q-34 -100 -98.5 -154t-170.5 -94
q-61 -23 -96 -72.5t-35 -114.5q0 -41 24 -66.5t64 -25.5q42 0 70.5 17t56.5 55l60 -105q-77 -110 -230 -110q-103 0 -162 52t-59 149zM315 571h385q9 27 9 60q0 76 -39.5 125t-118.5 49q-91 0 -151 -66t-85 -168z" />
    <glyph glyph-name="Ecaron" unicode="&#x11a;" horiz-adv-x="1024" 
d="M870 190l-30 -190h-766l211 1206h766l-35 -190h-543l-55 -318h479l-33 -186h-479l-57 -322h542zM721 1333h-133l-213 275h211l51 -66q14 -17 22.5 -34t10.5 -25l2 -8h6q12 28 57 67l76 66h221z" />
    <glyph glyph-name="ecaron" unicode="&#x11b;" horiz-adv-x="974" 
d="M479 141q83 0 128 35t67 111l203 -49q-48 -141 -148.5 -202t-267.5 -61q-182 0 -284.5 109.5t-102.5 296.5q0 138 41 252t109.5 186t155 111t179.5 39t164.5 -28t113.5 -76.5t63.5 -108t21.5 -127.5q0 -116 -41 -197h-590q-14 -120 34.5 -205.5t153.5 -85.5zM315 571h385
q9 27 9 60q0 76 -39.5 125t-118.5 49q-91 0 -151 -66t-85 -168zM625 1079h-129l-209 310h202l56 -80q14 -21 22 -40t9 -27l2 -9h8q12 29 59 76l82 80h215z" />
    <glyph glyph-name="Gcircumflex" unicode="&#x11c;" horiz-adv-x="1257" 
d="M670 629h491l-108 -629h-150l-12 150q-86 -175 -316 -175q-219 0 -342.5 134t-123.5 362q0 175 50 320t135.5 240.5t198.5 147.5t240 52q183 0 289.5 -82.5t138.5 -235.5l-225 -82q-15 102 -71 155.5t-148 53.5q-118 0 -206 -77.5t-131.5 -202t-43.5 -275.5
q0 -155 71.5 -242t210.5 -87q115 0 190.5 57t96.5 176l10 57h-278zM727 1608h135l213 -275h-213l-51 66q-13 18 -21 35t-10 24l-2 8h-6q-12 -26 -57 -67l-76 -66h-221z" />
    <glyph glyph-name="gcircumflex" unicode="&#x11d;" horiz-adv-x="1060" 
d="M705 399l28 154q11 65 0 120t-50 92.5t-103 37.5q-129 0 -207 -119t-78 -297q0 -106 43.5 -170.5t128.5 -64.5q96 0 157 64t81 183zM1018 946l-170 -964q-37 -212 -158 -313t-342 -101q-171 0 -269.5 65.5t-127.5 180.5l174 96q11 -79 74 -128.5t157 -49.5
q122 0 187.5 67t91.5 197l31 166q-69 -176 -273 -176q-147 0 -232 102t-85 285q0 162 55 297t162 217t246 82q209 0 235 -183l55 160h189zM588 1389h129l209 -310h-205l-55 80q-14 20 -21.5 38.5t-8.5 26.5l-1 9h-8q-13 -29 -60 -74l-82 -80h-215z" />
    <glyph glyph-name="Gbreve" unicode="&#x11e;" horiz-adv-x="1257" 
d="M670 629h491l-108 -629h-150l-12 150q-86 -175 -316 -175q-219 0 -342.5 134t-123.5 362q0 175 50 320t135.5 240.5t198.5 147.5t240 52q183 0 289.5 -82.5t138.5 -235.5l-225 -82q-15 102 -71 155.5t-148 53.5q-118 0 -206 -77.5t-131.5 -202t-43.5 -275.5
q0 -155 71.5 -242t210.5 -87q115 0 190.5 57t96.5 176l10 57h-278zM758 1325q-140 0 -200 75.5t-36 205.5h164q-6 -64 15.5 -94.5t84.5 -30.5q65 0 98.5 31t49.5 94h164q-24 -131 -111.5 -206t-228.5 -75z" />
    <glyph glyph-name="gbreve" unicode="&#x11f;" horiz-adv-x="1060" 
d="M705 399l28 154q11 65 0 120t-50 92.5t-103 37.5q-129 0 -207 -119t-78 -297q0 -106 43.5 -170.5t128.5 -64.5q96 0 157 64t81 183zM1018 946l-170 -964q-37 -212 -158 -313t-342 -101q-171 0 -269.5 65.5t-127.5 180.5l174 96q11 -79 74 -128.5t157 -49.5
q122 0 187.5 67t91.5 197l31 166q-69 -176 -273 -176q-147 0 -232 102t-85 285q0 162 55 297t162 217t246 82q209 0 235 -183l55 160h189zM598 1075q-140 0 -200 82t-36 217h166q-10 -72 9 -107.5t88 -35.5q68 0 100 35.5t49 107.5h166q-26 -136 -114 -217.5t-228 -81.5z
" />
    <glyph glyph-name="Gdotaccent" unicode="&#x120;" horiz-adv-x="1257" 
d="M670 629h491l-108 -629h-150l-12 150q-86 -175 -316 -175q-219 0 -342.5 134t-123.5 362q0 175 50 320t135.5 240.5t198.5 147.5t240 52q183 0 289.5 -82.5t138.5 -235.5l-225 -82q-15 102 -71 155.5t-148 53.5q-118 0 -206 -77.5t-131.5 -202t-43.5 -275.5
q0 -155 71.5 -242t210.5 -87q115 0 190.5 57t96.5 176l10 57h-278zM645 1491q0 61 39 98t98 37q63 0 103.5 -36.5t40.5 -98.5q0 -59 -41 -96t-103 -37q-58 0 -97.5 37t-39.5 96z" />
    <glyph glyph-name="gdotaccent" unicode="&#x121;" horiz-adv-x="1060" 
d="M705 399l28 154q11 65 0 120t-50 92.5t-103 37.5q-129 0 -207 -119t-78 -297q0 -106 43.5 -170.5t128.5 -64.5q96 0 157 64t81 183zM1018 946l-170 -964q-37 -212 -158 -313t-342 -101q-171 0 -269.5 65.5t-127.5 180.5l174 96q11 -79 74 -128.5t157 -49.5
q122 0 187.5 67t91.5 197l31 166q-69 -176 -273 -176q-147 0 -232 102t-85 285q0 162 55 297t162 217t246 82q209 0 235 -183l55 160h189zM489 1239q0 61 39.5 98t98.5 37q63 0 102 -36.5t39 -98.5q0 -60 -39.5 -96.5t-101.5 -36.5q-58 0 -98 37t-40 96z" />
    <glyph glyph-name="Gcommaaccent" unicode="&#x122;" horiz-adv-x="1257" 
d="M670 629h491l-108 -629h-150l-12 150q-86 -175 -316 -175q-219 0 -342.5 134t-123.5 362q0 175 50 320t135.5 240.5t198.5 147.5t240 52q183 0 289.5 -82.5t138.5 -235.5l-225 -82q-15 102 -71 155.5t-148 53.5q-118 0 -206 -77.5t-131.5 -202t-43.5 -275.5
q0 -155 71.5 -242t210.5 -87q115 0 190.5 57t96.5 176l10 57h-278zM631 -283q0 -114 -79.5 -171.5t-211.5 -57.5v80q34 2 59.5 6t48.5 13.5t35.5 26t12.5 40.5q-56 -11 -92.5 17t-36.5 83q0 57 34.5 87t90.5 30q61 0 100 -40.5t39 -113.5z" />
    <glyph glyph-name="gcommaaccent" unicode="&#x123;" horiz-adv-x="1060" 
d="M705 399l28 154q11 65 0 120t-50 92.5t-103 37.5q-129 0 -207 -119t-78 -297q0 -106 43.5 -170.5t128.5 -64.5q96 0 157 64t81 183zM1018 946l-170 -964q-37 -212 -158 -313t-342 -101q-171 0 -269.5 65.5t-127.5 180.5l174 96q11 -79 74 -128.5t157 -49.5
q122 0 187.5 67t91.5 197l31 166q-69 -176 -273 -176q-147 0 -232 102t-85 285q0 162 55 297t162 217t246 82q209 0 235 -183l55 160h189zM512 1237q0 114 79.5 171.5t211.5 57.5v-80q-72 -4 -114 -22t-42 -61q56 9 92.5 -19.5t36.5 -83.5t-34.5 -86t-90.5 -31
q-61 0 -100 40.5t-39 113.5z" />
    <glyph glyph-name="Hcircumflex" unicode="&#x124;" horiz-adv-x="1290" 
d="M297 0h-223l211 1206h223l-88 -499h534l86 499h224l-211 -1206h-224l91 518h-533zM760 1608h135l211 -275h-211l-51 66q-14 18 -22.5 35t-10.5 24l-2 8h-6q-12 -26 -55 -67l-78 -66h-221z" />
    <glyph glyph-name="hcircumflex" unicode="&#x125;" horiz-adv-x="1091" 
d="M961 649l-68 -399q-7 -41 3 -64.5t52 -23.5q27 0 60 8l-33 -160q-62 -20 -123 -20q-222 0 -182 233l69 393q30 172 -114 172q-80 0 -150 -67t-94 -209l-90 -512h-217l237 1368h221l-110 -614q51 107 124 161t179 54q112 0 178 -61.5t66 -170.5q0 -36 -8 -88zM418 1702
h133l213 -275h-211l-51 66q-14 18 -22.5 35t-10.5 25l-2 8h-6q-13 -27 -58 -68l-75 -66h-222z" />
    <glyph glyph-name="Hbar" unicode="&#x126;" horiz-adv-x="1337" 
d="M313 0h-223l148 854h-170l32 172h170l31 180h223l-30 -180h532l31 180h223l-31 -180h185l-31 -172h-186l-148 -854h-223l90 510h-533zM434 690h535l26 164h-532z" />
    <glyph glyph-name="hbar" unicode="&#x127;" horiz-adv-x="1091" 
d="M106 1077l27 144h154l24 147h221l-26 -147h276l-26 -144h-277l-57 -323q51 107 124 161t179 54q112 0 178 -61.5t66 -170.5q0 -36 -8 -88l-68 -399q-7 -41 3 -64.5t52 -23.5q27 0 60 8l-33 -160q-62 -20 -123 -20q-222 0 -182 233l69 393q30 172 -114 172q-80 0 -150 -67
t-94 -209l-90 -512h-217l186 1077h-154z" />
    <glyph glyph-name="Itilde" unicode="&#x128;" horiz-adv-x="534" 
d="M285 1206h223l-211 -1206h-223zM549 1335q-14 0 -27 1.5t-22.5 2.5t-20.5 5t-17 6t-17.5 8t-15 8.5t-16.5 10t-16 9.5q-5 3 -19.5 12.5t-19 12.5t-15 9t-15.5 8t-13 5t-15 4t-15 1q-34 0 -56.5 -26.5t-23.5 -76.5h-125q-26 116 36 196.5t167 80.5q12 0 22.5 -1t20.5 -3
t17.5 -4t17.5 -6t15 -6.5t15 -8.5t14 -8.5t14.5 -9.5t14.5 -9q33 -21 45 -28.5t29.5 -14t34.5 -6.5q65 0 73 103h132q25 -121 -31.5 -198t-167.5 -77z" />
    <glyph glyph-name="itilde" unicode="&#x129;" horiz-adv-x="538" 
d="M508 1077q-37 0 -67 9t-42 15.5t-45 28.5q-7 5 -22.5 15t-21 13.5t-16.5 9.5t-17.5 8t-15.5 4t-19 2q-34 0 -55.5 -26t-24.5 -77h-125q-24 115 37 195t166 80q35 0 64.5 -9t43 -17t43.5 -28q44 -30 64.5 -40.5t44.5 -10.5q65 0 73 103h132q25 -121 -31.5 -198t-165.5 -77
zM440 946l-121 -696q-16 -88 56 -88q26 0 59 8l-33 -160q-62 -20 -122 -20q-223 0 -183 233l127 723h217z" />
    <glyph glyph-name="Imacron" unicode="&#x12a;" horiz-adv-x="534" 
d="M285 1206h223l-211 -1206h-223zM711 1374h-568l31 170h565z" />
    <glyph glyph-name="imacron" unicode="&#x12b;" horiz-adv-x="538" 
d="M641 1130h-557l31 173h559zM440 946l-121 -696q-16 -88 56 -88q26 0 59 8l-33 -160q-62 -20 -122 -20q-223 0 -183 233l127 723h217z" />
    <glyph glyph-name="Ibreve" unicode="&#x12c;" horiz-adv-x="534" 
d="M285 1206h223l-211 -1206h-223zM412 1325q-140 0 -200 75.5t-36 205.5h164q-8 -63 14.5 -94t85.5 -31q65 0 98.5 31t47.5 94h166q-25 -131 -112 -206t-228 -75z" />
    <glyph glyph-name="ibreve" unicode="&#x12d;" horiz-adv-x="538" 
d="M342 1075q-139 0 -199 82t-34 217h163q-8 -72 11 -107.5t86 -35.5q69 0 101.5 35.5t49.5 107.5h164q-26 -136 -114 -217.5t-228 -81.5zM440 946l-121 -696q-16 -88 56 -88q26 0 59 8l-33 -160q-62 -20 -122 -20q-223 0 -183 233l127 723h217z" />
    <glyph glyph-name="Iogonek" unicode="&#x12e;" horiz-adv-x="534" 
d="M-145 -231q0 102 67 179.5t162 117.5l201 1140h223l-211 -1206q-112 0 -189 -55t-77 -144q0 -42 24 -66t64 -24q42 0 70.5 17t56.5 55l59 -105q-77 -110 -229 -110q-103 0 -162 52t-59 149z" />
    <glyph glyph-name="iogonek" unicode="&#x12f;" horiz-adv-x="538" 
d="M-35 -227q0 86 45.5 156.5t122.5 107.5q-59 56 -37 186l127 723h217l-121 -696q-16 -88 56 -88q26 0 59 8l-33 -160q-258 -27 -258 -209q0 -42 23 -66t63 -24q42 0 70.5 17t56.5 55l60 -105q-74 -110 -230 -110q-102 0 -161.5 53t-59.5 152zM240 1245q0 61 39 98t98 37
q60 0 100.5 -37t40.5 -98q0 -59 -41 -97t-100 -38q-58 0 -97.5 38t-39.5 97z" />
    <glyph glyph-name="Idotaccent" unicode="&#x130;" horiz-adv-x="534" 
d="M285 1206h223l-211 -1206h-223zM299 1491q0 61 39 98t98 37q63 0 103.5 -36.5t40.5 -98.5q0 -59 -41 -96t-103 -37q-58 0 -97.5 37t-39.5 96z" />
    <glyph glyph-name="dotlessi" unicode="&#x131;" horiz-adv-x="538" 
d="M440 946l-121 -696q-16 -88 56 -88q26 0 59 8l-33 -160q-62 -20 -122 -20q-223 0 -183 233l127 723h217z" />
    <glyph glyph-name="IJ" unicode="&#x132;" horiz-adv-x="1454" 
d="M285 1206h223l-211 -1206h-223zM1214 1206h224l-154 -876q-33 -192 -133 -273.5t-285 -81.5q-285 0 -356 250l180 117q44 -186 189 -186q90 0 128 46t58 160z" />
    <glyph glyph-name="ij" unicode="&#x133;" horiz-adv-x="1017" 
d="M440 946l-121 -696q-16 -88 56 -88q26 0 59 8l-33 -160q-62 -20 -122 -20q-223 0 -183 233l127 723h217zM240 1245q0 61 39 98t98 37q60 0 100.5 -37t40.5 -98q0 -59 -41 -97t-100 -38q-58 0 -97.5 38t-39.5 97zM979 946l-188 -1081q-29 -164 -114.5 -230.5t-230.5 -66.5
q-126 0 -206 55l65 162q64 -51 137 -51q54 0 85.5 33.5t47.5 121.5l187 1057h217zM778 1245q0 61 39 98t98 37q60 0 101 -37t41 -98q0 -59 -41 -97t-101 -38q-58 0 -97.5 38t-39.5 97z" />
    <glyph glyph-name="Jcircumflex" unicode="&#x134;" horiz-adv-x="905" 
d="M666 1206h223l-156 -876q-33 -192 -133 -273.5t-283 -81.5q-285 0 -356 250l180 117q41 -186 189 -186q90 0 127.5 45.5t58.5 160.5zM762 1608h133l213 -275h-211l-51 66q-14 18 -22.5 35t-10.5 24l-2 8h-6q-12 -26 -57 -67l-76 -66h-221z" />
    <glyph glyph-name="jcircumflex" unicode="&#x135;" horiz-adv-x="479" 
d="M440 946l-188 -1081q-29 -164 -114 -230.5t-230 -66.5q-60 0 -116 15.5t-91 39.5l66 162q64 -51 137 -51q54 0 85.5 33.5t47.5 121.5l186 1057h217zM334 1389h129l209 -310h-205l-55 80q-14 20 -21.5 38.5t-8.5 26.5l-1 9h-8q-13 -29 -60 -74l-82 -80h-215z" />
    <glyph glyph-name="Kcommaaccent" unicode="&#x136;" horiz-adv-x="1107" 
d="M1010 0h-252l-273 518h-98l-90 -518h-223l211 1206h223l-88 -501h84l416 501h262l-506 -592zM553 -283q0 -114 -79.5 -171.5t-211.5 -57.5v80q34 2 59.5 6t48.5 13.5t35.5 26t12.5 40.5q-57 -11 -93 17t-36 83q0 57 34 87t91 30q61 0 100 -40.5t39 -113.5z" />
    <glyph glyph-name="kcommaaccent" unicode="&#x137;" horiz-adv-x="985" 
d="M582 111l-156 327h-57l-78 -438h-217l239 1368h219l-135 -770h45l322 348h264l-414 -426l144 -291q28 -54 66 -64.5t104 9.5l-35 -166q-56 -18 -125 -18q-64 0 -109.5 27.5t-76.5 93.5zM532 -283q0 -114 -79 -171.5t-211 -57.5v80q73 3 114 22t41 64q-56 -11 -92.5 17
t-36.5 83q0 57 34.5 87t90.5 30q62 0 100.5 -40.5t38.5 -113.5z" />
    <glyph glyph-name="kgreenlandic" unicode="&#x138;" horiz-adv-x="985" 
d="M584 111l-156 327h-59l-78 -438h-217l166 946h219l-62 -348h45l322 348h264l-414 -426l144 -291q28 -54 66 -64.5t104 9.5l-35 -166q-56 -18 -125 -18q-63 0 -108 27.5t-76 93.5z" />
    <glyph glyph-name="Lacute" unicode="&#x139;" horiz-adv-x="950" 
d="M285 1206h223l-180 -1016h514l-33 -190h-735zM510 1333h-197l129 266h279z" />
    <glyph glyph-name="lacute" unicode="&#x13a;" horiz-adv-x="536" 
d="M516 1368l-197 -1118q-16 -88 56 -88q26 0 59 8l-33 -160q-62 -20 -122 -20q-223 0 -183 233l203 1145h217zM512 1425h-197l129 267h279z" />
    <glyph glyph-name="Lcommaaccent" unicode="&#x13b;" horiz-adv-x="950" 
d="M285 1206h223l-180 -1016h514l-33 -190h-735zM549 -283q0 -114 -79.5 -171.5t-211.5 -57.5v80q34 2 59.5 6t48.5 13.5t35.5 26t12.5 40.5q-56 -11 -92.5 17t-36.5 83q0 57 34.5 87t90.5 30q61 0 100 -40.5t39 -113.5z" />
    <glyph glyph-name="lcommaaccent" unicode="&#x13c;" horiz-adv-x="536" 
d="M516 1368l-197 -1118q-16 -88 56 -88q26 0 59 8l-33 -160q-62 -20 -122 -20q-223 0 -183 233l203 1145h217zM322 -283q0 -114 -80 -171.5t-211 -57.5v80q72 3 112.5 22t40.5 64q-56 -11 -92.5 17t-36.5 83q0 57 34.5 87t90.5 30q62 0 102 -40.5t40 -113.5z" />
    <glyph glyph-name="Lcaron" unicode="&#x13d;" horiz-adv-x="950" 
d="M285 1206h223l-180 -1016h514l-33 -190h-735zM889 1368l-111 -379h-153l30 379h234z" />
    <glyph glyph-name="lcaron" unicode="&#x13e;" horiz-adv-x="536" 
d="M866 1393l-110 -363h-156l33 363h233zM516 1368l-197 -1118q-16 -88 56 -88q26 0 59 8l-33 -160q-62 -20 -122 -20q-223 0 -183 233l203 1145h217z" />
    <glyph glyph-name="Ldot" unicode="&#x13f;" horiz-adv-x="950" 
d="M285 1206h223l-180 -1016h514l-33 -190h-735zM645 631q0 66 43.5 109.5t106.5 43.5q66 0 109.5 -43.5t43.5 -109.5q0 -63 -43.5 -106.5t-109.5 -43.5q-63 0 -106.5 43.5t-43.5 106.5z" />
    <glyph glyph-name="ldot" unicode="&#x140;" horiz-adv-x="745" 
d="M516 1368l-197 -1118q-16 -88 56 -88q26 0 59 8l-33 -160q-62 -20 -122 -20q-223 0 -183 233l203 1145h217zM502 655q0 66 43 110t106 44q66 0 110 -44t44 -110q0 -63 -44 -106t-110 -43q-63 0 -106 43t-43 106z" />
    <glyph glyph-name="Lslash" unicode="&#x141;" horiz-adv-x="962" 
d="M299 1206h221l-82 -477l291 102l-29 -165l-292 -101l-66 -375h512l-31 -190h-735l84 489l-139 -47l28 160l140 47z" />
    <glyph glyph-name="lslash" unicode="&#x142;" horiz-adv-x="552" 
d="M522 1368l-88 -496l168 80l-31 -172l-168 -78l-77 -452q-7 -41 3 -64.5t52 -23.5q26 0 59 8l-30 -160q-65 -20 -125 -20q-224 0 -181 233l64 371l-135 -64l28 168l138 64l106 606h217z" />
    <glyph glyph-name="Nacute" unicode="&#x143;" horiz-adv-x="1292" 
d="M500 1206l303 -643q26 -54 48 -112t31 -89l9 -32h8q14 130 41 282l104 594h222l-211 -1206h-209l-309 635q-27 55 -51 115.5t-34 93.5l-10 33h-8q-6 -127 -35 -289l-102 -588h-223l211 1206h215zM860 1333h-196l131 266h278z" />
    <glyph glyph-name="nacute" unicode="&#x144;" horiz-adv-x="1091" 
d="M961 649l-68 -399q-7 -41 3 -64.5t52 -23.5q27 0 60 8l-33 -160q-62 -20 -123 -20q-222 0 -182 233l69 393q30 172 -114 172q-80 0 -150 -67t-94 -209l-90 -512h-217l166 946h188l-6 -192q97 215 303 215q112 0 178 -61.5t66 -170.5q0 -36 -8 -88zM715 1081h-191l148 303
h280z" />
    <glyph glyph-name="Ncommaaccent" unicode="&#x145;" horiz-adv-x="1292" 
d="M500 1206l303 -643q26 -54 48 -112t31 -89l9 -32h8q14 130 41 282l104 594h222l-211 -1206h-209l-309 635q-27 55 -51 115.5t-34 93.5l-10 33h-8q-6 -127 -35 -289l-102 -588h-223l211 1206h215zM641 -283q0 -114 -79.5 -171.5t-211.5 -57.5v80q73 3 114.5 22t41.5 64
q-56 -11 -92.5 17t-36.5 83q0 57 34.5 87t90.5 30q62 0 100.5 -40.5t38.5 -113.5z" />
    <glyph glyph-name="ncommaaccent" unicode="&#x146;" horiz-adv-x="1091" 
d="M961 649l-68 -399q-7 -41 3 -64.5t52 -23.5q27 0 60 8l-33 -160q-62 -20 -123 -20q-222 0 -182 233l69 393q30 172 -114 172q-80 0 -150 -67t-94 -209l-90 -512h-217l166 946h188l-6 -192q97 215 303 215q112 0 178 -61.5t66 -170.5q0 -36 -8 -88zM543 -283
q0 -114 -80 -171.5t-211 -57.5v80q72 3 113 22t41 64q-56 -11 -93 17t-37 83q0 57 34.5 87t90.5 30q62 0 102 -40.5t40 -113.5z" />
    <glyph glyph-name="Ncaron" unicode="&#x147;" horiz-adv-x="1292" 
d="M500 1206l303 -643q26 -54 48 -112t31 -89l9 -32h8q14 130 41 282l104 594h222l-211 -1206h-209l-309 635q-27 55 -51 115.5t-34 93.5l-10 33h-8q-6 -127 -35 -289l-102 -588h-223l211 1206h215zM834 1333h-136l-213 275h213l52 -66q13 -17 21 -34t9 -25l2 -8h6
q13 28 58 67l76 66h221z" />
    <glyph glyph-name="ncaron" unicode="&#x148;" horiz-adv-x="1091" 
d="M961 649l-68 -399q-7 -41 3 -64.5t52 -23.5q27 0 60 8l-33 -160q-62 -20 -123 -20q-222 0 -182 233l69 393q30 172 -114 172q-80 0 -150 -67t-94 -209l-90 -512h-217l166 946h188l-6 -192q97 215 303 215q112 0 178 -61.5t66 -170.5q0 -36 -8 -88zM690 1079h-129
l-209 310h203l55 -80q14 -21 22 -40t10 -27l1 -9h8q13 29 60 76l82 80h215z" />
    <glyph glyph-name="Eng" unicode="&#x14a;" horiz-adv-x="1292" 
d="M1266 1206l-224 -1284q-34 -192 -136.5 -273t-287.5 -81q-232 0 -335 162l151 161q27 -63 79.5 -102t115.5 -39q95 0 135.5 49.5t60.5 167.5l11 53l-299 615q-27 55 -51 115.5t-34 93.5l-10 33h-8q-6 -127 -35 -289l-102 -588h-223l211 1206h215l303 -643q26 -54 48 -112
t31 -89l9 -32h8q14 130 41 282l104 594h222z" />
    <glyph glyph-name="eng" unicode="&#x14b;" horiz-adv-x="1052" 
d="M961 649l-136 -784q-29 -164 -113.5 -230.5t-228.5 -66.5q-126 0 -209 55l66 162q67 -51 137 -51q55 0 87 33.5t46 121.5l129 727q30 172 -114 172q-80 0 -150 -67t-94 -209l-90 -512h-217l166 946h188l-6 -192q97 215 303 215q112 0 178 -61.5t66 -170.5q0 -36 -8 -88z
" />
    <glyph glyph-name="Omacron" unicode="&#x14c;" horiz-adv-x="1284" 
d="M588 -25q-227 0 -353 134.5t-126 361.5q0 175 49.5 320t135 240.5t198.5 147.5t241 52q228 0 353.5 -135.5t125.5 -362.5q0 -175 -49.5 -319.5t-135 -239.5t-198.5 -147t-241 -52zM715 1040q-117 0 -204.5 -77.5t-131 -202t-43.5 -275.5q0 -152 70.5 -237.5t199.5 -85.5
q114 0 201.5 77.5t131.5 203t44 276.5q0 145 -67.5 233t-200.5 88zM1061 1374h-567l30 170h566z" />
    <glyph glyph-name="omacron" unicode="&#x14d;" horiz-adv-x="1042" 
d="M580 969q183 0 286 -109t103 -303q0 -117 -33 -221.5t-94.5 -185t-159 -128t-217.5 -47.5q-175 0 -283 105.5t-108 296.5q0 95 20 182t62 161.5t101.5 130t142 87t180.5 31.5zM559 795q-79 0 -140 -56.5t-91.5 -148t-30.5 -201.5q0 -121 49 -184.5t137 -63.5
q120 0 191 119.5t71 292.5q0 117 -48.5 179.5t-137.5 62.5zM881 1130h-559l32 173h557z" />
    <glyph glyph-name="Obreve" unicode="&#x14e;" horiz-adv-x="1284" 
d="M588 -25q-227 0 -353 134.5t-126 361.5q0 175 49.5 320t135 240.5t198.5 147.5t241 52q228 0 353.5 -135.5t125.5 -362.5q0 -175 -49.5 -319.5t-135 -239.5t-198.5 -147t-241 -52zM715 1040q-117 0 -204.5 -77.5t-131 -202t-43.5 -275.5q0 -152 70.5 -237.5t199.5 -85.5
q114 0 201.5 77.5t131.5 203t44 276.5q0 145 -67.5 233t-200.5 88zM762 1325q-140 0 -200 75.5t-36 205.5h164q-8 -63 14.5 -94t86.5 -31q65 0 98 31t47 94h166q-25 -131 -112 -206t-228 -75z" />
    <glyph glyph-name="obreve" unicode="&#x14f;" horiz-adv-x="1042" 
d="M580 969q183 0 286 -109t103 -303q0 -117 -33 -221.5t-94.5 -185t-159 -128t-217.5 -47.5q-175 0 -283 105.5t-108 296.5q0 95 20 182t62 161.5t101.5 130t142 87t180.5 31.5zM559 795q-79 0 -140 -56.5t-91.5 -148t-30.5 -201.5q0 -121 49 -184.5t137 -63.5
q120 0 191 119.5t71 292.5q0 117 -48.5 179.5t-137.5 62.5zM582 1075q-139 0 -199.5 82.5t-34.5 216.5h164q-8 -72 10.5 -107.5t85.5 -35.5q69 0 102 36t50 107h164q-26 -136 -114 -217.5t-228 -81.5z" />
    <glyph glyph-name="Ohungarumlaut" unicode="&#x150;" horiz-adv-x="1284" 
d="M588 -25q-227 0 -353 134.5t-126 361.5q0 175 49.5 320t135 240.5t198.5 147.5t241 52q228 0 353.5 -135.5t125.5 -362.5q0 -175 -49.5 -319.5t-135 -239.5t-198.5 -147t-241 -52zM715 1040q-117 0 -204.5 -77.5t-131 -202t-43.5 -275.5q0 -152 70.5 -237.5t199.5 -85.5
q114 0 201.5 77.5t131.5 203t44 276.5q0 145 -67.5 233t-200.5 88zM674 1333h-156l121 266h244zM999 1333h-168l148 266h258z" />
    <glyph glyph-name="ohungarumlaut" unicode="&#x151;" horiz-adv-x="1042" 
d="M580 969q183 0 286 -109t103 -303q0 -117 -33 -221.5t-94.5 -185t-159 -128t-217.5 -47.5q-175 0 -283 105.5t-108 296.5q0 95 20 182t62 161.5t101.5 130t142 87t180.5 31.5zM559 795q-79 0 -140 -56.5t-91.5 -148t-30.5 -201.5q0 -121 49 -184.5t137 -63.5
q120 0 191 119.5t71 292.5q0 117 -48.5 179.5t-137.5 62.5zM514 1081h-156l121 303h244zM840 1081h-168l147 303h258z" />
    <glyph glyph-name="OE" unicode="&#x152;" horiz-adv-x="1738" 
d="M588 -25q-227 0 -353 134.5t-126 361.5q0 175 49.5 320t135 240.5t198.5 147.5t241 52q92 0 172 -25h860l-32 -190h-594q66 -97 69 -234l4 -84h402l-33 -186h-391q-39 -192 -156 -322h553l-33 -190h-796q-86 -25 -170 -25zM715 1040q-117 0 -204.5 -77.5t-131 -202
t-43.5 -275.5q0 -152 70.5 -237.5t199.5 -85.5q114 0 201.5 77.5t131.5 203t44 276.5q0 145 -67.5 233t-200.5 88z" />
    <glyph glyph-name="oe" unicode="&#x153;" horiz-adv-x="1646" 
d="M1143 141q81 0 126 36.5t68 109.5l201 -49q-46 -140 -147.5 -201.5t-262.5 -61.5q-107 0 -193 47.5t-120 122.5q-60 -80 -150 -125t-200 -45q-175 0 -283 105.5t-108 296.5q0 95 20 182t62 161.5t101.5 130t142 87t180.5 31.5q106 0 186.5 -45.5t122.5 -124.5
q57 79 147 124.5t187 45.5q180 0 271 -98t91 -242q0 -116 -41 -197h-583q-7 -76 7.5 -140t59.5 -107.5t115 -43.5zM559 795q-79 0 -140 -56.5t-91.5 -148t-30.5 -201.5q0 -121 49 -184.5t137 -63.5q120 0 191 119.5t71 292.5q0 117 -48.5 179.5t-137.5 62.5zM983 571h381
q6 27 6 60q0 76 -39 125t-119 49q-85 0 -143 -64.5t-86 -169.5z" />
    <glyph glyph-name="Racute" unicode="&#x154;" horiz-adv-x="1144" 
d="M1024 0h-240q-33 30 -47 117l-32 198q-15 92 -54 123t-129 31h-143l-82 -469h-223l211 1206h428q194 0 280 -73t86 -226q0 -86 -28.5 -154t-76.5 -109t-103.5 -63.5t-116.5 -27.5v-8q84 -12 122.5 -52t55.5 -133l41 -233q14 -77 51 -127zM475 1022l-65 -373h202
q110 0 175 53.5t65 167.5q0 77 -42 114.5t-134 37.5h-201zM768 1333h-197l131 266h279z" />
    <glyph glyph-name="racute" unicode="&#x155;" horiz-adv-x="737" 
d="M782 963l-53 -252q-41 14 -85.5 15t-87 -12.5t-78 -38.5t-61.5 -67.5t-36 -97.5l-90 -510h-217l166 946h188l-12 -233q49 129 150.5 201.5t215.5 48.5zM602 1081h-190l149 303h279z" />
    <glyph glyph-name="Rcommaaccent" unicode="&#x156;" horiz-adv-x="1144" 
d="M1024 0h-240q-33 30 -47 117l-32 198q-15 92 -54 123t-129 31h-143l-82 -469h-223l211 1206h428q194 0 280 -73t86 -226q0 -86 -28.5 -154t-76.5 -109t-103.5 -63.5t-116.5 -27.5v-8q84 -12 122.5 -52t55.5 -133l41 -233q14 -77 51 -127zM475 1022l-65 -373h202
q110 0 175 53.5t65 167.5q0 77 -42 114.5t-134 37.5h-201zM606 -283q0 -114 -79.5 -171.5t-211.5 -57.5v80q73 3 114.5 22t41.5 64q-56 -11 -92.5 17t-36.5 83q0 57 34.5 87t90.5 30q62 0 100.5 -40.5t38.5 -113.5z" />
    <glyph glyph-name="rcommaaccent" unicode="&#x157;" horiz-adv-x="737" 
d="M782 963l-53 -252q-41 14 -85.5 15t-87 -12.5t-78 -38.5t-61.5 -67.5t-36 -97.5l-90 -510h-217l166 946h188l-12 -233q49 129 150.5 201.5t215.5 48.5zM289 -283q0 -114 -80 -171.5t-211 -57.5v80q72 3 113 22t41 64q-56 -11 -92.5 17t-36.5 83q0 57 34 87t90 30
q62 0 102 -40.5t40 -113.5z" />
    <glyph glyph-name="Rcaron" unicode="&#x158;" horiz-adv-x="1144" 
d="M1024 0h-240q-33 30 -47 117l-32 198q-15 92 -54 123t-129 31h-143l-82 -469h-223l211 1206h428q194 0 280 -73t86 -226q0 -86 -28.5 -154t-76.5 -109t-103.5 -63.5t-116.5 -27.5v-8q84 -12 122.5 -52t55.5 -133l41 -233q14 -77 51 -127zM475 1022l-65 -373h202
q110 0 175 53.5t65 167.5q0 77 -42 114.5t-134 37.5h-201zM741 1333h-135l-213 275h213l51 -66q13 -17 21 -34t10 -25l2 -8h6q13 28 58 67l75 66h222z" />
    <glyph glyph-name="rcaron" unicode="&#x159;" horiz-adv-x="737" 
d="M782 963l-53 -252q-41 14 -85.5 15t-87 -12.5t-78 -38.5t-61.5 -67.5t-36 -97.5l-90 -510h-217l166 946h188l-12 -233q49 129 150.5 201.5t215.5 48.5zM578 1079h-132l-208 310h204l56 -80q14 -21 21.5 -40t8.5 -27v-9h11q10 29 57 76l84 80h213z" />
    <glyph glyph-name="Sacute" unicode="&#x15a;" horiz-adv-x="1021" 
d="M33 289l200 61q0 -102 58 -156.5t160 -54.5q101 0 158 43.5t57 134.5q0 76 -42.5 119.5t-152.5 83.5q-73 25 -124.5 53.5t-91 68.5t-58.5 94.5t-19 125.5q0 80 26.5 144t69 105.5t100 69t115 39t117.5 11.5q189 0 287 -77t102 -249l-215 -37q4 91 -46.5 140t-143.5 49
q-90 0 -144.5 -44.5t-54.5 -123.5q0 -71 42.5 -105.5t160.5 -78.5q156 -59 225.5 -137t69.5 -220q0 -98 -37 -171.5t-102 -116.5t-145.5 -64t-176.5 -21q-381 0 -395 314zM727 1333h-197l132 266h278z" />
    <glyph glyph-name="sacute" unicode="&#x15b;" horiz-adv-x="858" 
d="M25 248l184 53q3 -87 49.5 -131.5t124.5 -44.5q149 0 149 119q0 56 -34 90t-123 63q-119 39 -176.5 105t-57.5 172q0 144 99.5 219.5t257.5 75.5t238.5 -66t80.5 -190l-190 -35q0 67 -37.5 103t-108.5 36q-63 0 -101 -30.5t-38 -84.5q0 -45 34 -74.5t136 -68.5
q128 -49 179.5 -115.5t51.5 -179.5q0 -146 -99.5 -217.5t-270.5 -71.5q-159 0 -250.5 70t-97.5 203zM616 1081h-192l149 303h279z" />
    <glyph glyph-name="Scircumflex" unicode="&#x15c;" horiz-adv-x="1021" 
d="M33 289l200 61q0 -102 58 -156.5t160 -54.5q101 0 158 43.5t57 134.5q0 76 -42.5 119.5t-152.5 83.5q-73 25 -124.5 53.5t-91 68.5t-58.5 94.5t-19 125.5q0 80 26.5 144t69 105.5t100 69t115 39t117.5 11.5q189 0 287 -77t102 -249l-215 -37q4 91 -46.5 140t-143.5 49
q-90 0 -144.5 -44.5t-54.5 -123.5q0 -71 42.5 -105.5t160.5 -78.5q156 -59 225.5 -137t69.5 -220q0 -98 -37 -171.5t-102 -116.5t-145.5 -64t-176.5 -21q-381 0 -395 314zM606 1608h133l213 -275h-211l-53 66q-13 18 -21 35t-10 24l-2 8h-6q-12 -26 -57 -67l-76 -66h-221z
" />
    <glyph glyph-name="scircumflex" unicode="&#x15d;" horiz-adv-x="858" 
d="M25 248l184 53q3 -87 49.5 -131.5t124.5 -44.5q149 0 149 119q0 56 -34 90t-123 63q-119 39 -176.5 105t-57.5 172q0 144 99.5 219.5t257.5 75.5t238.5 -66t80.5 -190l-190 -35q0 67 -37.5 103t-108.5 36q-63 0 -101 -30.5t-38 -84.5q0 -45 34 -74.5t136 -68.5
q128 -49 179.5 -115.5t51.5 -179.5q0 -146 -99.5 -217.5t-270.5 -71.5q-159 0 -250.5 70t-97.5 203zM510 1389h129l209 -310h-205l-55 80q-14 20 -21.5 38.5t-8.5 26.5l-1 9h-8q-13 -29 -60 -74l-81 -80h-215z" />
    <glyph glyph-name="Scedilla" unicode="&#x15e;" horiz-adv-x="1021" 
d="M571 -250q0 -88 -63.5 -135t-161.5 -47q-131 0 -194 76l51 114q55 -73 127 -73q35 0 55.5 16t20.5 47q0 78 -119 86l55 146q-298 32 -309 309l200 61q0 -102 58 -156.5t160 -54.5q101 0 158 43.5t57 134.5q0 76 -42.5 119.5t-152.5 83.5q-73 25 -124.5 53.5t-91 68.5
t-58.5 94.5t-19 125.5q0 80 26.5 144t69 105.5t100 69t115 39t117.5 11.5q189 0 287 -77t102 -249l-215 -37q4 91 -46.5 140t-143.5 49q-90 0 -144.5 -44.5t-54.5 -123.5q0 -71 42.5 -105.5t160.5 -78.5q156 -59 225.5 -137t69.5 -220q0 -78 -24 -141t-65.5 -105.5
t-99.5 -71t-123.5 -41.5t-140.5 -14l-24 -55q83 -18 121 -57t38 -113z" />
    <glyph glyph-name="scedilla" unicode="&#x15f;" horiz-adv-x="858" 
d="M504 -250q0 -88 -63.5 -135t-161.5 -47q-132 0 -195 76l51 114q55 -73 127 -73q35 0 55.5 16t20.5 47q0 78 -119 86l57 150q-116 19 -180.5 85.5t-70.5 178.5l184 53q3 -87 49.5 -131.5t124.5 -44.5q149 0 149 119q0 56 -34 90t-123 63q-119 39 -176.5 105t-57.5 172
q0 144 99.5 219.5t257.5 75.5t238.5 -66t80.5 -190l-190 -35q0 67 -37.5 103t-108.5 36q-62 0 -100.5 -30.5t-38.5 -84.5q0 -45 34 -74.5t136 -68.5q128 -49 179.5 -115.5t51.5 -179.5q0 -135 -86 -205.5t-235 -78.5q-27 -3 -53 -3l-25 -57q83 -18 121.5 -57t38.5 -113z" />
    <glyph glyph-name="Scaron" unicode="&#x160;" horiz-adv-x="1021" 
d="M33 289l200 61q0 -102 58 -156.5t160 -54.5q101 0 158 43.5t57 134.5q0 76 -42.5 119.5t-152.5 83.5q-73 25 -124.5 53.5t-91 68.5t-58.5 94.5t-19 125.5q0 80 26.5 144t69 105.5t100 69t115 39t117.5 11.5q189 0 287 -77t102 -249l-215 -37q4 91 -46.5 140t-143.5 49
q-90 0 -144.5 -44.5t-54.5 -123.5q0 -71 42.5 -105.5t160.5 -78.5q156 -59 225.5 -137t69.5 -220q0 -98 -37 -171.5t-102 -116.5t-145.5 -64t-176.5 -21q-381 0 -395 314zM700 1333h-135l-213 275h213l51 -66q13 -17 21 -34t10 -25l2 -8h6q13 28 58 67l75 66h222z" />
    <glyph glyph-name="scaron" unicode="&#x161;" horiz-adv-x="858" 
d="M25 248l184 53q3 -87 49.5 -131.5t124.5 -44.5q149 0 149 119q0 56 -34 90t-123 63q-119 39 -176.5 105t-57.5 172q0 144 99.5 219.5t257.5 75.5t238.5 -66t80.5 -190l-190 -35q0 67 -37.5 103t-108.5 36q-63 0 -101 -30.5t-38 -84.5q0 -45 34 -74.5t136 -68.5
q128 -49 179.5 -115.5t51.5 -179.5q0 -146 -99.5 -217.5t-270.5 -71.5q-159 0 -250.5 70t-97.5 203zM590 1079h-129l-211 310h205l55 -80q14 -21 21.5 -40t8.5 -27l1 -9h10q10 29 57 76l84 80h213z" />
    <glyph glyph-name="Tcommaaccent" unicode="&#x162;" horiz-adv-x="999" 
d="M524 0h-223l178 1016h-344l33 190h913l-32 -190h-349zM516 -283q0 -114 -79.5 -171.5t-211.5 -57.5v80q34 2 59.5 6t48.5 13.5t35.5 26t12.5 40.5q-57 -11 -93 17t-36 83q0 57 34 87t91 30q61 0 100 -40.5t39 -113.5z" />
    <glyph glyph-name="tcommaaccent" unicode="&#x163;" horiz-adv-x="675" 
d="M569 209v-182q-93 -52 -219 -52q-293 0 -237 318l86 485h-133l30 168h133l35 199l221 29l-39 -228h246l-28 -168h-246l-88 -491q-11 -65 11.5 -95t68.5 -30q78 0 159 47zM403 -283q0 -114 -79.5 -171.5t-210.5 -57.5v80q72 3 112.5 22t40.5 64q-56 -11 -92.5 17t-36.5 83
q0 57 34.5 87t90.5 30q62 0 101.5 -40.5t39.5 -113.5z" />
    <glyph glyph-name="Tcaron" unicode="&#x164;" horiz-adv-x="999" 
d="M524 0h-223l178 1016h-344l33 190h913l-32 -190h-349zM707 1333h-136l-213 275h213l52 -66q13 -17 21 -34t10 -25l1 -8h7q12 28 57 67l76 66h221z" />
    <glyph glyph-name="tcaron" unicode="&#x165;" horiz-adv-x="675" 
d="M569 209v-182q-93 -52 -219 -52q-293 0 -237 318l86 485h-133l30 168h133l35 199l221 29l-39 -228h246l-28 -168h-246l-88 -491q-11 -65 11.5 -95t68.5 -30q78 0 159 47zM817 1403l-110 -379h-156l33 379h233z" />
    <glyph glyph-name="Tbar" unicode="&#x166;" horiz-adv-x="999" 
d="M524 0h-223l88 496h-215l31 178h215l59 342h-344l33 190h913l-32 -190h-349l-59 -342h231l-30 -178h-232z" />
    <glyph glyph-name="tbar" unicode="&#x167;" horiz-adv-x="729" 
d="M49 461l29 162h129l29 155h-134l29 168h135l35 199l221 29l-39 -228h246l-29 -168h-245l-29 -155h250l-29 -162h-250l-30 -174q-11 -65 10.5 -95t66.5 -30q81 0 162 47v-182q-93 -52 -219 -52q-141 0 -204 78t-33 240l28 168h-129z" />
    <glyph glyph-name="Utilde" unicode="&#x168;" horiz-adv-x="1220" 
d="M993 1206h221l-141 -807q-21 -120 -68.5 -204t-118.5 -131.5t-155 -68t-190 -20.5q-103 0 -184.5 26.5t-142.5 81.5t-84.5 151.5t-0.5 226.5l131 745h223l-133 -749q-52 -299 219 -299q128 0 196 68t93 220zM881 1335q-16 0 -29.5 1t-26.5 4.5t-21 6t-21 8.5t-18 8.5
t-19.5 11.5t-18.5 11q-4 3 -11 7q-57 39 -82 43l-18 2q-34 0 -56 -26.5t-23 -76.5h-127q-24 116 37 196.5t165 80.5q35 0 65 -9.5t42.5 -17.5t44.5 -29q6 -4 20 -13t18.5 -11.5t15 -8.5t15 -7.5t12.5 -4.5t14.5 -3.5t14.5 -0.5q66 0 74 103h131q25 -121 -31 -198t-167 -77z
" />
    <glyph glyph-name="utilde" unicode="&#x169;" horiz-adv-x="1085" 
d="M657 180q-44 -108 -117.5 -156.5t-187.5 -48.5q-150 0 -213.5 94.5t-34.5 264.5l107 612h217l-111 -633q-14 -86 16.5 -132t100.5 -46q84 0 150.5 64.5t87.5 185.5l98 561h217l-121 -696q-16 -88 54 -88q28 0 61 8l-33 -160q-62 -20 -123 -20q-98 0 -137.5 47t-30.5 143z
M764 1077q-11 0 -21.5 1t-18.5 1.5t-18 3.5t-15 4t-14.5 5.5t-13 6t-13.5 7.5t-12 7t-13 8.5t-13 8.5q-5 3 -19.5 12.5t-19 12.5t-15 9t-15.5 8t-13 5t-15 4t-15 1q-34 0 -56.5 -26.5t-23.5 -76.5h-125q-26 115 36 195t167 80q34 0 63.5 -9t42 -16.5t45.5 -28.5
q44 -30 64.5 -40.5t44.5 -10.5q65 0 73 103h132q25 -121 -31.5 -198t-167.5 -77z" />
    <glyph glyph-name="Umacron" unicode="&#x16a;" horiz-adv-x="1220" 
d="M993 1206h221l-141 -807q-21 -120 -68.5 -204t-118.5 -131.5t-155 -68t-190 -20.5q-103 0 -184.5 26.5t-142.5 81.5t-84.5 151.5t-0.5 226.5l131 745h223l-133 -749q-52 -299 219 -299q128 0 196 68t93 220zM1042 1374h-565l29 170h565z" />
    <glyph glyph-name="umacron" unicode="&#x16b;" horiz-adv-x="1085" 
d="M657 180q-44 -108 -117.5 -156.5t-187.5 -48.5q-150 0 -213.5 94.5t-34.5 264.5l107 612h217l-111 -633q-14 -86 16.5 -132t100.5 -46q84 0 150.5 64.5t87.5 185.5l98 561h217l-121 -696q-16 -88 54 -88q28 0 61 8l-33 -160q-62 -20 -123 -20q-98 0 -137.5 47t-30.5 143z
M899 1130h-559l33 173h557z" />
    <glyph glyph-name="Ubreve" unicode="&#x16c;" horiz-adv-x="1220" 
d="M993 1206h221l-141 -807q-21 -120 -68.5 -204t-118.5 -131.5t-155 -68t-190 -20.5q-103 0 -184.5 26.5t-142.5 81.5t-84.5 151.5t-0.5 226.5l131 745h223l-133 -749q-52 -299 219 -299q128 0 196 68t93 220zM743 1325q-139 0 -199 75t-36 206h164q-8 -63 14.5 -94
t85.5 -31q65 0 98.5 31t47.5 94h163q-24 -131 -111 -206t-227 -75z" />
    <glyph glyph-name="ubreve" unicode="&#x16d;" horiz-adv-x="1085" 
d="M657 180q-44 -108 -117.5 -156.5t-187.5 -48.5q-150 0 -213.5 94.5t-34.5 264.5l107 612h217l-111 -633q-14 -86 16.5 -132t100.5 -46q84 0 150.5 64.5t87.5 185.5l98 561h217l-121 -696q-16 -88 54 -88q28 0 61 8l-33 -160q-62 -20 -123 -20q-98 0 -137.5 47t-30.5 143z
M600 1075q-139 0 -199 82t-34 217h163q-8 -72 11.5 -107.5t87.5 -35.5q67 0 99.5 36t49.5 107h164q-24 -135 -113 -217t-229 -82z" />
    <glyph glyph-name="Uring" unicode="&#x16e;" horiz-adv-x="1220" 
d="M993 1206h221l-141 -807q-21 -120 -68.5 -204t-118.5 -131.5t-155 -68t-190 -20.5q-103 0 -184.5 26.5t-142.5 81.5t-84.5 151.5t-0.5 226.5l131 745h223l-133 -749q-52 -299 219 -299q128 0 196 68t93 220zM569 1489q0 94 65 159.5t167 65.5q87 0 139.5 -54t52.5 -134
q0 -96 -63 -162t-164 -66q-94 0 -145.5 53t-51.5 138zM793 1616q-46 0 -78.5 -35t-32.5 -82q0 -46 25 -72t71 -26t76.5 35t30.5 82q0 44 -24.5 71t-67.5 27z" />
    <glyph glyph-name="uring" unicode="&#x16f;" horiz-adv-x="1085" 
d="M657 180q-44 -108 -117.5 -156.5t-187.5 -48.5q-150 0 -213.5 94.5t-34.5 264.5l107 612h217l-111 -633q-14 -86 16.5 -132t100.5 -46q84 0 150.5 64.5t87.5 185.5l98 561h217l-121 -696q-16 -88 54 -88q28 0 61 8l-33 -160q-62 -20 -123 -20q-98 0 -137.5 47t-30.5 143z
M432 1247q0 95 65 161.5t167 66.5q87 0 139.5 -54.5t52.5 -134.5q0 -97 -63 -163t-164 -66q-93 0 -145 53.5t-52 136.5zM655 1374q-48 0 -79 -34t-31 -83q0 -45 25 -71.5t69 -26.5q48 0 78.5 35t30.5 84q0 43 -24.5 69.5t-68.5 26.5z" />
    <glyph glyph-name="Uhungarumlaut" unicode="&#x170;" horiz-adv-x="1220" 
d="M993 1206h221l-141 -807q-21 -120 -68.5 -204t-118.5 -131.5t-155 -68t-190 -20.5q-103 0 -184.5 26.5t-142.5 81.5t-84.5 151.5t-0.5 226.5l131 745h223l-133 -749q-52 -299 219 -299q128 0 196 68t93 220zM657 1333h-157l121 266h243zM981 1333h-168l150 266h256z" />
    <glyph glyph-name="uhungarumlaut" unicode="&#x171;" horiz-adv-x="1085" 
d="M657 180q-44 -108 -117.5 -156.5t-187.5 -48.5q-150 0 -213.5 94.5t-34.5 264.5l107 612h217l-111 -633q-14 -86 16.5 -132t100.5 -46q84 0 150.5 64.5t87.5 185.5l98 561h217l-121 -696q-16 -88 54 -88q28 0 61 8l-33 -160q-62 -20 -123 -20q-98 0 -137.5 47t-30.5 143z
M535 1081h-158l121 303h243zM858 1081h-168l150 303h256z" />
    <glyph glyph-name="Uogonek" unicode="&#x172;" horiz-adv-x="1222" 
d="M315 -231q0 126 101 217q-78 14 -137 47.5t-101 91.5t-53 140.5t6 195.5l131 745h221l-131 -749q-54 -299 219 -299q128 0 196 68t93 220l133 760h224l-142 -807q-19 -109 -60 -188.5t-102 -128t-133 -73.5t-162 -32q-58 -27 -91 -72.5t-33 -103.5q0 -42 23.5 -66
t62.5 -24q44 0 72.5 17.5t54.5 54.5l59 -105q-74 -110 -227 -110q-103 0 -163.5 52.5t-60.5 148.5z" />
    <glyph glyph-name="uogonek" unicode="&#x173;" horiz-adv-x="1085" 
d="M987 946l-121 -696q-16 -88 56 -88q26 0 59 8l-33 -160q-47 -8 -82 -16.5t-77 -25t-68.5 -37.5t-45 -54.5t-18.5 -75.5t23 -66t63 -24q43 0 72 17.5t55 54.5l60 -105q-74 -110 -228 -110q-103 0 -163 52t-60 149q0 92 62.5 162.5t148.5 107.5q-21 18 -30.5 56.5
t-2.5 84.5q-44 -108 -117.5 -156.5t-187.5 -48.5q-150 0 -213.5 94.5t-34.5 264.5l107 612h217l-111 -633q-14 -86 16.5 -132t100.5 -46q84 0 150.5 64.5t87.5 185.5l98 561h217z" />
    <glyph glyph-name="Wcircumflex" unicode="&#x174;" horiz-adv-x="1728" 
d="M1112 1206l53 -725q5 -81 6 -163.5t-1 -125.5l-1 -42h9q36 149 108 329l285 727h231l-493 -1206h-312l-55 672q-6 92 -5.5 163.5t3.5 114.5l4 43h-8q-29 -139 -107 -321l-282 -672h-305l-54 1206h224l24 -723q3 -80 3 -163.5t-1 -126.5l-2 -43h8q33 151 109 331l303 725
h256zM956 1608h134l213 -275h-211l-52 66q-14 18 -22.5 35t-9.5 24l-2 8h-7q-12 -26 -57 -67l-76 -66h-221z" />
    <glyph glyph-name="wcircumflex" unicode="&#x175;" horiz-adv-x="1404" 
d="M879 946l41 -461q9 -84 9.5 -167t-3.5 -124l-4 -40h8q28 139 108 329l197 463h227l-420 -946h-256l-47 412q-6 76 -6.5 151t1.5 113l3 37h-8q-32 -129 -108 -301l-175 -412h-256l-96 946h221l37 -461q7 -84 8.5 -167t-0.5 -124l-2 -40h9q28 143 110 333l201 459h201z
M766 1389h131l209 -310h-205l-55 80q-14 20 -21.5 38.5t-8.5 26.5l-1 9h-10q-10 -29 -57 -74l-84 -80h-213z" />
    <glyph glyph-name="Ycircumflex" unicode="&#x176;" horiz-adv-x="1060" 
d="M389 1206l115 -350q21 -64 33 -127t14 -94l2 -31h8q33 107 125 250l227 352h236l-504 -768l-76 -438h-223l76 438l-264 768h231zM645 1608h133l213 -275h-211l-53 66q-13 18 -21 35t-10 24l-2 8h-6q-12 -26 -57 -67l-76 -66h-221z" />
    <glyph glyph-name="ycircumflex" unicode="&#x177;" horiz-adv-x="909" 
d="M311 946l54 -512q9 -79 11.5 -152t0.5 -106l-2 -33h8q31 131 115 293l262 510h227l-567 -1048q-44 -83 -87.5 -142.5t-82.5 -96t-83 -57t-83.5 -27.5t-89.5 -7q-96 0 -164 37l55 172q61 -37 119 -37q70 0 124 47.5t112 157.5l-154 1001h225zM506 1389h131l209 -310h-205
l-55 80q-14 20 -21.5 38.5t-8.5 26.5l-1 9h-10q-11 -29 -58 -74l-84 -80h-213z" />
    <glyph glyph-name="Ydieresis" unicode="&#x178;" horiz-adv-x="1060" 
d="M389 1206l115 -350q21 -64 33 -127t14 -94l2 -31h8q33 107 125 250l227 352h236l-504 -768l-76 -438h-223l76 438l-264 768h231zM354 1466q0 60 37.5 96.5t93.5 36.5q57 0 95 -36.5t38 -96.5q0 -58 -38.5 -94.5t-94.5 -36.5q-55 0 -93 37t-38 94zM770 1466
q0 60 37.5 96.5t93.5 36.5q58 0 95.5 -36.5t37.5 -96.5q0 -59 -37.5 -96t-95.5 -37q-55 0 -93 37t-38 96z" />
    <glyph glyph-name="Zacute" unicode="&#x179;" horiz-adv-x="1077" 
d="M31 141l628 738q41 47 80 83t57 48l19 12v8q-69 -14 -186 -14h-424l33 190h870l-29 -149l-630 -729q-42 -47 -81.5 -83t-57.5 -49l-19 -12v-8q71 14 188 14h459l-33 -190h-901zM770 1333h-197l129 266h279z" />
    <glyph glyph-name="zacute" unicode="&#x17a;" horiz-adv-x="892" 
d="M18 117l447 516q42 47 80 83t55 48l18 12v8q-67 -14 -184 -14h-272l35 176h704l-20 -135l-451 -502q-42 -46 -81 -82t-57 -49l-18 -12v-8q70 14 189 14h299l-31 -172h-735zM621 1081h-191l148 303h280z" />
    <glyph glyph-name="Zdotaccent" unicode="&#x17b;" horiz-adv-x="1077" 
d="M31 141l628 738q41 47 80 83t57 48l19 12v8q-69 -14 -186 -14h-424l33 190h870l-29 -149l-630 -729q-42 -47 -81.5 -83t-57.5 -49l-19 -12v-8q71 14 188 14h459l-33 -190h-901zM565 1491q0 61 39 98t98 37q62 0 102 -36.5t40 -98.5q0 -59 -40.5 -96t-101.5 -37
q-58 0 -97.5 37t-39.5 96z" />
    <glyph glyph-name="zdotaccent" unicode="&#x17c;" horiz-adv-x="892" 
d="M18 117l447 516q42 47 80 83t55 48l18 12v8q-67 -14 -184 -14h-272l35 176h704l-20 -135l-451 -502q-42 -46 -81 -82t-57 -49l-18 -12v-8q70 14 189 14h299l-31 -172h-735zM416 1239q0 61 39.5 98t97.5 37q63 0 103 -36.5t40 -98.5q0 -59 -40.5 -96t-102.5 -37
q-57 0 -97 37t-40 96z" />
    <glyph glyph-name="Zcaron" unicode="&#x17d;" horiz-adv-x="1077" 
d="M31 141l628 738q41 47 80 83t57 48l19 12v8q-69 -14 -186 -14h-424l33 190h870l-29 -149l-630 -729q-42 -47 -81.5 -83t-57.5 -49l-19 -12v-8q71 14 188 14h459l-33 -190h-901zM739 1333h-133l-213 275h211l53 -66q13 -17 21 -34t10 -25l2 -8h6q13 28 58 67l75 66h222z
" />
    <glyph glyph-name="zcaron" unicode="&#x17e;" horiz-adv-x="892" 
d="M18 117l447 516q42 47 80 83t55 48l18 12v8q-67 -14 -184 -14h-272l35 176h704l-20 -135l-451 -502q-42 -46 -81 -82t-57 -49l-18 -12v-8q70 14 189 14h299l-31 -172h-735zM594 1079h-129l-209 310h205l55 -80q14 -21 21.5 -40t8.5 -27l1 -9h8q12 29 59 76l82 80h215z
" />
    <glyph glyph-name="Schwa" unicode="&#x18f;" horiz-adv-x="1218" 
d="M643 1038q-204 0 -274 -194l-199 57q59 171 182.5 250.5t315.5 79.5q225 0 352 -139t127 -373q0 -141 -32 -262t-88 -208.5t-131.5 -150t-162.5 -93t-180 -30.5q-115 0 -203 36t-139.5 97.5t-76.5 137t-25 162.5q0 137 51 245h758q9 105 -17 191t-92.5 140t-165.5 54z
M891 494h-553q-12 -50 -12 -99q0 -105 56 -173t167 -68q126 0 216 92.5t126 247.5z" />
    <glyph glyph-name="florin" unicode="&#x192;" horiz-adv-x="882" 
d="M33 -248l162 563h-140l45 174h140l57 197q91 324 393 324q82 0 152 -29.5t108 -87.5l-141 -160q-26 47 -58.5 69.5t-80.5 22.5q-62 0 -99 -37t-59 -116l-55 -183h239l-43 -174h-243l-162 -563h-215z" />
    <glyph glyph-name="Khook" unicode="&#x198;" horiz-adv-x="1107" 
d="M676 614l334 -614h-252l-273 518h-98l-90 -518h-223l211 1206h223l-88 -501h84l172 290q74 123 142.5 179.5t172.5 56.5q147 0 205 -137l-129 -142q-30 64 -82 64q-32 0 -58.5 -26t-66.5 -89z" />
    <glyph glyph-name="khook" unicode="&#x199;" horiz-adv-x="985" 
d="M477 1055l-80 -457h45l322 348h264l-414 -426l144 -291q28 -54 66 -64.5t104 9.5l-35 -166q-56 -18 -125 -18q-63 0 -108 27.5t-76 93.5l-156 327h-59l-78 -438h-217l184 1055q56 327 367 327q126 0 233 -55l-76 -178q-71 53 -151 53q-69 0 -104.5 -34.5t-49.5 -112.5z
" />
    <glyph glyph-name="Ezh" unicode="&#x1b7;" horiz-adv-x="1026" 
d="M559 1016h-391l33 190h833l-24 -149l-484 -522l-2 -9q91 -5 160.5 -38t109.5 -85.5t60 -115.5t20 -135q0 -99 -28 -184t-77.5 -146.5t-116 -105t-144 -64.5t-160.5 -21q-205 0 -316.5 97t-111.5 276l182 74q0 -139 66.5 -209t183.5 -70q134 0 219.5 86.5t85.5 249.5
q0 119 -89 192.5t-285 73.5l26 154l281 324q41 47 79.5 83t56.5 48l19 12v8q-69 -14 -186 -14z" />
    <glyph glyph-name="Acaron" unicode="&#x1cd;" horiz-adv-x="1239" 
d="M885 0l-56 303h-481l-158 -303h-235l649 1206h281l227 -1206h-227zM811 1333h-135l-211 275h211l51 -66q14 -17 22.5 -34t10.5 -25l2 -8h6q-6 0 12 21t52 53t69 59h221zM561 713l-119 -228h355q-27 132 -46.5 271t-27 215t-4.5 76h-8q-50 -144 -150 -334z" />
    <glyph glyph-name="acaron" unicode="&#x1ce;" horiz-adv-x="1112" 
d="M698 395l29 158q16 102 -21 176t-128 74q-126 0 -204.5 -122t-78.5 -300q0 -106 44 -172t128 -66q91 0 150.5 67.5t80.5 184.5zM1014 946l-123 -696q-7 -41 3 -64.5t52 -23.5q27 0 60 8l-31 -160q-65 -20 -125 -20q-179 0 -182 168q-37 -93 -111 -138t-168 -45
q-146 0 -230.5 102.5t-84.5 284.5q0 163 55 300.5t160.5 222t240.5 84.5q214 0 240 -183l53 160h191zM678 1079h-129l-209 310h205l53 -80q14 -21 22 -40t10 -27l1 -9h8q12 29 59 76l82 80h215z" />
    <glyph glyph-name="Icaron" unicode="&#x1cf;" horiz-adv-x="534" 
d="M285 1206h223l-211 -1206h-223zM475 1333h-133l-213 275h211l51 -66q14 -17 22.5 -34t10.5 -25l2 -8h6q12 28 57 67l76 66h221z" />
    <glyph glyph-name="icaron" unicode="&#x1d0;" horiz-adv-x="538" 
d="M414 1079h-129l-209 310h203l55 -80q14 -21 22 -40t10 -27l1 -9h8q12 29 59 76l82 80h215zM440 946l-121 -696q-16 -88 56 -88q26 0 59 8l-33 -160q-62 -20 -122 -20q-223 0 -183 233l127 723h217z" />
    <glyph glyph-name="Ocaron" unicode="&#x1d1;" horiz-adv-x="1284" 
d="M588 -25q-227 0 -353 134.5t-126 361.5q0 175 49.5 320t135 240.5t198.5 147.5t241 52q228 0 353.5 -135.5t125.5 -362.5q0 -175 -49.5 -319.5t-135 -239.5t-198.5 -147t-241 -52zM715 1040q-117 0 -204.5 -77.5t-131 -202t-43.5 -275.5q0 -152 70.5 -237.5t199.5 -85.5
q114 0 201.5 77.5t131.5 203t44 276.5q0 145 -67.5 233t-200.5 88zM825 1333h-133l-213 275h211l51 -66q14 -17 22.5 -34t10.5 -25l2 -8h6q13 28 58 67l75 66h222z" />
    <glyph glyph-name="ocaron" unicode="&#x1d2;" horiz-adv-x="1042" 
d="M580 969q183 0 286 -109t103 -303q0 -117 -33 -221.5t-94.5 -185t-159 -128t-217.5 -47.5q-175 0 -283 105.5t-108 296.5q0 95 20 182t62 161.5t101.5 130t142 87t180.5 31.5zM559 795q-79 0 -140 -56.5t-91.5 -148t-30.5 -201.5q0 -121 49 -184.5t137 -63.5
q120 0 191 119.5t71 292.5q0 117 -48.5 179.5t-137.5 62.5zM651 1079h-129l-209 310h205l55 -80q14 -21 21.5 -40t8.5 -27l1 -9h8q13 29 60 76l82 80h215z" />
    <glyph glyph-name="Ucaron" unicode="&#x1d3;" horiz-adv-x="1220" 
d="M993 1206h221l-141 -807q-21 -120 -68.5 -204t-118.5 -131.5t-155 -68t-190 -20.5q-103 0 -184.5 26.5t-142.5 81.5t-84.5 151.5t-0.5 226.5l131 745h223l-133 -749q-52 -299 219 -299q128 0 196 68t93 220zM807 1333h-133l-213 275h211l53 -66q13 -17 21 -34t10 -25
l2 -8h6q12 28 57 67l76 66h221z" />
    <glyph glyph-name="ucaron" unicode="&#x1d4;" horiz-adv-x="1085" 
d="M657 180q-44 -108 -117.5 -156.5t-187.5 -48.5q-150 0 -213.5 94.5t-34.5 264.5l107 612h217l-111 -633q-14 -86 16.5 -132t100.5 -46q84 0 150.5 64.5t87.5 185.5l98 561h217l-121 -696q-16 -88 54 -88q28 0 61 8l-33 -160q-62 -20 -123 -20q-98 0 -137.5 47t-30.5 143z
M672 1079h-131l-209 310h205l55 -80q14 -21 21.5 -40t8.5 -27l1 -9h10q10 29 57 76l84 80h213z" />
    <glyph glyph-name="uni01D9" unicode="&#x1d9;" horiz-adv-x="1220" 
d="M993 1206h221l-141 -807q-21 -120 -68.5 -204t-118.5 -131.5t-155 -68t-190 -20.5q-103 0 -184.5 26.5t-142.5 81.5t-84.5 151.5t-0.5 226.5l131 745h223l-133 -749q-54 -299 219 -299q128 0 195.5 68t93.5 220zM422 1405q0 60 37.5 96.5t93.5 36.5q58 0 95.5 -36.5
t37.5 -96.5q0 -58 -37.5 -94.5t-95.5 -36.5q-55 0 -93 37t-38 94zM838 1405q0 60 38.5 96.5t92.5 36.5q58 0 95.5 -36.5t37.5 -96.5q0 -59 -37.5 -96t-95.5 -37q-54 0 -92.5 37.5t-38.5 95.5zM850 1561h-135l-213 276h213l51 -68q14 -17 22 -33.5t10 -23.5l1 -8h8
q10 26 55 65l76 68h223z" />
    <glyph glyph-name="uni01DA" unicode="&#x1da;" horiz-adv-x="1085" 
d="M657 180q-44 -108 -117.5 -156.5t-187.5 -48.5q-150 0 -213.5 94.5t-34.5 264.5l107 612h217l-111 -633q-14 -86 16.5 -132t100.5 -46q84 0 150.5 64.5t87.5 185.5l98 561h217l-121 -696q-16 -88 54 -88q28 0 61 8l-33 -160q-62 -20 -123 -20q-98 0 -137.5 47t-30.5 143z
M287 1149q0 60 37.5 96.5t93.5 36.5q58 0 95.5 -36.5t37.5 -96.5q0 -59 -37.5 -95t-95.5 -36q-55 0 -93 36t-38 95zM702 1147q0 60 38.5 96.5t93.5 36.5q58 0 95.5 -36.5t37.5 -96.5q0 -58 -37.5 -94.5t-95.5 -36.5q-54 0 -93 37t-39 94zM715 1305h-135l-213 274h213l51 -66
q14 -17 22 -34t9 -25l2 -8h8q10 28 55 67l76 66h223z" />
    <glyph glyph-name="uni004100A800AF" unicode="&#x1de;" horiz-adv-x="1239" 
d="M885 0l-56 303h-481l-158 -303h-235l649 1206h281l227 -1206h-227zM1085 1604h-567l31 172h565zM422 1405q0 59 38 95t93 36q59 0 97 -35.5t38 -95.5q0 -59 -38.5 -96t-96.5 -37q-54 0 -92.5 37.5t-38.5 95.5zM840 1403q0 60 37.5 96.5t93.5 36.5q58 0 95.5 -36.5
t37.5 -96.5q0 -59 -37.5 -95t-95.5 -36q-55 0 -93 36t-38 95zM561 713l-119 -228h355q-27 132 -46.5 271t-27 215t-4.5 76h-8q-50 -144 -150 -334z" />
    <glyph glyph-name="adieresismacron" unicode="&#x1df;" horiz-adv-x="1112" 
d="M698 395l29 158q16 102 -21 176t-128 74q-126 0 -204.5 -122t-78.5 -300q0 -106 44 -172t128 -66q91 0 150.5 67.5t80.5 184.5zM1014 946l-123 -696q-7 -41 3 -64.5t52 -23.5q27 0 60 8l-31 -160q-65 -20 -125 -20q-179 0 -182 168q-37 -93 -111 -138t-168 -45
q-146 0 -230.5 102.5t-84.5 284.5q0 163 55 300.5t160.5 222t240.5 84.5q214 0 240 -183l53 160h191zM961 1397h-560l33 172h557zM299 1174q0 60 37.5 95.5t93.5 35.5q58 0 95.5 -35.5t37.5 -95.5q0 -59 -37.5 -96.5t-95.5 -37.5q-55 0 -93 37.5t-38 96.5zM715 1171
q0 60 38.5 97t92.5 37q58 0 95.5 -36.5t37.5 -97.5q0 -59 -37.5 -95t-95.5 -36q-54 0 -92.5 36.5t-38.5 94.5z" />
    <glyph glyph-name="AEmacron" unicode="&#x1e2;" horiz-adv-x="1785" 
d="M838 0l51 303h-449l-235 -303h-250l942 1206h915l-32 -190h-543l-55 -318h479l-33 -186h-479l-57 -322h542l-32 -190h-764zM1595 1374h-565l29 170h565zM1022 1051l-440 -566h340l57 326q15 86 27.5 146t17.5 77l6 17h-8z" />
    <glyph glyph-name="aemacron" unicode="&#x1e3;" horiz-adv-x="1505" 
d="M1010 141q81 0 126 36.5t68 109.5l201 -49q-46 -141 -145.5 -202t-264.5 -61q-219 0 -325 154q-41 -73 -127.5 -113.5t-200.5 -40.5q-134 0 -208.5 65.5t-74.5 180.5q0 163 146 248.5t418 85.5q11 53 34 111q3 68 -32 102.5t-101 34.5q-71 0 -117 -38.5t-59 -111.5
l-203 35q35 143 145.5 212t260.5 69q188 0 256 -107q125 107 283 107q92 0 163 -28t113.5 -76.5t64 -108t21.5 -127.5q0 -114 -43 -201h-582q-6 -55 1 -105t27.5 -91.5t60.5 -66t94 -24.5zM1151 1130h-559l31 173h559zM846 555h381q10 29 10 76q0 76 -39 125t-119 49
q-88 0 -149 -66t-84 -184zM602 377q0 33 2 51q-154 -5 -241 -49.5t-87 -132.5q0 -54 30.5 -83.5t88.5 -29.5q69 0 131.5 33.5t89.5 87.5q-14 65 -14 123z" />
    <glyph glyph-name="Gstroke" unicode="&#x1e4;" horiz-adv-x="1284" 
d="M674 659h493l-41 -235h117l-22 -135h-117l-51 -289h-150l-12 150q-86 -175 -316 -175q-219 0 -342.5 134t-123.5 362q0 175 50 320t135.5 240.5t198.5 147.5t240 52q183 0 289.5 -82.5t138.5 -235.5l-225 -82q-15 102 -71 155.5t-148 53.5q-118 0 -206 -77.5t-131.5 -202
t-43.5 -275.5q0 -155 73 -244t214 -89q189 0 260 137h-275l23 135h280l17 92h-277z" />
    <glyph glyph-name="gstroke" unicode="&#x1e5;" horiz-adv-x="1060" 
d="M1018 946l-170 -964l-17 -70h138l-13 -72h-147q-54 -138 -167 -205t-294 -67q-171 0 -269.5 65.5t-127.5 180.5l174 96q11 -79 74 -128.5t157 -49.5q150 0 219 108h-278l12 72h301q7 19 25 84l31 166q-69 -176 -273 -176q-147 0 -232 102t-85 285q0 162 55 297t162 217
t246 82q209 0 235 -183l55 160h189zM705 399l28 154q11 65 0 120t-50 92.5t-103 37.5q-129 0 -207 -119t-78 -297q0 -106 43.5 -170.5t128.5 -64.5q96 0 157 64t81 183z" />
    <glyph glyph-name="Gcaron" unicode="&#x1e6;" horiz-adv-x="1257" 
d="M670 629h491l-108 -629h-150l-12 150q-86 -175 -316 -175q-219 0 -342.5 134t-123.5 362q0 175 50 320t135.5 240.5t198.5 147.5t240 52q183 0 289.5 -82.5t138.5 -235.5l-225 -82q-15 102 -71 155.5t-148 53.5q-118 0 -206 -77.5t-131.5 -202t-43.5 -275.5
q0 -155 71.5 -242t210.5 -87q115 0 190.5 57t96.5 176l10 57h-278zM821 1333h-133l-213 275h211l53 -66q13 -17 21 -34t10 -25l2 -8h6q13 28 58 67l75 66h222z" />
    <glyph glyph-name="gcaron" unicode="&#x1e7;" horiz-adv-x="1060" 
d="M705 399l28 154q11 65 0 120t-50 92.5t-103 37.5q-129 0 -207 -119t-78 -297q0 -106 43.5 -170.5t128.5 -64.5q96 0 157 64t81 183zM1018 946l-170 -964q-37 -212 -158 -313t-342 -101q-171 0 -269.5 65.5t-127.5 180.5l174 96q11 -79 74 -128.5t157 -49.5
q122 0 187.5 67t91.5 197l31 166q-69 -176 -273 -176q-147 0 -232 102t-85 285q0 162 55 297t162 217t246 82q209 0 235 -183l55 160h189zM668 1079h-129l-211 310h204l56 -80q14 -21 21.5 -40t8.5 -27v-9h11q10 29 57 76l84 80h213z" />
    <glyph glyph-name="Kcaron" unicode="&#x1e8;" horiz-adv-x="1107" 
d="M1010 0h-252l-273 518h-98l-90 -518h-223l211 1206h223l-88 -501h84l416 501h262l-506 -592zM743 1333h-135l-213 275h213l51 -66q14 -17 22 -34t9 -25l2 -8h8q11 28 56 67l75 66h224z" />
    <glyph glyph-name="kcaron" unicode="&#x1e9;" horiz-adv-x="985" 
d="M582 111l-156 327h-57l-78 -438h-217l239 1368h219l-135 -770h45l322 348h264l-414 -426l144 -291q28 -54 66 -64.5t104 9.5l-35 -166q-56 -18 -125 -18q-64 0 -109.5 27.5t-76.5 93.5zM496 1432h-136l-213 274h213l52 -66q14 -18 22 -35t9 -25l1 -7h9q10 26 55 67l76 66
h223z" />
    <glyph glyph-name="Oogonek" unicode="&#x1ea;" horiz-adv-x="1284" 
d="M317 -231q0 135 111 227q-154 42 -236.5 167.5t-82.5 307.5q0 175 49.5 320t135 240.5t198.5 147.5t241 52q228 0 353.5 -135.5t125.5 -362.5q0 -170 -46.5 -311.5t-127.5 -236t-188 -148.5t-229 -60q-58 -27 -91.5 -73t-33.5 -103q0 -42 23 -66t63 -24q43 0 72 17.5
t55 54.5l59 -105q-74 -110 -227 -110q-103 0 -163.5 52.5t-60.5 148.5zM715 1040q-117 0 -204.5 -77.5t-131 -202t-43.5 -275.5q0 -152 70.5 -237.5t199.5 -85.5q114 0 201.5 77.5t131.5 203t44 276.5q0 145 -67.5 233t-200.5 88z" />
    <glyph glyph-name="oogonek" unicode="&#x1eb;" horiz-adv-x="1040" 
d="M213 -231q0 130 111 227q-117 35 -183.5 133t-66.5 248q0 95 20 182t62 161.5t101.5 130t142 87t180.5 31.5q183 0 286 -109t103 -303q0 -149 -50 -273.5t-154 -207.5t-247 -96q-59 -29 -93 -75t-34 -104q0 -42 23 -66t63 -24q43 0 72 17.5t55 54.5l60 -105
q-74 -110 -228 -110q-103 0 -163 52t-60 149zM559 795q-79 0 -140 -56.5t-91.5 -148t-30.5 -201.5q0 -121 49 -184.5t137 -63.5q120 0 191 119.5t71 292.5q0 117 -48.5 179.5t-137.5 62.5z" />
    <glyph glyph-name="uni004F02DB00AF" unicode="&#x1ec;" horiz-adv-x="1284" 
d="M1061 1374h-567l30 170h566zM317 -231q0 135 111 227q-154 42 -236.5 167.5t-82.5 307.5q0 175 49.5 320t135 240.5t198.5 147.5t241 52q228 0 353.5 -135.5t125.5 -362.5q0 -170 -46.5 -311.5t-127.5 -236t-188 -148.5t-229 -60q-58 -27 -91.5 -73t-33.5 -103
q0 -42 23 -66t63 -24q43 0 72 17.5t55 54.5l59 -105q-74 -110 -227 -110q-103 0 -163.5 52.5t-60.5 148.5zM715 1040q-117 0 -204.5 -77.5t-131 -202t-43.5 -275.5q0 -152 70.5 -237.5t199.5 -85.5q114 0 201.5 77.5t131.5 203t44 276.5q0 145 -67.5 233t-200.5 88z" />
    <glyph glyph-name="oogonekmacron" unicode="&#x1ed;" horiz-adv-x="1040" 
d="M881 1130h-559l32 173h557zM213 -231q0 130 111 227q-117 35 -183.5 133t-66.5 248q0 95 20 182t62 161.5t101.5 130t142 87t180.5 31.5q183 0 286 -109t103 -303q0 -149 -50 -273.5t-154 -207.5t-247 -96q-59 -29 -93 -75t-34 -104q0 -42 23 -66t63 -24q43 0 72 17.5
t55 54.5l60 -105q-74 -110 -228 -110q-103 0 -163 52t-60 149zM559 795q-79 0 -140 -56.5t-91.5 -148t-30.5 -201.5q0 -121 49 -184.5t137 -63.5q120 0 191 119.5t71 292.5q0 117 -48.5 179.5t-137.5 62.5z" />
    <glyph glyph-name="Ezhcaron" unicode="&#x1ee;" horiz-adv-x="1026" 
d="M559 1016h-391l33 190h833l-24 -149l-484 -522l-2 -9q91 -5 160.5 -38t109.5 -85.5t60 -115.5t20 -135q0 -99 -28 -184t-77.5 -146.5t-116 -105t-144 -64.5t-160.5 -21q-205 0 -316.5 97t-111.5 276l182 74q0 -139 66.5 -209t183.5 -70q134 0 219.5 86.5t85.5 249.5
q0 119 -89 192.5t-285 73.5l26 154l281 324q41 47 79.5 83t56.5 48l19 12v8q-69 -14 -186 -14zM694 1333h-135l-213 275h213l51 -66q14 -17 22 -34t10 -25l1 -8h8q11 28 56 67l75 66h224z" />
    <glyph glyph-name="ezhcaron" unicode="&#x1ef;" horiz-adv-x="862" 
d="M238 444l161 177q41 43 81 80t60 53l19 16v8q-65 -8 -184 -8h-250l31 176h694l-25 -139l-397 -393v-6q75 -6 131.5 -34t90.5 -73t50.5 -100.5t16.5 -120.5q0 -95 -39 -172.5t-103 -125t-143 -72.5t-164 -25q-172 0 -256 75.5t-90 210.5l187 64q-4 -91 45 -141t129 -50
q100 0 162.5 60.5t62.5 165.5q0 49 -13 86t-44.5 69.5t-91 54t-146.5 29.5zM580 1079h-129l-211 310h204l56 -80q14 -21 21.5 -40t8.5 -27v-9h11q10 29 57 76l84 80h213z" />
    <glyph glyph-name="jcaron" unicode="&#x1f0;" horiz-adv-x="479" 
d="M414 1079h-129l-211 310h205l55 -80q14 -21 21.5 -40t8.5 -27l1 -9h10q10 29 57 76l84 80h213zM440 946l-188 -1081q-29 -164 -114 -230.5t-230 -66.5q-60 0 -116 15.5t-91 39.5l66 162q64 -51 137 -51q54 0 85.5 33.5t47.5 121.5l186 1057h217z" />
    <glyph glyph-name="jcaron" unicode="&#xe10c;" horiz-adv-x="479" 
d="M414 1079h-129l-211 310h205l55 -80q14 -21 21.5 -40t8.5 -27l1 -9h10q10 29 57 76l84 80h213zM440 946l-188 -1081q-29 -164 -114 -230.5t-230 -66.5q-60 0 -116 15.5t-91 39.5l66 162q64 -51 137 -51q54 0 85.5 33.5t47.5 121.5l186 1057h217z" />
    <glyph glyph-name="Gacute" unicode="&#x1f4;" horiz-adv-x="1257" 
d="M670 629h491l-108 -629h-150l-12 150q-86 -175 -316 -175q-219 0 -342.5 134t-123.5 362q0 175 50 320t135.5 240.5t198.5 147.5t240 52q183 0 289.5 -82.5t138.5 -235.5l-225 -82q-15 102 -71 155.5t-148 53.5q-118 0 -206 -77.5t-131.5 -202t-43.5 -275.5
q0 -155 71.5 -242t210.5 -87q115 0 190.5 57t96.5 176l10 57h-278zM850 1333h-197l129 266h279z" />
    <glyph glyph-name="gacute" unicode="&#x1f5;" horiz-adv-x="1060" 
d="M705 399l28 154q11 65 0 120t-50 92.5t-103 37.5q-129 0 -207 -119t-78 -297q0 -106 43.5 -170.5t128.5 -64.5q96 0 157 64t81 183zM1018 946l-170 -964q-37 -212 -158 -313t-342 -101q-171 0 -269.5 65.5t-127.5 180.5l174 96q11 -79 74 -128.5t157 -49.5
q122 0 187.5 67t91.5 197l31 166q-69 -176 -273 -176q-147 0 -232 102t-85 285q0 162 55 297t162 217t246 82q209 0 235 -183l55 160h189zM694 1081h-192l149 303h279z" />
    <glyph glyph-name="Ngrave" unicode="&#x1f8;" horiz-adv-x="1292" 
d="M500 1206l303 -643q26 -54 48 -112t31 -89l9 -32h8q14 130 41 282l104 594h222l-211 -1206h-209l-309 635q-27 55 -51 115.5t-34 93.5l-10 33h-8q-6 -127 -35 -289l-102 -588h-223l211 1206h215zM883 1333h-197l-213 266h279z" />
    <glyph glyph-name="ngrave" unicode="&#x1f9;" horiz-adv-x="1091" 
d="M961 649l-68 -399q-7 -41 3 -64.5t52 -23.5q27 0 60 8l-33 -160q-62 -20 -123 -20q-222 0 -182 233l69 393q30 172 -114 172q-80 0 -150 -67t-94 -209l-90 -512h-217l166 946h188l-6 -192q97 215 303 215q112 0 178 -61.5t66 -170.5q0 -36 -8 -88zM745 1081h-192
l-236 303h279z" />
    <glyph glyph-name="uni004102DA00B4" unicode="&#x1fa;" horiz-adv-x="1239" 
d="M885 0l-56 303h-481l-158 -303h-235l649 1206h281l227 -1206h-227zM567 1432q0 95 65 161t167 66q87 0 139.5 -54.5t52.5 -134.5q0 -97 -63.5 -163t-163.5 -66q-95 0 -146 54t-51 137zM922 1702h-197l129 266h279zM561 713l-119 -228h355q-27 132 -46.5 271t-27 215
t-4.5 76h-8q-50 -144 -150 -334zM788 1559q-46 0 -77 -34.5t-31 -82.5q0 -45 25 -72t69 -27q48 0 78.5 35t30.5 84q0 43 -25.5 70t-69.5 27z" />
    <glyph glyph-name="aringacute" unicode="&#x1fb;" horiz-adv-x="1112" 
d="M698 395l29 158q16 102 -21 176t-128 74q-126 0 -204.5 -122t-78.5 -300q0 -106 44 -172t128 -66q91 0 150.5 67.5t80.5 184.5zM1014 946l-123 -696q-7 -41 3 -64.5t52 -23.5q27 0 60 8l-31 -160q-65 -20 -125 -20q-179 0 -182 168q-37 -93 -111 -138t-168 -45
q-146 0 -230.5 102.5t-84.5 284.5q0 163 55 300.5t160.5 222t240.5 84.5q214 0 240 -183l53 160h191zM430 1210q0 94 65 160t167 66q87 0 139.5 -54.5t52.5 -134.5q0 -96 -63 -161.5t-164 -65.5q-94 0 -145.5 52.5t-51.5 137.5zM653 1337q-48 0 -79 -34.5t-31 -81.5
q0 -46 25 -72.5t69 -26.5q48 0 78 34.5t30 82.5q0 44 -24.5 71t-67.5 27zM778 1497h-196l131 264h278z" />
    <glyph glyph-name="AEacute" unicode="&#x1fc;" horiz-adv-x="1785" 
d="M838 0l51 303h-449l-235 -303h-250l942 1206h915l-32 -190h-543l-55 -318h479l-33 -186h-479l-57 -322h542l-32 -190h-764zM1391 1333h-197l129 266h279zM1022 1051l-440 -566h340l57 326q15 86 27.5 146t17.5 77l6 17h-8z" />
    <glyph glyph-name="aeacute" unicode="&#x1fd;" horiz-adv-x="1505" 
d="M1010 141q81 0 126 36.5t68 109.5l201 -49q-46 -141 -145.5 -202t-264.5 -61q-219 0 -325 154q-41 -73 -127.5 -113.5t-200.5 -40.5q-134 0 -208.5 65.5t-74.5 180.5q0 163 146 248.5t418 85.5q11 53 34 111q3 68 -32 102.5t-101 34.5q-71 0 -117 -38.5t-59 -111.5
l-203 35q35 143 145.5 212t260.5 69q188 0 256 -107q125 107 283 107q92 0 163 -28t113.5 -76.5t64 -108t21.5 -127.5q0 -114 -43 -201h-582q-6 -55 1 -105t27.5 -91.5t60.5 -66t94 -24.5zM948 1081h-190l147 303h281zM846 555h381q10 29 10 76q0 76 -39 125t-119 49
q-88 0 -149 -66t-84 -184zM602 377q0 33 2 51q-154 -5 -241 -49.5t-87 -132.5q0 -54 30.5 -83.5t88.5 -29.5q69 0 131.5 33.5t89.5 87.5q-14 65 -14 123z" />
    <glyph glyph-name="Oslashacute" unicode="&#x1fe;" horiz-adv-x="1284" 
d="M135 -27l-90 82l129 135q-65 115 -65 281q0 175 49.5 320t135 240.5t198.5 147.5t241 52q206 0 332 -117l113 117l96 -84l-129 -131q67 -119 67 -283q0 -175 -49.5 -319.5t-135 -239.5t-198.5 -147t-241 -52q-206 0 -336 117zM983 719q0 63 -14 115l-566 -584
q69 -88 203 -88q114 0 201.5 77.5t131.5 203t44 276.5zM872 1333h-196l131 266h278zM715 1040q-117 0 -204.5 -77.5t-131 -202t-43.5 -275.5q0 -72 12 -114l563 583q-73 86 -196 86z" />
    <glyph glyph-name="oslashacute" unicode="&#x1ff;" horiz-adv-x="1042" 
d="M580 969q179 0 280 -107l111 107l86 -90l-127 -121q39 -79 39 -201q0 -117 -33 -221.5t-94.5 -185t-159 -128t-217.5 -47.5q-161 0 -266 88l-99 -92l-86 84l109 105q-49 88 -49 217q0 95 20 182t62 161.5t101.5 130t142 87t180.5 31.5zM698 1081h-192l149 303h279z
M559 795q-113 0 -182.5 -104t-77.5 -257q0 -71 4 -104l404 387q-50 78 -148 78zM483 141q112 0 181 105.5t77 259.5q3 38 0 76l-395 -379q50 -62 137 -62z" />
    <glyph glyph-name="Adoublegrave" unicode="&#x200;" horiz-adv-x="1239" 
d="M885 0l-56 303h-481l-158 -303h-235l649 1206h281l227 -1206h-227zM678 1333h-168l-236 266h256zM991 1333h-155l-209 266h245zM561 713l-119 -228h355q-27 132 -46.5 271t-27 215t-4.5 76h-8q-50 -144 -150 -334z" />
    <glyph glyph-name="edoublegrave" unicode="&#x201;" horiz-adv-x="974" 
d="M479 141q83 0 128 35t67 111l203 -49q-48 -141 -148.5 -202t-267.5 -61q-182 0 -284.5 109.5t-102.5 296.5q0 138 41 252t109.5 186t155 111t179.5 39t164.5 -28t113.5 -76.5t63.5 -108t21.5 -127.5q0 -116 -41 -197h-590q-14 -120 34.5 -205.5t153.5 -85.5zM315 571h385
q9 27 9 60q0 76 -39.5 125t-118.5 49q-91 0 -151 -66t-85 -168zM811 1081h-156l-209 303h246zM498 1081h-168l-236 303h256z" />
    <glyph glyph-name="edoublegrave" unicode="&#x205;" horiz-adv-x="974" 
d="M479 141q83 0 128 35t67 111l203 -49q-48 -141 -148.5 -202t-267.5 -61q-182 0 -284.5 109.5t-102.5 296.5q0 138 41 252t109.5 186t155 111t179.5 39t164.5 -28t113.5 -76.5t63.5 -108t21.5 -127.5q0 -116 -41 -197h-590q-14 -120 34.5 -205.5t153.5 -85.5zM315 571h385
q9 27 9 60q0 76 -39.5 125t-118.5 49q-91 0 -151 -66t-85 -168zM811 1081h-156l-209 303h246zM498 1081h-168l-236 303h256z" />
    <glyph glyph-name="Ainvertedbreve" unicode="&#x202;" horiz-adv-x="1239" 
d="M885 0l-56 303h-481l-158 -303h-235l649 1206h281l227 -1206h-227zM807 1620q140 0 200 -75.5t35 -207.5h-163q8 64 -14.5 95.5t-86.5 31.5t-96.5 -31t-48.5 -96h-164q24 132 111 207.5t227 75.5zM561 713l-119 -228h355q-27 132 -46.5 271t-27 215t-4.5 76h-8
q-50 -144 -150 -334z" />
    <glyph glyph-name="ainvertedbreve" unicode="&#x203;" horiz-adv-x="1112" 
d="M698 395l29 158q16 102 -21 176t-128 74q-126 0 -204.5 -122t-78.5 -300q0 -106 44 -172t128 -66q91 0 150.5 67.5t80.5 184.5zM1014 946l-123 -696q-7 -41 3 -64.5t52 -23.5q27 0 60 8l-31 -160q-65 -20 -125 -20q-179 0 -182 168q-37 -93 -111 -138t-168 -45
q-146 0 -230.5 102.5t-84.5 284.5q0 163 55 300.5t160.5 222t240.5 84.5q214 0 240 -183l53 160h191zM666 1386q140 0 199.5 -82.5t35.5 -218.5h-166q10 72 -9 108t-87 36t-100.5 -36t-49.5 -108h-165q26 136 114 218.5t228 82.5z" />
    <glyph glyph-name="Edoublegrave" unicode="&#x204;" horiz-adv-x="1024" 
d="M870 190l-30 -190h-766l211 1206h766l-35 -190h-543l-55 -318h479l-33 -186h-479l-57 -322h542zM903 1333h-155l-209 266h243zM590 1333h-168l-238 266h258z" />
    <glyph glyph-name="Einvertedbreve" unicode="&#x206;" horiz-adv-x="1024" 
d="M870 190l-30 -190h-766l211 1206h766l-35 -190h-543l-55 -318h479l-33 -186h-479l-57 -322h542zM719 1620q140 0 199.5 -75.5t35.5 -207.5h-166q8 65 -13.5 96t-86.5 31q-63 0 -96 -31t-49 -96h-164q24 132 111 207.5t229 75.5z" />
    <glyph glyph-name="einvertedbreve" unicode="&#x207;" horiz-adv-x="974" 
d="M479 141q83 0 128 35t67 111l203 -49q-48 -141 -148.5 -202t-267.5 -61q-182 0 -284.5 109.5t-102.5 296.5q0 138 41 252t109.5 186t155 111t179.5 39t164.5 -28t113.5 -76.5t63.5 -108t21.5 -127.5q0 -116 -41 -197h-590q-14 -120 34.5 -205.5t153.5 -85.5zM315 571h385
q9 27 9 60q0 76 -39.5 125t-118.5 49q-91 0 -151 -66t-85 -168zM612 1386q139 0 199.5 -83t34.5 -218h-164q8 72 -10.5 108t-85.5 36q-69 0 -102 -36t-50 -108h-164q26 136 114 218.5t228 82.5z" />
    <glyph glyph-name="Idoublegrave" unicode="&#x208;" horiz-adv-x="534" 
d="M285 1206h223l-211 -1206h-223zM655 1333h-155l-209 266h246zM344 1333h-168l-237 266h256z" />
    <glyph glyph-name="idoublegrave" unicode="&#x209;" horiz-adv-x="538" 
d="M440 946l-121 -696q-16 -88 56 -88q26 0 59 8l-33 -160q-62 -20 -122 -20q-223 0 -183 233l127 723h217zM600 1081h-158l-209 303h246zM287 1081h-168l-238 303h256z" />
    <glyph glyph-name="Iinvertedbreve" unicode="&#x20a;" horiz-adv-x="534" 
d="M285 1206h223l-211 -1206h-223zM471 1620q140 0 200 -75.5t36 -207.5h-164q8 64 -14.5 95.5t-86.5 31.5q-65 0 -98 -31t-47 -96h-166q25 133 112 208t228 75z" />
    <glyph glyph-name="iinvertedbreve" unicode="&#x20b;" horiz-adv-x="538" 
d="M440 946l-121 -696q-16 -88 56 -88q26 0 59 8l-33 -160q-62 -20 -122 -20q-223 0 -183 233l127 723h217zM401 1386q139 0 199.5 -83t34.5 -218h-164q8 72 -10.5 108t-85.5 36q-69 0 -102 -36t-50 -108h-164q26 136 114 218.5t228 82.5z" />
    <glyph glyph-name="Odoublegrave" unicode="&#x20c;" horiz-adv-x="1284" 
d="M588 -25q-227 0 -353 134.5t-126 361.5q0 175 49.5 320t135 240.5t198.5 147.5t241 52q228 0 353.5 -135.5t125.5 -362.5q0 -175 -49.5 -319.5t-135 -239.5t-198.5 -147t-241 -52zM715 1040q-117 0 -204.5 -77.5t-131 -202t-43.5 -275.5q0 -152 70.5 -237.5t199.5 -85.5
q114 0 201.5 77.5t131.5 203t44 276.5q0 145 -67.5 233t-200.5 88zM1006 1333h-156l-209 266h246zM694 1333h-168l-237 266h256z" />
    <glyph glyph-name="odoublegrave" unicode="&#x20d;" horiz-adv-x="1042" 
d="M580 969q183 0 286 -109t103 -303q0 -117 -33 -221.5t-94.5 -185t-159 -128t-217.5 -47.5q-175 0 -283 105.5t-108 296.5q0 95 20 182t62 161.5t101.5 130t142 87t180.5 31.5zM559 795q-79 0 -140 -56.5t-91.5 -148t-30.5 -201.5q0 -121 49 -184.5t137 -63.5
q120 0 191 119.5t71 292.5q0 117 -48.5 179.5t-137.5 62.5zM840 1081h-158l-209 303h246zM526 1081h-168l-237 303h256z" />
    <glyph glyph-name="Oinvertedbreve" unicode="&#x20e;" horiz-adv-x="1284" 
d="M588 -25q-227 0 -353 134.5t-126 361.5q0 175 49.5 320t135 240.5t198.5 147.5t241 52q228 0 353.5 -135.5t125.5 -362.5q0 -175 -49.5 -319.5t-135 -239.5t-198.5 -147t-241 -52zM715 1040q-117 0 -204.5 -77.5t-131 -202t-43.5 -275.5q0 -152 70.5 -237.5t199.5 -85.5
q114 0 201.5 77.5t131.5 203t44 276.5q0 145 -67.5 233t-200.5 88zM821 1620q140 0 200 -75.5t36 -207.5h-164q8 64 -14 95.5t-86 31.5q-65 0 -98.5 -31.5t-47.5 -95.5h-166q25 133 112 208t228 75z" />
    <glyph glyph-name="oinvertedbreve" unicode="&#x20f;" horiz-adv-x="1042" 
d="M580 969q183 0 286 -109t103 -303q0 -117 -33 -221.5t-94.5 -185t-159 -128t-217.5 -47.5q-175 0 -283 105.5t-108 296.5q0 95 20 182t62 161.5t101.5 130t142 87t180.5 31.5zM559 795q-79 0 -140 -56.5t-91.5 -148t-30.5 -201.5q0 -121 49 -184.5t137 -63.5
q120 0 191 119.5t71 292.5q0 117 -48.5 179.5t-137.5 62.5zM639 1386q140 0 199.5 -82.5t35.5 -218.5h-163q8 72 -11.5 108t-87.5 36t-100 -36t-49 -108h-164q24 135 113 218t227 83z" />
    <glyph glyph-name="Rinvertedbreve" unicode="&#x212;" horiz-adv-x="1144" 
d="M1024 0h-240q-33 30 -47 117l-32 198q-15 92 -54 123t-129 31h-143l-82 -469h-223l211 1206h428q194 0 280 -73t86 -226q0 -86 -28.5 -154t-76.5 -109t-103.5 -63.5t-116.5 -27.5v-8q84 -12 122.5 -52t55.5 -133l41 -233q14 -77 51 -127zM475 1022l-65 -373h202
q110 0 175 53.5t65 167.5q0 77 -42 114.5t-134 37.5h-201zM735 1620q140 0 200.5 -76t35.5 -207h-164q8 64 -14 95.5t-86 31.5q-65 0 -97.5 -31t-48.5 -96h-164q24 132 111 207.5t227 75.5z" />
    <glyph glyph-name="rinvertedbreve" unicode="&#x213;" horiz-adv-x="737" 
d="M782 963l-53 -252q-41 14 -85.5 15t-87 -12.5t-78 -38.5t-61.5 -67.5t-36 -97.5l-90 -510h-217l166 946h188l-12 -233q49 129 150.5 201.5t215.5 48.5zM563 1386q140 0 200 -83t36 -218h-166q10 72 -9 108t-87 36t-100.5 -36t-49.5 -108h-166q26 136 114 218.5t228 82.5z
" />
    <glyph glyph-name="Udoublegrave" unicode="&#x214;" horiz-adv-x="1220" 
d="M993 1206h221l-141 -807q-21 -120 -68.5 -204t-118.5 -131.5t-155 -68t-190 -20.5q-103 0 -184.5 26.5t-142.5 81.5t-84.5 151.5t-0.5 226.5l131 745h223l-133 -749q-52 -299 219 -299q128 0 196 68t93 220zM987 1333h-156l-208 266h245zM674 1333h-168l-236 266h256z
" />
    <glyph glyph-name="udoublegrave" unicode="&#x215;" horiz-adv-x="1085" 
d="M657 180q-44 -108 -117.5 -156.5t-187.5 -48.5q-150 0 -213.5 94.5t-34.5 264.5l107 612h217l-111 -633q-14 -86 16.5 -132t100.5 -46q84 0 150.5 64.5t87.5 185.5l98 561h217l-121 -696q-16 -88 54 -88q28 0 61 8l-33 -160q-62 -20 -123 -20q-98 0 -137.5 47t-30.5 143z
M858 1081h-158l-206 303h243zM545 1081h-168l-238 303h256z" />
    <glyph glyph-name="Uinvertedbreve" unicode="&#x216;" horiz-adv-x="1220" 
d="M993 1206h221l-141 -807q-21 -120 -68.5 -204t-118.5 -131.5t-155 -68t-190 -20.5q-103 0 -184.5 26.5t-142.5 81.5t-84.5 151.5t-0.5 226.5l131 745h223l-133 -749q-52 -299 219 -299q128 0 196 68t93 220zM803 1620q140 0 199.5 -75.5t35.5 -207.5h-164q8 64 -14 95.5
t-86 31.5q-65 0 -98 -31t-47 -96h-164q24 132 111 207.5t227 75.5z" />
    <glyph glyph-name="uinvertedbreve" unicode="&#x217;" horiz-adv-x="1085" 
d="M657 180q-44 -108 -117.5 -156.5t-187.5 -48.5q-150 0 -213.5 94.5t-34.5 264.5l107 612h217l-111 -633q-14 -86 16.5 -132t100.5 -46q84 0 150.5 64.5t87.5 185.5l98 561h217l-121 -696q-16 -88 54 -88q28 0 61 8l-33 -160q-62 -20 -123 -20q-98 0 -137.5 47t-30.5 143z
M657 1386q140 0 200 -83t36 -218h-164q8 73 -11 108.5t-87 35.5t-100.5 -36t-49.5 -108h-164q24 135 113 218t227 83z" />
    <glyph glyph-name="Scommaaccent" unicode="&#x218;" horiz-adv-x="1021" 
d="M33 289l200 61q0 -102 58 -156.5t160 -54.5q101 0 158 43.5t57 134.5q0 76 -42.5 119.5t-152.5 83.5q-73 25 -124.5 53.5t-91 68.5t-58.5 94.5t-19 125.5q0 80 26.5 144t69 105.5t100 69t115 39t117.5 11.5q189 0 287 -77t102 -249l-215 -37q4 91 -46.5 140t-143.5 49
q-90 0 -144.5 -44.5t-54.5 -123.5q0 -71 42.5 -105.5t160.5 -78.5q156 -59 225.5 -137t69.5 -220q0 -98 -37 -171.5t-102 -116.5t-145.5 -64t-176.5 -21q-381 0 -395 314zM508 -283q0 -114 -79.5 -171.5t-211.5 -57.5v80q73 3 114.5 22t41.5 64q-56 -11 -92.5 17t-36.5 83
q0 57 34.5 87t90.5 30q62 0 100.5 -40.5t38.5 -113.5z" />
    <glyph glyph-name="scommaaccent" unicode="&#x219;" horiz-adv-x="858" 
d="M25 248l184 53q3 -87 49.5 -131.5t124.5 -44.5q149 0 149 119q0 56 -34 90t-123 63q-119 39 -176.5 105t-57.5 172q0 144 99.5 219.5t257.5 75.5t238.5 -66t80.5 -190l-190 -35q0 67 -37.5 103t-108.5 36q-63 0 -101 -30.5t-38 -84.5q0 -45 34 -74.5t136 -68.5
q128 -49 179.5 -115.5t51.5 -179.5q0 -146 -99.5 -217.5t-270.5 -71.5q-159 0 -250.5 70t-97.5 203zM442 -283q0 -114 -79 -171.5t-211 -57.5v80q46 2 77.5 9t54.5 26.5t23 50.5q-57 -11 -93 17t-36 83q0 57 34 87t91 30q61 0 100 -40.5t39 -113.5z" />
    <glyph glyph-name="Hcaron" unicode="&#x21e;" horiz-adv-x="1290" 
d="M297 0h-223l211 1206h223l-88 -499h534l86 499h224l-211 -1206h-224l91 518h-533zM854 1333h-135l-211 275h211l51 -66q14 -17 22.5 -34t10.5 -25l2 -8h6q12 28 55 67l78 66h221z" />
    <glyph glyph-name="hcaron" unicode="&#x21f;" horiz-adv-x="1091" 
d="M961 649l-68 -399q-7 -41 3 -64.5t52 -23.5q27 0 60 8l-33 -160q-62 -20 -123 -20q-222 0 -182 233l69 393q30 172 -114 172q-80 0 -150 -67t-94 -209l-90 -512h-217l237 1368h221l-110 -614q51 107 124 161t179 54q112 0 178 -61.5t66 -170.5q0 -36 -8 -88zM496 1442
h-136l-213 274h213l52 -65q14 -18 22 -35t9 -25l1 -8h9q10 27 55 68l76 65h223z" />
    <glyph glyph-name="Adotabove" unicode="&#x226;" horiz-adv-x="1239" 
d="M885 0l-56 303h-481l-158 -303h-235l649 1206h281l227 -1206h-227zM635 1491q0 61 39 98t98 37q61 0 101 -36.5t40 -98.5q0 -59 -40 -96t-101 -37q-58 0 -97.5 37t-39.5 96zM561 713l-119 -228h355q-27 132 -46.5 271t-27 215t-4.5 76h-8q-50 -144 -150 -334z" />
    <glyph glyph-name="adotabove" unicode="&#x227;" horiz-adv-x="1112" 
d="M698 395l29 158q16 102 -21 176t-128 74q-126 0 -204.5 -122t-78.5 -300q0 -106 44 -172t128 -66q91 0 150.5 67.5t80.5 184.5zM1014 946l-123 -696q-7 -41 3 -64.5t52 -23.5q27 0 60 8l-31 -160q-65 -20 -125 -20q-179 0 -182 168q-37 -93 -111 -138t-168 -45
q-146 0 -230.5 102.5t-84.5 284.5q0 163 55 300.5t160.5 222t240.5 84.5q214 0 240 -183l53 160h191zM500 1239q0 61 39 98t98 37q63 0 102 -36.5t39 -98.5q0 -60 -39.5 -96.5t-101.5 -36.5q-58 0 -97.5 37t-39.5 96z" />
    <glyph glyph-name="Otildemacron" unicode="&#x22c;" horiz-adv-x="1284" 
d="M588 -25q-227 0 -353 134.5t-126 361.5q0 175 49.5 320t135 240.5t198.5 147.5t241 52q228 0 353.5 -135.5t125.5 -362.5q0 -175 -49.5 -319.5t-135 -239.5t-198.5 -147t-241 -52zM715 1040q-117 0 -204.5 -77.5t-131 -202t-43.5 -275.5q0 -152 70.5 -237.5t199.5 -85.5
q114 0 201.5 77.5t131.5 203t44 276.5q0 145 -67.5 233t-200.5 88zM893 1268q-37 0 -66.5 8t-43.5 15.5t-44 27.5q-6 4 -20 13t-18 11.5t-14.5 9t-15.5 8t-13.5 4.5t-15.5 4t-15 1q-33 0 -55 -26t-25 -76h-125q-24 116 37 196t166 80q35 0 64.5 -9.5t42.5 -17t44 -28.5
q63 -41 83 -47q14 -4 28 -4q65 0 71 102h134q23 -119 -33.5 -195.5t-165.5 -76.5zM1094 1599h-568l31 170h565z" />
    <glyph glyph-name="otildemacron" unicode="&#x22d;" horiz-adv-x="1042" 
d="M580 969q183 0 286 -109t103 -303q0 -117 -33 -221.5t-94.5 -185t-159 -128t-217.5 -47.5q-175 0 -283 105.5t-108 296.5q0 95 20 182t62 161.5t101.5 130t142 87t180.5 31.5zM559 795q-79 0 -140 -56.5t-91.5 -148t-30.5 -201.5q0 -121 49 -184.5t137 -63.5
q120 0 191 119.5t71 292.5q0 117 -48.5 179.5t-137.5 62.5zM743 1016q-12 0 -23 0.5t-21.5 3t-18 3.5t-17.5 5.5t-14.5 6t-15 8t-13 8t-14.5 9.5t-14 9q-64 42 -86 47q-13 4 -27 4q-34 0 -56.5 -26t-23.5 -76h-125q-26 115 36 194.5t167 79.5q34 0 63 -8.5t44 -16.5t45 -28
q32 -22 44.5 -30t29.5 -14.5t34 -6.5q66 0 74 102h131q25 -121 -31.5 -197.5t-167.5 -76.5zM932 1360h-559l30 172h560z" />
    <glyph glyph-name="Odotabove" unicode="&#x22e;" horiz-adv-x="1284" 
d="M588 -25q-227 0 -353 134.5t-126 361.5q0 175 49.5 320t135 240.5t198.5 147.5t241 52q228 0 353.5 -135.5t125.5 -362.5q0 -175 -49.5 -319.5t-135 -239.5t-198.5 -147t-241 -52zM715 1040q-117 0 -204.5 -77.5t-131 -202t-43.5 -275.5q0 -152 70.5 -237.5t199.5 -85.5
q114 0 201.5 77.5t131.5 203t44 276.5q0 145 -67.5 233t-200.5 88zM649 1491q0 61 39 98t98 37q63 0 103.5 -36.5t40.5 -98.5q0 -59 -41 -96t-103 -37q-58 0 -97.5 37t-39.5 96z" />
    <glyph glyph-name="odotabove" unicode="&#x22f;" horiz-adv-x="1042" 
d="M580 969q183 0 286 -109t103 -303q0 -117 -33 -221.5t-94.5 -185t-159 -128t-217.5 -47.5q-175 0 -283 105.5t-108 296.5q0 95 20 182t62 161.5t101.5 130t142 87t180.5 31.5zM559 795q-79 0 -140 -56.5t-91.5 -148t-30.5 -201.5q0 -121 49 -184.5t137 -63.5
q120 0 191 119.5t71 292.5q0 117 -48.5 179.5t-137.5 62.5zM545 1239q0 61 39.5 98t97.5 37q63 0 103 -36.5t40 -98.5q0 -59 -40.5 -96t-102.5 -37q-57 0 -97 37t-40 96z" />
    <glyph glyph-name="odotabovemacron" unicode="&#x231;" horiz-adv-x="1042" 
d="M580 969q183 0 286 -109t103 -303q0 -117 -33 -221.5t-94.5 -185t-159 -128t-217.5 -47.5q-175 0 -283 105.5t-108 296.5q0 95 20 182t62 161.5t101.5 130t142 87t180.5 31.5zM559 795q-79 0 -140 -56.5t-91.5 -148t-30.5 -201.5q0 -121 49 -184.5t137 -63.5
q120 0 191 119.5t71 292.5q0 117 -48.5 179.5t-137.5 62.5zM938 1346h-559l31 172h559zM485 1147q0 61 39.5 98t98.5 37q63 0 102 -36.5t39 -98.5q0 -60 -39.5 -96.5t-101.5 -36.5q-58 0 -98 37t-40 96z" />
    <glyph glyph-name="odotabovemacron" unicode="&#xe11e;" horiz-adv-x="1042" 
d="M580 969q183 0 286 -109t103 -303q0 -117 -33 -221.5t-94.5 -185t-159 -128t-217.5 -47.5q-175 0 -283 105.5t-108 296.5q0 95 20 182t62 161.5t101.5 130t142 87t180.5 31.5zM559 795q-79 0 -140 -56.5t-91.5 -148t-30.5 -201.5q0 -121 49 -184.5t137 -63.5
q120 0 191 119.5t71 292.5q0 117 -48.5 179.5t-137.5 62.5zM938 1346h-559l31 172h559zM485 1147q0 61 39.5 98t98.5 37q63 0 102 -36.5t39 -98.5q0 -60 -39.5 -96.5t-101.5 -36.5q-58 0 -98 37t-40 96z" />
    <glyph glyph-name="Ymacron" unicode="&#x232;" horiz-adv-x="1060" 
d="M389 1206l115 -350q21 -64 33 -127t14 -94l2 -31h8q33 107 125 250l227 352h236l-504 -768l-76 -438h-223l76 438l-264 768h231zM973 1374h-565l28 170h565z" />
    <glyph glyph-name="ymacron" unicode="&#x233;" horiz-adv-x="909" 
d="M311 946l54 -512q9 -79 11.5 -152t0.5 -106l-2 -33h8q31 131 115 293l262 510h227l-567 -1048q-44 -83 -87.5 -142.5t-82.5 -96t-83 -57t-83.5 -27.5t-89.5 -7q-96 0 -164 37l55 172q61 -37 119 -37q70 0 124 47.5t112 157.5l-154 1001h225zM815 1130h-557l31 173h559z
" />
    <glyph glyph-name="dotlessj" unicode="&#x237;" horiz-adv-x="479" 
d="M440 946l-188 -1081q-29 -164 -114 -230.5t-230 -66.5q-60 0 -116 15.5t-91 39.5l66 162q64 -51 137 -51q54 0 85.5 33.5t47.5 121.5l186 1057h217z" />
    <glyph glyph-name="schwa" unicode="&#x259;" horiz-adv-x="995" 
d="M516 803q-138 0 -201 -148l-194 52q105 262 414 262q182 0 284.5 -109t102.5 -293q0 -143 -41 -258.5t-110 -186.5t-155 -109t-180 -38q-180 0 -271 98t-91 242q0 116 41 197h583q7 76 -7.5 140t-59.5 107.5t-115 43.5zM676 373h-381q-6 -27 -6 -60q0 -77 38.5 -125.5
t118.5 -48.5q169 0 230 234z" />
    <glyph glyph-name="ezh" unicode="&#x292;" horiz-adv-x="862" 
d="M238 444l161 177q41 43 81 80t60 53l19 16v8q-65 -8 -184 -8h-250l31 176h694l-25 -139l-397 -393v-6q75 -6 131.5 -34t90.5 -73t50.5 -100.5t16.5 -120.5q0 -95 -39 -172.5t-103 -125t-143 -72.5t-164 -25q-172 0 -256 75.5t-90 210.5l187 64q-4 -91 45 -141t129 -50
q100 0 162.5 60.5t62.5 165.5q0 49 -13 86t-44.5 69.5t-91 54t-146.5 29.5z" />
    <glyph glyph-name="circumflex" unicode="&#x2c6;" horiz-adv-x="983" 
d="M481 1389h129l209 -310h-205l-55 80q-14 20 -21.5 38.5t-8.5 26.5l-1 9h-8q-12 -29 -59 -74l-82 -80h-215z" />
    <glyph glyph-name="caron" unicode="&#x2c7;" horiz-adv-x="983" 
d="M502 1079h-129l-209 310h205l55 -80q14 -21 21.5 -40t8.5 -27l1 -9h8q12 29 59 76l82 80h215z" />
    <glyph glyph-name="breve" unicode="&#x2d8;" horiz-adv-x="911" 
d="M408 1075q-140 0 -200 82t-36 217h164q-4 -44 -0.5 -75.5t27.5 -49.5t71 -18q69 0 101 35.5t49 107.5h164q-24 -135 -113 -217t-227 -82z" />
    <glyph glyph-name="dotaccent" unicode="&#x2d9;" horiz-adv-x="606" 
d="M164 1239q0 61 39 98t98 37q63 0 102 -36.5t39 -98.5q0 -60 -39.5 -96.5t-101.5 -36.5q-58 0 -97.5 37t-39.5 96z" />
    <glyph glyph-name="ring" unicode="&#x2da;" horiz-adv-x="751" 
d="M164 1247q0 95 64.5 161.5t166.5 66.5q87 0 140 -54.5t53 -134.5q0 -97 -64 -163t-164 -66q-94 0 -145 53.5t-51 136.5zM385 1374q-47 0 -78 -34.5t-31 -82.5q0 -45 25.5 -71.5t69.5 -26.5q48 0 78 35t30 84q0 43 -25 69.5t-69 26.5z" />
    <glyph glyph-name="ogonek" unicode="&#x2db;" horiz-adv-x="778" 
d="M164 -231q0 60 24.5 114.5t64 93t89.5 67.5t101.5 43t99.5 15l63 -102q-112 0 -188 -55.5t-76 -143.5q0 -42 23 -66t63 -24q43 0 72 17.5t55 54.5l59 -105q-74 -110 -227 -110q-103 0 -163 52t-60 149z" />
    <glyph glyph-name="tilde" unicode="&#x2dc;" horiz-adv-x="1013" 
d="M641 1077q-11 0 -21.5 1t-18.5 1.5t-18 3.5t-15 4t-14.5 5.5t-13 6t-13.5 7.5t-12 7t-13 8.5t-13 8.5q-5 3 -19.5 12.5t-19 12.5t-15 9t-15.5 8t-13 5t-15 4t-15 1q-34 0 -56.5 -26.5t-23.5 -76.5h-125q-26 115 36 195t167 80q34 0 63.5 -9t42 -16.5t45.5 -28.5
q44 -30 64.5 -40.5t44.5 -10.5q66 0 74 103h131q25 -121 -31.5 -198t-167.5 -77z" />
    <glyph glyph-name="hungarumlaut" unicode="&#x2dd;" horiz-adv-x="1046" 
d="M319 1081h-155l121 303h243zM645 1081h-168l148 303h258z" />
    <glyph glyph-name="uni0312" unicode="&#x312;" horiz-adv-x="673" 
d="M164 1485q0 114 79.5 171.5t211.5 57.5v-82q-156 -4 -156 -84q57 11 93 -17t36 -83q0 -57 -34 -87t-91 -30q-61 0 -100 40t-39 114z" />
    <glyph glyph-name="uni0320" unicode="&#x320;" horiz-adv-x="917" 
d="M723 -381h-559l31 172h559z" />
    <glyph glyph-name="uni0323" unicode="&#x323;" horiz-adv-x="606" 
d="M164 -250q0 61 39 98t98 37q61 0 101 -36.5t40 -98.5q0 -59 -40 -96t-101 -37q-58 0 -97.5 37t-39.5 96z" />
    <glyph glyph-name="uni0329" unicode="&#x329;" horiz-adv-x="528" 
d="M164 -416v314h201v-299z" />
    <glyph glyph-name="pi" unicode="&#x3c0;" horiz-adv-x="1316" 
d="M418 985h882l-28 -166h-213l-109 -579q-20 -109 54 -109q34 0 57 22.5t55 75.5l103 -102q-45 -83 -111.5 -117.5t-159.5 -34.5q-126 0 -177.5 71t-27.5 202l111 571h-231l-242 -819h-215l248 819h-27q-74 0 -121 -42t-53 -128h-170q7 167 102 251.5t273 84.5z" />
    <glyph glyph-name="pi" unicode="&#x3d6;" horiz-adv-x="1316" 
d="M418 985h882l-28 -166h-213l-109 -579q-20 -109 54 -109q34 0 57 22.5t55 75.5l103 -102q-45 -83 -111.5 -117.5t-159.5 -34.5q-126 0 -177.5 71t-27.5 202l111 571h-231l-242 -819h-215l248 819h-27q-74 0 -121 -42t-53 -128h-170q7 167 102 251.5t273 84.5z" />
    <glyph glyph-name="uni0E3F" unicode="&#xe3f;" horiz-adv-x="1058" 
d="M756 508v-8q99 -6 152 -60.5t53 -140.5q0 -299 -414 -299h-45l-37 -217h-103l37 217h-338l172 985h340l35 191h103l-35 -191q155 0 234 -54.5t79 -170.5q0 -223 -233 -252zM610 426h-32l-48 -264h21q203 0 203 147q0 117 -144 117zM379 567h121l45 258h-121zM354 426
l-45 -264h119l47 264h-121zM776 721q0 101 -129 104l-45 -258q79 0 126.5 39t47.5 115z" />
    <glyph glyph-name="Ddotbelow" unicode="&#x1e0c;" horiz-adv-x="1241" 
d="M328 184h159q94 0 173.5 32t141 96t96 168.5t34.5 240.5q0 301 -322 301h-135zM479 0h-405l211 1206h364q257 0 385.5 -119t128.5 -346q0 -157 -38 -283.5t-102 -210.5t-152.5 -140.5t-186 -81.5t-205.5 -25zM260 -281q0 62 39 99t98 37q61 0 101.5 -37t40.5 -99
q0 -59 -40.5 -96t-101.5 -37q-58 0 -97.5 37t-39.5 96z" />
    <glyph glyph-name="ddotbelow" unicode="&#x1e0d;" horiz-adv-x="1112" 
d="M702 393l31 160q11 65 -0.5 120t-51 92.5t-103.5 37.5q-85 0 -150.5 -57.5t-100 -153.5t-34.5 -213q0 -104 44.5 -170t127.5 -66q94 0 155.5 65t81.5 185zM1092 1368l-195 -1118q-7 -41 3 -64.5t52 -23.5q27 0 60 8l-33 -160q-62 -20 -123 -20q-179 0 -182 168
q-35 -95 -111 -139t-174 -44q-146 0 -230.5 102.5t-84.5 284.5q0 121 32.5 231.5t91 193.5t146.5 132.5t191 49.5q100 0 163 -45.5t76 -137.5l103 582h215zM274 -281q0 61 39.5 98.5t98.5 37.5q61 0 101 -37t40 -99q0 -59 -40 -96t-101 -37q-58 0 -98 37t-40 96z" />
    <glyph glyph-name="Dcedilla" unicode="&#x1e10;" horiz-adv-x="1241" 
d="M612 -250q0 -88 -63.5 -135t-161.5 -47q-131 0 -194 76l51 114q55 -73 127 -73q75 0 75 63q0 78 -118 86l63 166h-317l211 1206h364q257 0 385.5 -119t128.5 -346q0 -158 -37.5 -284.5t-101 -209.5t-151.5 -139t-183.5 -81t-202.5 -27l-34 -80q83 -18 121 -57t38 -113z
M328 184h159q94 0 173.5 32t141 96t96 168.5t34.5 240.5q0 301 -322 301h-135z" />
    <glyph glyph-name="dcedilla" unicode="&#x1e11;" horiz-adv-x="1112" 
d="M629 -250q0 -88 -64 -135t-162 -47q-134 0 -194 76l49 114q55 -73 127 -73q76 0 76 63q0 78 -119 86l55 141q-50 5 -59 7q-125 17 -194.5 116.5t-69.5 263.5q0 153 48.5 283.5t144 217.5t220.5 102q42 3 84 0q180 -13 203 -179l103 582h215l-195 -1118q-7 -41 3 -64.5
t52 -23.5q27 0 60 8l-33 -160q-62 -20 -123 -20q-179 0 -182 168q-47 -124 -174 -162l-33 -76q84 -18 123 -57.5t39 -112.5zM702 393l31 160q10 64 -1 119.5t-51 93t-103 37.5q-85 0 -150.5 -57.5t-100 -153.5t-34.5 -213q0 -104 44.5 -170t127.5 -66q94 0 155.5 65
t81.5 185z" />
    <glyph glyph-name="Hdotbelow" unicode="&#x1e24;" horiz-adv-x="1290" 
d="M297 0h-223l211 1206h223l-88 -499h534l86 499h224l-211 -1206h-224l91 518h-533zM373 -281q0 62 39 99t98 37q61 0 101 -37t40 -99q0 -59 -40 -96t-101 -37q-58 0 -97.5 37t-39.5 96z" />
    <glyph glyph-name="hdotbelow" unicode="&#x1e25;" horiz-adv-x="1091" 
d="M961 649l-68 -399q-7 -41 3 -64.5t52 -23.5q27 0 60 8l-33 -160q-62 -20 -123 -20q-222 0 -182 233l69 393q30 172 -114 172q-80 0 -150 -67t-94 -209l-90 -512h-217l237 1368h221l-110 -614q51 107 124 161t179 54q112 0 178 -61.5t66 -170.5q0 -36 -8 -88zM301 -281
q0 62 39 99t98 37q61 0 101.5 -37t40.5 -99q0 -59 -40.5 -96t-101.5 -37q-58 0 -97.5 37t-39.5 96z" />
    <glyph glyph-name="Ldotbelow" unicode="&#x1e36;" horiz-adv-x="950" 
d="M285 1206h223l-180 -1016h514l-33 -190h-735zM258 -281q0 62 39 99t98 37q63 0 103.5 -37t40.5 -99q0 -59 -41 -96t-103 -37q-58 0 -97.5 37t-39.5 96z" />
    <glyph glyph-name="ldotbelow" unicode="&#x1e37;" horiz-adv-x="536" 
d="M516 1368l-197 -1118q-16 -88 56 -88q26 0 59 8l-33 -160q-62 -20 -122 -20q-223 0 -183 233l203 1145h217zM29 -281q0 62 39 99t98 37q63 0 103 -37t40 -99q0 -59 -40.5 -96t-102.5 -37q-58 0 -97.5 37t-39.5 96z" />
    <glyph glyph-name="uni004C032300AF" unicode="&#x1e38;" horiz-adv-x="950" 
d="M285 1206h223l-180 -1016h514l-33 -190h-735zM258 -281q0 62 39 99t98 37q63 0 103.5 -37t40.5 -99q0 -59 -41 -96t-103 -37q-58 0 -97.5 37t-39.5 96zM719 1374h-565l28 170h568z" />
    <glyph glyph-name="ldotbelowmacron" unicode="&#x1e39;" horiz-adv-x="536" 
d="M516 1368l-197 -1118q-16 -88 56 -88q26 0 59 8l-33 -160q-62 -20 -122 -20q-223 0 -183 233l203 1145h217zM29 -281q0 62 39 99t98 37q61 0 101 -37t40 -99q0 -59 -40 -96t-101 -37q-58 0 -97.5 37t-39.5 96zM713 1460h-566l29 170h567z" />
    <glyph glyph-name="Mdotbelow" unicode="&#x1e42;" horiz-adv-x="1454" 
d="M764 289h-127l-135 362q-21 53 -35.5 106.5t-18.5 80.5l-4 28h-8q-1 -78 -26 -219l-113 -647h-223l211 1206h237l168 -489q17 -51 29 -96.5t15 -65.5l3 -20h8q21 65 101 178l344 493h237l-210 -1206h-224l113 647q11 63 23.5 117.5t18.5 77.5l7 24h-8q-39 -88 -125 -209z
M451 -281q0 62 39 99t98 37q61 0 101 -37t40 -99q0 -59 -40 -96t-101 -37q-58 0 -97.5 37t-39.5 96z" />
    <glyph glyph-name="mdotbelow" unicode="&#x1e43;" horiz-adv-x="1601" 
d="M825 0h-217l109 616q14 80 -12.5 126t-98.5 46q-35 0 -68 -14.5t-64 -45.5t-55.5 -86.5t-37.5 -129.5l-90 -512h-217l166 946h188l-6 -192q48 110 114 162.5t175 52.5q107 0 170 -60.5t63 -167.5q44 115 116 171.5t185 56.5q107 0 170.5 -61.5t63.5 -170.5q0 -29 -9 -88
l-67 -399q-7 -41 3 -64.5t52 -23.5q27 0 60 8l-31 -160q-65 -20 -125 -20q-223 0 -180 233l69 393q27 172 -112 172q-75 0 -137.5 -66t-88.5 -210zM522 -281q0 62 39 99t98 37q63 0 103.5 -37t40.5 -99q0 -59 -41 -96t-103 -37q-58 0 -97.5 37t-39.5 96z" />
    <glyph glyph-name="Ndotaccent" unicode="&#x1e44;" horiz-adv-x="1292" 
d="M500 1206l303 -643q26 -54 48 -112t31 -89l9 -32h8q14 130 41 282l104 594h222l-211 -1206h-209l-309 635q-27 55 -51 115.5t-34 93.5l-10 33h-8q-6 -127 -35 -289l-102 -588h-223l211 1206h215zM657 1491q0 61 39.5 98t98.5 37q61 0 101 -36.5t40 -98.5q0 -59 -40 -96
t-101 -37q-58 0 -98 37t-40 96z" />
    <glyph glyph-name="ndotaccent" unicode="&#x1e45;" horiz-adv-x="1091" 
d="M961 649l-68 -399q-7 -41 3 -64.5t52 -23.5q27 0 60 8l-33 -160q-62 -20 -123 -20q-222 0 -182 233l69 393q30 172 -114 172q-80 0 -150 -67t-94 -209l-90 -512h-217l166 946h188l-6 -192q97 215 303 215q112 0 178 -61.5t66 -170.5q0 -36 -8 -88zM512 1239q0 61 39.5 98
t97.5 37q63 0 103.5 -36.5t40.5 -98.5q0 -59 -41 -96t-103 -37q-57 0 -97 37t-40 96z" />
    <glyph glyph-name="Ndotbelow" unicode="&#x1e46;" horiz-adv-x="1292" 
d="M500 1206l303 -643q26 -54 48 -112t31 -89l9 -32h8q14 130 41 282l104 594h222l-211 -1206h-209l-309 635q-27 55 -51 115.5t-34 93.5l-10 33h-8q-6 -127 -35 -289l-102 -588h-223l211 1206h215zM352 -281q0 62 39 99t98 37q61 0 101.5 -37t40.5 -99q0 -59 -40.5 -96
t-101.5 -37q-58 0 -97.5 37t-39.5 96z" />
    <glyph glyph-name="ndotbelow" unicode="&#x1e47;" horiz-adv-x="1091" 
d="M961 649l-68 -399q-7 -41 3 -64.5t52 -23.5q27 0 60 8l-33 -160q-62 -20 -123 -20q-222 0 -182 233l69 393q30 172 -114 172q-80 0 -150 -67t-94 -209l-90 -512h-217l166 946h188l-6 -192q97 215 303 215q112 0 178 -61.5t66 -170.5q0 -36 -8 -88zM252 -281q0 62 39 99
t98 37q61 0 101 -37t40 -99q0 -59 -40 -96t-101 -37q-58 0 -97.5 37t-39.5 96z" />
    <glyph glyph-name="Rdotbelow" unicode="&#x1e5a;" horiz-adv-x="1144" 
d="M1024 0h-240q-33 30 -47 117l-32 198q-15 92 -54 123t-129 31h-143l-82 -469h-223l211 1206h428q194 0 280 -73t86 -226q0 -86 -28.5 -154t-76.5 -109t-103.5 -63.5t-116.5 -27.5v-8q84 -12 122.5 -52t55.5 -133l41 -233q14 -77 51 -127zM475 1022l-65 -373h202
q110 0 175 53.5t65 167.5q0 77 -42 114.5t-134 37.5h-201zM322 -281q0 62 39 99t98 37q61 0 101 -37t40 -99q0 -59 -40 -96t-101 -37q-58 0 -97.5 37t-39.5 96z" />
    <glyph glyph-name="rdotbelow" unicode="&#x1e5b;" horiz-adv-x="737" 
d="M782 963l-53 -252q-41 14 -85.5 15t-87 -12.5t-78 -38.5t-61.5 -67.5t-36 -97.5l-90 -510h-217l166 946h188l-12 -233q49 129 150.5 201.5t215.5 48.5zM6 -281q0 62 39 99t98 37q61 0 101.5 -37t40.5 -99q0 -59 -40.5 -96t-101.5 -37q-58 0 -97.5 37t-39.5 96z" />
    <glyph glyph-name="Rdotbelowmacron" unicode="&#x1e5c;" horiz-adv-x="1144" 
d="M1024 0h-240q-33 30 -47 117l-32 198q-15 92 -54 123t-129 31h-143l-82 -469h-223l211 1206h428q194 0 280 -73t86 -226q0 -86 -28.5 -154t-76.5 -109t-103.5 -63.5t-116.5 -27.5v-8q84 -12 122.5 -52t55.5 -133l41 -233q14 -77 51 -127zM475 1022l-65 -373h202
q110 0 175 53.5t65 167.5q0 77 -42 114.5t-134 37.5h-201zM322 -281q0 62 39 99t98 37q61 0 101 -37t40 -99q0 -59 -40 -96t-101 -37q-58 0 -97.5 37t-39.5 96zM975 1374h-565l28 170h566z" />
    <glyph glyph-name="rdotbelowmacron" unicode="&#x1e5d;" horiz-adv-x="737" 
d="M782 963l-53 -252q-41 14 -85.5 15t-87 -12.5t-78 -38.5t-61.5 -67.5t-36 -97.5l-90 -510h-217l166 946h188l-12 -233q49 129 150.5 201.5t215.5 48.5zM805 1130h-559l33 173h557zM6 -281q0 62 39 99t98 37q61 0 101.5 -37t40.5 -99q0 -59 -40.5 -96t-101.5 -37
q-58 0 -97.5 37t-39.5 96z" />
    <glyph glyph-name="Sdotbelow" unicode="&#x1e62;" horiz-adv-x="1021" 
d="M33 289l200 61q0 -102 58 -156.5t160 -54.5q101 0 158 43.5t57 134.5q0 76 -42.5 119.5t-152.5 83.5q-73 25 -124.5 53.5t-91 68.5t-58.5 94.5t-19 125.5q0 80 26.5 144t69 105.5t100 69t115 39t117.5 11.5q189 0 287 -77t102 -249l-215 -37q4 91 -46.5 140t-143.5 49
q-90 0 -144.5 -44.5t-54.5 -123.5q0 -71 42.5 -105.5t160.5 -78.5q156 -59 225.5 -137t69.5 -220q0 -98 -37 -171.5t-102 -116.5t-145.5 -64t-176.5 -21q-381 0 -395 314zM219 -281q0 62 39 99t98 37q61 0 101.5 -37t40.5 -99q0 -59 -40.5 -96t-101.5 -37q-58 0 -97.5 37
t-39.5 96z" />
    <glyph glyph-name="sdotbelow" unicode="&#x1e63;" horiz-adv-x="858" 
d="M25 248l184 53q3 -87 49.5 -131.5t124.5 -44.5q149 0 149 119q0 56 -34 90t-123 63q-119 39 -176.5 105t-57.5 172q0 144 99.5 219.5t257.5 75.5t238.5 -66t80.5 -190l-190 -35q0 67 -37.5 103t-108.5 36q-63 0 -101 -30.5t-38 -84.5q0 -45 34 -74.5t136 -68.5
q128 -49 179.5 -115.5t51.5 -179.5q0 -146 -99.5 -217.5t-270.5 -71.5q-159 0 -250.5 70t-97.5 203zM152 -281q0 62 39 99t98 37q61 0 101 -37t40 -99q0 -59 -40 -96t-101 -37q-58 0 -97.5 37t-39.5 96z" />
    <glyph glyph-name="Tdotbelow" unicode="&#x1e6c;" horiz-adv-x="999" 
d="M524 0h-223l178 1016h-344l33 190h913l-32 -190h-349zM225 -281q0 62 39 99t98 37q63 0 103.5 -37t40.5 -99q0 -59 -41 -96t-103 -37q-58 0 -97.5 37t-39.5 96z" />
    <glyph glyph-name="tdotbelow" unicode="&#x1e6d;" horiz-adv-x="675" 
d="M569 209v-182q-93 -52 -219 -52q-293 0 -237 318l86 485h-133l30 168h133l35 199l221 29l-39 -228h246l-28 -168h-246l-88 -491q-11 -65 11.5 -95t68.5 -30q78 0 159 47zM113 -281q0 62 39 99t98 37q63 0 103 -37t40 -99q0 -59 -40.5 -96t-102.5 -37q-58 0 -97.5 37
t-39.5 96z" />
    <glyph glyph-name="Wgrave" unicode="&#x1e80;" horiz-adv-x="1728" 
d="M1112 1206l53 -725q5 -81 6 -163.5t-1 -125.5l-1 -42h9q36 149 108 329l285 727h231l-493 -1206h-312l-55 672q-6 92 -5.5 163.5t3.5 114.5l4 43h-8q-29 -139 -107 -321l-282 -672h-305l-54 1206h224l24 -723q3 -80 3 -163.5t-1 -126.5l-2 -43h8q33 151 109 331l303 725
h256zM1100 1333h-197l-211 266h279z" />
    <glyph glyph-name="wgrave" unicode="&#x1e81;" horiz-adv-x="1404" 
d="M879 946l41 -461q9 -84 9.5 -167t-3.5 -124l-4 -40h8q28 139 108 329l197 463h227l-420 -946h-256l-47 412q-6 76 -6.5 151t1.5 113l3 37h-8q-32 -129 -108 -301l-175 -412h-256l-96 946h221l37 -461q7 -84 8.5 -167t-0.5 -124l-2 -40h9q28 143 110 333l201 459h201z
M901 1081h-190l-238 303h281z" />
    <glyph glyph-name="Wacute" unicode="&#x1e82;" horiz-adv-x="1728" 
d="M1112 1206l53 -725q5 -81 6 -163.5t-1 -125.5l-1 -42h9q36 149 108 329l285 727h231l-493 -1206h-312l-55 672q-6 92 -5.5 163.5t3.5 114.5l4 43h-8q-29 -139 -107 -321l-282 -672h-305l-54 1206h224l24 -723q3 -80 3 -163.5t-1 -126.5l-2 -43h8q33 151 109 331l303 725
h256zM1077 1333h-194l129 266h278z" />
    <glyph glyph-name="wacute" unicode="&#x1e83;" horiz-adv-x="1404" 
d="M879 946l41 -461q9 -84 9.5 -167t-3.5 -124l-4 -40h8q28 139 108 329l197 463h227l-420 -946h-256l-47 412q-6 76 -6.5 151t1.5 113l3 37h-8q-32 -129 -108 -301l-175 -412h-256l-96 946h221l37 -461q7 -84 8.5 -167t-0.5 -124l-2 -40h9q28 143 110 333l201 459h201z
M872 1081h-190l149 303h279z" />
    <glyph glyph-name="Wdieresis" unicode="&#x1e84;" horiz-adv-x="1728" 
d="M1112 1206l53 -725q5 -81 6 -163.5t-1 -125.5l-1 -42h9q36 149 108 329l285 727h231l-493 -1206h-312l-55 672q-6 92 -5.5 163.5t3.5 114.5l4 43h-8q-29 -139 -107 -321l-282 -672h-305l-54 1206h224l24 -723q3 -80 3 -163.5t-1 -126.5l-2 -43h8q33 151 109 331l303 725
h256zM664 1466q0 60 38.5 96.5t92.5 36.5q58 0 95.5 -36.5t37.5 -96.5q0 -58 -37.5 -94.5t-95.5 -36.5q-54 0 -92.5 37t-38.5 94zM1081 1466q0 60 37.5 96.5t93.5 36.5q57 0 95.5 -36.5t38.5 -96.5q0 -59 -38.5 -96t-95.5 -37q-55 0 -93 37t-38 96z" />
    <glyph glyph-name="wdieresis" unicode="&#x1e85;" horiz-adv-x="1404" 
d="M879 946l41 -461q9 -84 9.5 -167t-3.5 -124l-4 -40h8q28 139 108 329l197 463h227l-420 -946h-256l-47 412q-6 76 -6.5 151t1.5 113l3 37h-8q-32 -129 -108 -301l-175 -412h-256l-96 946h221l37 -461q7 -84 8.5 -167t-0.5 -124l-2 -40h9q28 143 110 333l201 459h201z
M469 1219q0 60 37.5 96.5t93.5 36.5q57 0 95 -36.5t38 -96.5q0 -58 -38.5 -95t-94.5 -37q-55 0 -93 37t-38 95zM885 1219q0 60 37.5 96.5t93.5 36.5q58 0 95.5 -36.5t37.5 -96.5q0 -59 -37.5 -96.5t-95.5 -37.5q-55 0 -93 37.5t-38 96.5z" />
    <glyph glyph-name="Idotbelow" unicode="&#x1eca;" horiz-adv-x="534" 
d="M285 1206h223l-211 -1206h-223zM-6 -281q0 62 39 99t98 37q63 0 103 -37t40 -99q0 -59 -40.5 -96t-102.5 -37q-58 0 -97.5 37t-39.5 96z" />
    <glyph glyph-name="idotbelow" unicode="&#x1ecb;" horiz-adv-x="538" 
d="M440 946l-121 -696q-16 -88 56 -88q26 0 59 8l-33 -160q-62 -20 -122 -20q-223 0 -183 233l127 723h217zM240 1245q0 61 39 98t98 37q60 0 100.5 -37t40.5 -98q0 -59 -41 -97t-100 -38q-58 0 -97.5 38t-39.5 97zM4 -281q0 62 39 99t98 37q61 0 101.5 -37t40.5 -99
q0 -59 -40.5 -96t-101.5 -37q-58 0 -97.5 37t-39.5 96z" />
    <glyph glyph-name="Odotbelow" unicode="&#x1ecc;" horiz-adv-x="1284" 
d="M588 -25q-227 0 -353 134.5t-126 361.5q0 175 49.5 320t135 240.5t198.5 147.5t241 52q228 0 353.5 -135.5t125.5 -362.5q0 -175 -49.5 -319.5t-135 -239.5t-198.5 -147t-241 -52zM715 1040q-117 0 -204.5 -77.5t-131 -202t-43.5 -275.5q0 -152 70.5 -237.5t199.5 -85.5
q114 0 201.5 77.5t131.5 203t44 276.5q0 145 -67.5 233t-200.5 88zM344 -281q0 62 39 99t98 37q63 0 103.5 -37t40.5 -99q0 -59 -41 -96t-103 -37q-58 0 -97.5 37t-39.5 96z" />
    <glyph glyph-name="odotbelow" unicode="&#x1ecd;" horiz-adv-x="1042" 
d="M580 969q183 0 286 -109t103 -303q0 -117 -33 -221.5t-94.5 -185t-159 -128t-217.5 -47.5q-175 0 -283 105.5t-108 296.5q0 95 20 182t62 161.5t101.5 130t142 87t180.5 31.5zM559 795q-79 0 -140 -56.5t-91.5 -148t-30.5 -201.5q0 -121 49 -184.5t137 -63.5
q120 0 191 119.5t71 292.5q0 117 -48.5 179.5t-137.5 62.5zM213 -281q0 62 39 99t98 37q63 0 103.5 -37t40.5 -99q0 -59 -41 -96t-103 -37q-58 0 -97.5 37t-39.5 96z" />
    <glyph glyph-name="Udotbelow" unicode="&#x1ee4;" horiz-adv-x="1220" 
d="M993 1206h221l-141 -807q-21 -120 -68.5 -204t-118.5 -131.5t-155 -68t-190 -20.5q-103 0 -184.5 26.5t-142.5 81.5t-84.5 151.5t-0.5 226.5l131 745h223l-133 -749q-52 -299 219 -299q128 0 196 68t93 220zM326 -281q0 62 39 99t98 37q63 0 103 -37t40 -99
q0 -59 -40.5 -96t-102.5 -37q-58 0 -97.5 37t-39.5 96z" />
    <glyph glyph-name="udotbelow" unicode="&#x1ee5;" horiz-adv-x="1085" 
d="M657 180q-44 -108 -117.5 -156.5t-187.5 -48.5q-150 0 -213.5 94.5t-34.5 264.5l107 612h217l-111 -633q-14 -86 16.5 -132t100.5 -46q84 0 150.5 64.5t87.5 185.5l98 561h217l-121 -696q-16 -88 54 -88q28 0 61 8l-33 -160q-62 -20 -123 -20q-98 0 -137.5 47t-30.5 143z
M231 -281q0 61 39.5 98.5t98.5 37.5q63 0 103 -37t40 -99q0 -59 -40.5 -96t-102.5 -37q-58 0 -98 37t-40 96z" />
    <glyph glyph-name="Ygrave" unicode="&#x1ef2;" horiz-adv-x="1060" 
d="M389 1206l115 -350q21 -64 33 -127t14 -94l2 -31h8q33 107 125 250l227 352h236l-504 -768l-76 -438h-223l76 438l-264 768h231zM788 1333h-196l-211 266h278z" />
    <glyph glyph-name="ygrave" unicode="&#x1ef3;" horiz-adv-x="909" 
d="M311 946l54 -512q9 -79 11.5 -152t0.5 -106l-2 -33h8q31 131 115 293l262 510h227l-567 -1048q-44 -83 -87.5 -142.5t-82.5 -96t-83 -57t-83.5 -27.5t-89.5 -7q-96 0 -164 37l55 172q61 -37 119 -37q70 0 124 47.5t112 157.5l-154 1001h225zM641 1081h-190l-238 303h281z
" />
    <glyph glyph-name="Ytilde" unicode="&#x1ef8;" horiz-adv-x="1060" 
d="M389 1206l115 -350q21 -64 33 -127t14 -94l2 -31h8q33 107 125 250l227 352h236l-504 -768l-76 -438h-223l76 438l-264 768h231zM813 1335q-14 0 -27.5 1.5t-23 2.5t-21 5t-17.5 6t-17.5 8t-15 8t-16.5 10t-16 10q-7 5 -22.5 15t-21 13.5t-16.5 9.5t-17.5 8t-15.5 4
t-19 2q-33 0 -55 -26.5t-25 -76.5h-125q-24 116 37 196.5t166 80.5q34 0 64.5 -10t42 -17t44.5 -29q5 -3 18 -11t17 -10.5t13.5 -8t13.5 -7.5t11.5 -5t12.5 -4t11.5 -2t13.5 -1q67 0 72 103h133q23 -121 -33.5 -198t-165.5 -77z" />
    <glyph glyph-name="ytilde" unicode="&#x1ef9;" horiz-adv-x="909" 
d="M311 946l54 -512q9 -79 11.5 -152t0.5 -106l-2 -33h8q31 131 115 293l262 510h227l-567 -1048q-44 -83 -87.5 -142.5t-82.5 -96t-83 -57t-83.5 -27.5t-89.5 -7q-96 0 -164 37l55 172q61 -37 119 -37q70 0 124 47.5t112 157.5l-154 1001h225zM682 1077q-37 0 -67 9
t-42 15.5t-45 28.5q-7 5 -22.5 15t-21 13.5t-16.5 9.5t-17.5 8t-15.5 4t-19 2q-33 0 -55 -26.5t-25 -76.5h-125q-24 115 37 195t166 80q35 0 64.5 -9t43 -17t43.5 -28q63 -41 83 -47q14 -4 28 -4q66 0 72 103h133q23 -121 -33.5 -198t-165.5 -77z" />
    <glyph glyph-name="enspace" unicode="&#x2002;" horiz-adv-x="921" 
 />
    <glyph glyph-name="emspace" unicode="&#x2003;" horiz-adv-x="1843" 
 />
    <glyph glyph-name="threeperemspace" unicode="&#x2004;" horiz-adv-x="614" 
 />
    <glyph glyph-name="fourperemspace" unicode="&#x2005;" horiz-adv-x="460" 
 />
    <glyph glyph-name="sixperemspace" unicode="&#x2006;" horiz-adv-x="307" 
 />
    <glyph glyph-name="figurespace" unicode="&#x2007;" horiz-adv-x="1050" 
 />
    <glyph glyph-name="punctuationspace" unicode="&#x2008;" horiz-adv-x="350" 
 />
    <glyph glyph-name="thinspace" unicode="&#x2009;" horiz-adv-x="184" 
 />
    <glyph glyph-name="hairspace" unicode="&#x200a;" horiz-adv-x="92" 
 />
    <glyph glyph-name="zerowidthspace" unicode="&#x200b;" horiz-adv-x="0" 
 />
    <glyph glyph-name="figuredash" unicode="&#x2012;" 
d="M135 444l27 148h870l-26 -148h-871z" />
    <glyph glyph-name="endash" unicode="&#x2013;" horiz-adv-x="1050" 
d="M135 444l27 148h753l-26 -148h-754z" />
    <glyph glyph-name="emdash" unicode="&#x2014;" horiz-adv-x="2074" 
d="M135 444l27 148h1777l-26 -148h-1778z" />
    <glyph glyph-name="uni2015" unicode="&#x2015;" horiz-adv-x="2560" 
d="M143 444l27 148h2247l-27 -148h-2247z" />
    <glyph glyph-name="doublebar" unicode="&#x2016;" horiz-adv-x="845" 
d="M180 -416h-178l313 1786h179zM537 -416h-179l314 1786h178z" />
    <glyph glyph-name="quoteleft" unicode="&#x2018;" horiz-adv-x="479" 
d="M190 1073q0 79 30.5 140.5t84 98.5t119.5 56.5t143 22.5v-97q-92 -8 -159.5 -48.5t-67.5 -106.5q68 11 114 -23t46 -100q0 -65 -41.5 -101t-106.5 -36q-73 0 -117.5 52.5t-44.5 141.5z" />
    <glyph glyph-name="quoteright" unicode="&#x2019;" horiz-adv-x="479" 
d="M520 1196q0 -79 -30.5 -140.5t-84 -98.5t-119.5 -56.5t-143 -21.5v96q59 5 109 23t84.5 52.5t34.5 79.5q-67 -12 -113.5 22.5t-46.5 100.5t41 102t108 36q71 0 115.5 -53.5t44.5 -141.5z" />
    <glyph glyph-name="quotesinglbase" unicode="&#x201a;" horiz-adv-x="479" 
d="M336 68q0 -80 -30.5 -141.5t-84 -98.5t-119.5 -56.5t-143 -21.5v96q92 8 159.5 49t67.5 107q-67 -12 -113 21.5t-46 101.5q0 64 41.5 100.5t107.5 36.5q71 0 115.5 -53t44.5 -141z" />
    <glyph glyph-name="reversequoteleft" unicode="&#x201b;" horiz-adv-x="411" 
d="M158 1202q0 89 44.5 142t116.5 53q65 0 106.5 -37t41.5 -103t-46 -99t-114 -21q0 -66 68 -108t160 -50v-96q-78 3 -143.5 22.5t-119 56.5t-84 98.5t-30.5 141.5z" />
    <glyph glyph-name="quotedblleft" unicode="&#x201c;" horiz-adv-x="890" 
d="M190 1073q0 79 30.5 140.5t84 98.5t119.5 56.5t143 22.5v-97q-92 -8 -159.5 -48.5t-67.5 -106.5q68 11 114 -23t46 -100q0 -65 -41.5 -101t-106.5 -36q-73 0 -117.5 52.5t-44.5 141.5zM602 1073q0 79 30.5 140.5t84 98.5t119.5 56.5t143 22.5v-97q-92 -8 -159.5 -48.5
t-67.5 -106.5q68 11 113.5 -23t45.5 -100q0 -65 -41 -101t-106 -36q-73 0 -117.5 52.5t-44.5 141.5z" />
    <glyph glyph-name="quotedblright" unicode="&#x201d;" horiz-adv-x="890" 
d="M520 1196q0 -79 -30.5 -140.5t-84 -98.5t-119.5 -56.5t-143 -21.5v96q59 5 109 23t84.5 52.5t34.5 79.5q-67 -12 -113.5 22.5t-46.5 100.5t41 102t108 36q71 0 115.5 -53.5t44.5 -141.5zM932 1196q0 -79 -30.5 -140.5t-84 -98.5t-119.5 -56.5t-143 -21.5v96
q92 8 159.5 48.5t67.5 106.5q-67 -12 -113 22.5t-46 100.5t41 102t108 36q71 0 115.5 -53.5t44.5 -141.5z" />
    <glyph glyph-name="quotedblbase" unicode="&#x201e;" horiz-adv-x="890" 
d="M336 72q0 -79 -30.5 -140.5t-84 -99t-119.5 -57t-143 -21.5v96q92 8 159.5 49t67.5 107q-67 -12 -113 22.5t-46 100.5t41 101.5t108 35.5q71 0 115.5 -53t44.5 -141zM748 72q0 -79 -30.5 -140.5t-84 -99t-119.5 -57t-143 -21.5v96q92 8 159.5 49t67.5 107
q-67 -12 -113.5 22.5t-46.5 100.5q0 65 41.5 101t108.5 36q71 0 115.5 -53t44.5 -141z" />
    <glyph glyph-name="reversequotedblleft" unicode="&#x201f;" horiz-adv-x="772" 
d="M158 1202q0 89 44.5 142t116.5 53q65 0 106.5 -36t41.5 -101q0 -66 -46 -100t-114 -23q0 -66 68 -107t160 -49v-96q-78 3 -143.5 22.5t-119 56.5t-84 98t-30.5 140zM518 1202q0 89 44.5 142t117.5 53q65 0 106 -36t41 -101q0 -66 -45.5 -100t-113.5 -23q0 -66 68 -107
t161 -49v-96q-78 3 -144.5 22.5t-120 56.5t-84 98t-30.5 140z" />
    <glyph glyph-name="dagger" unicode="&#x2020;" horiz-adv-x="1124" 
d="M571 567l-383 -22l37 205l375 -21l64 477h219l-105 -477l383 21l-37 -205l-372 22l-134 -872h-221z" />
    <glyph glyph-name="daggerdbl" unicode="&#x2021;" horiz-adv-x="1124" 
d="M760 621l-60 -326l383 22l-34 -202l-373 22l-58 -444h-221l101 444l-385 -22l34 202l377 -22l58 326l-383 -23l34 203l377 -23l54 428h221l-99 -428l383 23l-36 -203z" />
    <glyph glyph-name="bullet" unicode="&#x2022;" horiz-adv-x="688" 
d="M137 508q0 81 58.5 140t138.5 59q83 0 142 -58.5t59 -140.5t-59 -140.5t-142 -58.5q-80 0 -138.5 59t-58.5 140z" />
    <glyph glyph-name="ellipsis" unicode="&#x2026;" horiz-adv-x="1769" 
d="M86 139q0 64 43.5 108t106.5 44q66 0 109.5 -43.5t43.5 -108.5q0 -63 -43.5 -107t-109.5 -44q-63 0 -106.5 44t-43.5 107zM676 139q0 64 43 108t106 44q66 0 110 -43.5t44 -108.5q0 -63 -44 -107t-110 -44q-63 0 -106 44t-43 107zM1266 139q0 64 43 108t106 44
q66 0 110 -43.5t44 -108.5q0 -63 -44 -107t-110 -44q-63 0 -106 44t-43 107z" />
    <glyph glyph-name="perthousand" unicode="&#x2030;" horiz-adv-x="2527" 
d="M344 469q-127 0 -191.5 80.5t-64.5 220.5q0 65 13.5 129.5t42.5 123t69 103t97.5 71t123.5 26.5q123 0 190.5 -84.5t67.5 -225.5q0 -85 -22.5 -163t-64.5 -141.5t-109.5 -101.5t-151.5 -38zM420 1079q-46 0 -81 -33t-52.5 -84t-26 -99t-8.5 -91q2 -76 29.5 -122t80.5 -46
q45 0 79.5 33.5t52.5 85t27 100.5t9 90q0 77 -27.5 121.5t-82.5 44.5zM403 0l838 1208h148l-838 -1208h-148zM1352 -14q-127 0 -191.5 80.5t-64.5 220.5q0 65 13.5 129.5t42.5 122.5t69 102.5t97.5 71t123.5 26.5q123 0 190.5 -84t67.5 -225q0 -85 -22.5 -163t-64.5 -141.5
t-109.5 -101.5t-151.5 -38zM1427 596q-46 0 -81 -33t-52.5 -84t-25.5 -99t-8 -91q2 -76 29.5 -122t80.5 -46q45 0 79.5 33.5t52.5 85t27 100.5t9 90q0 76 -28 121t-83 45zM2089 -14q-127 0 -191.5 80.5t-64.5 220.5q0 65 13.5 129.5t42.5 122.5t69 102.5t97.5 71t123.5 26.5
q123 0 190.5 -84t67.5 -225q0 -85 -22.5 -163t-64.5 -141.5t-109.5 -101.5t-151.5 -38zM2165 596q-46 0 -81 -33t-52.5 -84t-26 -99t-8.5 -91q2 -76 29.5 -122t80.5 -46q45 0 79.5 33.5t52.5 85t27 100.5t9 90q0 77 -27.5 121.5t-82.5 44.5z" />
    <glyph glyph-name="tripleprime" unicode="&#x2034;" horiz-adv-x="1034" 
d="M158 844l92 524h223l-184 -524h-131zM479 844l92 524h224l-185 -524h-131zM803 844l92 524h223l-184 -524h-131z" />
    <glyph glyph-name="guilsinglleft" unicode="&#x2039;" horiz-adv-x="679" 
d="M250 481v-8q27 -12 86 -94l166 -229l-133 -105l-312 436l465 434l101 -108l-242 -232q-33 -32 -65.5 -55.5t-49.5 -31.5z" />
    <glyph glyph-name="guilsinglright" unicode="&#x203a;" horiz-adv-x="679" 
d="M430 481v8q-27 11 -86 93l-168 229l133 104l314 -434l-467 -436l-99 109l242 231q33 32 65.5 56t49.5 32z" />
    <glyph glyph-name="fraction" unicode="&#x2044;" horiz-adv-x="305" 
d="M-340 0l838 1208h147l-838 -1208h-147z" />
    <glyph glyph-name="uni2070" unicode="&#x2070;" horiz-adv-x="743" 
d="M326 469q-127 0 -191.5 80.5t-64.5 220.5q0 65 13.5 129.5t42.5 123t69 103t97.5 71t123.5 26.5q123 0 190.5 -84.5t67.5 -225.5q0 -85 -22.5 -163t-64.5 -141.5t-109.5 -101.5t-151.5 -38zM401 1079q-46 0 -81 -33t-52.5 -84t-26 -99t-8.5 -91q2 -76 30 -122t81 -46
q45 0 79.5 33.5t52.5 85t27 100.5t9 90q0 76 -28 121t-83 45z" />
    <glyph glyph-name="uni2074" unicode="&#x2074;" horiz-adv-x="737" 
d="M350 483l29 166h-363l23 119l436 438h168l-76 -436h113l-23 -121h-112l-29 -166h-166zM406 768l28 160q5 35 14 71t15 55l6 19h-8q-31 -54 -90 -117l-95 -94q-26 -26 -54.5 -50t-43.5 -35l-16 -11l-2 -8q36 10 116 10h130z" />
    <glyph glyph-name="uni2075" unicode="&#x2075;" horiz-adv-x="679" 
d="M109 797l90 409h444l-25 -135h-315l-41 -178q45 55 135 55q92 0 145.5 -56t53.5 -153q0 -132 -84.5 -201t-218.5 -69q-121 0 -187 47t-77 133l153 51q6 -110 119 -110q63 0 98 36t35 105q0 51 -25.5 80t-66.5 29q-56 0 -96 -43h-137z" />
    <glyph glyph-name="uni2076" unicode="&#x2076;" horiz-adv-x="714" 
d="M682 1090l-133 -78q-18 78 -107 78q-78 0 -139 -75.5t-78 -201.5h8q53 131 199 131q95 0 147 -57t52 -139q0 -127 -84.5 -203t-220.5 -76q-123 0 -189.5 72t-66.5 204q0 110 33 202t88 151.5t125 92t145 32.5q176 0 221 -133zM244 686q0 -42 25 -69t71 -27
q58 0 98.5 37.5t40.5 107.5q0 42 -25 68t-73 26q-57 0 -97 -39t-40 -104z" />
    <glyph glyph-name="uni2077" unicode="&#x2077;" horiz-adv-x="634" 
d="M444 1067h-241l-21 -109h-141l43 248h578l-17 -102l-393 -621h-186z" />
    <glyph glyph-name="uni2078" unicode="&#x2078;" horiz-adv-x="710" 
d="M311 469q-131 0 -197.5 50t-66.5 136q0 81 54 135t139 66v6q-56 20 -86.5 59t-30.5 89q0 101 84 157t209 56q119 0 183.5 -49t64.5 -130q0 -78 -45.5 -125t-122.5 -63v-6q129 -40 129 -162q0 -100 -89.5 -159.5t-224.5 -59.5zM401 1108q-53 0 -87.5 -29.5t-34.5 -81.5
q0 -37 25.5 -59.5t68.5 -22.5q53 0 91 27.5t38 83.5q0 35 -25.5 58.5t-75.5 23.5zM356 797q-59 0 -100 -31.5t-41 -87.5q0 -44 27.5 -70t81.5 -26q59 0 99 32t40 91q0 42 -28 67t-79 25z" />
    <glyph glyph-name="uni2079" unicode="&#x2079;" horiz-adv-x="710" 
d="M10 602l133 74q9 -37 43 -56.5t82 -19.5q83 0 141.5 70t71.5 211h-8q-46 -133 -186 -133q-101 0 -155 57.5t-54 142.5q0 124 83 199.5t218 75.5q123 0 192.5 -75t69.5 -208q0 -221 -106 -346t-277 -125q-94 0 -160 33t-88 100zM463 1006q0 42 -25 68t-73 26
q-58 0 -98 -36.5t-40 -102.5q0 -43 24.5 -70t72.5 -27q58 0 98.5 39t40.5 103z" />
    <glyph glyph-name="uni207A" unicode="&#x207a;" horiz-adv-x="909" 
d="M100 911h308l51 297h106l-51 -297h313l-20 -106h-313l-56 -322h-108l57 322h-305z" />
    <glyph glyph-name="uni207B" unicode="&#x207b;" horiz-adv-x="909" 
d="M809 803h-727l18 108h727z" />
    <glyph glyph-name="uni207C" unicode="&#x207c;" horiz-adv-x="954" 
d="M809 686h-727l18 107h727zM854 942h-727l18 107h727z" />
    <glyph glyph-name="uni207D" unicode="&#x207d;" horiz-adv-x="477" 
d="M346 1303h131q-132 -133 -203 -275t-71 -311q0 -96 27.5 -176t82.5 -168h-127q-48 78 -76 158.5t-28 185.5q0 162 67 312t197 274z" />
    <glyph glyph-name="uni207E" unicode="&#x207e;" horiz-adv-x="477" 
d="M131 373h-131q132 133 203 274.5t71 310.5q0 95 -27.5 175t-80.5 170h125q104 -163 104 -345q0 -162 -67 -311.5t-197 -273.5z" />
    <glyph glyph-name="n.superior" unicode="&#x207f;" horiz-adv-x="823" 
d="M731 1014l-49 -256q-11 -51 35 -51q22 0 53 6l-27 -117q-43 -14 -96 -14q-173 0 -141 159l49 252q20 107 -80 107q-63 0 -109 -42t-65 -134l-65 -336h-175l125 626h152l-4 -118q66 135 219 135q85 0 134.5 -42t49.5 -116q0 -25 -6 -59z" />
    <glyph glyph-name="uni2080" unicode="&#x2080;" horiz-adv-x="743" 
d="M326 -14q-127 0 -191.5 80.5t-64.5 220.5q0 65 13.5 129.5t42.5 122.5t69 102.5t97.5 71t123.5 26.5q123 0 190.5 -84t67.5 -225q0 -85 -22.5 -163t-64.5 -141.5t-109.5 -101.5t-151.5 -38zM401 596q-46 0 -81 -33t-52.5 -84t-26 -99t-8.5 -91q2 -76 30 -122t81 -46
q45 0 79.5 33.5t52.5 85t27 100.5t9 90q0 76 -28 121t-83 45z" />
    <glyph glyph-name="uni2081" unicode="&#x2081;" horiz-adv-x="614" 
d="M545 0h-541l23 127h196l78 440l-217 -18l25 131l387 45l-107 -598h178z" />
    <glyph glyph-name="uni2082" unicode="&#x2082;" horiz-adv-x="663" 
d="M571 131l-22 -131h-553l20 115q217 123 321.5 210.5t104.5 172.5q0 104 -104 104q-55 0 -90 -36t-47 -103l-131 55q18 99 92.5 160t195.5 61q117 0 184.5 -56.5t67.5 -160.5q0 -61 -28 -116.5t-68 -94t-99 -74.5t-104 -56.5t-100 -41.5v-8h360z" />
    <glyph glyph-name="uni2083" unicode="&#x2083;" horiz-adv-x="641" 
d="M389 375v-6q85 -10 126.5 -54t41.5 -114q0 -105 -84.5 -160t-212.5 -55q-118 0 -183 52t-71 138l144 43q10 -115 110 -115q55 0 91 25.5t36 73.5q0 52 -38.5 80.5t-145.5 29.5l18 103q107 4 155 32.5t48 81.5q0 36 -24 57t-64 21q-91 0 -115 -96l-129 51q60 176 264 176
q106 0 172 -45.5t66 -136.5q0 -75 -53.5 -123.5t-151.5 -58.5z" />
    <glyph glyph-name="uni2084" unicode="&#x2084;" horiz-adv-x="737" 
d="M350 0l29 166h-363l23 119l436 438h168l-76 -436h113l-23 -121h-112l-29 -166h-166zM406 285l28 159q5 35 14 71.5t15 55.5l6 19h-8q-31 -54 -90 -117l-95 -94q-26 -26 -54.5 -50t-43.5 -35l-16 -11l-2 -9q36 11 116 11h130z" />
    <glyph glyph-name="uni2085" unicode="&#x2085;" horiz-adv-x="679" 
d="M109 313l90 410h444l-25 -135h-315l-41 -178q45 55 135 55q92 0 145.5 -56t53.5 -153q0 -132 -84.5 -201t-218.5 -69q-121 0 -187 47t-77 133l153 51q6 -111 119 -111q63 0 98 36.5t35 105.5q0 51 -25.5 79.5t-66.5 28.5q-56 0 -96 -43h-137z" />
    <glyph glyph-name="uni2086" unicode="&#x2086;" horiz-adv-x="714" 
d="M682 606l-133 -78q-18 78 -107 78q-79 0 -138.5 -73t-82.5 -209h8q55 137 203 137q95 0 147 -57.5t52 -139.5q0 -126 -84.5 -202t-220.5 -76q-123 0 -189.5 71.5t-66.5 200.5q0 111 33 204t88 152.5t125 92t145 32.5q176 0 221 -133zM240 203q0 -42 25.5 -69.5
t74.5 -27.5q59 0 101 38.5t42 107.5q0 42 -25.5 68t-74.5 26q-58 0 -100.5 -39t-42.5 -104z" />
    <glyph glyph-name="uni2087" unicode="&#x2087;" horiz-adv-x="643" 
d="M449 584h-242l-21 -109h-141l43 248h578l-17 -102l-393 -621h-186z" />
    <glyph glyph-name="uni2088" unicode="&#x2088;" horiz-adv-x="710" 
d="M311 -14q-131 0 -197.5 50t-66.5 136q0 81 54 135t139 66v6q-56 20 -86.5 58.5t-30.5 88.5q0 101 84 157t209 56q120 0 184 -48.5t64 -129.5q0 -78 -45.5 -125t-122.5 -63v-6q129 -40 129 -162q0 -100 -89.5 -159.5t-224.5 -59.5zM401 625q-53 0 -87.5 -29.5t-34.5 -81.5
q0 -37 25.5 -59.5t68.5 -22.5q53 0 91 27.5t38 83.5q0 35 -25.5 58.5t-75.5 23.5zM356 313q-59 0 -100 -31t-41 -87q0 -44 27.5 -70.5t81.5 -26.5q59 0 99 32t40 91q0 42 -28 67t-79 25z" />
    <glyph glyph-name="uni2089" unicode="&#x2089;" horiz-adv-x="710" 
d="M10 119l133 74q9 -37 43.5 -57.5t81.5 -20.5q83 0 142 69.5t75 214.5h-8q-46 -135 -190 -135q-101 0 -155 58t-54 143q0 124 83 199t218 75q123 0 192.5 -74.5t69.5 -207.5q0 -221 -106 -346t-277 -125q-94 0 -160 33t-88 100zM467 524q0 42 -26.5 69.5t-75.5 27.5
q-58 0 -99 -38t-41 -108q0 -42 26 -69t75 -27q58 0 99.5 40t41.5 105z" />
    <glyph glyph-name="uni208A" unicode="&#x208a;" horiz-adv-x="909" 
d="M100 428h308l51 297h106l-51 -297h313l-20 -106h-313l-56 -322h-108l57 322h-305z" />
    <glyph glyph-name="uni208B" unicode="&#x208b;" horiz-adv-x="909" 
d="M809 319h-727l18 109h727z" />
    <glyph glyph-name="uni208C" unicode="&#x208c;" horiz-adv-x="954" 
d="M809 203h-727l18 106h727zM854 459h-727l18 106h727z" />
    <glyph glyph-name="uni208D" unicode="&#x208d;" horiz-adv-x="477" 
d="M346 819h131q-132 -133 -203 -275t-71 -311q0 -96 27.5 -176t82.5 -168h-127q-48 78 -76 158.5t-28 185.5q0 162 67 312t197 274z" />
    <glyph glyph-name="uni208E" unicode="&#x208e;" horiz-adv-x="477" 
d="M131 -111h-131q132 133 203 275t71 311q0 95 -27.5 174.5t-80.5 169.5h125q104 -163 104 -344q0 -162 -67 -312t-197 -274z" />
    <glyph glyph-name="uni20A1" unicode="&#x20a1;" horiz-adv-x="1028" 
d="M410 -190l57 167q-48 3 -88 15l-55 -162l-99 35l58 164q-90 51 -139.5 144t-49.5 222q0 170 59.5 305t181.5 218.5t290 91.5l59 170l96 -35l-49 -144q46 -6 86 -22l51 145l97 -32l-60 -166q78 -63 103 -178l-191 -76l-174 -506q92 37 150 145l153 -106
q-64 -107 -153.5 -160.5t-217.5 -64.5l-69 -203zM442 168q37 -18 86 -18l222 634q-34 34 -80 45zM303 412q0 -111 53 -179l205 598q-114 -23 -186 -139.5t-72 -279.5z" />
    <glyph glyph-name="uni20A2" unicode="&#x20a2;" horiz-adv-x="1024" 
d="M905 571l-39 -176q-80 25 -156 -12.5t-92 -132.5l-20 -111q122 21 201 164l147 -98q-73 -121 -178 -175.5t-262 -54.5q-186 0 -299 111t-113 309q0 128 36 239t103.5 195t172.5 132.5t235 48.5q160 0 247 -66t116 -190l-185 -84q-11 83 -60 127.5t-136 44.5
q-139 0 -227.5 -122.5t-88.5 -307.5q0 -194 129 -254l72 401h145l-10 -164q35 90 108 141.5t154 34.5z" />
    <glyph glyph-name="franc" unicode="&#x20a3;" horiz-adv-x="944" 
d="M711 301h-299l-52 -301h-219l52 301h-152l18 105h152l18 100h-151l18 104h150l67 375h684l-30 -178h-465l-35 -197h299l-18 -104h-299l-19 -100h299z" />
    <glyph glyph-name="lira" unicode="&#x20a4;" horiz-adv-x="1015" 
d="M743 322h-276q-15 -54 -48.5 -92t-76.5 -52h322q56 0 97.5 20t69.5 78l140 -86q-35 -92 -115.5 -141t-189.5 -49h-641l30 182h95q50 0 92 41.5t49 98.5h-209l18 104h185q-2 17 -8.5 46t-8.5 38h-149l18 104h111q-2 18 -2 68q0 84 33 149t88.5 103t121 57t138.5 19
q154 0 241.5 -67.5t87.5 -209.5l-200 -35q0 144 -150 144q-75 0 -119.5 -42.5t-44.5 -125.5q0 -24 4 -60h353l-19 -104h-311q1 -5 6 -36t6 -48h281z" />
    <glyph glyph-name="uni20A6" unicode="&#x20a6;" horiz-adv-x="1411" 
d="M1333 522h-184l-16 -96h184l-19 -104h-184l-55 -322h-211l-250 473q-28 53 -52.5 113.5t-35.5 94.5l-10 34h-8q-10 -150 -39 -314l-70 -401h-217l55 322h-174l19 104h174l16 96h-172l18 105h172l64 358h233l240 -473q25 -51 45.5 -104t28.5 -80l8 -27h8q18 143 45 295
l68 389h217l-66 -358h189z" />
    <glyph glyph-name="peseta" unicode="&#x20a7;" horiz-adv-x="2277" 
d="M1415 250l178 51q4 -86 59.5 -133t133.5 -47t125 32t47 101q0 59 -34.5 93t-135.5 67q-110 34 -167.5 84t-72.5 125h-211l-108 -623h-221l108 623h-170q-11 -95 -50.5 -164t-103 -108.5t-139.5 -58t-168 -18.5h-157l-47 -274h-220l172 985h353q290 0 350 -184h620
q22 72 79.5 120.5t128 68.5t151.5 20q346 0 346 -271l-188 -41q2 72 -41.5 114t-126.5 42q-74 0 -118 -34t-44 -93q0 -54 35 -83t147 -69q141 -49 192.5 -116t51.5 -176q0 -155 -106.5 -231.5t-286.5 -76.5q-173 0 -264.5 71.5t-96.5 203.5zM422 811l-64 -362h140
q237 0 237 221q0 141 -168 141h-145z" />
    <glyph glyph-name="uni20A8" unicode="&#x20a8;" horiz-adv-x="1644" 
d="M422 811l-51 -295h172q99 0 149.5 41t50.5 137q0 117 -137 117h-184zM1196 -25q-142 0 -243 41t-183 123l-96 94q-6 6 -24 25t-25.5 25.5t-24 20.5t-29.5 19.5t-32 13.5t-41 10.5t-49 2.5h-107l-61 -350h-220l172 985h408q163 0 242.5 -67.5t79.5 -194.5q0 -141 -82 -213
t-211 -80v-6q38 -2 66 -10t57 -29t42.5 -33.5t49.5 -48.5l98 -92q117 -111 227 -111q57 0 92 20.5t35 63.5q0 42 -23.5 67.5t-88.5 51.5q-105 41 -149 95t-44 139q0 61 25.5 108.5t68.5 75t94 41.5t107 14q264 0 264 -198l-166 -37q0 102 -110 102q-50 0 -79.5 -24.5
t-29.5 -63.5q0 -37 26.5 -59.5t113.5 -57.5q94 -37 135 -88t41 -135q0 -124 -89 -182t-237 -58z" />
    <glyph glyph-name="uni20A9" unicode="&#x20a9;" horiz-adv-x="1736" 
d="M1673 553h-217l-39 -94h240l-19 -107h-266l-147 -352h-267l-51 500q-6 69 -6.5 140t1.5 108l3 36h-6q-26 -134 -92 -284l-219 -500h-266l-21 352h-252l19 107h227l-6 94h-205l18 106h181l-19 326h215l23 -553q2 -74 0.5 -136.5t-4.5 -103.5l-4 -42h6q29 129 92 274
l237 561h226l47 -559q5 -67 5.5 -135.5t-1.5 -103.5l-2 -35h6q19 129 80 276l231 557h219l-139 -326h191z" />
    <glyph glyph-name="uni20AA" unicode="&#x20aa;" horiz-adv-x="1490" 
d="M975 272h-197l72 412q10 64 -15 99.5t-104 35.5h-309l-143 -819h-218l172 985h562q89 0 146 -22.5t81.5 -64t30 -98.5t-8.5 -126zM1229 985h219l-119 -674q-13 -74 -36 -127.5t-63.5 -97t-105 -65t-153.5 -21.5h-561l122 711h197l-96 -545h315q138 0 162 133z" />
    <glyph glyph-name="Euro" unicode="&#x20ac;" horiz-adv-x="1122" 
d="M745 553h-321q-14 -65 -14 -115h303l-41 -104h-254q18 -89 74 -138t145 -49q147 0 237 172l170 -108q-75 -122 -178 -179t-258 -57q-170 0 -279.5 94t-127.5 265h-160l18 104h140q2 36 14 115h-133l18 104h144q58 162 186 257.5t313 95.5q307 0 369 -262l-201 -82
q-11 78 -61 121.5t-131 43.5q-83 0 -149 -46.5t-105 -127.5h321z" />
    <glyph glyph-name="uni20AE" unicode="&#x20ae;" horiz-adv-x="962" 
d="M801 547l-223 -37l-17 -100l221 39l-18 -107l-221 -37l-54 -305h-219l47 268l-223 -37l21 107l219 35l18 100l-221 -37l19 107l221 35l41 229h-326l31 178h874l-30 -178h-330l-35 -193l223 39z" />
    <glyph glyph-name="uni20B1" unicode="&#x20b1;" horiz-adv-x="1204" 
d="M344 0h-219l100 575h-151l18 105h152l53 305h352q186 0 276.5 -75t90.5 -230h166l-19 -105h-162q-16 -81 -57.5 -140.5t-103 -94t-133.5 -50.5t-158 -16h-158zM561 440q179 0 223 135h-340l-22 -135h139zM487 817l-24 -137h334q-6 137 -164 137h-146z" />
    <glyph glyph-name="afii61289" unicode="&#x2113;" horiz-adv-x="727" 
d="M80 258l-62 104l146 101v485q0 221 74 321.5t219 100.5q233 0 233 -260q0 -115 -27.5 -222t-75.5 -193.5t-103.5 -154.5t-121.5 -124v-103q0 -89 31.5 -123t102.5 -34q61 0 122 26l-8 -180q-83 -27 -172 -27q-274 0 -274 261v81zM362 991v-418q91 91 147 227.5t56 315.5
q0 125 -90 125q-113 0 -113 -250z" />
    <glyph glyph-name="afii61352" unicode="&#x2116;" horiz-adv-x="2220" 
d="M1417 0l29 162h668l-31 -162h-666zM1878 973q132 0 206.5 -73t74.5 -202q0 -105 -40 -191t-123.5 -140t-197.5 -54q-127 0 -206 71t-79 198q0 106 40 193t124.5 142.5t200.5 55.5zM1862 831q-77 0 -123.5 -68.5t-46.5 -170.5q0 -70 31 -106.5t87 -36.5q76 0 121 70.5
t45 172.5q0 67 -30 103t-84 36zM1356 944l-164 -944h-209l-309 635q-27 55 -51 115.5t-35 93.5l-10 33h-9q-5 -127 -34 -289l-64 -365q-25 -140 -91.5 -194t-189.5 -54q-114 0 -182 50l47 178q53 -45 107 -45q41 0 62 19.5t30 70.5l168 958h215l303 -643q25 -54 47 -112
t31 -89l10 -32h8q12 130 39 282l66 371q25 139 94 193.5t186 54.5q116 0 183 -49l-50 -191q-54 43 -106 43q-41 0 -62 -19.5t-30 -70.5z" />
    <glyph glyph-name="published" unicode="&#x2117;" horiz-adv-x="1429" 
d="M700 854l-49 -276h101q178 0 178 167q0 109 -127 109h-103zM592 229h-176l133 764h270q285 0 285 -231q0 -71 -19 -126.5t-51.5 -92t-79.5 -60.5t-100 -34.5t-115 -10.5h-110zM113 602q0 179 84 323.5t227 225t315 80.5q128 0 244 -47.5t200.5 -129.5t134.5 -200t50 -252
t-50 -251.5t-134.5 -199.5t-200.5 -129t-244 -47t-243.5 47t-199.5 129t-133.5 199.5t-49.5 251.5zM176 602q0 -122 44.5 -228.5t121 -180t180.5 -116t219 -42.5q155 0 284 71.5t205.5 202.5t76.5 293t-76.5 293.5t-205.5 203.5t-284 72q-115 0 -219 -42.5t-180.5 -117
t-121 -181t-44.5 -228.5z" />
    <glyph glyph-name="servicemark" unicode="&#x2120;" horiz-adv-x="1292" 
d="M98 834l119 26q1 -41 27.5 -61.5t68.5 -20.5q88 0 88 58q0 26 -19 41t-75 32q-81 23 -114 57.5t-33 96.5q0 56 34 93.5t81.5 52t103.5 14.5q196 0 196 -146l-124 -18q0 36 -22.5 55t-61.5 19q-32 0 -54 -14.5t-22 -41.5q0 -25 20 -39t84 -34q74 -22 109 -58.5t35 -91.5
q0 -82 -64 -122t-168 -40q-203 0 -209 142zM1184 698h-127l61 318h-8l-135 -209h-94l-56 209h-10l-61 -318h-129l98 508h149l76 -256h6l174 256h156z" />
    <glyph glyph-name="trademark" unicode="&#x2122;" horiz-adv-x="1263" 
d="M338 698h-127l78 402h-146l21 106h420l-21 -106h-145zM1157 698h-129l62 318h-9l-135 -209h-94l-55 209h-11l-61 -318h-129l100 508h148l78 -256h4l174 256h155z" />
    <glyph glyph-name="estimated" unicode="&#x212e;" horiz-adv-x="1325" 
d="M662 1231q145 0 257.5 -53t179.5 -143t100.5 -199.5t33.5 -233.5v-53h-883v-346q122 -119 312 -119q264 0 376 213h136q-62 -149 -190.5 -235.5t-321.5 -86.5q-116 0 -211.5 35t-161 94.5t-111 140t-66 170.5t-20.5 187q0 98 21 188t66 171t110.5 140.5t161 94.5
t211.5 35zM662 1122q-194 0 -312 -118v-349h623v349q-118 118 -311 118z" />
    <glyph glyph-name="uni2153" unicode="&#x2153;" horiz-adv-x="1779" 
d="M586 483h-529l23 127h184l78 441l-217 -19l25 131l387 45l-107 -598h178zM397 0l838 1208h147l-837 -1208h-148zM1432 375v-6q167 -20 167 -168q0 -105 -84 -160t-212 -55q-118 0 -183 52t-71 138l143 43q10 -115 111 -115q55 0 91 25.5t36 73.5q0 52 -39 80.5t-146 29.5
l19 103q107 4 154.5 32.5t47.5 81.5q0 36 -24 57t-64 21q-90 0 -114 -96l-129 51q60 176 264 176q106 0 171.5 -45.5t65.5 -136.5q0 -76 -53 -124t-151 -58z" />
    <glyph glyph-name="uni2154" unicode="&#x2154;" horiz-adv-x="1779" 
d="M596 614l-23 -131h-553l21 115q217 123 321.5 210.5t104.5 172.5q0 104 -105 104q-55 0 -90 -36t-47 -103l-131 55q18 99 93 160.5t196 61.5q117 0 184.5 -56.5t67.5 -160.5q0 -61 -28 -116.5t-68 -94t-99 -74.5t-104 -56.5t-100 -41.5v-9h360zM397 0l838 1208h147
l-837 -1208h-148zM1432 375v-6q167 -20 167 -168q0 -105 -84 -160t-212 -55q-118 0 -183 52t-71 138l143 43q10 -115 111 -115q55 0 91 25.5t36 73.5q0 52 -39 80.5t-146 29.5l19 103q107 4 154.5 32.5t47.5 81.5q0 36 -24 57t-64 21q-90 0 -114 -96l-129 51q60 176 264 176
q106 0 171.5 -45.5t65.5 -136.5q0 -76 -53 -124t-151 -58z" />
    <glyph glyph-name="uni215B" unicode="&#x215b;" horiz-adv-x="1779" 
d="M586 483h-529l23 127h184l78 441l-217 -19l25 131l387 45l-107 -598h178zM397 0l838 1208h147l-837 -1208h-148zM1354 -14q-131 0 -197.5 50t-66.5 136q0 81 54 135t138 66v6q-56 20 -86.5 58.5t-30.5 88.5q0 101 84 157t209 56q120 0 184 -48.5t64 -129.5
q0 -78 -45.5 -125t-122.5 -63v-6q129 -40 129 -162q0 -100 -89.5 -159.5t-223.5 -59.5zM1444 625q-53 0 -88 -29.5t-35 -81.5q0 -37 25.5 -59.5t68.5 -22.5q53 0 91 27.5t38 83.5q0 35 -25 58.5t-75 23.5zM1399 313q-59 0 -100.5 -31t-41.5 -87q0 -44 27.5 -70.5t81.5 -26.5
q59 0 99 32t40 91q0 42 -27.5 67t-78.5 25z" />
    <glyph glyph-name="uni215C" unicode="&#x215c;" horiz-adv-x="1779" 
d="M438 858v-6q85 -10 126.5 -54t41.5 -114q0 -105 -84.5 -160t-212.5 -55q-118 0 -183 52t-71 138l144 43q9 -114 110 -114q55 0 91 25.5t36 72.5q0 52 -38.5 81t-145.5 30l18 102q203 8 203 115q0 36 -24 57t-64 21q-90 0 -115 -97l-129 52q60 176 265 176
q106 0 171.5 -46t65.5 -137q0 -75 -53.5 -123.5t-151.5 -58.5zM397 0l838 1208h147l-837 -1208h-148zM1354 -14q-131 0 -197.5 50t-66.5 136q0 81 54 135t138 66v6q-56 20 -86.5 58.5t-30.5 88.5q0 101 84 157t209 56q120 0 184 -48.5t64 -129.5q0 -78 -45.5 -125
t-122.5 -63v-6q129 -40 129 -162q0 -100 -89.5 -159.5t-223.5 -59.5zM1444 625q-53 0 -88 -29.5t-35 -81.5q0 -37 25.5 -59.5t68.5 -22.5q53 0 91 27.5t38 83.5q0 35 -25 58.5t-75 23.5zM1399 313q-59 0 -100.5 -31t-41.5 -87q0 -44 27.5 -70.5t81.5 -26.5q59 0 99 32t40 91
q0 42 -27.5 67t-78.5 25z" />
    <glyph glyph-name="uni215D" unicode="&#x215d;" horiz-adv-x="1779" 
d="M127 797l90 409h445l-25 -135h-315l-41 -178q45 55 135 55q92 0 145 -56t53 -153q0 -132 -84.5 -201t-218.5 -69q-121 0 -187 47t-77 133l154 51q6 -110 118 -110q63 0 98.5 36t35.5 105q0 51 -26 80t-67 29q-56 0 -96 -43h-137zM397 0l838 1208h147l-837 -1208h-148z
M1354 -14q-131 0 -197.5 50t-66.5 136q0 81 54 135t138 66v6q-56 20 -86.5 58.5t-30.5 88.5q0 101 84 157t209 56q120 0 184 -48.5t64 -129.5q0 -78 -45.5 -125t-122.5 -63v-6q129 -40 129 -162q0 -100 -89.5 -159.5t-223.5 -59.5zM1444 625q-53 0 -88 -29.5t-35 -81.5
q0 -37 25.5 -59.5t68.5 -22.5q53 0 91 27.5t38 83.5q0 35 -25 58.5t-75 23.5zM1399 313q-59 0 -100.5 -31t-41.5 -87q0 -44 27.5 -70.5t81.5 -26.5q59 0 99 32t40 91q0 42 -27.5 67t-78.5 25z" />
    </font>
</defs>
</svg>
