<?xml version="1.0" standalone="no"?>
<!DOCTYPE svg PUBLIC "-//W3C//DTD SVG 1.1//EN" "http://www.w3.org/Graphics/SVG/1.1/DTD/svg11.dtd" >
<svg xmlns="http://www.w3.org/2000/svg" xmlns:xlink="http://www.w3.org/1999/xlink" version="1.1">
<metadata>
Created by FontForge 20170731 at Fri Sep 17 22:21:33 2021
 By Aleksey,,,
Copyright (c) 2004-9 by Kris Sowersby. All rights reserved.
</metadata>
<defs>
<font id="National-Regular" horiz-adv-x="1093" >
  <font-face 
    font-family="National Regular"
    font-weight="500"
    font-stretch="normal"
    units-per-em="2048"
    panose-1="2 0 5 3 0 0 0 2 0 4"
    ascent="1638"
    descent="-410"
    x-height="946"
    cap-height="1206"
    bbox="-209 -526 2421 1989"
    underline-thickness="116"
    underline-position="-173"
    unicode-range="U+0020-F778"
  />
<missing-glyph horiz-adv-x="1546" 
d="M170 0v1206h1206v-1206h-1206zM772 541l-453 -453h908zM319 1118l453 -454l455 454h-908zM834 602l454 -452v907zM711 602l-453 455v-907z" />
    <glyph glyph-name="f_b" unicode="fb" horiz-adv-x="1630" 
d="M868 545v-178q0 -65 20.5 -115.5t55 -79t73.5 -43t81 -14.5q112 0 184 92.5t72 271.5q0 167 -62.5 252.5t-173.5 85.5q-105 0 -177.5 -73.5t-72.5 -198.5zM684 1190q-76 45 -164 45q-168 0 -168 -186v-103h199v-147h-199v-799h-186v799h-137v147h137v101q0 91 29.5 158.5
t80.5 104.5t109 54.5t123 17.5q117 0 205 -43l155 29v-602q34 101 115.5 152t187.5 51q175 0 274 -123t99 -350q0 -146 -47 -263t-140.5 -187.5t-217.5 -70.5q-116 0 -187 45t-98 117l-49 -137h-121v1190z" />
    <glyph glyph-name="f_f_b" unicode="ffb" horiz-adv-x="2146" 
d="M1386 545v-178q0 -65 20.5 -115.5t54.5 -79t73 -43t80 -14.5q113 0 185.5 92.5t72.5 271.5q0 166 -63 252t-175 86q-105 0 -176.5 -73.5t-71.5 -198.5zM1386 1368v-602q34 101 116 152t186 51q175 0 273.5 -123t98.5 -350q0 -146 -47 -263t-140.5 -187.5t-217.5 -70.5
q-115 0 -186.5 45t-98.5 117l-47 -137h-123v1190q-76 45 -164 45q-168 0 -168 -186v-103h201v-147h-201v-799h-184v799h-332v-799h-186v799h-137v147h137v98q0 88 26 153t71 100t96.5 51t111.5 16q97 0 172 -37l-35 -160q-60 41 -129 41q-127 0 -127 -159v-103h332v101
q0 91 29.5 158.5t80 104.5t108.5 54.5t124 17.5q117 0 205 -43z" />
    <glyph glyph-name="f_f_h" unicode="ffh" horiz-adv-x="2097" 
d="M1386 1368v-602q68 203 285 203q127 0 208 -73t81 -220v-676h-186v623q0 88 -41 137t-123 49q-99 0 -161.5 -61t-62.5 -205v-543h-186v1190q-76 45 -164 45q-168 0 -168 -186v-103h201v-147h-201v-799h-184v799h-332v-799h-186v799h-137v147h137v98q0 88 26 153t71 100
t96.5 51t111.5 16q97 0 172 -37l-35 -160q-60 41 -129 41q-127 0 -127 -159v-103h332v101q0 91 29.5 158.5t80 104.5t108.5 54.5t124 17.5q117 0 205 -43z" />
    <glyph glyph-name="f_f_j" unicode="ffj" horiz-adv-x="1533" 
d="M868 799v-799h-184v799h-332v-799h-186v799h-137v147h137v98q0 88 26 153t71 100t96.5 51t111.5 16q97 0 172 -37l-35 -160q-60 41 -129 41q-127 0 -127 -159v-103h332v92q0 76 21 136.5t55.5 99t81 63.5t94.5 35t100 10q156 0 260 -67l-65 -152q-86 64 -189 64
q-83 0 -128.5 -45t-45.5 -150v-86h518v-960q0 -224 -114.5 -317t-335.5 -85v156q137 -12 200.5 44t63.5 193v822h-332z" />
    <glyph glyph-name="f_f_k" unicode="ffk" horiz-adv-x="2011" 
d="M1386 1368v-801h46l313 379h223l-379 -440l410 -506h-227l-330 424h-56v-424h-186v1190q-76 45 -164 45q-168 0 -168 -186v-103h201v-147h-201v-799h-184v799h-332v-799h-186v799h-137v147h137v98q0 88 26 153t71 100t96.5 51t111.5 16q97 0 172 -37l-35 -160
q-60 41 -129 41q-127 0 -127 -159v-103h332v101q0 91 29.5 158.5t80 104.5t108.5 54.5t124 17.5q117 0 205 -43z" />
    <glyph glyph-name="f_h" unicode="fh" horiz-adv-x="1579" 
d="M868 1368v-602q68 203 287 203q126 0 206.5 -73t80.5 -220v-676h-185v623q0 89 -41 137.5t-124 48.5q-98 0 -161 -61.5t-63 -204.5v-543h-184v1190q-76 45 -164 45q-168 0 -168 -186v-103h199v-147h-199v-799h-186v799h-137v147h137v101q0 91 29.5 158.5t80.5 104.5
t109 54.5t123 17.5q117 0 205 -43z" />
    <glyph glyph-name="f_j" unicode="fj" horiz-adv-x="1015" 
d="M684 -23v822h-332v-799h-186v799h-137v147h137v92q0 76 21.5 136.5t56 99t81.5 63.5t95 35t100 10q154 0 258 -67l-65 -152q-86 64 -189 64q-82 0 -127 -45t-45 -150v-86h516v-960q0 -224 -114.5 -317t-335.5 -85v156q139 -12 202.5 44t63.5 193z" />
    <glyph glyph-name="f_k" unicode="fk" horiz-adv-x="1495" 
d="M868 1368v-801h45l316 379h223l-381 -440l412 -506h-228l-331 424h-56v-424h-184v1190q-76 45 -164 45q-168 0 -168 -186v-103h199v-147h-199v-799h-186v799h-137v147h137v101q0 91 29.5 158.5t80.5 104.5t109 54.5t123 17.5q117 0 205 -43z" />
    <glyph glyph-name="ff" unicode="ff" horiz-adv-x="1097" 
d="M684 799h-332v-799h-186v799h-137v147h137v98q0 88 26 153t71 100t96.5 51t111.5 16q97 0 172 -37l-35 -160q-60 41 -129 41q-127 0 -127 -159v-103h332v107q0 89 27 155t74.5 103t103 54t121.5 17q108 0 194 -36l-35 -164q-73 43 -149 43q-152 0 -152 -183v-96h242v-147
h-242v-799h-184v799z" />
    <glyph glyph-name="ffi" unicode="ffi" horiz-adv-x="1533" 
d="M684 946v92q0 76 21 136.5t55.5 99t81 63.5t94.5 35t100 10q156 0 260 -67l-65 -152q-86 64 -189 64q-83 0 -128.5 -45t-45.5 -150v-86h518v-946h-186v799h-332v-799h-184v799h-332v-799h-186v799h-137v147h137v98q0 88 26 153t71 100t96.5 51t111.5 16q97 0 172 -37
l-35 -160q-60 41 -129 41q-127 0 -127 -159v-103h332z" />
    <glyph glyph-name="ffl" unicode="ffl" horiz-adv-x="1601" 
d="M684 946v101q0 91 29.5 158.5t80 104.5t108.5 54.5t124 17.5q117 0 205 -43l155 29v-1141q0 -84 82 -84q26 0 68 11l-4 -154q-65 -16 -115 -16q-95 0 -156 51.5t-61 152.5v1002q-76 45 -164 45q-168 0 -168 -186v-103h201v-147h-201v-799h-184v799h-332v-799h-186v799
h-137v147h137v98q0 88 26 153t71 100t96.5 51t111.5 16q97 0 172 -37l-35 -160q-60 41 -129 41q-127 0 -127 -159v-103h332z" />
    <glyph glyph-name="fi" unicode="fi" horiz-adv-x="1015" 
d="M166 799h-137v147h137v92q0 76 21.5 136.5t56 99t81.5 63.5t95 35t100 10q154 0 258 -67l-65 -152q-86 64 -189 64q-82 0 -127 -45t-45 -150v-86h516v-946h-184v799h-332v-799h-186v799z" />
    <glyph glyph-name="fl" unicode="fl" horiz-adv-x="1083" 
d="M1018 154l-4 -154q-63 -16 -115 -16q-95 0 -155 51.5t-60 152.5v1002q-76 45 -164 45q-168 0 -168 -186v-103h199v-147h-199v-799h-186v799h-137v147h137v101q0 91 29.5 158.5t80.5 104.5t109 54.5t123 17.5q117 0 205 -43l155 29v-1141q0 -42 22.5 -63t61.5 -21
q29 0 66 11z" />
    <glyph glyph-name=".notdef" horiz-adv-x="1546" 
d="M170 0v1206h1206v-1206h-1206zM772 541l-453 -453h908zM319 1118l453 -454l455 454h-908zM834 602l454 -452v907zM711 602l-453 455v-907z" />
    <glyph glyph-name=".null" horiz-adv-x="0" 
 />
    <glyph glyph-name="nonmarkingreturn" horiz-adv-x="682" 
 />
    <glyph glyph-name="space" unicode=" " horiz-adv-x="452" 
 />
    <glyph glyph-name="exclam" unicode="!" horiz-adv-x="468" 
d="M117 1206h235l-55 -850h-125zM104 115q0 55 37 91t92 36q56 0 94 -36t38 -91q0 -54 -38 -90.5t-94 -36.5q-54 0 -91.5 36.5t-37.5 90.5z" />
    <glyph glyph-name="quotedbl" unicode="&#x22;" horiz-adv-x="712" 
d="M125 844v524h201l-86 -524h-115zM428 844v524h201l-86 -524h-115z" />
    <glyph glyph-name="numbersign" unicode="#" horiz-adv-x="1255" 
d="M1137 295h-328l-88 -295h-141l88 295h-213l-88 -295h-142l88 295h-235v137h276l54 178h-289v138h330l71 237h144l-72 -237h211l71 237h146l-72 -237h230v-138h-273l-53 -178h285v-137zM551 610l-55 -178h213l53 178h-211z" />
    <glyph glyph-name="dollar" unicode="$" horiz-adv-x="925" 
d="M430 -217v192q-316 9 -356 261l172 36q20 -143 184 -159v301l-70 16q-132 30 -190.5 102t-58.5 183q0 72 25.5 127.5t71 89t100.5 52.5t122 24v168h102v-168q282 -16 308 -265l-181 -18q-9 119 -127 143v-301l37 -6q130 -26 202.5 -100.5t72.5 -198.5q0 -131 -84 -200
t-228 -82v-197h-102zM287 733q0 -60 32.5 -95t108.5 -50h2v284q-68 -8 -105.5 -44.5t-37.5 -94.5zM668 246q0 59 -30 93t-106 52v-276q63 9 99.5 42t36.5 89z" />
    <glyph glyph-name="percent" unicode="%" horiz-adv-x="1767" 
d="M358 469q-141 0 -215.5 102.5t-74.5 274.5q0 168 78.5 272.5t211.5 104.5q132 0 210.5 -104.5t78.5 -272.5q0 -172 -75 -274.5t-214 -102.5zM358 1094q-70 0 -106.5 -68t-36.5 -182q0 -112 37.5 -183t105.5 -71q67 0 105.5 71.5t38.5 182.5q0 113 -37.5 181.5
t-106.5 68.5zM508 0l627 1208h127l-627 -1208h-127zM1411 -14q-141 0 -216 102t-75 274q0 168 79 272.5t212 104.5q132 0 210.5 -104.5t78.5 -272.5q0 -172 -75 -274t-214 -102zM1411 610q-70 0 -106.5 -68t-36.5 -182q0 -112 37.5 -183t105.5 -71q67 0 105 71.5t38 182.5
q0 113 -37 181.5t-106 68.5z" />
    <glyph glyph-name="ampersand" unicode="&#x26;" horiz-adv-x="1130" 
d="M1112 94l-131 -121l-150 158q-156 -156 -401 -156q-172 0 -278.5 81t-106.5 241q0 251 274 350l-53 55q-114 118 -114 250q0 129 90 204t237 75q148 0 238 -75.5t90 -201.5q0 -109 -59 -184.5t-183 -126.5l262 -268q44 86 47 227l162 -45q-22 -186 -96 -293zM229 309
q0 -87 60.5 -139.5t152.5 -52.5q180 0 287 116l-321 326q-91 -40 -135 -97.5t-44 -152.5zM479 1100q-69 0 -110 -38t-41 -101q0 -42 20 -79.5t64 -82.5l69 -72q82 37 117 90t35 131q0 72 -39.5 112t-114.5 40z" />
    <glyph glyph-name="quotesingle" unicode="'" horiz-adv-x="409" 
d="M125 844v524h201l-86 -524h-115z" />
    <glyph glyph-name="parenleft" unicode="(" horiz-adv-x="690" 
d="M317 477q0 -139 24.5 -260t76 -230t111.5 -200t149 -201h-205q-75 91 -131.5 179t-105.5 198t-75 240t-26 274t26 274t75 240t105.5 198t131.5 179h205q-89 -110 -149 -201t-111.5 -200t-76 -230t-24.5 -260z" />
    <glyph glyph-name="parenright" unicode=")" horiz-adv-x="690" 
d="M373 477q0 139 -24.5 260t-76 230t-111.5 200t-149 201h205q76 -91 132.5 -179.5t105.5 -198t74.5 -239.5t25.5 -274t-25.5 -274t-74.5 -239.5t-105.5 -198t-132.5 -179.5h-205q89 110 149 201t111.5 200t76 230t24.5 260z" />
    <glyph glyph-name="asterisk" unicode="*" horiz-adv-x="749" 
d="M453 1210l-27 -204l184 90l47 -142l-206 -34l147 -158l-125 -88l-98 184l-99 -186l-120 92l145 156l-209 34l49 140l185 -88l-27 204h154z" />
    <glyph glyph-name="plus" unicode="+" horiz-adv-x="1019" 
d="M92 563h359v348h110v-348h367v-110h-367v-377h-110v377h-359v110z" />
    <glyph glyph-name="comma" unicode="," horiz-adv-x="579" 
d="M428 68q0 -284 -311 -301v88q166 23 166 151q-63 -12 -105.5 21.5t-42.5 93.5t37.5 93.5t99.5 33.5q66 0 111 -49t45 -131z" />
    <glyph glyph-name="hyphen" unicode="-" horiz-adv-x="749" 
d="M139 449v155h471v-155h-471z" />
    <glyph glyph-name="period" unicode="." horiz-adv-x="585" 
d="M154 127q0 60 40 99.5t99 39.5t99 -39.5t40 -99.5q0 -59 -40 -99t-99 -40t-99 40t-40 99z" />
    <glyph glyph-name="slash" unicode="/" horiz-adv-x="811" 
d="M20 -416l562 1786h168l-566 -1786h-164z" />
    <glyph glyph-name="zero" unicode="0" horiz-adv-x="1198" 
d="M600 -25q-157 0 -272 69.5t-172.5 185.5t-57.5 262q0 108 33.5 202t96 164.5t158.5 111t214 40.5q155 0 270 -70t172.5 -186.5t57.5 -261.5q0 -224 -134 -370.5t-366 -146.5zM600 850q-151 0 -234 -101t-83 -260q0 -162 82.5 -260t234.5 -98q150 0 232.5 98t82.5 260
q0 159 -83 260t-232 101z" />
    <glyph glyph-name="one" unicode="1" horiz-adv-x="720" 
d="M508 0h-182v809l-285 -51v153l467 90v-1001z" />
    <glyph glyph-name="two" unicode="2" horiz-adv-x="915" 
d="M834 154v-154h-760v143q278 134 404 262t126 271q0 87 -48.5 132.5t-129.5 45.5q-78 0 -126.5 -50.5t-57.5 -150.5l-170 37q11 87 46 151t87 99.5t110.5 52.5t126.5 17q97 0 173.5 -32t126 -107t49.5 -185q0 -95 -40 -181.5t-108.5 -152t-155 -114t-184.5 -76.5v-8h531z
" />
    <glyph glyph-name="three" unicode="3" horiz-adv-x="917" 
d="M465 395v-10q153 -13 244.5 -103.5t91.5 -226.5q0 -156 -114.5 -247t-285.5 -91t-275.5 76.5t-123.5 210.5l176 43q34 -188 228 -188q97 0 153.5 53.5t56.5 148.5q0 107 -80.5 171t-263.5 81v142q97 11 161.5 32.5t99 53.5t48 69t13.5 88q0 75 -51.5 118.5t-126.5 43.5
t-125 -42t-64 -130l-174 43q27 128 122.5 203.5t248.5 75.5q99 0 177 -31t128.5 -102t50.5 -172q0 -127 -83.5 -211t-231.5 -99z" />
    <glyph glyph-name="four" unicode="4" horiz-adv-x="1050" 
d="M614 -268v364h-581v123l583 766h181v-743h200v-146h-200v-364h-183zM377 242h237v305q0 63 2 121t4 85l3 27h-9q-36 -73 -120 -190l-162 -219q-29 -39 -57.5 -71.5t-42.5 -45.5l-13 -12v-9q39 9 158 9z" />
    <glyph glyph-name="five" unicode="5" horiz-adv-x="911" 
d="M147 313l27 672h604v-162h-450l-17 -391q70 60 181 60q154 0 248 -99t94 -280q0 -192 -116 -295t-304 -103q-168 0 -268.5 76.5t-118.5 210.5l161 49q17 -99 78.5 -150t155.5 -51q106 0 171.5 65t65.5 194q0 118 -61 182.5t-166 64.5q-78 0 -143 -43h-142z" />
    <glyph glyph-name="six" unicode="6" horiz-adv-x="1056" 
d="M948 999l-151 -77q-56 157 -211 157q-151 0 -234 -145t-84 -418h6q27 121 110.5 185.5t199.5 64.5q179 0 281 -110t102 -277q0 -174 -112.5 -289t-311.5 -115q-202 0 -319.5 151t-117.5 439q0 166 39 296t107 209.5t155 120t187 40.5q127 0 217.5 -59.5t136.5 -172.5z
M319 367q0 -110 67.5 -177t168.5 -67q102 0 170 67t68 177q0 114 -67.5 181.5t-170.5 67.5q-101 0 -168.5 -67.5t-67.5 -181.5z" />
    <glyph glyph-name="seven" unicode="7" horiz-adv-x="940" 
d="M659 823h-438v-153h-168v315h803v-127l-455 -1126h-182z" />
    <glyph glyph-name="eight" unicode="8" horiz-adv-x="1028" 
d="M514 -25q-191 0 -303.5 89t-112.5 241q0 113 63.5 191t168.5 112v10q-104 33 -155.5 107.5t-51.5 177.5q0 148 107 238t284 90q175 0 283 -90.5t108 -237.5q0 -104 -52 -178t-157 -107v-10q106 -34 170 -112t64 -191q0 -152 -112.5 -241t-303.5 -89zM514 1098
q-99 0 -155 -54.5t-56 -142.5q0 -107 58 -160t153 -53t153 53t58 160q0 88 -56 142.5t-155 54.5zM514 543q-101 0 -168 -56t-67 -157q0 -100 63.5 -159.5t171.5 -59.5t172 59.5t64 159.5q0 101 -67.5 157t-168.5 56z" />
    <glyph glyph-name="nine" unicode="9" horiz-adv-x="1046" 
d="M49 -51l150 76q61 -166 235 -166q80 0 141.5 36t98.5 94t60.5 141t32.5 167t9 182h-8q-21 -131 -104 -198.5t-203 -67.5q-177 0 -281 111t-104 274q0 84 27 158t78 131t131 90t180 33q214 0 331 -146.5t117 -437.5q0 -339 -132.5 -524t-379.5 -185q-288 0 -379 232z
M725 614q0 112 -68 180t-168 68q-105 0 -174 -67.5t-69 -180.5q0 -117 69 -186.5t174 -69.5q100 0 168 69.5t68 186.5z" />
    <glyph glyph-name="colon" unicode=":" horiz-adv-x="585" 
d="M154 127q0 60 40 99.5t99 39.5t99 -39.5t40 -99.5q0 -59 -40 -99t-99 -40t-99 40t-40 99zM154 809q0 60 40 99.5t99 39.5t99 -39.5t40 -99.5q0 -59 -40 -99t-99 -40t-99 40t-40 99z" />
    <glyph glyph-name="semicolon" unicode=";" horiz-adv-x="579" 
d="M428 68q0 -284 -311 -301v88q166 23 166 151q-63 -12 -105.5 21.5t-42.5 93.5t37.5 93.5t99.5 33.5q66 0 111 -49t45 -131zM135 809q0 60 40 99.5t99 39.5t99.5 -39.5t40.5 -99.5q0 -58 -40.5 -98.5t-99.5 -40.5q-58 0 -98.5 40t-40.5 99z" />
    <glyph glyph-name="less" unicode="&#x3c;" horiz-adv-x="786" 
d="M682 854l-424 -348l424 -352l-74 -86l-516 438l518 434z" />
    <glyph glyph-name="equal" unicode="=" horiz-adv-x="1019" 
d="M928 315h-836v109h836v-109zM928 584h-836v108h836v-108z" />
    <glyph glyph-name="greater" unicode="&#x3e;" horiz-adv-x="786" 
d="M518 506l-422 348l72 86l516 -434l-514 -438l-76 86z" />
    <glyph glyph-name="question" unicode="?" horiz-adv-x="806" 
d="M164 883l-164 59q29 134 127 211.5t260 77.5q174 0 279.5 -100t105.5 -259q0 -90 -31.5 -161.5t-83 -114.5t-113 -65.5t-126.5 -24.5v-168h-168v274h74q122 0 190 60t68 186q0 108 -56 162.5t-151 54.5q-85 0 -141 -47t-70 -145zM205 115q0 55 36.5 91t92.5 36t93.5 -36
t37.5 -91q0 -54 -37.5 -90.5t-93.5 -36.5q-55 0 -92 36.5t-37 90.5z" />
    <glyph glyph-name="at" unicode="@" horiz-adv-x="1812" 
d="M1081 326v178q0 96 -60 147t-134 51q-94 0 -152.5 -73t-58.5 -232q0 -134 56 -207t153 -73q74 0 135 54.5t61 154.5zM1251 817v-618q0 -59 22 -84t64 -25q115 0 171.5 118.5t56.5 317.5q0 142 -52 254t-141 180.5t-202 104t-242 35.5q-107 0 -206.5 -26.5t-187.5 -82.5
t-153 -136.5t-103 -195t-38 -251.5q0 -141 38 -257.5t105.5 -197t161.5 -136t203 -81t233 -25.5q202 0 377 62l31 -121q-195 -64 -410 -64q-145 1 -273.5 29t-242 91t-195 156.5t-129 232.5t-47.5 311q0 236 103 420.5t295 288.5t444 104q189 0 338.5 -54.5t243.5 -149.5
t143 -218t49 -264q0 -560 -395 -560q-212 0 -228 170q-59 -170 -264 -170q-136 0 -229.5 108.5t-93.5 307.5q0 211 95 328t271 117q82 0 143.5 -35.5t82.5 -89.5l51 106h110z" />
    <glyph glyph-name="A" unicode="A" horiz-adv-x="1165" 
d="M942 0l-117 330h-493l-115 -330h-197l441 1206h248l436 -1206h-203zM481 758l-96 -273h385l-92 271q-30 84 -53.5 163t-32.5 117l-8 37h-9q-28 -127 -94 -315z" />
    <glyph glyph-name="B" unicode="B" horiz-adv-x="1081" 
d="M723 623v-7q118 -11 192 -83t74 -195q0 -160 -106.5 -249t-321.5 -89h-391v1206h395q184 0 279.5 -77t95.5 -230q0 -115 -59 -186.5t-158 -89.5zM358 678h187q97 0 151 46t54 140q0 185 -218 185h-174v-371zM358 528v-370h217q224 0 224 196q0 174 -226 174h-215z" />
    <glyph glyph-name="C" unicode="C" horiz-adv-x="1153" 
d="M958 332l146 -107q-85 -131 -197.5 -190.5t-288.5 -59.5q-239 0 -383.5 165t-144.5 460q0 298 153.5 464.5t409.5 166.5q331 0 453 -291l-176 -86q-36 106 -110 160.5t-177 54.5q-168 0 -262 -125.5t-94 -343.5q0 -217 88.5 -337t257.5 -120q110 0 186.5 44.5
t138.5 144.5z" />
    <glyph glyph-name="D" unicode="D" horiz-adv-x="1216" 
d="M358 158h162q189 0 298.5 109t109.5 341q0 99 -20.5 175.5t-55 126t-85 81.5t-106 45t-122.5 13h-181v-891zM539 0h-369v1206h375q104 0 190.5 -20.5t159.5 -65.5t124 -113t79 -167t28 -224q0 -130 -30.5 -234.5t-83.5 -175t-127.5 -117.5t-160.5 -68t-185 -21z" />
    <glyph glyph-name="E" unicode="E" horiz-adv-x="1015" 
d="M913 164v-164h-743v1206h743v-164h-555v-356h492v-164h-492v-358h555z" />
    <glyph glyph-name="F" unicode="F" horiz-adv-x="944" 
d="M358 0h-188v1206h711v-164h-523v-368h459v-164h-459v-510z" />
    <glyph glyph-name="G" unicode="G" horiz-adv-x="1249" 
d="M641 623h479v-623h-149l-25 156q-35 -86 -128.5 -133.5t-203.5 -47.5q-238 0 -381 162t-143 461q0 298 153.5 465.5t409.5 167.5q340 0 453 -291l-176 -86q-36 106 -111 160.5t-176 54.5q-162 0 -259 -123.5t-97 -347.5q0 -213 87.5 -340t258.5 -127q130 0 215.5 61
t85.5 177v90h-293v164z" />
    <glyph glyph-name="H" unicode="H" horiz-adv-x="1292" 
d="M358 0h-188v1206h188v-512h576v512h188v-1206h-188v530h-576v-530z" />
    <glyph glyph-name="I" unicode="I" horiz-adv-x="528" 
d="M170 1206h188v-1206h-188v1206z" />
    <glyph glyph-name="J" unicode="J" horiz-adv-x="894" 
d="M573 1206h191v-856q0 -101 -30.5 -175.5t-85 -117t-120.5 -62.5t-145 -20q-268 0 -383 236l147 111q48 -104 100.5 -146.5t137.5 -42.5q108 0 148 65t40 195v813z" />
    <glyph glyph-name="K" unicode="K" horiz-adv-x="1099" 
d="M1063 0h-232l-378 530h-95v-530h-188v1206h188v-512h101l352 512h221l-420 -585z" />
    <glyph glyph-name="L" unicode="L" horiz-adv-x="944" 
d="M170 1206h188v-1042h541v-164h-729v1206z" />
    <glyph glyph-name="M" unicode="M" horiz-adv-x="1472" 
d="M799 295h-125l-228 418q-31 58 -53.5 110t-29.5 75l-7 22h-8q10 -75 10 -218v-702h-188v1206h219l287 -557q21 -41 36 -77.5t20 -53.5l5 -16h8q13 55 62 147l285 557h211v-1206h-191v702q0 64 3 118.5t6 77.5l3 22h-8q-20 -76 -92 -207z" />
    <glyph glyph-name="N" unicode="N" horiz-adv-x="1331" 
d="M362 1206l476 -690q32 -47 66.5 -104.5t52.5 -91.5l18 -33h8q-10 128 -10 280v639h188v-1206h-186l-481 688q-34 48 -69 106.5t-53 93.5l-18 34h-8q12 -129 12 -285v-637h-188v1206h192z" />
    <glyph glyph-name="O" unicode="O" horiz-adv-x="1267" 
d="M635 -25q-252 0 -398.5 165t-146.5 462q0 299 146.5 464t398.5 165t397.5 -165t145.5 -464q0 -298 -145.5 -462.5t-397.5 -164.5zM635 1065q-168 0 -257 -122.5t-89 -340.5q0 -219 89 -341t257 -122t256 121.5t88 341.5q0 218 -88.5 340.5t-255.5 122.5z" />
    <glyph glyph-name="P" unicode="P" horiz-adv-x="1021" 
d="M358 1049v-451h174q127 0 180.5 58.5t53.5 168.5q0 109 -60.5 166.5t-175.5 57.5h-172zM358 0h-188v1206h365q426 0 426 -370q0 -185 -104.5 -289.5t-303.5 -104.5h-195v-442z" />
    <glyph glyph-name="Q" unicode="Q" horiz-adv-x="1267" 
d="M1055 -135l-60 -170q-191 -3 -311.5 77t-167.5 214q-199 36 -312.5 196t-113.5 420q0 299 146.5 464t398.5 165t397.5 -165t145.5 -464q0 -272 -123 -433.5t-338 -186.5q61 -66 149.5 -95.5t188.5 -21.5zM635 1065q-168 0 -257 -122.5t-89 -340.5q0 -219 89 -341
t257 -122t256 121.5t88 341.5q0 218 -88.5 340.5t-255.5 122.5z" />
    <glyph glyph-name="R" unicode="R" horiz-adv-x="1126" 
d="M1055 0h-207q-38 43 -53 113l-50 209q-25 100 -76.5 133.5t-148.5 33.5h-162v-489h-188v1206h418q411 0 411 -344q0 -137 -79 -215t-199 -84v-6q88 -11 136.5 -54t72.5 -138l61 -238q22 -77 64 -127zM358 1049v-402h222q114 0 168.5 49t54.5 152q0 96 -55.5 148.5
t-165.5 52.5h-224z" />
    <glyph glyph-name="S" unicode="S" horiz-adv-x="978" 
d="M57 289l176 47q18 -107 84.5 -161t167.5 -54q99 0 158 44.5t59 127.5q0 80 -51 128t-198 103q-65 23 -110 42.5t-94.5 51t-79.5 67t-49.5 88.5t-19.5 118q0 73 22 132t59 97.5t87.5 64.5t104 37t112.5 11q85 0 154.5 -17.5t125 -54.5t89.5 -99.5t41 -146.5l-186 -36
q-9 97 -69 149.5t-153 52.5q-87 0 -140.5 -45.5t-53.5 -128.5q0 -36 12.5 -64.5t31 -48.5t56 -40.5t71.5 -34t93 -35.5q65 -24 107 -43t90 -50.5t76 -67t46.5 -88.5t18.5 -118q0 -87 -33 -153.5t-91 -107t-132.5 -61t-163.5 -20.5q-181 0 -285 76t-133 238z" />
    <glyph glyph-name="T" unicode="T" horiz-adv-x="933" 
d="M561 0h-190v1042h-351v164h893v-164h-352v-1042z" />
    <glyph glyph-name="U" unicode="U" horiz-adv-x="1191" 
d="M870 1206h191v-811q0 -91 -26 -163.5t-69.5 -120t-104 -78.5t-126 -44.5t-139.5 -13.5q-94 0 -174 22.5t-147 69.5t-105.5 131t-38.5 197v811h188v-762q0 -313 277 -313q274 0 274 309v766z" />
    <glyph glyph-name="V" unicode="V" horiz-adv-x="1083" 
d="M223 1206l242 -764q25 -81 44.5 -157t26.5 -112l7 -36h8q17 121 72 303l241 766h199l-399 -1206h-248l-396 1206h203z" />
    <glyph glyph-name="W" unicode="W" horiz-adv-x="1691" 
d="M963 1206l188 -755q21 -84 37.5 -165.5t22.5 -121.5l6 -39h8q16 140 61 324l191 757h190l-313 -1206h-269l-184 711q-22 83 -34.5 163.5t-14.5 119.5l-2 40h-8q-9 -135 -56 -323l-182 -711h-268l-311 1206h200l189 -751q20 -83 36 -165.5t22 -123.5l5 -41h8
q15 142 64 328l194 753h220z" />
    <glyph glyph-name="X" unicode="X" horiz-adv-x="1089" 
d="M856 0l-223 338q-36 52 -57.5 90t-25.5 50l-3 11h-8q-10 -32 -88 -153l-218 -336h-213l416 610l-395 596h221l193 -305q38 -59 60.5 -99.5t26.5 -51.5l3 -11h6q6 29 88 162l190 305h207l-383 -579l416 -627h-213z" />
    <glyph glyph-name="Y" unicode="Y" horiz-adv-x="991" 
d="M236 1206l188 -383q31 -61 52 -112t26 -72l6 -21h8q12 68 78 205l178 383h199l-369 -749v-457h-188v457l-394 749h216z" />
    <glyph glyph-name="Z" unicode="Z" horiz-adv-x="972" 
d="M918 1079l-517 -764q-30 -44 -59 -81.5t-43 -52.5l-14 -15v-8q51 6 176 6h467v-164h-883v113l518 778q29 44 58.5 81.5t44.5 52.5l14 15v9q-53 -7 -176 -7h-434v164h848v-127z" />
    <glyph glyph-name="bracketleft" unicode="[" horiz-adv-x="671" 
d="M344 1231v-1507h256v-140h-430v1786h430v-139h-256z" />
    <glyph glyph-name="backslash" unicode="\" horiz-adv-x="811" 
d="M229 1370l562 -1786h-166l-564 1786h168z" />
    <glyph glyph-name="bracketright" unicode="]" horiz-adv-x="671" 
d="M328 -276v1507h-256v139h430v-1786h-430v140h256z" />
    <glyph glyph-name="asciicircum" unicode="^" horiz-adv-x="1038" 
d="M786 657l-165 328q-40 80 -64.5 143t-28.5 86l-4 23h-8q-6 -72 -98 -250l-172 -330h-185l383 711h152l381 -711h-191z" />
    <glyph glyph-name="underscore" unicode="_" horiz-adv-x="985" 
d="M102 -190v145h781v-145h-781z" />
    <glyph glyph-name="grave" unicode="`" horiz-adv-x="733" 
d="M563 1083h-164l-235 299h248z" />
    <glyph glyph-name="a" unicode="a" horiz-adv-x="980" 
d="M625 285v137q-188 4 -276.5 -38t-88.5 -132q0 -61 39.5 -99t112.5 -38q81 0 147 46t66 124zM811 678v-455q0 -88 70 -88q30 0 53 10v-143q-43 -16 -100 -16q-172 0 -195 151q-67 -162 -281 -162q-127 0 -204.5 68.5t-77.5 187.5q0 338 549 312v116q0 162 -170 162
q-77 0 -121.5 -39t-50.5 -112l-177 26q5 72 38 126.5t85 85.5t113 46t129 15q72 0 131 -15.5t107.5 -48.5t75 -90.5t26.5 -136.5z" />
    <glyph glyph-name="b" unicode="b" 
d="M332 543v-176q0 -65 20.5 -115.5t54.5 -79t73 -43t81 -14.5q113 0 185.5 92.5t72.5 271.5q0 167 -63 252.5t-174 85.5q-106 0 -178 -74t-72 -200zM317 137l-49 -137h-121v1368h185v-602q34 101 116.5 152t186.5 51q175 0 274 -123t99 -350q0 -146 -47.5 -263t-141 -187.5
t-217.5 -70.5q-116 0 -187 45t-98 117z" />
    <glyph glyph-name="c" unicode="c" horiz-adv-x="937" 
d="M715 279l159 -39q-24 -136 -122.5 -200.5t-247.5 -64.5q-190 0 -304 130t-114 362q0 234 117 368t315 134q152 0 243.5 -77.5t100.5 -217.5l-168 -35q-24 178 -184 178q-119 0 -182.5 -95t-63.5 -255q0 -153 69 -248.5t185 -95.5q155 0 197 156z" />
    <glyph glyph-name="d" unicode="d" 
d="M762 377v209q0 60 -21.5 107.5t-56 75.5t-75 42t-83.5 14q-114 0 -184 -87t-70 -275q0 -165 67.5 -253.5t184.5 -88.5q55 0 108 27t91.5 87.5t38.5 141.5zM760 819v549h186v-1368h-164l-20 164q-70 -189 -301 -189q-158 0 -266.5 127t-108.5 355q0 242 111 377t313 135
q89 0 159 -43.5t91 -106.5z" />
    <glyph glyph-name="e" unicode="e" horiz-adv-x="978" 
d="M518 121q81 0 132 35.5t75 117.5l162 -43q-28 -134 -130 -195t-249 -61q-193 0 -307.5 129t-114.5 361q0 236 116.5 370t315.5 134q179 0 277 -111t98 -293q0 -76 -19 -131h-610q6 -143 71.5 -228t182.5 -85zM268 567h443q2 14 2 39q0 93 -56 155t-149 62
q-101 0 -164 -66.5t-76 -189.5z" />
    <glyph glyph-name="f" unicode="f" horiz-adv-x="581" 
d="M166 799h-137v147h137v107q0 90 26.5 155.5t74 102.5t103.5 54t122 17q103 0 196 -39l-35 -157q-74 41 -151 41q-74 0 -112 -42.5t-38 -140.5v-98h242v-147h-242v-799h-186v799z" />
    <glyph glyph-name="g" unicode="g" horiz-adv-x="993" 
d="M469 969q170 0 274 -76q31 17 46.5 50.5t25.5 92.5l160 -55q-10 -66 -54 -111t-104 -59q43 -73 43 -178q0 -157 -110 -242.5t-279 -85.5q-77 0 -123 17q-63 -34 -63 -99q0 -78 100 -78h231q161 0 245.5 -68t84.5 -196q0 -72 -30 -127.5t-79 -90t-117.5 -56.5
t-138.5 -30.5t-149 -8.5q-84 0 -153.5 12t-130.5 38.5t-95.5 77t-34.5 120.5q0 93 64 150.5t180 66.5q-63 7 -97 47.5t-34 99.5q0 128 139 166q-184 82 -184 287q0 157 105 246.5t278 89.5zM193 -164q0 -137 258 -137q155 0 236 35.5t81 120.5q0 125 -160 125h-205
q-210 0 -210 -144zM270 635q0 -91 52.5 -145t146.5 -54q96 0 151.5 51t55.5 148q0 98 -55.5 149.5t-151.5 49.5q-94 0 -146.5 -52t-52.5 -147z" />
    <glyph glyph-name="h" unicode="h" horiz-adv-x="1042" 
d="M332 1368v-602q68 203 286 203q126 0 206.5 -73t80.5 -220v-676h-184v623q0 88 -41.5 137t-124.5 49q-98 0 -160.5 -61.5t-62.5 -204.5v-543h-185v1368h185z" />
    <glyph glyph-name="i" unicode="i" horiz-adv-x="479" 
d="M115 1249q0 54 36 88.5t87 34.5q55 0 92 -34t37 -89q0 -52 -37.5 -87.5t-91.5 -35.5q-50 0 -86.5 35.5t-36.5 87.5zM147 946h185v-946h-185v946z" />
    <glyph glyph-name="j" unicode="j" horiz-adv-x="479" 
d="M147 946h185v-960q0 -224 -114.5 -317t-336.5 -85v156q139 -12 202.5 44t63.5 193v969zM117 1249q0 54 35.5 88.5t87.5 34.5q54 0 90.5 -34.5t36.5 -88.5q0 -52 -37 -87.5t-90 -35.5q-51 0 -87 35.5t-36 87.5z" />
    <glyph glyph-name="k" unicode="k" horiz-adv-x="958" 
d="M535 506l411 -506h-227l-330 424h-57v-424h-185v1368h185v-801h47l313 379h223z" />
    <glyph glyph-name="l" unicode="l" horiz-adv-x="534" 
d="M469 154l-2 -154q-65 -16 -115 -16q-95 0 -156 51.5t-61 152.5v1180h184v-1141q0 -42 22.5 -63t61.5 -21q29 0 66 11z" />
    <glyph glyph-name="m" unicode="m" horiz-adv-x="1583" 
d="M868 760q33 108 113.5 158.5t183.5 50.5q127 0 204 -71t77 -214v-684h-184v623q0 89 -40 137.5t-118 48.5q-90 0 -152.5 -66.5t-62.5 -199.5v-543h-184v623q0 89 -40 137.5t-118 48.5q-88 0 -151.5 -67t-63.5 -199v-543h-185v946h146l22 -182q35 104 113.5 154.5
t181.5 50.5q223 0 258 -209z" />
    <glyph glyph-name="n" unicode="n" horiz-adv-x="1042" 
d="M293 946l22 -182q74 205 303 205q126 0 206.5 -73t80.5 -220v-676h-184v621q0 90 -41.5 139t-124.5 49q-98 0 -160.5 -62t-62.5 -204v-543h-185v946h146z" />
    <glyph glyph-name="o" unicode="o" horiz-adv-x="1034" 
d="M516 -25q-198 0 -314 132t-116 372q0 237 115.5 363.5t314.5 126.5q201 0 316.5 -126.5t115.5 -363.5q0 -240 -116.5 -372t-315.5 -132zM516 819q-248 0 -248 -342q0 -356 248 -356q250 0 250 356q0 342 -250 342z" />
    <glyph glyph-name="p" unicode="p" 
d="M332 541v-174q0 -65 20.5 -115.5t54.5 -79t73 -43t81 -14.5q113 0 185.5 92.5t72.5 271.5q0 167 -63 252.5t-174 85.5q-106 0 -178 -74.5t-72 -201.5zM332 125v-541h-185v1362h152l23 -182q26 73 79.5 121t111.5 66t122 18q175 0 274 -123t99 -350q0 -146 -47 -263
t-141.5 -187.5t-221.5 -70.5q-103 0 -171 42t-95 108z" />
    <glyph glyph-name="q" unicode="q" 
d="M762 379v207q0 60 -21.5 107.5t-56 75.5t-75 42t-83.5 14q-114 0 -184 -87t-70 -275q0 -165 67.5 -253.5t184.5 -88.5q55 0 108 27t91.5 88t38.5 143zM766 823l55 123h125v-1362h-184v580q-70 -189 -301 -189q-158 0 -266.5 127t-108.5 355q0 242 110.5 377t311.5 135
q91 0 162.5 -42.5t95.5 -103.5z" />
    <glyph glyph-name="r" unicode="r" horiz-adv-x="729" 
d="M692 967l-14 -207q-46 8 -84 8q-106 0 -184 -78.5t-78 -210.5v-479h-185v946h156l23 -256q29 134 121.5 209t244.5 68z" />
    <glyph glyph-name="s" unicode="s" horiz-adv-x="858" 
d="M55 213l164 49q20 -156 205 -156q85 0 136.5 32.5t51.5 94.5q0 60 -32 94.5t-115 55.5l-139 33q-126 30 -182 95.5t-56 172.5q0 62 20 111.5t53.5 81.5t80 53t96.5 30t106 9q155 0 241 -61t99 -195l-180 -21q-9 137 -172 137q-78 0 -122 -33.5t-44 -93.5q0 -54 28 -85
t101 -48l131 -30q132 -32 197 -98.5t65 -186.5q0 -144 -99.5 -211.5t-266.5 -67.5q-166 0 -256.5 56t-110.5 182z" />
    <glyph glyph-name="t" unicode="t" horiz-adv-x="690" 
d="M625 184l34 -153q-92 -56 -229 -56q-129 0 -200.5 68.5t-71.5 198.5v557h-138v147h138v201l186 22v-223h281v-147h-283v-520q0 -146 125 -146q81 0 158 51z" />
    <glyph glyph-name="u" unicode="u" horiz-adv-x="1040" 
d="M735 0l-22 172q-33 -103 -105 -150t-186 -47q-136 0 -211.5 76t-75.5 238v657h184v-629q0 -105 41 -154.5t129 -49.5q85 0 152.5 73t67.5 201v559h184v-946h-158z" />
    <glyph glyph-name="v" unicode="v" horiz-adv-x="901" 
d="M346 0l-330 946h201l164 -520q24 -79 42.5 -154.5t24.5 -111.5l7 -35h8q14 121 69 301l158 520h195l-324 -946h-215z" />
    <glyph glyph-name="w" unicode="w" horiz-adv-x="1376" 
d="M784 946l134 -491q24 -84 39.5 -164.5t19.5 -118.5l4 -39h8q6 129 53 322l127 491h187l-258 -946h-221l-125 449q-23 80 -38.5 154.5t-19.5 109.5l-4 35h-8q-10 -117 -57 -299l-119 -449h-221l-265 946h191l129 -491q23 -84 38.5 -164.5t19.5 -118.5l5 -39h9
q6 136 57 324l131 489h184z" />
    <glyph glyph-name="x" unicode="x" horiz-adv-x="886" 
d="M662 0l-142 219q-35 54 -54 92.5t-20 50.5l-2 11h-8q-2 -31 -80 -154l-141 -219h-197l314 475l-297 471h213l117 -198q34 -57 54 -96.5t23 -50.5l4 -11h9q1 31 77 158l121 198h199l-297 -465l313 -481h-206z" />
    <glyph glyph-name="y" unicode="y" horiz-adv-x="901" 
d="M219 946l162 -520q25 -82 43.5 -156.5t24.5 -108.5l6 -34h8q17 113 72 299l157 520h193l-348 -1024q-35 -103 -76 -172t-90 -107t-100.5 -53.5t-118.5 -15.5q-71 0 -138 23l17 157q57 -28 123 -28q76 0 124 48t89 171l-351 1001h203z" />
    <glyph glyph-name="z" unicode="z" horiz-adv-x="806" 
d="M741 823l-360 -520q-31 -44 -60.5 -81.5t-42.5 -52.5l-14 -15v-9q51 7 176 7h322v-152h-717v104l363 535q30 44 59 81.5t43 52.5l14 15v9q-53 -6 -176 -6h-282v155h675v-123z" />
    <glyph glyph-name="braceleft" unicode="{" horiz-adv-x="804" 
d="M305 485v-8q82 -10 126 -55t44 -152v-393q0 -82 26.5 -121t92.5 -39q64 0 125 33l33 -135q-90 -37 -197 -37q-137 0 -193.5 72.5t-56.5 208.5v395q0 93 -38 125.5t-103 32.5h-84v141h84q66 0 103.5 32t37.5 126v393q0 136 56.5 208t193.5 72q109 0 197 -36l-33 -134
q-64 31 -125 31q-67 0 -93 -38.5t-26 -121.5v-393q0 -110 -43 -152.5t-127 -54.5z" />
    <glyph glyph-name="bar" unicode="|" horiz-adv-x="567" 
d="M362 -416h-157v1786h157v-1786z" />
    <glyph glyph-name="braceright" unicode="}" horiz-adv-x="804" 
d="M500 477v8q-84 12 -127 54.5t-43 152.5v393q0 83 -26 121.5t-91 38.5q-63 0 -127 -31l-33 134q88 36 197 36q137 0 193.5 -72t56.5 -208v-393q0 -94 37.5 -126t103.5 -32h84v-141h-84q-65 0 -103 -32.5t-38 -125.5v-395q0 -136 -56.5 -208.5t-193.5 -72.5q-107 0 -197 37
l33 135q61 -33 127 -33q65 0 91 39t26 121v393q0 107 44 152t126 55z" />
    <glyph glyph-name="asciitilde" unicode="~" horiz-adv-x="966" 
d="M627 406q-30 0 -57.5 7.5t-41 14t-49.5 25.5q-69 41 -93 47q-14 4 -30 4q-72 0 -61 -96h-113q-38 100 7.5 179t144.5 79q49 0 82 -12.5t80 -41.5q35 -21 47.5 -28t30 -13t34.5 -6q68 0 60 101h116q37 -109 -6.5 -184.5t-150.5 -75.5z" />
    <glyph glyph-name="nbspace" unicode="&#xa0;" horiz-adv-x="313" 
 />
    <glyph glyph-name="exclamdown" unicode="&#xa1;" horiz-adv-x="468" 
d="M352 -258h-235l55 850h125zM104 834q0 54 37.5 90.5t91.5 36.5q56 0 94 -36.5t38 -90.5q0 -55 -38 -91t-94 -36q-55 0 -92 36t-37 91z" />
    <glyph glyph-name="cent" unicode="&#xa2;" horiz-adv-x="1050" 
d="M508 -217v194q-187 18 -298.5 148t-111.5 364q0 224 111 358.5t299 158.5v170h102v-168q135 -4 222 -63t137 -177l-166 -90q-59 159 -193 176v-727q71 8 121.5 44.5t93.5 111.5l144 -101q-61 -100 -148 -148.5t-211 -56.5v-194h-102zM289 498q0 -153 56 -247.5
t163 -117.5v719q-105 -23 -162 -115t-57 -239z" />
    <glyph glyph-name="sterling" unicode="&#xa3;" horiz-adv-x="1040" 
d="M707 406h-275q12 -62 12 -93q0 -119 -90 -157h342q58 0 97 20t53 80l137 -74q-20 -88 -88.5 -135t-173.5 -47h-600v160h59q45 0 70.5 36t25.5 93q0 48 -26 117h-176v112h133q-25 80 -25 172q0 81 31.5 144.5t84 100.5t116 56t133.5 19q296 0 336 -267l-170 -34
q-14 77 -53.5 115t-120.5 38q-85 0 -132 -44t-47 -134q0 -63 35 -166h312v-112z" />
    <glyph glyph-name="currency" unicode="&#xa4;" horiz-adv-x="925" 
d="M655 862l142 142l67 -68l-145 -145q47 -83 47 -195q0 -113 -41 -190l139 -138l-67 -67l-131 131q-76 -70 -201 -70q-129 0 -205 70l-131 -131l-68 67l142 142q-39 80 -39 186q0 113 45 192l-148 148l68 68l141 -144q74 62 195 62q115 0 190 -60zM465 813
q-143 0 -143 -217q0 -225 143 -225t143 225q0 217 -143 217z" />
    <glyph glyph-name="yen" unicode="&#xa5;" horiz-adv-x="1032" 
d="M922 291h-308v-291h-186v291h-313v102h282l-57 103h-225v102h170l-215 387h213l159 -313q31 -58 50.5 -106t23.5 -66l4 -19h8q11 62 74 189l162 315h199l-209 -387h168v-102h-224l-55 -103h279v-102z" />
    <glyph glyph-name="brokenbar" unicode="&#xa6;" horiz-adv-x="567" 
d="M362 569h-157v801h157v-801zM362 -416h-157v801h157v-801z" />
    <glyph glyph-name="section" unicode="&#xa7;" horiz-adv-x="901" 
d="M82 35l176 37q11 -77 68.5 -113.5t140.5 -36.5q75 0 123.5 30t48.5 89q0 50 -34 86.5t-113 60.5l-150 43q-115 33 -169 94.5t-54 155.5q0 168 170 217q-86 35 -128 101.5t-42 146.5q0 77 29.5 134t80 89t108.5 47t124 15q163 0 251.5 -61.5t100.5 -194.5l-182 -21
q-3 67 -48.5 101.5t-121.5 34.5q-78 0 -120 -33t-42 -94q0 -49 28.5 -81t102.5 -57l135 -43q59 -19 100 -38.5t78.5 -49.5t56.5 -73.5t19 -100.5q0 -88 -46.5 -144.5t-129.5 -68.5q77 -28 125.5 -97t48.5 -151q0 -144 -99.5 -211t-266.5 -67q-159 0 -255 64t-114 190z
M639 489q0 28 -13.5 51t-31 38t-54.5 31t-64 25.5t-79 24.5q-100 -40 -100 -141q0 -30 10 -53t25 -38.5t48.5 -30t65 -24.5t89.5 -26q42 16 73 53t31 90z" />
    <glyph glyph-name="dieresis" unicode="&#xa8;" horiz-adv-x="974" 
d="M164 1219q0 53 35.5 87.5t85.5 34.5q52 0 87.5 -34.5t35.5 -87.5q0 -52 -35.5 -86.5t-87.5 -34.5q-50 0 -85.5 34.5t-35.5 86.5zM565 1217q0 53 35.5 87.5t85.5 34.5q53 0 88 -34t35 -88q0 -51 -35.5 -86t-87.5 -35q-50 0 -85.5 35t-35.5 86z" />
    <glyph glyph-name="copyright" unicode="&#xa9;" horiz-adv-x="1439" 
d="M924 457l120 -92q-58 -81 -135.5 -119.5t-189.5 -38.5q-166 0 -269.5 102.5t-103.5 294.5q0 187 107.5 292t281.5 105q118 0 191 -45t118 -139l-141 -78q-47 127 -174 127q-101 0 -160 -68t-59 -194q0 -124 58 -192t165 -68q64 0 108 27t83 86zM92 602q0 179 84.5 323.5
t227.5 225t315 80.5q128 0 244 -47.5t200.5 -129.5t134.5 -200t50 -252t-50 -251.5t-134.5 -199.5t-200.5 -129t-244 -47t-243.5 47t-200 129t-134 199.5t-49.5 251.5zM156 602q0 -122 44.5 -228.5t121 -180t180.5 -116t219 -42.5t219 42.5t180.5 116t121 180t44.5 228.5
t-44.5 228.5t-121 181t-180.5 117t-219 42.5t-219 -42.5t-180.5 -117t-121 -181t-44.5 -228.5z" />
    <glyph glyph-name="ordfeminine" unicode="&#xaa;" horiz-adv-x="741" 
d="M432 778v88q-110 1 -158.5 -24t-48.5 -82q0 -39 22.5 -61.5t65.5 -22.5q46 0 82.5 26.5t36.5 75.5zM588 1036v-293q0 -47 41 -47q23 0 49 17v-113q-31 -22 -100 -22q-119 0 -138 94q-42 -101 -182 -101q-83 0 -134.5 45t-51.5 123q0 222 360 211v58q0 108 -96 108
q-43 0 -70 -24.5t-30 -63.5l-144 21q7 93 78.5 137.5t175.5 44.5q105 0 173.5 -46.5t68.5 -148.5z" />
    <glyph glyph-name="guillemotleft" unicode="&#xab;" horiz-adv-x="993" 
d="M616 481v-8q35 -12 113 -104l201 -238l-99 -88l-380 436l380 436l99 -100l-203 -233q-35 -40 -62.5 -65t-38.5 -31zM225 481v-8q37 -12 113 -104l203 -238l-101 -88l-379 436l379 436l101 -100l-203 -233q-35 -40 -63 -65t-39 -31z" />
    <glyph glyph-name="logicalnot" unicode="&#xac;" horiz-adv-x="1024" 
d="M809 537h-715v108h836v-387h-121v279z" />
    <glyph glyph-name="uni00AD" unicode="&#xad;" horiz-adv-x="737" 
d="M139 449v155h459v-155h-459z" />
    <glyph glyph-name="registered" unicode="&#xae;" horiz-adv-x="1439" 
d="M1049 246h-168q-28 38 -37 82l-23 92q-25 98 -153 98h-58v-272h-151v739h289q129 0 200.5 -57t71.5 -172q0 -89 -56 -137.5t-149 -53.5q66 -10 104.5 -34.5t55.5 -81.5l29 -111q16 -56 45 -92zM610 860v-225h99q88 0 124.5 27.5t36.5 82.5q0 54 -37 84.5t-104 30.5h-119z
M92 602q0 179 84.5 323.5t227.5 225t315 80.5q128 0 244 -47.5t200.5 -129.5t134.5 -200t50 -252t-50 -251.5t-134.5 -199.5t-200.5 -129t-244 -47t-243.5 47t-200 129t-134 199.5t-49.5 251.5zM156 602q0 -122 44.5 -228.5t121 -180t180.5 -116t219 -42.5t219 42.5
t180.5 116t121 180t44.5 228.5t-44.5 228.5t-121 181t-180.5 117t-219 42.5t-219 -42.5t-180.5 -117t-121 -181t-44.5 -228.5z" />
    <glyph glyph-name="macron" unicode="&#xaf;" horiz-adv-x="864" 
d="M700 1143h-536v149h536v-149z" />
    <glyph glyph-name="degree" unicode="&#xb0;" horiz-adv-x="536" 
d="M74 1034q0 83 54.5 140t139.5 57q84 0 139.5 -57t55.5 -140q0 -80 -55.5 -136t-139.5 -56q-85 0 -139.5 55.5t-54.5 136.5zM174 1034q0 -42 26 -71t68 -29t68 29t26 71q0 44 -26 73.5t-68 29.5t-68 -29.5t-26 -73.5z" />
    <glyph glyph-name="plusminus" unicode="&#xb1;" horiz-adv-x="1019" 
d="M92 696h359v275h110v-275h367v-110h-367v-303h-110v303h-359v110zM928 88h-836v109h836v-109z" />
    <glyph glyph-name="twosuperior" unicode="&#xb2;" horiz-adv-x="632" 
d="M590 600v-117h-545v107q200 140 279 221t79 174q0 54 -28.5 81.5t-81.5 27.5q-59 0 -90 -39t-33 -101l-123 56q2 84 74 148.5t194 64.5q104 0 173 -57t69 -167q0 -42 -12.5 -82.5t-31 -72.5t-48 -64t-56 -54.5t-63 -47t-60.5 -38.5t-57 -32v-8h361z" />
    <glyph glyph-name="threesuperior" unicode="&#xb3;" horiz-adv-x="649" 
d="M373 860v-6q200 -17 200 -186q0 -94 -75.5 -146.5t-200.5 -52.5q-117 0 -189.5 45t-87.5 121l127 51q12 -46 54 -76t98 -30q123 0 123 98q0 60 -47.5 91t-167.5 32v98q106 3 151 31t45 82q0 43 -28.5 68.5t-77.5 25.5q-45 0 -78 -24t-43 -70l-125 47q19 75 86.5 119.5
t171.5 44.5q103 0 171.5 -47.5t68.5 -141.5q0 -152 -176 -174z" />
    <glyph glyph-name="acute" unicode="&#xb4;" horiz-adv-x="733" 
d="M332 1083h-162l152 299h247z" />
    <glyph glyph-name="mu" unicode="&#xb5;" horiz-adv-x="1052" 
d="M739 0l-22 178q-62 -199 -262 -203q-44 0 -80 12.5t-51 28.5v-432h-185v1362h185v-616q0 -100 40.5 -152.5t116.5 -52.5q27 0 56.5 8t62 27t57.5 47t41.5 72t16.5 98v569h182v-946h-158z" />
    <glyph glyph-name="paragraph" unicode="&#xb6;" horiz-adv-x="1071" 
d="M821 1059v-1102q0 -150 -78.5 -220.5t-214.5 -70.5q-115 0 -215 55l49 168q69 -61 158 -61q56 0 84.5 27.5t28.5 93.5v407h-98q-226 0 -347.5 102.5t-121.5 309.5q0 438 548 438h369v-147h-162z" />
    <glyph glyph-name="periodcentered" unicode="&#xb7;" horiz-adv-x="585" 
d="M154 545q0 60 40 99.5t99 39.5t99 -39.5t40 -99.5q0 -59 -40 -99t-99 -40t-99 40t-40 99z" />
    <glyph glyph-name="periodcentered" unicode="&#x22c5;" horiz-adv-x="585" 
d="M154 545q0 60 40 99.5t99 39.5t99 -39.5t40 -99.5q0 -59 -40 -99t-99 -40t-99 40t-40 99z" />
    <glyph glyph-name="cedilla" unicode="&#xb8;" horiz-adv-x="722" 
d="M559 -254q0 -87 -60.5 -132.5t-154.5 -45.5q-125 0 -184 78l49 104q53 -74 129 -74q35 0 54.5 18t19.5 52q0 83 -136 86l15 184h94l-6 -100q180 -14 180 -170z" />
    <glyph glyph-name="onesuperior" unicode="&#xb9;" horiz-adv-x="610" 
d="M586 483h-520v115h196v467l-217 -23v119l365 47v-610h176v-115z" />
    <glyph glyph-name="ordmasculine" unicode="&#xba;" horiz-adv-x="782" 
d="M391 571q-138 0 -219.5 87t-81.5 247q0 157 81.5 241.5t219.5 84.5t219.5 -84.5t81.5 -241.5q0 -160 -81.5 -247t-219.5 -87zM391 1122q-143 0 -143 -217q0 -225 143 -225q144 0 144 225q0 217 -144 217z" />
    <glyph glyph-name="guillemotright" unicode="&#xbb;" horiz-adv-x="993" 
d="M377 473v8q-33 11 -113 101l-203 233l101 100l379 -436l-379 -436l-99 88l201 238q35 41 63 67t39 32zM766 473v8q-33 11 -113 101l-202 233l100 100l381 -436l-381 -436l-98 88l200 238q35 41 63 67t39 32z" />
    <glyph glyph-name="onequarter" unicode="&#xbc;" horiz-adv-x="1769" 
d="M625 483h-521v115h197v467l-217 -23v119l365 47v-610h176v-115zM508 0l627 1208h127l-627 -1208h-127zM1448 0v176h-367v111l361 436h153v-436h117v-111h-117v-176h-147zM1452 285v172q0 36 2 72.5t4 54.5l2 18h-8q-21 -53 -72 -121l-86 -102q-22 -27 -46.5 -50.5
t-37.5 -33.5l-14 -10v-9q31 9 115 9h141z" />
    <glyph glyph-name="onehalf" unicode="&#xbd;" horiz-adv-x="1769" 
d="M625 483h-521v115h197v467l-217 -23v119l365 47v-610h176v-115zM508 0l627 1208h127l-627 -1208h-127zM1642 117v-117h-544v106q101 71 156.5 114t107.5 93.5t73 94.5t21 94q0 108 -110 108q-59 0 -90 -38.5t-33 -100.5l-123 55q2 84 74 148.5t194 64.5q104 0 173 -56.5
t69 -166.5q0 -42 -12.5 -82.5t-31 -72.5t-48 -64t-56 -54.5t-63 -47t-60.5 -38.5t-57 -32v-8h360z" />
    <glyph glyph-name="threequarters" unicode="&#xbe;" horiz-adv-x="1769" 
d="M432 860v-6q201 -17 201 -186q0 -94 -76 -146.5t-201 -52.5q-117 0 -189 45t-87 121l127 51q12 -47 53.5 -76.5t97.5 -29.5q123 0 123 98q0 60 -47.5 91t-167.5 32v98q106 3 151.5 31.5t45.5 81.5q0 43 -29 68.5t-78 25.5q-45 0 -77.5 -24t-42.5 -70l-125 47
q19 75 86.5 119.5t171.5 44.5q103 0 171 -47.5t68 -141.5q0 -152 -176 -174zM508 0l627 1208h127l-627 -1208h-127zM1448 0v176h-367v111l361 436h153v-436h117v-111h-117v-176h-147zM1452 285v172q0 36 2 72.5t4 54.5l2 18h-8q-21 -53 -72 -121l-86 -102
q-22 -27 -46.5 -50.5t-37.5 -33.5l-14 -10v-9q31 9 115 9h141z" />
    <glyph glyph-name="questiondown" unicode="&#xbf;" horiz-adv-x="806" 
d="M643 63l164 -59q-29 -134 -127 -211.5t-260 -77.5q-174 0 -279.5 100t-105.5 259q0 90 31.5 161.5t83 114.5t113 65.5t126.5 24.5v168h168v-274h-74q-122 0 -190 -60t-68 -186q0 -108 56 -162.5t151 -54.5q85 0 141 47t70 145zM602 831q0 -55 -36.5 -90.5t-92.5 -35.5
t-93.5 35.5t-37.5 90.5q0 54 37.5 90.5t93.5 36.5q55 0 92 -36.5t37 -90.5z" />
    <glyph glyph-name="Agrave" unicode="&#xc0;" horiz-adv-x="1165" 
d="M942 0l-117 330h-493l-115 -330h-197l441 1206h248l436 -1206h-203zM481 758l-96 -273h385l-92 271q-30 84 -53.5 163t-32.5 117l-8 37h-9q-28 -127 -94 -315zM678 1337h-170l-205 252h246z" />
    <glyph glyph-name="Aacute" unicode="&#xc1;" horiz-adv-x="1165" 
d="M942 0l-117 330h-493l-115 -330h-197l441 1206h248l436 -1206h-203zM481 758l-96 -273h385l-92 271q-30 84 -53.5 163t-32.5 117l-8 37h-9q-28 -127 -94 -315zM659 1337h-167l129 252h245z" />
    <glyph glyph-name="Acircumflex" unicode="&#xc2;" horiz-adv-x="1165" 
d="M942 0l-117 330h-493l-115 -330h-197l441 1206h248l436 -1206h-203zM481 758l-96 -273h385l-92 271q-30 84 -53.5 163t-32.5 117l-8 37h-9q-28 -127 -94 -315zM520 1602h115l256 -265h-199l-63 68q-17 18 -29 35.5t-15 25.5l-3 9h-7q-8 -29 -47 -70l-65 -68h-197z" />
    <glyph glyph-name="Atilde" unicode="&#xc3;" horiz-adv-x="1165" 
d="M942 0l-117 330h-493l-115 -330h-197l441 1206h248l436 -1206h-203zM481 758l-96 -273h385l-92 271q-30 84 -53.5 163t-32.5 117l-8 37h-9q-28 -127 -94 -315zM725 1337q-12 0 -23 1t-19.5 2.5t-18.5 5t-16.5 5.5t-17.5 7.5l-16 8t-18 9.5t-18 10q-10 5 -29.5 16.5
t-27 15.5t-20.5 10t-23.5 8t-22.5 2q-73 0 -62 -97h-112q-39 99 6.5 178.5t144.5 79.5q49 0 82.5 -12.5t79.5 -40.5q46 -29 67.5 -39t45.5 -10q67 0 59 100h117q37 -109 -7 -184.5t-151 -75.5z" />
    <glyph glyph-name="Adieresis" unicode="&#xc4;" horiz-adv-x="1165" 
d="M942 0l-117 330h-493l-115 -330h-197l441 1206h248l436 -1206h-203zM481 758l-96 -273h385l-92 271q-30 84 -53.5 163t-32.5 117l-8 37h-9q-28 -127 -94 -315zM258 1460q0 53 35.5 88t85.5 35q52 0 87.5 -35t35.5 -88q0 -52 -35.5 -86.5t-87.5 -34.5q-50 0 -85.5 34.5
t-35.5 86.5zM659 1458q0 53 35.5 88t85.5 35q53 0 88 -34.5t35 -88.5q0 -51 -35.5 -86t-87.5 -35q-50 0 -85.5 35t-35.5 86z" />
    <glyph glyph-name="Aring" unicode="&#xc5;" horiz-adv-x="1165" 
d="M942 0l-117 330h-493l-115 -330h-197l441 1206h248l436 -1206h-203zM481 758l-96 -273h385l-92 271q-30 84 -53.5 163t-32.5 117l-8 37h-9q-28 -127 -94 -315zM580 1300q-98 0 -154.5 58t-56.5 147q0 82 59 140.5t152 58.5t152 -58.5t59 -140.5q0 -89 -56.5 -147
t-154.5 -58zM580 1618q-52 0 -82.5 -32.5t-30.5 -84.5q0 -48 29.5 -78t83.5 -30t83 30t29 78q0 52 -30 84.5t-82 32.5z" />
    <glyph glyph-name="AE" unicode="&#xc6;" horiz-adv-x="1705" 
d="M1604 0h-744v330h-438l-201 -330h-205l740 1206h848v-164h-555v-356h491v-164h-491v-358h555v-164zM864 1069l-352 -584h348v277q-1 91 2 168t6 108l4 31h-8z" />
    <glyph glyph-name="Ccedilla" unicode="&#xc7;" horiz-adv-x="1153" 
d="M846 -254q0 -87 -60.5 -132.5t-154.5 -45.5q-126 0 -185 78l50 104q53 -74 129 -74q73 0 73 70q0 83 -135 86l10 145q-221 15 -352 178t-131 445q0 298 153.5 464.5t409.5 166.5q331 0 453 -291l-176 -86q-36 106 -110 160.5t-177 54.5q-168 0 -262 -125.5t-94 -343.5
q0 -217 88.5 -337t257.5 -120q110 0 186.5 44.5t138.5 144.5l146 -107q-78 -121 -180 -181t-254 -67l-4 -61q180 -14 180 -170z" />
    <glyph glyph-name="Egrave" unicode="&#xc8;" horiz-adv-x="1015" 
d="M913 164v-164h-743v1206h743v-164h-555v-356h492v-164h-492v-358h555zM637 1337h-170l-205 252h246z" />
    <glyph glyph-name="Eacute" unicode="&#xc9;" horiz-adv-x="1015" 
d="M913 164v-164h-743v1206h743v-164h-555v-356h492v-164h-492v-358h555zM618 1337h-167l129 252h245z" />
    <glyph glyph-name="Ecircumflex" unicode="&#xca;" horiz-adv-x="1015" 
d="M913 164v-164h-743v1206h743v-164h-555v-356h492v-164h-492v-358h555zM483 1602h115l256 -265h-199l-63 68q-17 18 -29 35.5t-15 25.5l-3 9h-6q-8 -29 -47 -70l-66 -68h-197z" />
    <glyph glyph-name="Edieresis" unicode="&#xcb;" horiz-adv-x="1015" 
d="M913 164v-164h-743v1206h743v-164h-555v-356h492v-164h-492v-358h555zM217 1460q0 53 35.5 88t85.5 35q52 0 87.5 -35t35.5 -88q0 -52 -35.5 -86.5t-87.5 -34.5q-50 0 -85.5 34.5t-35.5 86.5zM618 1458q0 53 35.5 88t85.5 35q53 0 88 -34.5t35 -88.5q0 -51 -35.5 -86
t-87.5 -35q-50 0 -85.5 35t-35.5 86z" />
    <glyph glyph-name="Igrave" unicode="&#xcc;" horiz-adv-x="528" 
d="M170 1206h188v-1206h-188v1206zM358 1337h-170l-204 252h245z" />
    <glyph glyph-name="Iacute" unicode="&#xcd;" horiz-adv-x="528" 
d="M170 1206h188v-1206h-188v1206zM342 1337h-168l129 252h246z" />
    <glyph glyph-name="Icircumflex" unicode="&#xce;" horiz-adv-x="528" 
d="M170 1206h188v-1206h-188v1206zM207 1602h115l256 -265h-199l-64 68q-17 18 -29 35.5t-15 25.5l-3 9h-6q-8 -29 -47 -70l-65 -68h-197z" />
    <glyph glyph-name="Idieresis" unicode="&#xcf;" horiz-adv-x="528" 
d="M170 1206h188v-1206h-188v1206zM-59 1460q0 53 35 88t85 35q52 0 87.5 -35t35.5 -88q0 -52 -35.5 -86.5t-87.5 -34.5q-50 0 -85 34.5t-35 86.5zM342 1458q0 53 35.5 88t85.5 35q53 0 88 -34.5t35 -88.5q0 -51 -35.5 -86t-87.5 -35q-50 0 -85.5 35t-35.5 86z" />
    <glyph glyph-name="Eth" unicode="&#xd0;" horiz-adv-x="1216" 
d="M539 0h-369v524h-121v160h121v522h375q104 0 190.5 -20.5t159.5 -65.5t124 -113t79 -167t28 -224q0 -130 -30.5 -234.5t-83.5 -175t-127.5 -117.5t-160.5 -68t-185 -21zM358 158h162q189 0 298.5 109t109.5 341q0 99 -20.5 175.5t-55 126t-85 81.5t-106 45t-122.5 13
h-181v-365h228v-160h-228v-366z" />
    <glyph glyph-name="Ntilde" unicode="&#xd1;" horiz-adv-x="1331" 
d="M362 1206l476 -690q32 -47 66.5 -104.5t52.5 -91.5l18 -33h8q-10 128 -10 280v639h188v-1206h-186l-481 688q-34 48 -69 106.5t-53 93.5l-18 34h-8q12 -129 12 -285v-637h-188v1206h192zM809 1337q-12 0 -23 1t-19.5 2.5t-18.5 5t-16.5 5.5t-17.5 7.5l-16 8t-18 9.5
t-18 10q-10 5 -29.5 16.5t-27 15.5t-20.5 10t-23.5 8t-22.5 2q-73 0 -62 -97h-112q-39 99 6.5 178.5t144.5 79.5q49 0 82.5 -12.5t79.5 -40.5q46 -29 67.5 -39t45.5 -10q67 0 59 100h117q37 -109 -7 -184.5t-151 -75.5z" />
    <glyph glyph-name="Ograve" unicode="&#xd2;" horiz-adv-x="1267" 
d="M635 -25q-252 0 -398.5 165t-146.5 462q0 299 146.5 464t398.5 165t397.5 -165t145.5 -464q0 -298 -145.5 -462.5t-397.5 -164.5zM635 1065q-168 0 -257 -122.5t-89 -340.5q0 -219 89 -341t257 -122t256 121.5t88 341.5q0 218 -88.5 340.5t-255.5 122.5zM729 1337h-170
l-205 252h246z" />
    <glyph glyph-name="Oacute" unicode="&#xd3;" horiz-adv-x="1267" 
d="M635 -25q-252 0 -398.5 165t-146.5 462q0 299 146.5 464t398.5 165t397.5 -165t145.5 -464q0 -298 -145.5 -462.5t-397.5 -164.5zM635 1065q-168 0 -257 -122.5t-89 -340.5q0 -219 89 -341t257 -122t256 121.5t88 341.5q0 218 -88.5 340.5t-255.5 122.5zM711 1337h-168
l129 252h246z" />
    <glyph glyph-name="Ocircumflex" unicode="&#xd4;" horiz-adv-x="1267" 
d="M635 -25q-252 0 -398.5 165t-146.5 462q0 299 146.5 464t398.5 165t397.5 -165t145.5 -464q0 -298 -145.5 -462.5t-397.5 -164.5zM635 1065q-168 0 -257 -122.5t-89 -340.5q0 -219 89 -341t257 -122t256 121.5t88 341.5q0 218 -88.5 340.5t-255.5 122.5zM575 1602h115
l256 -265h-198l-64 68q-17 18 -29 35.5t-15 25.5l-3 9h-6q-8 -29 -47 -70l-66 -68h-196z" />
    <glyph glyph-name="Otilde" unicode="&#xd5;" horiz-adv-x="1267" 
d="M635 -25q-252 0 -398.5 165t-146.5 462q0 299 146.5 464t398.5 165t397.5 -165t145.5 -464q0 -298 -145.5 -462.5t-397.5 -164.5zM635 1065q-168 0 -257 -122.5t-89 -340.5q0 -219 89 -341t257 -122t256 121.5t88 341.5q0 218 -88.5 340.5t-255.5 122.5zM776 1337
q-12 0 -23 1t-19.5 2.5t-18.5 5t-16.5 5.5t-17.5 7.5l-16 8t-18 9.5t-18 10q-10 5 -29.5 16.5t-27 15.5t-20.5 10t-23.5 8t-22.5 2q-73 0 -62 -97h-112q-39 99 6.5 178.5t144.5 79.5q49 0 82.5 -12.5t79.5 -40.5q46 -29 67.5 -39t45.5 -10q67 0 59 100h117
q37 -109 -7 -184.5t-151 -75.5z" />
    <glyph glyph-name="Odieresis" unicode="&#xd6;" horiz-adv-x="1267" 
d="M635 -25q-252 0 -398.5 165t-146.5 462q0 299 146.5 464t398.5 165t397.5 -165t145.5 -464q0 -298 -145.5 -462.5t-397.5 -164.5zM635 1065q-168 0 -257 -122.5t-89 -340.5q0 -219 89 -341t257 -122t256 121.5t88 341.5q0 218 -88.5 340.5t-255.5 122.5zM309 1460
q0 53 35.5 88t85.5 35q52 0 87.5 -35t35.5 -88q0 -52 -35.5 -86.5t-87.5 -34.5q-50 0 -85.5 34.5t-35.5 86.5zM711 1458q0 53 35 88t85 35q53 0 88 -34.5t35 -88.5q0 -51 -35.5 -86t-87.5 -35q-50 0 -85 35t-35 86z" />
    <glyph glyph-name="multiply" unicode="&#xd7;" horiz-adv-x="911" 
d="M92 231l279 279l-271 272l76 78l273 -272l286 284l76 -75l-285 -287l293 -293l-76 -76l-294 291l-281 -278z" />
    <glyph glyph-name="Oslash" unicode="&#xd8;" horiz-adv-x="1267" 
d="M152 -29l-89 82l130 144q-103 155 -103 405q0 299 146.5 464t398.5 165q224 0 364 -131l111 123l94 -84l-125 -138q99 -160 99 -399q0 -298 -145.5 -462.5t-397.5 -164.5q-227 0 -365 129zM635 1065q-168 0 -255 -122t-87 -341q0 -152 39 -250l542 606q-90 107 -239 107z
M975 602q0 141 -37 242l-543 -602q83 -103 240 -103q168 0 254 121t86 342z" />
    <glyph glyph-name="Ugrave" unicode="&#xd9;" horiz-adv-x="1191" 
d="M870 1206h191v-811q0 -91 -26 -163.5t-69.5 -120t-104 -78.5t-126 -44.5t-139.5 -13.5q-94 0 -174 22.5t-147 69.5t-105.5 131t-38.5 197v811h188v-762q0 -313 277 -313q274 0 274 309v766zM690 1337h-170l-205 252h246z" />
    <glyph glyph-name="Uacute" unicode="&#xda;" horiz-adv-x="1191" 
d="M870 1206h191v-811q0 -91 -26 -163.5t-69.5 -120t-104 -78.5t-126 -44.5t-139.5 -13.5q-94 0 -174 22.5t-147 69.5t-105.5 131t-38.5 197v811h188v-762q0 -313 277 -313q274 0 274 309v766zM672 1337h-168l129 252h246z" />
    <glyph glyph-name="Ucircumflex" unicode="&#xdb;" horiz-adv-x="1191" 
d="M870 1206h191v-811q0 -91 -26 -163.5t-69.5 -120t-104 -78.5t-126 -44.5t-139.5 -13.5q-94 0 -174 22.5t-147 69.5t-105.5 131t-38.5 197v811h188v-762q0 -313 277 -313q274 0 274 309v766zM537 1602h114l256 -265h-198l-64 68q-17 18 -29 35.5t-15 25.5l-3 9h-6
q-8 -29 -47 -70l-66 -68h-196z" />
    <glyph glyph-name="Udieresis" unicode="&#xdc;" horiz-adv-x="1191" 
d="M870 1206h191v-811q0 -91 -26 -163.5t-69.5 -120t-104 -78.5t-126 -44.5t-139.5 -13.5q-94 0 -174 22.5t-147 69.5t-105.5 131t-38.5 197v811h188v-762q0 -313 277 -313q274 0 274 309v766zM270 1460q0 53 35.5 88t85.5 35q52 0 87.5 -35t35.5 -88q0 -52 -35.5 -86.5
t-87.5 -34.5q-50 0 -85.5 34.5t-35.5 86.5zM672 1458q0 53 35.5 88t85.5 35q53 0 87.5 -34.5t34.5 -88.5q0 -51 -35 -86t-87 -35q-50 0 -85.5 35t-35.5 86z" />
    <glyph glyph-name="Yacute" unicode="&#xdd;" horiz-adv-x="991" 
d="M236 1206l188 -383q31 -61 52 -112t26 -72l6 -21h8q12 68 78 205l178 383h199l-369 -749v-457h-188v457l-394 749h216zM573 1337h-167l129 252h245z" />
    <glyph glyph-name="Thorn" unicode="&#xde;" horiz-adv-x="1017" 
d="M358 831v-428h174q128 0 181 54.5t53 163.5q0 210 -236 210h-172zM358 0h-188v1206h188v-215h177q220 0 323 -91.5t103 -268.5q0 -184 -104 -283.5t-304 -99.5h-195v-248z" />
    <glyph glyph-name="germandbls" unicode="&#xdf;" horiz-adv-x="1097" 
d="M147 0v924q0 236 112 347t310 111q178 0 276.5 -87t98.5 -230q0 -126 -64 -196.5t-178 -88.5v-8q150 -9 234 -108t84 -271q0 -196 -91 -307t-272 -111q-97 0 -156.5 33.5t-99.5 106.5l91 125q29 -61 68 -91t97 -30q177 0 177 280q0 137 -75 217t-208 80h-105v148h84
q117 0 172.5 51t55.5 143q0 93 -52 146t-145 53q-229 0 -229 -319v-918h-185z" />
    <glyph glyph-name="agrave" unicode="&#xe0;" horiz-adv-x="980" 
d="M625 285v137q-188 4 -276.5 -38t-88.5 -132q0 -61 39.5 -99t112.5 -38q81 0 147 46t66 124zM811 678v-455q0 -88 70 -88q30 0 53 10v-143q-43 -16 -100 -16q-172 0 -195 151q-67 -162 -281 -162q-127 0 -204.5 68.5t-77.5 187.5q0 338 549 312v116q0 162 -170 162
q-77 0 -121.5 -39t-50.5 -112l-177 26q5 72 38 126.5t85 85.5t113 46t129 15q72 0 131 -15.5t107.5 -48.5t75 -90.5t26.5 -136.5zM573 1083h-163l-236 299h248z" />
    <glyph glyph-name="aacute" unicode="&#xe1;" horiz-adv-x="980" 
d="M625 285v137q-188 4 -276.5 -38t-88.5 -132q0 -61 39.5 -99t112.5 -38q81 0 147 46t66 124zM811 678v-455q0 -88 70 -88q30 0 53 10v-143q-43 -16 -100 -16q-172 0 -195 151q-67 -162 -281 -162q-127 0 -204.5 68.5t-77.5 187.5q0 338 549 312v116q0 162 -170 162
q-77 0 -121.5 -39t-50.5 -112l-177 26q5 72 38 126.5t85 85.5t113 46t129 15q72 0 131 -15.5t107.5 -48.5t75 -90.5t26.5 -136.5zM541 1083h-162l151 299h248z" />
    <glyph glyph-name="acircumflex" unicode="&#xe2;" horiz-adv-x="980" 
d="M625 285v137q-188 4 -276.5 -38t-88.5 -132q0 -61 39.5 -99t112.5 -38q81 0 147 46t66 124zM811 678v-455q0 -88 70 -88q30 0 53 10v-143q-43 -16 -100 -16q-172 0 -195 151q-67 -162 -281 -162q-127 0 -204.5 68.5t-77.5 187.5q0 338 549 312v116q0 162 -170 162
q-77 0 -121.5 -39t-50.5 -112l-177 26q5 72 38 126.5t85 85.5t113 46t129 15q72 0 131 -15.5t107.5 -48.5t75 -90.5t26.5 -136.5zM420 1382h108l256 -301h-188l-70 86q-17 21 -29 40.5t-15 28.5l-3 9h-10q-8 -31 -47 -78l-70 -86h-188z" />
    <glyph glyph-name="atilde" unicode="&#xe3;" horiz-adv-x="980" 
d="M625 285v137q-188 4 -276.5 -38t-88.5 -132q0 -61 39.5 -99t112.5 -38q81 0 147 46t66 124zM811 678v-455q0 -88 70 -88q30 0 53 10v-143q-43 -16 -100 -16q-172 0 -195 151q-67 -162 -281 -162q-127 0 -204.5 68.5t-77.5 187.5q0 338 549 312v116q0 162 -170 162
q-77 0 -121.5 -39t-50.5 -112l-177 26q5 72 38 126.5t85 85.5t113 46t129 15q72 0 131 -15.5t107.5 -48.5t75 -90.5t26.5 -136.5zM618 1083q-30 0 -57.5 7.5t-40 14t-49.5 25.5q-5 3 -17 10.5t-16 9.5t-14 8t-14 7.5t-12 5.5t-12.5 5t-11.5 3t-13 2.5t-13 0.5q-72 0 -61 -97
h-113q-38 100 7.5 177t144.5 77q34 0 64 -8.5t46.5 -17.5t50.5 -29q47 -28 68 -37.5t45 -9.5q67 0 59 100h117q37 -109 -6.5 -181.5t-151.5 -72.5z" />
    <glyph glyph-name="adieresis" unicode="&#xe4;" horiz-adv-x="980" 
d="M625 285v137q-188 4 -276.5 -38t-88.5 -132q0 -61 39.5 -99t112.5 -38q81 0 147 46t66 124zM811 678v-455q0 -88 70 -88q30 0 53 10v-143q-43 -16 -100 -16q-172 0 -195 151q-67 -162 -281 -162q-127 0 -204.5 68.5t-77.5 187.5q0 338 549 312v116q0 162 -170 162
q-77 0 -121.5 -39t-50.5 -112l-177 26q5 72 38 126.5t85 85.5t113 46t129 15q72 0 131 -15.5t107.5 -48.5t75 -90.5t26.5 -136.5zM152 1219q0 53 35 87.5t85 34.5q52 0 87.5 -34.5t35.5 -87.5q0 -52 -35.5 -86.5t-87.5 -34.5q-50 0 -85 34.5t-35 86.5zM553 1217
q0 53 35.5 87.5t85.5 34.5q53 0 88 -34t35 -88q0 -51 -35.5 -86t-87.5 -35q-50 0 -85.5 35t-35.5 86z" />
    <glyph glyph-name="aring" unicode="&#xe5;" horiz-adv-x="980" 
d="M625 285v137q-188 4 -276.5 -38t-88.5 -132q0 -61 39.5 -99t112.5 -38q81 0 147 46t66 124zM811 678v-455q0 -88 70 -88q30 0 53 10v-143q-43 -16 -100 -16q-172 0 -195 151q-67 -162 -281 -162q-127 0 -204.5 68.5t-77.5 187.5q0 338 549 312v116q0 162 -170 162
q-77 0 -121.5 -39t-50.5 -112l-177 26q5 72 38 126.5t85 85.5t113 46t129 15q72 0 131 -15.5t107.5 -48.5t75 -90.5t26.5 -136.5zM473 1065q-98 0 -154.5 58t-56.5 147q0 82 59 139t152 57t152 -57t59 -139q0 -89 -56.5 -147t-154.5 -58zM473 1380q-52 0 -82.5 -31.5
t-30.5 -82.5q0 -49 29.5 -79t83.5 -30t83.5 30t29.5 79q0 51 -30.5 82.5t-82.5 31.5z" />
    <glyph glyph-name="ae" unicode="&#xe6;" horiz-adv-x="1515" 
d="M1053 121q81 0 133 35.5t76 117.5l159 -43q-13 -69 -48.5 -120t-87 -80t-112 -42.5t-131.5 -13.5q-219 0 -333 164q-32 -78 -120 -121t-206 -43q-142 0 -224.5 68t-82.5 199q0 161 134.5 240.5t416.5 80.5q10 67 26 117q-10 70 -61 105.5t-123 35.5q-80 0 -130 -39.5
t-56 -111.5l-177 26q5 72 38 126.5t85 85.5t112 46t128 15q205 0 279 -123q117 123 305 123q179 0 276.5 -112.5t97.5 -295.5q0 -83 -16 -129h-612q8 -143 73 -227t181 -84zM805 563h442q2 16 2 41q0 93 -57 156t-150 63q-102 0 -162.5 -68t-74.5 -192zM412 115
q88 0 153.5 45t77.5 125q-17 63 -20 149q-184 -2 -273.5 -44t-89.5 -138q0 -61 39.5 -99t112.5 -38z" />
    <glyph glyph-name="ccedilla" unicode="&#xe7;" horiz-adv-x="937" 
d="M721 -254q0 -87 -60.5 -132.5t-154.5 -45.5q-125 0 -184 78l49 104q53 -74 129 -74q73 0 73 70q0 83 -135 86l11 148q-166 18 -264.5 145t-98.5 342q0 234 117 368t315 134q152 0 243.5 -77.5t100.5 -217.5l-168 -35q-24 178 -184 178q-119 0 -182.5 -95t-63.5 -255
q0 -153 69 -248.5t185 -95.5q155 0 197 156l159 -39q-22 -126 -109.5 -190.5t-219.5 -72.5l-4 -61q180 -14 180 -170z" />
    <glyph glyph-name="egrave" unicode="&#xe8;" horiz-adv-x="978" 
d="M518 121q81 0 132 35.5t75 117.5l162 -43q-28 -134 -130 -195t-249 -61q-193 0 -307.5 129t-114.5 361q0 236 116.5 370t315.5 134q179 0 277 -111t98 -293q0 -76 -19 -131h-610q6 -143 71.5 -228t182.5 -85zM268 567h443q2 14 2 39q0 93 -56 155t-149 62
q-101 0 -164 -66.5t-76 -189.5zM610 1083h-164l-235 299h248z" />
    <glyph glyph-name="eacute" unicode="&#xe9;" horiz-adv-x="978" 
d="M518 121q81 0 132 35.5t75 117.5l162 -43q-28 -134 -130 -195t-249 -61q-193 0 -307.5 129t-114.5 361q0 236 116.5 370t315.5 134q179 0 277 -111t98 -293q0 -76 -19 -131h-610q6 -143 71.5 -228t182.5 -85zM268 567h443q2 14 2 39q0 93 -56 155t-149 62
q-101 0 -164 -66.5t-76 -189.5zM580 1083h-162l151 299h248z" />
    <glyph glyph-name="ecircumflex" unicode="&#xea;" horiz-adv-x="978" 
d="M518 121q81 0 132 35.5t75 117.5l162 -43q-28 -134 -130 -195t-249 -61q-193 0 -307.5 129t-114.5 361q0 236 116.5 370t315.5 134q179 0 277 -111t98 -293q0 -76 -19 -131h-610q6 -143 71.5 -228t182.5 -85zM268 567h443q2 14 2 39q0 93 -56 155t-149 62
q-101 0 -164 -66.5t-76 -189.5zM465 1382h108l256 -301h-188l-70 86q-17 21 -29 40.5t-15 28.5l-3 9h-10q-8 -31 -47 -78l-70 -86h-188z" />
    <glyph glyph-name="edieresis" unicode="&#xeb;" horiz-adv-x="978" 
d="M518 121q81 0 132 35.5t75 117.5l162 -43q-28 -134 -130 -195t-249 -61q-193 0 -307.5 129t-114.5 361q0 236 116.5 370t315.5 134q179 0 277 -111t98 -293q0 -76 -19 -131h-610q6 -143 71.5 -228t182.5 -85zM268 567h443q2 14 2 39q0 93 -56 155t-149 62
q-101 0 -164 -66.5t-76 -189.5zM195 1219q0 53 35 87.5t85 34.5q52 0 87.5 -34.5t35.5 -87.5q0 -52 -35.5 -86.5t-87.5 -34.5q-50 0 -85 34.5t-35 86.5zM596 1217q0 53 35.5 87.5t85.5 34.5q53 0 88 -34t35 -88q0 -51 -35.5 -86t-87.5 -35q-50 0 -85.5 35t-35.5 86z" />
    <glyph glyph-name="igrave" unicode="&#xec;" horiz-adv-x="479" 
d="M334 1083h-164l-236 299h248zM147 946h185v-946h-185v946z" />
    <glyph glyph-name="iacute" unicode="&#xed;" horiz-adv-x="479" 
d="M311 1083h-161l151 299h248zM147 946h185v-946h-185v946z" />
    <glyph glyph-name="icircumflex" unicode="&#xee;" horiz-adv-x="479" 
d="M147 946h185v-946h-185v946zM186 1382h109l256 -301h-189l-69 86q-17 21 -29 40.5t-15 28.5l-3 9h-10q-9 -31 -48 -78l-69 -86h-189z" />
    <glyph glyph-name="idieresis" unicode="&#xef;" horiz-adv-x="479" 
d="M-84 1219q0 53 35.5 87.5t85.5 34.5q52 0 87.5 -34.5t35.5 -87.5q0 -52 -35.5 -86.5t-87.5 -34.5q-50 0 -85.5 34.5t-35.5 86.5zM317 1217q0 53 35.5 87.5t85.5 34.5q53 0 88 -34t35 -88q0 -51 -35.5 -86t-87.5 -35q-50 0 -85.5 35t-35.5 86zM147 946h185v-946h-185v946z
" />
    <glyph glyph-name="eth" unicode="&#xf0;" horiz-adv-x="1038" 
d="M256 1014l-23 88l254 51q-68 61 -245 147l157 80q151 -65 267 -178l211 45l24 -92l-158 -35q99 -123 154 -278t55 -310q0 -282 -115 -418.5t-319 -136.5q-200 0 -316 127.5t-116 364.5q0 231 110.5 355t280.5 124q161 0 248 -125h8q-54 143 -168 254zM766 465
q0 165 -65.5 252.5t-188.5 87.5q-242 0 -242 -340q0 -165 62 -253.5t184 -88.5q250 0 250 342z" />
    <glyph glyph-name="ntilde" unicode="&#xf1;" horiz-adv-x="1042" 
d="M293 946l22 -182q74 205 303 205q126 0 206.5 -73t80.5 -220v-676h-184v621q0 90 -41.5 139t-124.5 49q-98 0 -160.5 -62t-62.5 -204v-543h-185v946h146zM680 1083q-30 0 -57.5 7.5t-41 14t-49.5 25.5q-6 4 -19 11.5t-18 10.5t-15 8.5t-14.5 8t-13 6t-14.5 4.5t-13 2
t-15 1q-73 0 -62 -97h-112q-38 100 7 177t144 77q34 0 64.5 -8.5t47.5 -17.5t50 -29q47 -28 68 -37.5t45 -9.5q67 0 59 100h117q37 -109 -6.5 -181.5t-151.5 -72.5z" />
    <glyph glyph-name="ograve" unicode="&#xf2;" horiz-adv-x="1034" 
d="M516 -25q-198 0 -314 132t-116 372q0 237 115.5 363.5t314.5 126.5q201 0 316.5 -126.5t115.5 -363.5q0 -240 -116.5 -372t-315.5 -132zM516 819q-248 0 -248 -342q0 -356 248 -356q250 0 250 356q0 342 -250 342zM614 1083h-163l-236 299h248z" />
    <glyph glyph-name="oacute" unicode="&#xf3;" horiz-adv-x="1034" 
d="M516 -25q-198 0 -314 132t-116 372q0 237 115.5 363.5t314.5 126.5q201 0 316.5 -126.5t115.5 -363.5q0 -240 -116.5 -372t-315.5 -132zM516 819q-248 0 -248 -342q0 -356 248 -356q250 0 250 356q0 342 -250 342zM582 1083h-162l151 299h248z" />
    <glyph glyph-name="ocircumflex" unicode="&#xf4;" horiz-adv-x="1034" 
d="M516 -25q-198 0 -314 132t-116 372q0 237 115.5 363.5t314.5 126.5q201 0 316.5 -126.5t115.5 -363.5q0 -240 -116.5 -372t-315.5 -132zM516 819q-248 0 -248 -342q0 -356 248 -356q250 0 250 356q0 342 -250 342zM463 1382h108l256 -301h-188l-70 86q-17 21 -29 40.5
t-15 28.5l-3 9h-10q-8 -31 -47 -78l-70 -86h-188z" />
    <glyph glyph-name="otilde" unicode="&#xf5;" horiz-adv-x="1034" 
d="M516 -25q-198 0 -314 132t-116 372q0 237 115.5 363.5t314.5 126.5q201 0 316.5 -126.5t115.5 -363.5q0 -240 -116.5 -372t-315.5 -132zM516 819q-248 0 -248 -342q0 -356 248 -356q250 0 250 356q0 342 -250 342zM659 1083q-30 0 -57.5 7.5t-40 14t-49.5 25.5
q-5 3 -17 10.5t-16 9.5t-14 8t-14 7.5t-12 5.5t-12.5 5t-11.5 3t-13 2.5t-13 0.5q-72 0 -61 -97h-113q-38 100 7.5 177t144.5 77q34 0 64 -8.5t46.5 -17.5t50.5 -29q47 -28 68 -37.5t45 -9.5q67 0 59 100h117q37 -109 -6.5 -181.5t-151.5 -72.5z" />
    <glyph glyph-name="odieresis" unicode="&#xf6;" horiz-adv-x="1034" 
d="M516 -25q-198 0 -314 132t-116 372q0 237 115.5 363.5t314.5 126.5q201 0 316.5 -126.5t115.5 -363.5q0 -240 -116.5 -372t-315.5 -132zM516 819q-248 0 -248 -342q0 -356 248 -356q250 0 250 356q0 342 -250 342zM193 1219q0 53 35 87.5t85 34.5q52 0 87.5 -34.5
t35.5 -87.5q0 -52 -35.5 -86.5t-87.5 -34.5q-50 0 -85 34.5t-35 86.5zM594 1217q0 53 35.5 87.5t85.5 34.5q53 0 88 -34t35 -88q0 -51 -35.5 -86t-87.5 -35q-50 0 -85.5 35t-35.5 86z" />
    <glyph glyph-name="divide" unicode="&#xf7;" horiz-adv-x="1019" 
d="M928 453h-836v110h836v-110zM408 152q0 40 28 67t68 27q39 0 66.5 -27.5t27.5 -66.5q0 -38 -28 -65.5t-66 -27.5q-40 0 -68 27.5t-28 65.5zM408 850q0 40 28 69t68 29q38 0 66 -29t28 -69q0 -37 -28 -64.5t-66 -27.5q-39 0 -67.5 27.5t-28.5 64.5z" />
    <glyph glyph-name="oslash" unicode="&#xf8;" horiz-adv-x="1034" 
d="M143 -29l-92 80l109 115q-74 129 -74 313q0 237 115.5 363.5t314.5 126.5q182 0 293 -105l96 103l92 -78l-112 -121q63 -117 63 -289q0 -240 -116.5 -372t-315.5 -132q-167 0 -278 97zM516 819q-248 0 -248 -342q0 -101 21 -172l407 438q-64 76 -180 76zM766 477
q0 80 -16 146l-404 -435q61 -67 170 -67q250 0 250 356z" />
    <glyph glyph-name="ugrave" unicode="&#xf9;" horiz-adv-x="1040" 
d="M735 0l-22 172q-33 -103 -105 -150t-186 -47q-136 0 -211.5 76t-75.5 238v657h184v-629q0 -105 41 -154.5t129 -49.5q85 0 152.5 73t67.5 201v559h184v-946h-158zM612 1083h-163l-236 299h248z" />
    <glyph glyph-name="uacute" unicode="&#xfa;" horiz-adv-x="1040" 
d="M735 0l-22 172q-33 -103 -105 -150t-186 -47q-136 0 -211.5 76t-75.5 238v657h184v-629q0 -105 41 -154.5t129 -49.5q85 0 152.5 73t67.5 201v559h184v-946h-158zM580 1083h-162l151 299h248z" />
    <glyph glyph-name="ucircumflex" unicode="&#xfb;" horiz-adv-x="1040" 
d="M735 0l-22 172q-33 -103 -105 -150t-186 -47q-136 0 -211.5 76t-75.5 238v657h184v-629q0 -105 41 -154.5t129 -49.5q85 0 152.5 73t67.5 201v559h184v-946h-158zM461 1382h108l256 -301h-188l-70 86q-17 21 -29 40.5t-15 28.5l-3 9h-10q-8 -31 -47 -78l-70 -86h-188z
" />
    <glyph glyph-name="udieresis" unicode="&#xfc;" horiz-adv-x="1040" 
d="M735 0l-22 172q-33 -103 -105 -150t-186 -47q-136 0 -211.5 76t-75.5 238v657h184v-629q0 -105 41 -154.5t129 -49.5q85 0 152.5 73t67.5 201v559h184v-946h-158zM190 1219q0 53 35.5 87.5t85.5 34.5q52 0 87.5 -34.5t35.5 -87.5q0 -52 -35.5 -86.5t-87.5 -34.5
q-50 0 -85.5 34.5t-35.5 86.5zM592 1217q0 53 35.5 87.5t85.5 34.5q53 0 88 -34t35 -88q0 -51 -35.5 -86t-87.5 -35q-50 0 -85.5 35t-35.5 86z" />
    <glyph glyph-name="yacute" unicode="&#xfd;" horiz-adv-x="901" 
d="M219 946l162 -520q25 -82 43.5 -156.5t24.5 -108.5l6 -34h8q17 113 72 299l157 520h193l-348 -1024q-35 -103 -76 -172t-90 -107t-100.5 -53.5t-118.5 -15.5q-71 0 -138 23l17 157q57 -28 123 -28q76 0 124 48t89 171l-351 1001h203zM528 1083h-161l151 299h248z" />
    <glyph glyph-name="thorn" unicode="&#xfe;" 
d="M332 541v-174q0 -65 20.5 -115.5t54.5 -79t73 -43t81 -14.5q113 0 185.5 92.5t72.5 271.5q0 167 -63 252.5t-174 85.5q-106 0 -178 -74.5t-72 -201.5zM332 125v-541h-185v1784h185v-588q36 98 118 143.5t185 45.5q175 0 274 -123t99 -350q0 -146 -47 -263t-141.5 -187.5
t-221.5 -70.5q-103 0 -171 42t-95 108z" />
    <glyph glyph-name="ydieresis" unicode="&#xff;" horiz-adv-x="901" 
d="M219 946l162 -520q25 -82 43.5 -156.5t24.5 -108.5l6 -34h8q17 113 72 299l157 520h193l-348 -1024q-35 -103 -76 -172t-90 -107t-100.5 -53.5t-118.5 -15.5q-71 0 -138 23l17 157q57 -28 123 -28q76 0 124 48t89 171l-351 1001h203zM137 1219q0 53 35.5 87.5t85.5 34.5
q52 0 87.5 -34.5t35.5 -87.5q0 -52 -35.5 -86.5t-87.5 -34.5q-50 0 -85.5 34.5t-35.5 86.5zM539 1217q0 53 35 87.5t85 34.5q53 0 88 -34t35 -88q0 -51 -35.5 -86t-87.5 -35q-50 0 -85 35t-35 86z" />
    <glyph glyph-name="Amacron" unicode="&#x100;" horiz-adv-x="1165" 
d="M942 0l-117 330h-493l-115 -330h-197l441 1206h248l436 -1206h-203zM481 758l-96 -273h385l-92 271q-30 84 -53.5 163t-32.5 117l-8 37h-9q-28 -127 -94 -315zM850 1380h-541v146h541v-146z" />
    <glyph glyph-name="amacron" unicode="&#x101;" horiz-adv-x="980" 
d="M625 285v137q-188 4 -276.5 -38t-88.5 -132q0 -61 39.5 -99t112.5 -38q81 0 147 46t66 124zM811 678v-455q0 -88 70 -88q30 0 53 10v-143q-43 -16 -100 -16q-172 0 -195 151q-67 -162 -281 -162q-127 0 -204.5 68.5t-77.5 187.5q0 338 549 312v116q0 162 -170 162
q-77 0 -121.5 -39t-50.5 -112l-177 26q5 72 38 126.5t85 85.5t113 46t129 15q72 0 131 -15.5t107.5 -48.5t75 -90.5t26.5 -136.5zM739 1143h-536v149h536v-149z" />
    <glyph glyph-name="Abreve" unicode="&#x102;" horiz-adv-x="1165" 
d="M942 0l-117 330h-493l-115 -330h-197l441 1206h248l436 -1206h-203zM481 758l-96 -273h385l-92 271q-30 84 -53.5 163t-32.5 117l-8 37h-9q-28 -127 -94 -315zM580 1331q-132 0 -204.5 71.5t-72.5 196.5h146q5 -67 34.5 -100t96.5 -33q68 0 98 33.5t35 99.5h145
q0 -125 -72.5 -196.5t-205.5 -71.5z" />
    <glyph glyph-name="abreve" unicode="&#x103;" horiz-adv-x="980" 
d="M625 285v137q-188 4 -276.5 -38t-88.5 -132q0 -61 39.5 -99t112.5 -38q81 0 147 46t66 124zM811 678v-455q0 -88 70 -88q30 0 53 10v-143q-43 -16 -100 -16q-172 0 -195 151q-67 -162 -281 -162q-127 0 -204.5 68.5t-77.5 187.5q0 338 549 312v116q0 162 -170 162
q-77 0 -121.5 -39t-50.5 -112l-177 26q5 72 38 126.5t85 85.5t113 46t129 15q72 0 131 -15.5t107.5 -48.5t75 -90.5t26.5 -136.5zM475 1077q-132 0 -205 78.5t-73 210.5h145q5 -76 33 -114t100 -38q71 0 99.5 38.5t33.5 113.5h146q0 -132 -73 -210.5t-206 -78.5z" />
    <glyph glyph-name="Aogonek" unicode="&#x104;" horiz-adv-x="1165" 
d="M659 -217q0 61 23.5 111t63.5 83.5t82.5 54.5t89.5 34l-93 264h-493l-115 -330h-197l441 1206h248l436 -1206h-111q-52 -3 -98.5 -23.5t-79.5 -64.5t-33 -102q0 -55 27.5 -86t79.5 -31q91 0 143 86l60 -90q-71 -121 -236 -121q-108 0 -173 55.5t-65 159.5zM481 758
l-96 -273h385l-92 271q-30 84 -53.5 163t-32.5 117l-8 37h-9q-28 -127 -94 -315z" />
    <glyph glyph-name="aogonek" unicode="&#x105;" horiz-adv-x="980" 
d="M494 -217q0 91 57.5 154.5t140.5 95.5q-47 32 -53 104q-34 -81 -109.5 -121.5t-171.5 -40.5q-127 0 -204.5 68.5t-77.5 187.5q0 338 549 312v116q0 162 -170 162q-77 0 -121.5 -39t-50.5 -112l-177 26q5 72 38 126.5t85 85.5t113 46t129 15q72 0 131 -15.5t107.5 -48.5
t75 -90.5t26.5 -136.5v-455q0 -88 70 -88q30 0 53 10v-143q-49 -4 -92.5 -14.5t-88.5 -31t-71.5 -58t-26.5 -88.5q0 -55 28.5 -86t80.5 -31q87 0 143 86l60 -90q-74 -121 -236 -121q-108 0 -172.5 55.5t-64.5 159.5zM625 285v137q-188 4 -276.5 -38t-88.5 -132
q0 -61 39.5 -99t112.5 -38q81 0 147 46t66 124z" />
    <glyph glyph-name="Cacute" unicode="&#x106;" horiz-adv-x="1153" 
d="M958 332l146 -107q-85 -131 -197.5 -190.5t-288.5 -59.5q-239 0 -383.5 165t-144.5 460q0 298 153.5 464.5t409.5 166.5q331 0 453 -291l-176 -86q-36 106 -110 160.5t-177 54.5q-168 0 -262 -125.5t-94 -343.5q0 -217 88.5 -337t257.5 -120q110 0 186.5 44.5
t138.5 144.5zM709 1337h-168l129 252h245z" />
    <glyph glyph-name="cacute" unicode="&#x107;" horiz-adv-x="937" 
d="M715 279l159 -39q-24 -136 -122.5 -200.5t-247.5 -64.5q-190 0 -304 130t-114 362q0 234 117 368t315 134q152 0 243.5 -77.5t100.5 -217.5l-168 -35q-24 178 -184 178q-119 0 -182.5 -95t-63.5 -255q0 -153 69 -248.5t185 -95.5q155 0 197 156zM590 1083h-162l152 299
h247z" />
    <glyph glyph-name="Ccircumflex" unicode="&#x108;" horiz-adv-x="1153" 
d="M958 332l146 -107q-85 -131 -197.5 -190.5t-288.5 -59.5q-239 0 -383.5 165t-144.5 460q0 298 153.5 464.5t409.5 166.5q331 0 453 -291l-176 -86q-36 106 -110 160.5t-177 54.5q-168 0 -262 -125.5t-94 -343.5q0 -217 88.5 -337t257.5 -120q110 0 186.5 44.5
t138.5 144.5zM590 1602h115l256 -265h-199l-64 68q-17 18 -29 35.5t-15 25.5l-3 9h-6q-8 -29 -47 -70l-66 -68h-196z" />
    <glyph glyph-name="ccircumflex" unicode="&#x109;" horiz-adv-x="937" 
d="M715 279l159 -39q-24 -136 -122.5 -200.5t-247.5 -64.5q-190 0 -304 130t-114 362q0 234 117 368t315 134q152 0 243.5 -77.5t100.5 -217.5l-168 -35q-24 178 -184 178q-119 0 -182.5 -95t-63.5 -255q0 -153 69 -248.5t185 -95.5q155 0 197 156zM461 1382h108l256 -301
h-188l-70 86q-17 21 -29 40.5t-15 28.5l-3 9h-10q-8 -31 -47 -78l-70 -86h-188z" />
    <glyph glyph-name="Cdotaccent" unicode="&#x10a;" horiz-adv-x="1153" 
d="M958 332l146 -107q-85 -131 -197.5 -190.5t-288.5 -59.5q-239 0 -383.5 165t-144.5 460q0 298 153.5 464.5t409.5 166.5q331 0 453 -291l-176 -86q-36 106 -110 160.5t-177 54.5q-168 0 -262 -125.5t-94 -343.5q0 -217 88.5 -337t257.5 -120q110 0 186.5 44.5
t138.5 144.5zM510 1460q0 54 35.5 88.5t87.5 34.5q55 0 91 -34t36 -89q0 -52 -36.5 -87.5t-90.5 -35.5q-51 0 -87 35.5t-36 87.5z" />
    <glyph glyph-name="cdotaccent" unicode="&#x10b;" horiz-adv-x="937" 
d="M715 279l159 -39q-24 -136 -122.5 -200.5t-247.5 -64.5q-190 0 -304 130t-114 362q0 234 117 368t315 134q152 0 243.5 -77.5t100.5 -217.5l-168 -35q-24 178 -184 178q-119 0 -182.5 -95t-63.5 -255q0 -153 69 -248.5t185 -95.5q155 0 197 156zM389 1214q0 53 35.5 88
t87.5 35q54 0 90.5 -34.5t36.5 -88.5q0 -52 -36.5 -87t-90.5 -35q-51 0 -87 35t-36 87z" />
    <glyph glyph-name="Ccaron" unicode="&#x10c;" horiz-adv-x="1153" 
d="M958 332l146 -107q-85 -131 -197.5 -190.5t-288.5 -59.5q-239 0 -383.5 165t-144.5 460q0 298 153.5 464.5t409.5 166.5q331 0 453 -291l-176 -86q-36 106 -110 160.5t-177 54.5q-168 0 -262 -125.5t-94 -343.5q0 -217 88.5 -337t257.5 -120q110 0 186.5 44.5
t138.5 144.5zM686 1329h-115l-254 264h197l66 -67q17 -18 29 -35.5t15 -26.5l3 -8h6q8 29 47 70l63 67h199z" />
    <glyph glyph-name="ccaron" unicode="&#x10d;" horiz-adv-x="937" 
d="M715 279l159 -39q-24 -136 -122.5 -200.5t-247.5 -64.5q-190 0 -304 130t-114 362q0 234 117 368t315 134q152 0 243.5 -77.5t100.5 -217.5l-168 -35q-24 178 -184 178q-119 0 -182.5 -95t-63.5 -255q0 -153 69 -248.5t185 -95.5q155 0 197 156zM571 1081h-108l-256 301
h188l70 -88q17 -21 29 -40t15 -28l3 -9h10q8 30 47 77l70 88h188z" />
    <glyph glyph-name="Dcaron" unicode="&#x10e;" horiz-adv-x="1216" 
d="M358 158h162q189 0 298.5 109t109.5 341q0 99 -20.5 175.5t-55 126t-85 81.5t-106 45t-122.5 13h-181v-891zM539 0h-369v1206h375q104 0 190.5 -20.5t159.5 -65.5t124 -113t79 -167t28 -224q0 -130 -30.5 -234.5t-83.5 -175t-127.5 -117.5t-160.5 -68t-185 -21zM598 1329
h-115l-254 264h197l66 -67q17 -18 29 -35.5t15 -26.5l3 -8h6q8 29 47 70l63 67h199z" />
    <glyph glyph-name="dcaron" unicode="&#x10f;" 
d="M1309 1380l-107 -360h-135l33 360h209zM762 377v209q0 60 -21.5 107.5t-56 75.5t-75 42t-83.5 14q-114 0 -184 -87t-70 -275q0 -165 67.5 -253.5t184.5 -88.5q55 0 108 27t91.5 87.5t38.5 141.5zM760 819v549h186v-1368h-164l-20 164q-70 -189 -301 -189
q-158 0 -266.5 127t-108.5 355q0 242 111 377t313 135q89 0 159 -43.5t91 -106.5z" />
    <glyph glyph-name="Dcroat" unicode="&#x110;" horiz-adv-x="1216" 
d="M539 0h-369v524h-121v160h121v522h375q104 0 190.5 -20.5t159.5 -65.5t124 -113t79 -167t28 -224q0 -130 -30.5 -234.5t-83.5 -175t-127.5 -117.5t-160.5 -68t-185 -21zM358 158h162q189 0 298.5 109t109.5 341q0 99 -20.5 175.5t-55 126t-85 81.5t-106 45t-122.5 13
h-181v-365h228v-160h-228v-366z" />
    <glyph glyph-name="dcroat" unicode="&#x111;" 
d="M463 1083v134h297v151h186v-151h137v-134h-137v-1083h-164l-20 164q-70 -189 -301 -189q-158 0 -266.5 127t-108.5 355q0 242 111 377t313 135q89 0 159 -43.5t91 -106.5v264h-297zM762 377v209q0 60 -21.5 107.5t-56 75.5t-75 42t-83.5 14q-114 0 -184 -87t-70 -275
q0 -165 67.5 -253.5t184.5 -88.5q55 0 108 27t91.5 87.5t38.5 141.5z" />
    <glyph glyph-name="Emacron" unicode="&#x112;" horiz-adv-x="1015" 
d="M913 164v-164h-743v1206h743v-164h-555v-356h492v-164h-492v-358h555zM813 1380h-541v146h541v-146z" />
    <glyph glyph-name="emacron" unicode="&#x113;" horiz-adv-x="978" 
d="M518 121q81 0 132 35.5t75 117.5l162 -43q-28 -134 -130 -195t-249 -61q-193 0 -307.5 129t-114.5 361q0 236 116.5 370t315.5 134q179 0 277 -111t98 -293q0 -76 -19 -131h-610q6 -143 71.5 -228t182.5 -85zM268 567h443q2 14 2 39q0 93 -56 155t-149 62
q-101 0 -164 -66.5t-76 -189.5zM782 1143h-536v149h536v-149z" />
    <glyph glyph-name="Ebreve" unicode="&#x114;" horiz-adv-x="1015" 
d="M913 164v-164h-743v1206h743v-164h-555v-356h492v-164h-492v-358h555zM530 1331q-132 0 -204 71.5t-72 196.5h145q5 -67 34.5 -100t96.5 -33q68 0 98.5 33.5t35.5 99.5h145q0 -125 -73 -196.5t-206 -71.5z" />
    <glyph glyph-name="ebreve" unicode="&#x115;" horiz-adv-x="978" 
d="M518 121q81 0 132 35.5t75 117.5l162 -43q-28 -134 -130 -195t-249 -61q-193 0 -307.5 129t-114.5 361q0 236 116.5 370t315.5 134q179 0 277 -111t98 -293q0 -76 -19 -131h-610q6 -143 71.5 -228t182.5 -85zM268 567h443q2 14 2 39q0 93 -56 155t-149 62
q-101 0 -164 -66.5t-76 -189.5zM512 1077q-133 0 -206 78.5t-73 210.5h146q5 -76 33 -114t100 -38q71 0 99.5 38.5t33.5 113.5h146q0 -132 -73 -210.5t-206 -78.5z" />
    <glyph glyph-name="Edotaccent" unicode="&#x116;" horiz-adv-x="1015" 
d="M913 164v-164h-743v1206h743v-164h-555v-356h492v-164h-492v-358h555zM408 1460q0 55 35 89t87 34q55 0 91 -34t36 -89q0 -52 -36.5 -87.5t-90.5 -35.5q-51 0 -86.5 35.5t-35.5 87.5z" />
    <glyph glyph-name="edotaccent" unicode="&#x117;" horiz-adv-x="978" 
d="M518 121q81 0 132 35.5t75 117.5l162 -43q-28 -134 -130 -195t-249 -61q-193 0 -307.5 129t-114.5 361q0 236 116.5 370t315.5 134q179 0 277 -111t98 -293q0 -76 -19 -131h-610q6 -143 71.5 -228t182.5 -85zM268 567h443q2 14 2 39q0 93 -56 155t-149 62
q-101 0 -164 -66.5t-76 -189.5zM389 1214q0 53 35.5 88t87.5 35q54 0 90.5 -34.5t36.5 -88.5q0 -52 -36.5 -87t-90.5 -35q-51 0 -87 35t-36 87z" />
    <glyph glyph-name="Eogonek" unicode="&#x118;" horiz-adv-x="1015" 
d="M913 164v-164h-36q-100 0 -162 -48.5t-62 -139.5q0 -56 27.5 -87.5t79.5 -31.5q91 0 143 86l60 -90q-71 -121 -236 -121q-108 0 -173 55.5t-65 159.5q0 149 144 217h-463v1206h743v-164h-555v-356h492v-164h-492v-358h555z" />
    <glyph glyph-name="eogonek" unicode="&#x119;" horiz-adv-x="978" 
d="M362 -217q0 116 91 197q-171 18 -269 143.5t-98 341.5q0 236 116.5 370t315.5 134q179 0 277 -111t98 -293q0 -76 -19 -131h-610q6 -143 71.5 -228t182.5 -85q81 0 132 35.5t75 117.5l162 -43q-11 -54 -33.5 -95t-55 -67.5t-62 -41.5t-68.5 -29q-142 -50 -142 -186
q0 -56 27.5 -87.5t79.5 -31.5q91 0 143 86l60 -90q-71 -121 -236 -121q-108 0 -173 55.5t-65 159.5zM268 567h443q2 14 2 39q0 93 -56 155t-149 62q-101 0 -164 -66.5t-76 -189.5z" />
    <glyph glyph-name="Ecaron" unicode="&#x11a;" horiz-adv-x="1015" 
d="M913 164v-164h-743v1206h743v-164h-555v-356h492v-164h-492v-358h555zM594 1329h-115l-254 264h197l65 -67q17 -18 29 -35.5t16 -26.5l3 -8h6q8 29 47 70l63 67h199z" />
    <glyph glyph-name="ecaron" unicode="&#x11b;" horiz-adv-x="978" 
d="M518 121q81 0 132 35.5t75 117.5l162 -43q-28 -134 -130 -195t-249 -61q-193 0 -307.5 129t-114.5 361q0 236 116.5 370t315.5 134q179 0 277 -111t98 -293q0 -76 -19 -131h-610q6 -143 71.5 -228t182.5 -85zM268 567h443q2 14 2 39q0 93 -56 155t-149 62
q-101 0 -164 -66.5t-76 -189.5zM569 1081h-108l-256 301h188l70 -88q17 -21 29 -40t15 -28l3 -9h10q8 30 47 77l70 88h188z" />
    <glyph glyph-name="Gcircumflex" unicode="&#x11c;" horiz-adv-x="1249" 
d="M641 623h479v-623h-149l-25 156q-35 -86 -128.5 -133.5t-203.5 -47.5q-238 0 -381 162t-143 461q0 298 153.5 465.5t409.5 167.5q340 0 453 -291l-176 -86q-36 106 -111 160.5t-176 54.5q-162 0 -259 -123.5t-97 -347.5q0 -213 87.5 -340t258.5 -127q130 0 215.5 61
t85.5 177v90h-293v164zM596 1602h115l256 -265h-199l-63 68q-17 18 -29 35.5t-16 25.5l-3 9h-6q-8 -29 -47 -70l-65 -68h-197z" />
    <glyph glyph-name="gcircumflex" unicode="&#x11d;" horiz-adv-x="993" 
d="M469 969q170 0 274 -76q31 17 46.5 50.5t25.5 92.5l160 -55q-10 -66 -54 -111t-104 -59q43 -73 43 -178q0 -157 -110 -242.5t-279 -85.5q-77 0 -123 17q-63 -34 -63 -99q0 -78 100 -78h231q161 0 245.5 -68t84.5 -196q0 -72 -30 -127.5t-79 -90t-117.5 -56.5
t-138.5 -30.5t-149 -8.5q-84 0 -153.5 12t-130.5 38.5t-95.5 77t-34.5 120.5q0 93 64 150.5t180 66.5q-63 7 -97 47.5t-34 99.5q0 128 139 166q-184 82 -184 287q0 157 105 246.5t278 89.5zM193 -164q0 -137 258 -137q155 0 236 35.5t81 120.5q0 125 -160 125h-205
q-210 0 -210 -144zM270 635q0 -91 52.5 -145t146.5 -54q96 0 151.5 51t55.5 148q0 98 -55.5 149.5t-151.5 49.5q-94 0 -146.5 -52t-52.5 -147zM442 1386h109l256 -301h-189l-69 86q-17 21 -29 40.5t-15 28.5l-3 9h-10q-9 -31 -48 -78l-69 -86h-189z" />
    <glyph glyph-name="Gbreve" unicode="&#x11e;" horiz-adv-x="1249" 
d="M641 623h479v-623h-149l-25 156q-35 -86 -128.5 -133.5t-203.5 -47.5q-238 0 -381 162t-143 461q0 298 153.5 465.5t409.5 167.5q340 0 453 -291l-176 -86q-36 106 -111 160.5t-176 54.5q-162 0 -259 -123.5t-97 -347.5q0 -213 87.5 -340t258.5 -127q130 0 215.5 61
t85.5 177v90h-293v164zM655 1331q-132 0 -204 71.5t-72 196.5h145q5 -67 34.5 -100t96.5 -33q68 0 98 33.5t35 99.5h146q0 -125 -73 -196.5t-206 -71.5z" />
    <glyph glyph-name="gbreve" unicode="&#x11f;" horiz-adv-x="993" 
d="M469 969q170 0 274 -76q31 17 46.5 50.5t25.5 92.5l160 -55q-10 -66 -54 -111t-104 -59q43 -73 43 -178q0 -157 -110 -242.5t-279 -85.5q-77 0 -123 17q-63 -34 -63 -99q0 -78 100 -78h231q161 0 245.5 -68t84.5 -196q0 -72 -30 -127.5t-79 -90t-117.5 -56.5
t-138.5 -30.5t-149 -8.5q-84 0 -153.5 12t-130.5 38.5t-95.5 77t-34.5 120.5q0 93 64 150.5t180 66.5q-63 7 -97 47.5t-34 99.5q0 128 139 166q-184 82 -184 287q0 157 105 246.5t278 89.5zM193 -164q0 -137 258 -137q155 0 236 35.5t81 120.5q0 125 -160 125h-205
q-210 0 -210 -144zM270 635q0 -91 52.5 -145t146.5 -54q96 0 151.5 51t55.5 148q0 98 -55.5 149.5t-151.5 49.5q-94 0 -146.5 -52t-52.5 -147zM483 1077q-132 0 -205 78.5t-73 210.5h145q5 -76 33 -114t100 -38q71 0 99.5 38.5t33.5 113.5h146q0 -132 -73 -210.5t-206 -78.5
z" />
    <glyph glyph-name="Gdotaccent" unicode="&#x120;" horiz-adv-x="1249" 
d="M641 623h479v-623h-149l-25 156q-35 -86 -128.5 -133.5t-203.5 -47.5q-238 0 -381 162t-143 461q0 298 153.5 465.5t409.5 167.5q340 0 453 -291l-176 -86q-36 106 -111 160.5t-176 54.5q-162 0 -259 -123.5t-97 -347.5q0 -213 87.5 -340t258.5 -127q130 0 215.5 61
t85.5 177v90h-293v164zM530 1487q0 54 35.5 88.5t87.5 34.5q55 0 91 -34t36 -89q0 -52 -36.5 -87.5t-90.5 -35.5q-51 0 -87 35.5t-36 87.5z" />
    <glyph glyph-name="gdotaccent" unicode="&#x121;" horiz-adv-x="993" 
d="M469 969q170 0 274 -76q31 17 46.5 50.5t25.5 92.5l160 -55q-10 -66 -54 -111t-104 -59q43 -73 43 -178q0 -157 -110 -242.5t-279 -85.5q-77 0 -123 17q-63 -34 -63 -99q0 -78 100 -78h231q161 0 245.5 -68t84.5 -196q0 -72 -30 -127.5t-79 -90t-117.5 -56.5
t-138.5 -30.5t-149 -8.5q-84 0 -153.5 12t-130.5 38.5t-95.5 77t-34.5 120.5q0 93 64 150.5t180 66.5q-63 7 -97 47.5t-34 99.5q0 128 139 166q-184 82 -184 287q0 157 105 246.5t278 89.5zM193 -164q0 -137 258 -137q155 0 236 35.5t81 120.5q0 125 -160 125h-205
q-210 0 -210 -144zM270 635q0 -91 52.5 -145t146.5 -54q96 0 151.5 51t55.5 148q0 98 -55.5 149.5t-151.5 49.5q-94 0 -146.5 -52t-52.5 -147zM350 1219q0 53 35.5 87.5t87.5 34.5q55 0 91 -34t36 -88q0 -52 -36.5 -87.5t-90.5 -35.5q-51 0 -87 35.5t-36 87.5z" />
    <glyph glyph-name="Gcommaaccent" unicode="&#x122;" horiz-adv-x="1249" 
d="M641 623h479v-623h-149l-25 156q-35 -86 -128.5 -133.5t-203.5 -47.5q-238 0 -381 162t-143 461q0 298 153.5 465.5t409.5 167.5q340 0 453 -291l-176 -86q-36 106 -111 160.5t-176 54.5q-162 0 -259 -123.5t-97 -347.5q0 -213 87.5 -340t258.5 -127q130 0 215.5 61
t85.5 177v90h-293v164zM799 -291q0 -113 -62.5 -164t-185.5 -51v76q64 3 93.5 22t29.5 66q-55 -9 -90 18t-35 78q0 52 32 80.5t85 28.5q56 0 94.5 -42t38.5 -112z" />
    <glyph glyph-name="gcommaaccent" unicode="&#x123;" horiz-adv-x="993" 
d="M469 969q170 0 274 -76q31 17 46.5 50.5t25.5 92.5l160 -55q-10 -66 -54 -111t-104 -59q43 -73 43 -178q0 -157 -110 -242.5t-279 -85.5q-77 0 -123 17q-63 -34 -63 -99q0 -78 100 -78h231q161 0 245.5 -68t84.5 -196q0 -72 -30 -127.5t-79 -90t-117.5 -56.5
t-138.5 -30.5t-149 -8.5q-84 0 -153.5 12t-130.5 38.5t-95.5 77t-34.5 120.5q0 93 64 150.5t180 66.5q-63 7 -97 47.5t-34 99.5q0 128 139 166q-184 82 -184 287q0 157 105 246.5t278 89.5zM193 -164q0 -137 258 -137q155 0 236 35.5t81 120.5q0 125 -160 125h-205
q-210 0 -210 -144zM270 635q0 -91 52.5 -145t146.5 -54q96 0 151.5 51t55.5 148q0 98 -55.5 149.5t-151.5 49.5q-94 0 -146.5 -52t-52.5 -147zM340 1241q0 113 62.5 164t185.5 51v-76q-64 -3 -93.5 -22t-29.5 -66q55 9 90 -18t35 -78t-32.5 -80t-84.5 -29q-56 0 -94.5 42
t-38.5 112z" />
    <glyph glyph-name="Hcircumflex" unicode="&#x124;" horiz-adv-x="1292" 
d="M358 0h-188v1206h188v-512h576v512h188v-1206h-188v530h-576v-530zM588 1602h114l256 -265h-198l-64 68q-17 18 -29 35.5t-15 25.5l-3 9h-6q-8 -29 -47 -70l-66 -68h-196z" />
    <glyph glyph-name="hcircumflex" unicode="&#x125;" horiz-adv-x="1042" 
d="M332 1368v-602q68 203 286 203q126 0 206.5 -73t80.5 -220v-676h-184v623q0 88 -41.5 137t-124.5 49q-98 0 -160.5 -61.5t-62.5 -204.5v-543h-185v1368h185zM186 1696h115l256 -264h-199l-63 67q-17 18 -29 35.5t-15 25.5l-3 9h-6q-8 -29 -47 -70l-66 -67h-197z" />
    <glyph glyph-name="Hbar" unicode="&#x126;" horiz-adv-x="1323" 
d="M27 854v158h155v194h189v-194h573v194h191v-194h161v-158h-161v-854h-191v526h-573v-526h-189v854h-155zM371 686h573v168h-573v-168z" />
    <glyph glyph-name="hbar" unicode="&#x127;" horiz-adv-x="1042" 
d="M332 1368v-151h295v-134h-295v-317q68 203 286 203q126 0 206.5 -73t80.5 -220v-676h-184v623q0 88 -41.5 137t-124.5 49q-98 0 -160.5 -61.5t-62.5 -204.5v-543h-185v1083h-141v134h141v151h185z" />
    <glyph glyph-name="Itilde" unicode="&#x128;" horiz-adv-x="528" 
d="M170 1206h188v-1206h-188v1206zM410 1337q-12 0 -23 1t-19 2.5t-19 5t-17 5.5t-18 8l-16 8t-18 9.5t-18 9.5q-10 5 -29.5 16.5t-27 15.5t-20.5 10t-23.5 8t-22.5 2q-72 0 -61 -97h-113q-39 99 7 178.5t145 79.5q49 0 82.5 -12.5t79.5 -40.5q47 -30 67.5 -39.5t44.5 -9.5
q68 0 60 100h116q37 -109 -6.5 -184.5t-150.5 -75.5z" />
    <glyph glyph-name="itilde" unicode="&#x129;" horiz-adv-x="479" 
d="M385 1083q-30 0 -57.5 7.5t-40 14t-49.5 25.5q-5 3 -17 10.5t-16 9.5t-14 8t-14 7.5t-12 5.5t-12.5 5t-11.5 3t-13 2.5t-13 0.5q-73 0 -62 -97h-112q-38 100 7 177t144 77q34 0 64.5 -8.5t47.5 -17.5t50 -29q47 -28 68 -37.5t45 -9.5q67 0 59 100h117
q37 -109 -6.5 -181.5t-151.5 -72.5zM147 946h185v-946h-185v946z" />
    <glyph glyph-name="Imacron" unicode="&#x12a;" horiz-adv-x="528" 
d="M170 1206h188v-1206h-188v1206zM537 1380h-541v146h541v-146z" />
    <glyph glyph-name="imacron" unicode="&#x12b;" horiz-adv-x="479" 
d="M471 1143h-465v149h465v-149zM147 946h185v-946h-185v946z" />
    <glyph glyph-name="Ibreve" unicode="&#x12c;" horiz-adv-x="528" 
d="M170 1206h188v-1206h-188v1206zM264 1331q-132 0 -204 71.5t-72 196.5h145q5 -67 34.5 -100t96.5 -33q68 0 98 33.5t35 99.5h146q0 -125 -73 -196.5t-206 -71.5z" />
    <glyph glyph-name="Iogonek" unicode="&#x12e;" horiz-adv-x="528" 
d="M-31 -217q0 97 57.5 161.5t143.5 98.5v1163h188v-1206q-85 0 -156 -50.5t-71 -139.5q0 -55 28.5 -86t80.5 -31q91 0 143 86l59 -90q-74 -121 -235 -121q-108 0 -173 55.5t-65 159.5z" />
    <glyph glyph-name="iogonek" unicode="&#x12f;" horiz-adv-x="479" 
d="M-57 -217q0 99 58 163.5t146 98.5v901h185v-946q-53 0 -103.5 -19.5t-87.5 -64t-37 -106.5q0 -55 28.5 -86t80.5 -31q91 0 143 86l60 -90q-74 -121 -236 -121q-108 0 -172.5 55.5t-64.5 159.5zM115 1249q0 54 36 88.5t87 34.5q55 0 92 -34t37 -89q0 -52 -37.5 -87.5
t-91.5 -35.5q-50 0 -86.5 35.5t-36.5 87.5z" />
    <glyph glyph-name="Idotaccent" unicode="&#x130;" horiz-adv-x="528" 
d="M170 1206h188v-1206h-188v1206zM139 1460q0 54 35.5 88.5t87.5 34.5q55 0 91 -34t36 -89q0 -52 -36.5 -87.5t-90.5 -35.5q-51 0 -87 35.5t-36 87.5z" />
    <glyph glyph-name="dotlessi" unicode="&#x131;" horiz-adv-x="479" 
d="M147 946h185v-946h-185v946z" />
    <glyph glyph-name="IJ" unicode="&#x132;" horiz-adv-x="1347" 
d="M170 1206h188v-1206h-188v1206zM1028 1206h191v-856q0 -101 -30.5 -175.5t-85 -117t-120.5 -62.5t-145 -20q-268 0 -383 236l147 111q48 -104 100.5 -146.5t137.5 -42.5q108 0 148 65t40 195v813z" />
    <glyph glyph-name="ij" unicode="&#x133;" horiz-adv-x="960" 
d="M115 1249q0 54 36 88.5t87 34.5q55 0 92 -34t37 -89q0 -52 -37.5 -87.5t-91.5 -35.5q-50 0 -86.5 35.5t-36.5 87.5zM147 946h185v-946h-185v946zM627 946h184v-960q0 -224 -114.5 -317t-336.5 -85v156q139 -12 203 44t64 193v969zM596 1249q0 54 35.5 88.5t87.5 34.5
q54 0 90.5 -34.5t36.5 -88.5q0 -52 -37 -87.5t-90 -35.5q-51 0 -87 35.5t-36 87.5z" />
    <glyph glyph-name="Jcircumflex" unicode="&#x134;" horiz-adv-x="894" 
d="M573 1206h191v-856q0 -101 -30.5 -175.5t-85 -117t-120.5 -62.5t-145 -20q-268 0 -383 236l147 111q48 -104 100.5 -146.5t137.5 -42.5q108 0 148 65t40 195v813zM608 1602h115l256 -265h-199l-63 68q-17 18 -29 35.5t-15 25.5l-3 9h-6q-9 -29 -48 -70l-65 -68h-197z" />
    <glyph glyph-name="jcircumflex" unicode="&#x135;" horiz-adv-x="479" 
d="M147 946h185v-960q0 -224 -114.5 -317t-336.5 -85v156q139 -12 202.5 44t63.5 193v969zM186 1382h109l256 -301h-189l-69 86q-17 21 -29 40.5t-15 28.5l-3 9h-10q-9 -31 -48 -78l-69 -86h-189z" />
    <glyph glyph-name="Kcommaaccent" unicode="&#x136;" horiz-adv-x="1099" 
d="M1063 0h-232l-378 530h-95v-530h-188v1206h188v-512h101l352 512h221l-420 -585zM676 -291q0 -113 -62.5 -164t-185.5 -51v76q64 3 93.5 22t29.5 66q-55 -9 -90 18t-35 78q0 52 32 80.5t85 28.5q56 0 94.5 -42t38.5 -112z" />
    <glyph glyph-name="kcommaaccent" unicode="&#x137;" horiz-adv-x="958" 
d="M535 506l411 -506h-227l-330 424h-57v-424h-185v1368h185v-801h47l313 379h223zM643 -291q0 -113 -62.5 -164t-185.5 -51v76q64 3 93.5 22t29.5 66q-55 -9 -90 18t-35 78q0 52 32 80.5t85 28.5q56 0 94.5 -42t38.5 -112z" />
    <glyph glyph-name="kgreenlandic" unicode="&#x138;" horiz-adv-x="958" 
d="M535 506l411 -506h-227l-330 424h-57v-424h-185v946h183v-379h49l313 379h223z" />
    <glyph glyph-name="Lacute" unicode="&#x139;" horiz-adv-x="944" 
d="M170 1206h188v-1042h541v-164h-729v1206zM358 1337h-168l129 252h246z" />
    <glyph glyph-name="lacute" unicode="&#x13a;" horiz-adv-x="534" 
d="M469 154l-2 -154q-65 -16 -115 -16q-95 0 -156 51.5t-61 152.5v1180h184v-1141q0 -42 22.5 -63t61.5 -21q29 0 66 11zM309 1470h-168l129 252h246z" />
    <glyph glyph-name="Lcommaaccent" unicode="&#x13b;" horiz-adv-x="944" 
d="M170 1206h188v-1042h541v-164h-729v1206zM680 -291q0 -113 -62.5 -164t-185.5 -51v76q64 3 93.5 22t29.5 66q-55 -9 -90 18t-35 78q0 52 32 80.5t85 28.5q56 0 94.5 -42t38.5 -112z" />
    <glyph glyph-name="lcommaaccent" unicode="&#x13c;" horiz-adv-x="534" 
d="M469 154l-2 -154q-65 -16 -115 -16q-95 0 -156 51.5t-61 152.5v1180h184v-1141q0 -42 22.5 -63t61.5 -21q29 0 66 11zM434 -291q0 -113 -62.5 -164t-185.5 -51v76q64 3 93.5 22t29.5 66q-55 -9 -90 18t-35 78q0 52 32 80.5t85 28.5q56 0 94.5 -42t38.5 -112z" />
    <glyph glyph-name="Lcaron" unicode="&#x13d;" horiz-adv-x="944" 
d="M170 1206h188v-1042h541v-164h-729v1206zM846 1255l-107 -368h-135l33 368h209z" />
    <glyph glyph-name="lcaron" unicode="&#x13e;" horiz-adv-x="534" 
d="M686 1380l-108 -360h-134l33 360h209zM469 154l-2 -154q-65 -16 -115 -16q-95 0 -156 51.5t-61 152.5v1180h184v-1141q0 -42 22.5 -63t61.5 -21q29 0 66 11z" />
    <glyph glyph-name="Ldot" unicode="&#x13f;" horiz-adv-x="944" 
d="M170 1206h188v-1042h541v-164h-729v1206zM537 647q0 60 40 99.5t99 39.5t99 -39.5t40 -99.5q0 -59 -40.5 -99t-98.5 -40t-98.5 40t-40.5 99z" />
    <glyph glyph-name="ldot" unicode="&#x140;" horiz-adv-x="661" 
d="M469 154l-2 -154q-65 -16 -115 -16q-95 0 -156 51.5t-61 152.5v1180h184v-1141q0 -42 22.5 -63t61.5 -21q29 0 66 11zM426 653q0 60 40 100t99 40t99.5 -40t40.5 -100q0 -58 -40.5 -98.5t-99.5 -40.5t-99 40t-40 99z" />
    <glyph glyph-name="Lslash" unicode="&#x141;" horiz-adv-x="958" 
d="M61 444v146l123 45v571h189v-501l293 108v-151l-293 -107v-391h540v-164h-729v487z" />
    <glyph glyph-name="lslash" unicode="&#x142;" horiz-adv-x="555" 
d="M33 551v154l121 61v602h184v-506l151 80v-160l-151 -77v-478q0 -42 22.5 -63t61.5 -21q28 0 65 11l-2 -154q-65 -16 -114 -16q-95 0 -156 51.5t-61 152.5v424z" />
    <glyph glyph-name="Nacute" unicode="&#x143;" horiz-adv-x="1331" 
d="M362 1206l476 -690q32 -47 66.5 -104.5t52.5 -91.5l18 -33h8q-10 128 -10 280v639h188v-1206h-186l-481 688q-34 48 -69 106.5t-53 93.5l-18 34h-8q12 -129 12 -285v-637h-188v1206h192zM743 1337h-168l130 252h245z" />
    <glyph glyph-name="nacute" unicode="&#x144;" horiz-adv-x="1042" 
d="M293 946l22 -182q74 205 303 205q126 0 206.5 -73t80.5 -220v-676h-184v621q0 90 -41.5 139t-124.5 49q-98 0 -160.5 -62t-62.5 -204v-543h-185v946h146zM602 1083h-162l152 299h248z" />
    <glyph glyph-name="Ncommaaccent" unicode="&#x145;" horiz-adv-x="1331" 
d="M362 1206l476 -690q32 -47 66.5 -104.5t52.5 -91.5l18 -33h8q-10 128 -10 280v639h188v-1206h-186l-481 688q-34 48 -69 106.5t-53 93.5l-18 34h-8q12 -129 12 -285v-637h-188v1206h192zM811 -291q0 -113 -62.5 -164t-185.5 -51v76q64 3 93.5 22t29.5 66q-55 -9 -90 18
t-35 78q0 52 32 80.5t85 28.5q56 0 94.5 -42t38.5 -112z" />
    <glyph glyph-name="ncommaaccent" unicode="&#x146;" horiz-adv-x="1042" 
d="M293 946l22 -182q74 205 303 205q126 0 206.5 -73t80.5 -220v-676h-184v621q0 90 -41.5 139t-124.5 49q-98 0 -160.5 -62t-62.5 -204v-543h-185v946h146zM662 -291q0 -113 -62.5 -164t-185.5 -51v76q64 3 93.5 22t29.5 66q-55 -9 -90 18t-35 78q0 52 31.5 80.5t84.5 28.5
q56 0 95 -42t39 -112z" />
    <glyph glyph-name="Ncaron" unicode="&#x147;" horiz-adv-x="1331" 
d="M362 1206l476 -690q32 -47 66.5 -104.5t52.5 -91.5l18 -33h8q-10 128 -10 280v639h188v-1206h-186l-481 688q-34 48 -69 106.5t-53 93.5l-18 34h-8q12 -129 12 -285v-637h-188v1206h192zM723 1329h-115l-254 264h197l65 -67q17 -18 29 -35.5t15 -26.5l4 -8h6q8 29 47 70
l63 67h199z" />
    <glyph glyph-name="ncaron" unicode="&#x148;" horiz-adv-x="1042" 
d="M293 946l22 -182q74 205 303 205q126 0 206.5 -73t80.5 -220v-676h-184v621q0 90 -41.5 139t-124.5 49q-98 0 -160.5 -62t-62.5 -204v-543h-185v946h146zM588 1081h-109l-256 301h189l69 -88q17 -21 29 -40t15 -28l3 -9h11q8 30 47 77l69 88h189z" />
    <glyph glyph-name="Eng" unicode="&#x14a;" horiz-adv-x="1331" 
d="M1161 1206v-1263q0 -102 -31 -177t-86.5 -117t-123.5 -61.5t-150 -19.5q-184 0 -307 127l110 143q39 -50 94 -80t113 -30q110 0 151.5 64.5t41.5 193.5v14l-479 688q-34 48 -69 106.5t-53 93.5l-18 34h-8q12 -129 12 -285v-637h-188v1206h192l476 -690
q32 -47 66.5 -104.5t52.5 -91.5l18 -33h8q-10 128 -10 280v639h188z" />
    <glyph glyph-name="eng" unicode="&#x14b;" horiz-adv-x="1042" 
d="M332 0h-185v946h146l22 -182q74 205 303 205q126 0 206.5 -73t80.5 -220v-690q0 -224 -114.5 -317t-335.5 -85v156q139 -12 202.5 43.5t63.5 191.5v646q0 90 -41.5 139t-124.5 49q-98 0 -160.5 -62t-62.5 -204v-543z" />
    <glyph glyph-name="Omacron" unicode="&#x14c;" horiz-adv-x="1267" 
d="M635 -25q-252 0 -398.5 165t-146.5 462q0 299 146.5 464t398.5 165t397.5 -165t145.5 -464q0 -298 -145.5 -462.5t-397.5 -164.5zM635 1065q-168 0 -257 -122.5t-89 -340.5q0 -219 89 -341t257 -122t256 121.5t88 341.5q0 218 -88.5 340.5t-255.5 122.5zM905 1380h-540
v146h540v-146z" />
    <glyph glyph-name="omacron" unicode="&#x14d;" horiz-adv-x="1034" 
d="M516 -25q-198 0 -314 132t-116 372q0 237 115.5 363.5t314.5 126.5q201 0 316.5 -126.5t115.5 -363.5q0 -240 -116.5 -372t-315.5 -132zM516 819q-248 0 -248 -342q0 -356 248 -356q250 0 250 356q0 342 -250 342zM786 1143h-536v149h536v-149z" />
    <glyph glyph-name="Obreve" unicode="&#x14e;" horiz-adv-x="1267" 
d="M635 -25q-252 0 -398.5 165t-146.5 462q0 299 146.5 464t398.5 165t397.5 -165t145.5 -464q0 -298 -145.5 -462.5t-397.5 -164.5zM635 1065q-168 0 -257 -122.5t-89 -340.5q0 -219 89 -341t257 -122t256 121.5t88 341.5q0 218 -88.5 340.5t-255.5 122.5zM635 1331
q-132 0 -204.5 71.5t-72.5 196.5h146q5 -67 34.5 -100t96.5 -33q68 0 98 33.5t35 99.5h145q0 -125 -72.5 -196.5t-205.5 -71.5z" />
    <glyph glyph-name="obreve" unicode="&#x14f;" horiz-adv-x="1034" 
d="M516 -25q-198 0 -314 132t-116 372q0 237 115.5 363.5t314.5 126.5q201 0 316.5 -126.5t115.5 -363.5q0 -240 -116.5 -372t-315.5 -132zM516 819q-248 0 -248 -342q0 -356 248 -356q250 0 250 356q0 342 -250 342zM518 1077q-132 0 -205 78.5t-73 210.5h145
q5 -76 33 -114t100 -38q71 0 99.5 38.5t33.5 113.5h146q0 -132 -73 -210.5t-206 -78.5z" />
    <glyph glyph-name="Ohungarumlaut" unicode="&#x150;" horiz-adv-x="1267" 
d="M635 -25q-252 0 -398.5 165t-146.5 462q0 299 146.5 464t398.5 165t397.5 -165t145.5 -464q0 -298 -145.5 -462.5t-397.5 -164.5zM635 1065q-168 0 -257 -122.5t-89 -340.5q0 -219 89 -341t257 -122t256 121.5t88 341.5q0 218 -88.5 340.5t-255.5 122.5zM543 1337h-137
l126 252h224zM850 1337h-145l151 252h231z" />
    <glyph glyph-name="ohungarumlaut" unicode="&#x151;" horiz-adv-x="1034" 
d="M516 -25q-198 0 -314 132t-116 372q0 237 115.5 363.5t314.5 126.5q201 0 316.5 -126.5t115.5 -363.5q0 -240 -116.5 -372t-315.5 -132zM516 819q-248 0 -248 -342q0 -356 248 -356q250 0 250 356q0 342 -250 342zM424 1083h-137l127 299h223zM731 1083h-145l151 299h232
z" />
    <glyph glyph-name="OE" unicode="&#x152;" horiz-adv-x="1728" 
d="M635 -25q-252 0 -398.5 165t-146.5 462q0 299 146.5 464t398.5 165q90 0 176 -25h815v-164h-577q107 -134 125 -356h389v-164h-389q-18 -231 -125 -358h577v-164h-815q-86 -25 -176 -25zM635 1065q-168 0 -255 -122t-87 -341q0 -220 87 -341.5t255 -121.5t254 121t86 342
q0 219 -87 341t-253 122z" />
    <glyph glyph-name="oe" unicode="&#x153;" horiz-adv-x="1660" 
d="M1200 121q81 0 132 35.5t75 117.5l162 -43q-28 -134 -130 -195t-251 -61q-114 0 -202.5 48t-131.5 143q-40 -96 -128 -143.5t-210 -47.5q-198 0 -314 132t-116 372q0 237 115.5 363.5t314.5 126.5q124 0 214 -47.5t128 -145.5q44 93 133.5 143t206.5 50q180 0 277.5 -111
t97.5 -293q0 -82 -17 -131h-610q6 -143 71.5 -228t182.5 -85zM516 819q-248 0 -248 -342q0 -356 248 -356q250 0 250 356q0 342 -250 342zM950 567h443q2 14 2 39q0 93 -56.5 155t-150.5 62q-100 0 -162.5 -66.5t-75.5 -189.5z" />
    <glyph glyph-name="Racute" unicode="&#x154;" horiz-adv-x="1126" 
d="M1055 0h-207q-38 43 -53 113l-50 209q-25 100 -76.5 133.5t-148.5 33.5h-162v-489h-188v1206h418q411 0 411 -344q0 -137 -79 -215t-199 -84v-6q88 -11 136.5 -54t72.5 -138l61 -238q22 -77 64 -127zM358 1049v-402h222q114 0 168.5 49t54.5 152q0 96 -55.5 148.5
t-165.5 52.5h-224zM612 1337h-168l129 252h246z" />
    <glyph glyph-name="racute" unicode="&#x155;" horiz-adv-x="729" 
d="M692 967l-14 -207q-46 8 -84 8q-106 0 -184 -78.5t-78 -210.5v-479h-185v946h156l23 -256q29 134 121.5 209t244.5 68zM485 1083h-161l151 299h248z" />
    <glyph glyph-name="Rcommaaccent" unicode="&#x156;" horiz-adv-x="1126" 
d="M1055 0h-207q-38 43 -53 113l-50 209q-25 100 -76.5 133.5t-148.5 33.5h-162v-489h-188v1206h418q411 0 411 -344q0 -137 -79 -215t-199 -84v-6q88 -11 136.5 -54t72.5 -138l61 -238q22 -77 64 -127zM358 1049v-402h222q114 0 168.5 49t54.5 152q0 96 -55.5 148.5
t-165.5 52.5h-224zM680 -291q0 -113 -62.5 -164t-185.5 -51v76q64 3 93.5 22t29.5 66q-55 -9 -90 18t-35 78q0 52 32 80.5t85 28.5q56 0 94.5 -42t38.5 -112z" />
    <glyph glyph-name="rcommaaccent" unicode="&#x157;" horiz-adv-x="729" 
d="M692 967l-14 -207q-46 8 -84 8q-106 0 -184 -78.5t-78 -210.5v-479h-185v946h156l23 -256q29 134 121.5 209t244.5 68zM365 -291q0 -113 -62.5 -164t-185.5 -51v76q64 3 93.5 22t29.5 66q-55 -9 -90 18t-35 78q0 52 31.5 80.5t84.5 28.5q56 0 95 -42t39 -112z" />
    <glyph glyph-name="Rcaron" unicode="&#x158;" horiz-adv-x="1126" 
d="M1055 0h-207q-38 43 -53 113l-50 209q-25 100 -76.5 133.5t-148.5 33.5h-162v-489h-188v1206h418q411 0 411 -344q0 -137 -79 -215t-199 -84v-6q88 -11 136.5 -54t72.5 -138l61 -238q22 -77 64 -127zM358 1049v-402h222q114 0 168.5 49t54.5 152q0 96 -55.5 148.5
t-165.5 52.5h-224zM592 1329h-115l-254 264h197l65 -67q17 -18 29 -35.5t15 -26.5l3 -8h7q8 29 47 70l63 67h199z" />
    <glyph glyph-name="rcaron" unicode="&#x159;" horiz-adv-x="729" 
d="M692 967l-14 -207q-46 8 -84 8q-106 0 -184 -78.5t-78 -210.5v-479h-185v946h156l23 -256q29 134 121.5 209t244.5 68zM455 1081h-109l-256 301h189l69 -88q17 -21 29 -40t15 -28l3 -9h11q8 30 47 77l69 88h189z" />
    <glyph glyph-name="Sacute" unicode="&#x15a;" horiz-adv-x="978" 
d="M57 289l176 47q18 -107 84.5 -161t167.5 -54q99 0 158 44.5t59 127.5q0 80 -51 128t-198 103q-65 23 -110 42.5t-94.5 51t-79.5 67t-49.5 88.5t-19.5 118q0 73 22 132t59 97.5t87.5 64.5t104 37t112.5 11q85 0 154.5 -17.5t125 -54.5t89.5 -99.5t41 -146.5l-186 -36
q-9 97 -69 149.5t-153 52.5q-87 0 -140.5 -45.5t-53.5 -128.5q0 -36 12.5 -64.5t31 -48.5t56 -40.5t71.5 -34t93 -35.5q65 -24 107 -43t90 -50.5t76 -67t46.5 -88.5t18.5 -118q0 -87 -33 -153.5t-91 -107t-132.5 -61t-163.5 -20.5q-181 0 -285 76t-133 238zM578 1337h-168
l129 252h245z" />
    <glyph glyph-name="sacute" unicode="&#x15b;" horiz-adv-x="858" 
d="M55 213l164 49q20 -156 205 -156q85 0 136.5 32.5t51.5 94.5q0 60 -32 94.5t-115 55.5l-139 33q-126 30 -182 95.5t-56 172.5q0 62 20 111.5t53.5 81.5t80 53t96.5 30t106 9q155 0 241 -61t99 -195l-180 -21q-9 137 -172 137q-78 0 -122 -33.5t-44 -93.5q0 -54 28 -85
t101 -48l131 -30q132 -32 197 -98.5t65 -186.5q0 -144 -99.5 -211.5t-266.5 -67.5q-166 0 -256.5 56t-110.5 182zM524 1083h-162l152 299h248z" />
    <glyph glyph-name="Scircumflex" unicode="&#x15c;" horiz-adv-x="978" 
d="M57 289l176 47q18 -107 84.5 -161t167.5 -54q99 0 158 44.5t59 127.5q0 80 -51 128t-198 103q-65 23 -110 42.5t-94.5 51t-79.5 67t-49.5 88.5t-19.5 118q0 73 22 132t59 97.5t87.5 64.5t104 37t112.5 11q85 0 154.5 -17.5t125 -54.5t89.5 -99.5t41 -146.5l-186 -36
q-9 97 -69 149.5t-153 52.5q-87 0 -140.5 -45.5t-53.5 -128.5q0 -36 12.5 -64.5t31 -48.5t56 -40.5t71.5 -34t93 -35.5q65 -24 107 -43t90 -50.5t76 -67t46.5 -88.5t18.5 -118q0 -87 -33 -153.5t-91 -107t-132.5 -61t-163.5 -20.5q-181 0 -285 76t-133 238zM442 1602h115
l256 -265h-199l-63 68q-17 18 -29 35.5t-15 25.5l-3 9h-6q-8 -29 -47 -70l-66 -68h-197z" />
    <glyph glyph-name="scircumflex" unicode="&#x15d;" horiz-adv-x="858" 
d="M55 213l164 49q20 -156 205 -156q85 0 136.5 32.5t51.5 94.5q0 60 -32 94.5t-115 55.5l-139 33q-126 30 -182 95.5t-56 172.5q0 62 20 111.5t53.5 81.5t80 53t96.5 30t106 9q155 0 241 -61t99 -195l-180 -21q-9 137 -172 137q-78 0 -122 -33.5t-44 -93.5q0 -54 28 -85
t101 -48l131 -30q132 -32 197 -98.5t65 -186.5q0 -144 -99.5 -211.5t-266.5 -67.5q-166 0 -256.5 56t-110.5 182zM403 1382h109l256 -301h-188l-70 86q-17 21 -29 40.5t-15 28.5l-3 9h-10q-8 -31 -47 -78l-70 -86h-189z" />
    <glyph glyph-name="Scedilla" unicode="&#x15e;" horiz-adv-x="978" 
d="M698 -254q0 -87 -60.5 -132.5t-154.5 -45.5q-125 0 -184 78l49 104q53 -74 129 -74q35 0 54.5 18t19.5 52q0 83 -135 86l10 145q-159 9 -251 85t-118 227l176 47q18 -107 84.5 -161t167.5 -54q99 0 158 44.5t59 127.5q0 80 -51 128t-198 103q-65 23 -110 42.5t-94.5 51
t-79.5 67t-49.5 88.5t-19.5 118q0 73 22 132t59 97.5t87.5 64.5t104 37t112.5 11q85 0 154.5 -17.5t125 -54.5t89.5 -99.5t41 -146.5l-186 -36q-9 97 -69 149.5t-153 52.5q-87 0 -140.5 -45.5t-53.5 -128.5q0 -36 12.5 -64.5t31 -48.5t56 -40.5t71.5 -34t93 -35.5
q65 -24 107 -43t90 -50.5t76 -67t46.5 -88.5t18.5 -118q0 -158 -103 -243.5t-270 -96.5l-4 -61q180 -14 180 -170z" />
    <glyph glyph-name="scedilla" unicode="&#x15f;" horiz-adv-x="858" 
d="M635 -254q0 -87 -60.5 -132.5t-154.5 -45.5q-125 0 -184 78l49 104q53 -74 129 -74q73 0 73 70q0 83 -135 86l10 145q-137 9 -213 65.5t-94 170.5l164 49q20 -156 205 -156q85 0 136.5 32.5t51.5 94.5q0 60 -32 94.5t-115 55.5l-139 33q-126 30 -182 95.5t-56 172.5
q0 62 20 111.5t53.5 81.5t80 53t96.5 30t106 9q155 0 241 -61t99 -195l-180 -21q-9 137 -172 137q-78 0 -122 -33.5t-44 -93.5q0 -54 28 -85t101 -48l131 -30q132 -32 197 -98.5t65 -186.5q0 -92 -44 -154t-115.5 -90.5t-169.5 -32.5l-4 -61q180 -14 180 -170z" />
    <glyph glyph-name="Scaron" unicode="&#x160;" horiz-adv-x="978" 
d="M57 289l176 47q18 -107 84.5 -161t167.5 -54q99 0 158 44.5t59 127.5q0 80 -51 128t-198 103q-65 23 -110 42.5t-94.5 51t-79.5 67t-49.5 88.5t-19.5 118q0 73 22 132t59 97.5t87.5 64.5t104 37t112.5 11q85 0 154.5 -17.5t125 -54.5t89.5 -99.5t41 -146.5l-186 -36
q-9 97 -69 149.5t-153 52.5q-87 0 -140.5 -45.5t-53.5 -128.5q0 -36 12.5 -64.5t31 -48.5t56 -40.5t71.5 -34t93 -35.5q65 -24 107 -43t90 -50.5t76 -67t46.5 -88.5t18.5 -118q0 -87 -33 -153.5t-91 -107t-132.5 -61t-163.5 -20.5q-181 0 -285 76t-133 238zM557 1329h-115
l-254 264h197l66 -67q17 -18 29 -35.5t15 -26.5l3 -8h6q8 29 47 70l63 67h199z" />
    <glyph glyph-name="scaron" unicode="&#x161;" horiz-adv-x="858" 
d="M55 213l164 49q20 -156 205 -156q85 0 136.5 32.5t51.5 94.5q0 60 -32 94.5t-115 55.5l-139 33q-126 30 -182 95.5t-56 172.5q0 62 20 111.5t53.5 81.5t80 53t96.5 30t106 9q155 0 241 -61t99 -195l-180 -21q-9 137 -172 137q-78 0 -122 -33.5t-44 -93.5q0 -54 28 -85
t101 -48l131 -30q132 -32 197 -98.5t65 -186.5q0 -144 -99.5 -211.5t-266.5 -67.5q-166 0 -256.5 56t-110.5 182zM496 1081h-109l-256 301h188l70 -88q17 -21 29 -40t15 -28l3 -9h10q9 30 48 77l69 88h189z" />
    <glyph glyph-name="Tcommaaccent" unicode="&#x162;" horiz-adv-x="933" 
d="M561 0h-190v1042h-351v164h893v-164h-352v-1042zM588 -291q0 -113 -62.5 -164t-185.5 -51v76q64 3 93.5 22t29.5 66q-55 -9 -90 18t-35 78q0 52 32 80.5t85 28.5q56 0 94.5 -42t38.5 -112z" />
    <glyph glyph-name="tcommaaccent" unicode="&#x163;" horiz-adv-x="690" 
d="M625 184l34 -153q-92 -56 -229 -56q-129 0 -200.5 68.5t-71.5 198.5v557h-138v147h138v201l186 22v-223h281v-147h-283v-520q0 -146 125 -146q81 0 158 51zM518 -291q0 -113 -62.5 -164t-185.5 -51v76q64 3 93.5 22t29.5 66q-55 -9 -90 18t-35 78q0 52 32 80.5t85 28.5
q56 0 94.5 -42t38.5 -112z" />
    <glyph glyph-name="Tcaron" unicode="&#x164;" horiz-adv-x="933" 
d="M561 0h-190v1042h-351v164h893v-164h-352v-1042zM524 1329h-114l-254 264h196l66 -67q17 -18 29 -35.5t15 -26.5l3 -8h6q8 29 47 70l64 67h198z" />
    <glyph glyph-name="tcaron" unicode="&#x165;" horiz-adv-x="690" 
d="M625 184l34 -153q-92 -56 -229 -56q-129 0 -200.5 68.5t-71.5 198.5v557h-138v147h138v201l186 22v-223h281v-147h-283v-520q0 -146 125 -146q81 0 158 51zM682 1421l-107 -368h-135l33 368h209z" />
    <glyph glyph-name="Tbar" unicode="&#x166;" horiz-adv-x="933" 
d="M561 0h-190v518h-228v156h228v368h-351v164h893v-164h-352v-368h234v-156h-234v-518z" />
    <glyph glyph-name="tbar" unicode="&#x167;" horiz-adv-x="690" 
d="M20 483v142h138v174h-138v147h138v201l186 22v-223h281v-147h-283v-174h283v-142h-283v-204q0 -146 125 -146q81 0 158 51l34 -153q-92 -56 -229 -56q-129 0 -200.5 68.5t-71.5 198.5v241h-138z" />
    <glyph glyph-name="Utilde" unicode="&#x168;" horiz-adv-x="1191" 
d="M870 1206h191v-811q0 -91 -26 -163.5t-69.5 -120t-104 -78.5t-126 -44.5t-139.5 -13.5q-94 0 -174 22.5t-147 69.5t-105.5 131t-38.5 197v811h188v-762q0 -313 277 -313q274 0 274 309v766zM737 1337q-12 0 -23 1t-19.5 2.5t-18.5 5t-16.5 5.5t-17.5 7.5l-16 8t-18 9.5
t-18 10q-10 5 -29.5 16.5t-27 15.5t-20.5 10t-23.5 8t-22.5 2q-72 0 -61 -97h-113q-39 99 6.5 178.5t144.5 79.5q49 0 82.5 -12.5t79.5 -40.5q46 -29 67.5 -39t45.5 -10q67 0 59 100h117q37 -109 -7 -184.5t-151 -75.5z" />
    <glyph glyph-name="utilde" unicode="&#x169;" horiz-adv-x="1040" 
d="M735 0l-22 172q-33 -103 -105 -150t-186 -47q-136 0 -211.5 76t-75.5 238v657h184v-629q0 -105 41 -154.5t129 -49.5q85 0 152.5 73t67.5 201v559h184v-946h-158zM657 1083q-30 0 -57.5 7.5t-40 14t-49.5 25.5q-5 3 -17 10.5t-16 9.5t-14 8t-14 7.5t-12 5.5t-12.5 5
t-11.5 3t-13 2.5t-13 0.5q-72 0 -61 -97h-113q-38 100 7.5 177t144.5 77q34 0 64 -8.5t46.5 -17.5t50.5 -29q47 -28 68 -37.5t45 -9.5q67 0 59 100h117q37 -109 -6.5 -181.5t-151.5 -72.5z" />
    <glyph glyph-name="Umacron" unicode="&#x16a;" horiz-adv-x="1191" 
d="M870 1206h191v-811q0 -91 -26 -163.5t-69.5 -120t-104 -78.5t-126 -44.5t-139.5 -13.5q-94 0 -174 22.5t-147 69.5t-105.5 131t-38.5 197v811h188v-762q0 -313 277 -313q274 0 274 309v766zM866 1380h-540v146h540v-146z" />
    <glyph glyph-name="umacron" unicode="&#x16b;" horiz-adv-x="1040" 
d="M735 0l-22 172q-33 -103 -105 -150t-186 -47q-136 0 -211.5 76t-75.5 238v657h184v-629q0 -105 41 -154.5t129 -49.5q85 0 152.5 73t67.5 201v559h184v-946h-158zM784 1143h-536v149h536v-149z" />
    <glyph glyph-name="Ubreve" unicode="&#x16c;" horiz-adv-x="1191" 
d="M870 1206h191v-811q0 -91 -26 -163.5t-69.5 -120t-104 -78.5t-126 -44.5t-139.5 -13.5q-94 0 -174 22.5t-147 69.5t-105.5 131t-38.5 197v811h188v-762q0 -313 277 -313q274 0 274 309v766zM594 1331q-132 0 -204.5 71.5t-72.5 196.5h146q5 -67 34.5 -100t96.5 -33
q68 0 98 33.5t35 99.5h145q0 -125 -72.5 -196.5t-205.5 -71.5z" />
    <glyph glyph-name="ubreve" unicode="&#x16d;" horiz-adv-x="1040" 
d="M735 0l-22 172q-33 -103 -105 -150t-186 -47q-136 0 -211.5 76t-75.5 238v657h184v-629q0 -105 41 -154.5t129 -49.5q85 0 152.5 73t67.5 201v559h184v-946h-158zM514 1077q-132 0 -205 78.5t-73 210.5h145q5 -76 33 -114t100 -38q71 0 99.5 38.5t33.5 113.5h146
q0 -132 -73 -210.5t-206 -78.5z" />
    <glyph glyph-name="Uring" unicode="&#x16e;" horiz-adv-x="1191" 
d="M870 1206h191v-811q0 -91 -26 -163.5t-69.5 -120t-104 -78.5t-126 -44.5t-139.5 -13.5q-94 0 -174 22.5t-147 69.5t-105.5 131t-38.5 197v811h188v-762q0 -313 277 -313q274 0 274 309v766zM612 1300q-98 0 -154.5 58t-56.5 147q0 82 59 140.5t152 58.5t152 -58.5
t59 -140.5q0 -89 -56.5 -147t-154.5 -58zM612 1618q-52 0 -82 -32.5t-30 -84.5q0 -48 29 -78t83 -30t83.5 30t29.5 78q0 52 -30.5 84.5t-82.5 32.5z" />
    <glyph glyph-name="uring" unicode="&#x16f;" horiz-adv-x="1040" 
d="M735 0l-22 172q-33 -103 -105 -150t-186 -47q-136 0 -211.5 76t-75.5 238v657h184v-629q0 -105 41 -154.5t129 -49.5q85 0 152.5 73t67.5 201v559h184v-946h-158zM516 1065q-98 0 -154.5 58t-56.5 147q0 82 59 139t152 57t152 -57t59 -139q0 -89 -56.5 -147t-154.5 -58z
M516 1380q-52 0 -82.5 -31.5t-30.5 -82.5q0 -49 29.5 -79t83.5 -30t83.5 30t29.5 79q0 51 -30.5 82.5t-82.5 31.5z" />
    <glyph glyph-name="Uhungarumlaut" unicode="&#x170;" horiz-adv-x="1191" 
d="M870 1206h191v-811q0 -91 -26 -163.5t-69.5 -120t-104 -78.5t-126 -44.5t-139.5 -13.5q-94 0 -174 22.5t-147 69.5t-105.5 131t-38.5 197v811h188v-762q0 -313 277 -313q274 0 274 309v766zM502 1337h-137l127 252h223zM809 1337h-145l151 252h232z" />
    <glyph glyph-name="uhungarumlaut" unicode="&#x171;" horiz-adv-x="1040" 
d="M735 0l-22 172q-33 -103 -105 -150t-186 -47q-136 0 -211.5 76t-75.5 238v657h184v-629q0 -105 41 -154.5t129 -49.5q85 0 152.5 73t67.5 201v559h184v-946h-158zM420 1083h-137l127 299h223zM727 1083h-145l151 299h232z" />
    <glyph glyph-name="Uogonek" unicode="&#x172;" horiz-adv-x="1191" 
d="M381 -217q0 121 96 203q-155 26 -250.5 125.5t-95.5 283.5v811h188v-762q0 -313 277 -313q274 0 274 309v766h191v-811q0 -102 -32 -181t-88 -126.5t-125 -74t-152 -33.5q-119 -52 -119 -170q0 -55 27 -86t79 -31q92 0 144 86l59 -90q-71 -121 -236 -121
q-108 0 -172.5 55.5t-64.5 159.5z" />
    <glyph glyph-name="uogonek" unicode="&#x173;" horiz-adv-x="1040" 
d="M512 -225q0 90 63.5 157.5t153.5 104.5l-16 143q-33 -98 -106.5 -151.5t-184.5 -53.5q-136 0 -211.5 76t-75.5 238v657h184v-629q0 -104 40.5 -154t125.5 -50q87 0 155.5 76.5t68.5 205.5v551h184v-946q-90 -3 -154.5 -56t-64.5 -137q0 -114 100 -114q92 0 144 86l59 -90
q-74 -121 -236 -121q-106 0 -167.5 54.5t-61.5 152.5z" />
    <glyph glyph-name="Wcircumflex" unicode="&#x174;" horiz-adv-x="1691" 
d="M963 1206l188 -755q21 -84 37.5 -165.5t22.5 -121.5l6 -39h8q16 140 61 324l191 757h190l-313 -1206h-269l-184 711q-22 83 -34.5 163.5t-14.5 119.5l-2 40h-8q-9 -135 -56 -323l-182 -711h-268l-311 1206h200l189 -751q20 -83 36 -165.5t22 -123.5l5 -41h8
q15 142 64 328l194 753h220zM788 1602h115l256 -265h-198l-64 68q-17 18 -29 35.5t-15 25.5l-3 9h-6q-8 -29 -47 -70l-66 -68h-196z" />
    <glyph glyph-name="wcircumflex" unicode="&#x175;" horiz-adv-x="1376" 
d="M784 946l134 -491q24 -84 39.5 -164.5t19.5 -118.5l4 -39h8q6 129 53 322l127 491h187l-258 -946h-221l-125 449q-23 80 -38.5 154.5t-19.5 109.5l-4 35h-8q-10 -117 -57 -299l-119 -449h-221l-265 946h191l129 -491q23 -84 38.5 -164.5t19.5 -118.5l5 -39h9
q6 136 57 324l131 489h184zM633 1382h108l256 -301h-188l-70 86q-17 21 -29 40.5t-15 28.5l-3 9h-10q-8 -31 -47 -78l-70 -86h-188z" />
    <glyph glyph-name="Ycircumflex" unicode="&#x176;" horiz-adv-x="991" 
d="M236 1206l188 -383q31 -61 52 -112t26 -72l6 -21h8q12 68 78 205l178 383h199l-369 -749v-457h-188v457l-394 749h216zM438 1602h115l256 -265h-199l-63 68q-17 18 -29 35.5t-15 25.5l-3 9h-6q-9 -29 -48 -70l-65 -68h-197z" />
    <glyph glyph-name="ycircumflex" unicode="&#x177;" horiz-adv-x="901" 
d="M219 946l162 -520q25 -82 43.5 -156.5t24.5 -108.5l6 -34h8q17 113 72 299l157 520h193l-348 -1024q-35 -103 -76 -172t-90 -107t-100.5 -53.5t-118.5 -15.5q-71 0 -138 23l17 157q57 -28 123 -28q76 0 124 48t89 171l-351 1001h203zM408 1382h108l256 -301h-188l-70 86
q-17 21 -29 40.5t-15 28.5l-3 9h-10q-8 -31 -47 -78l-70 -86h-188z" />
    <glyph glyph-name="Ydieresis" unicode="&#x178;" horiz-adv-x="991" 
d="M236 1206l188 -383q31 -61 52 -112t26 -72l6 -21h8q12 68 78 205l178 383h199l-369 -749v-457h-188v457l-394 749h216zM172 1460q0 53 35.5 88t85.5 35q52 0 87.5 -35t35.5 -88q0 -52 -35.5 -86.5t-87.5 -34.5q-50 0 -85.5 34.5t-35.5 86.5zM573 1458q0 53 35.5 88
t85.5 35q53 0 88 -34.5t35 -88.5q0 -51 -35.5 -86t-87.5 -35q-50 0 -85.5 35t-35.5 86z" />
    <glyph glyph-name="Zacute" unicode="&#x179;" horiz-adv-x="972" 
d="M918 1079l-517 -764q-30 -44 -59 -81.5t-43 -52.5l-14 -15v-8q51 6 176 6h467v-164h-883v113l518 778q29 44 58.5 81.5t44.5 52.5l14 15v9q-53 -7 -176 -7h-434v164h848v-127zM563 1337h-168l129 252h246z" />
    <glyph glyph-name="zacute" unicode="&#x17a;" horiz-adv-x="806" 
d="M741 823l-360 -520q-31 -44 -60.5 -81.5t-42.5 -52.5l-14 -15v-9q51 7 176 7h322v-152h-717v104l363 535q30 44 59 81.5t43 52.5l14 15v9q-53 -6 -176 -6h-282v155h675v-123zM477 1083h-162l152 299h248z" />
    <glyph glyph-name="Zdotaccent" unicode="&#x17b;" horiz-adv-x="972" 
d="M918 1079l-517 -764q-30 -44 -59 -81.5t-43 -52.5l-14 -15v-8q51 6 176 6h467v-164h-883v113l518 778q29 44 58.5 81.5t44.5 52.5l14 15v9q-53 -7 -176 -7h-434v164h848v-127zM360 1489q0 54 35.5 88.5t87.5 34.5q55 0 91 -34t36 -89q0 -52 -36.5 -87.5t-90.5 -35.5
q-51 0 -87 35.5t-36 87.5z" />
    <glyph glyph-name="zdotaccent" unicode="&#x17c;" horiz-adv-x="806" 
d="M741 823l-360 -520q-31 -44 -60.5 -81.5t-42.5 -52.5l-14 -15v-9q51 7 176 7h322v-152h-717v104l363 535q30 44 59 81.5t43 52.5l14 15v9q-53 -6 -176 -6h-282v155h675v-123zM287 1247q0 53 35.5 88t87.5 35q54 0 90.5 -34.5t36.5 -88.5q0 -52 -36.5 -87.5t-90.5 -35.5
q-51 0 -87 35.5t-36 87.5z" />
    <glyph glyph-name="Zcaron" unicode="&#x17d;" horiz-adv-x="972" 
d="M918 1079l-517 -764q-30 -44 -59 -81.5t-43 -52.5l-14 -15v-8q51 6 176 6h467v-164h-883v113l518 778q29 44 58.5 81.5t44.5 52.5l14 15v9q-53 -7 -176 -7h-434v164h848v-127zM543 1329h-115l-254 264h197l65 -67q17 -18 29 -35.5t15 -26.5l3 -8h6q9 29 48 70l63 67h199z
" />
    <glyph glyph-name="zcaron" unicode="&#x17e;" horiz-adv-x="806" 
d="M741 823l-360 -520q-31 -44 -60.5 -81.5t-42.5 -52.5l-14 -15v-9q51 7 176 7h322v-152h-717v104l363 535q30 44 59 81.5t43 52.5l14 15v9q-53 -6 -176 -6h-282v155h675v-123zM471 1081h-109l-256 301h189l70 -88q17 -21 29 -40t15 -28l3 -9h10q8 30 47 77l70 88h188z" />
    <glyph glyph-name="Schwa" unicode="&#x18f;" horiz-adv-x="1171" 
d="M102 909q40 162 160.5 242t294.5 80q239 0 381.5 -164.5t142.5 -460.5q0 -301 -141.5 -466t-384.5 -165q-225 0 -345 133t-120 371q0 67 14 160h783q-2 122 -41.5 217t-118.5 152t-186 57q-213 0 -281 -217zM885 489h-602q-4 -28 -4 -59q0 -134 72.5 -218.5t201.5 -84.5
q143 0 231.5 100t100.5 262z" />
    <glyph glyph-name="florin" unicode="&#x192;" horiz-adv-x="874" 
d="M70 -246l110 588h-139l27 158h141l37 196q29 166 124 241t230 75q80 0 149 -29.5t105 -81.5l-109 -137q-59 90 -161 90q-58 0 -97.5 -41t-54.5 -121l-37 -192h240l-27 -158h-241l-111 -588h-186z" />
    <glyph glyph-name="Khook" unicode="&#x198;" horiz-adv-x="1099" 
d="M750 932l-138 -318l451 -614h-232l-374 518h-99v-518h-188v1206h188v-516h105l123 297q51 124 121 184t174 60q69 0 117 -34.5t71 -94.5l-113 -115q-29 66 -82 66q-38 0 -66 -26.5t-58 -94.5z" />
    <glyph glyph-name="khook" unicode="&#x199;" horiz-adv-x="958" 
d="M332 424v-424h-185v1047q0 98 35 168t90.5 104.5t125.5 47t138.5 4t131.5 -31.5l-35 -165q-48 23 -89.5 34.5t-81.5 8.5t-68.5 -23.5t-46 -67.5t-17.5 -118v-441h49l313 379h223l-380 -440l411 -506h-227l-330 424h-57z" />
    <glyph glyph-name="Ezh" unicode="&#x1b7;" horiz-adv-x="950" 
d="M281 553l237 338q31 44 60.5 81t43.5 52l13 16v9q-53 -7 -176 -7h-408v164h819v-127l-405 -542v-11q204 -3 319 -123t115 -317q0 -211 -132.5 -333t-338.5 -122q-197 0 -316 97.5t-141 275.5l156 57q21 -143 99 -214.5t198 -71.5q137 0 216 82.5t79 226.5
q0 161 -116 248.5t-322 85.5v135z" />
    <glyph glyph-name="Acaron" unicode="&#x1cd;" horiz-adv-x="1165" 
d="M942 0l-117 330h-493l-115 -330h-197l441 1206h248l436 -1206h-203zM481 758l-96 -273h385l-92 271q-30 84 -53.5 163t-32.5 117l-8 37h-9q-28 -127 -94 -315zM635 1329h-115l-254 264h197l65 -67q17 -18 29 -35.5t15 -26.5l3 -8h7q8 29 47 70l63 67h199z" />
    <glyph glyph-name="acaron" unicode="&#x1ce;" horiz-adv-x="980" 
d="M625 285v137q-188 4 -276.5 -38t-88.5 -132q0 -61 39.5 -99t112.5 -38q81 0 147 46t66 124zM811 678v-455q0 -88 70 -88q30 0 53 10v-143q-43 -16 -100 -16q-172 0 -195 151q-67 -162 -281 -162q-127 0 -204.5 68.5t-77.5 187.5q0 338 549 312v116q0 162 -170 162
q-77 0 -121.5 -39t-50.5 -112l-177 26q5 72 38 126.5t85 85.5t113 46t129 15q72 0 131 -15.5t107.5 -48.5t75 -90.5t26.5 -136.5zM530 1081h-108l-256 301h188l70 -88q17 -21 29 -40t15 -28l3 -9h10q8 30 47 77l70 88h188z" />
    <glyph glyph-name="Icaron" unicode="&#x1cf;" horiz-adv-x="528" 
d="M170 1206h188v-1206h-188v1206zM322 1329h-115l-254 264h197l65 -67q17 -18 29 -35.5t15 -26.5l3 -8h6q8 29 47 70l64 67h199z" />
    <glyph glyph-name="icaron" unicode="&#x1d0;" horiz-adv-x="479" 
d="M295 1081h-109l-256 301h189l69 -88q17 -21 29 -40t15 -28l4 -9h10q8 30 47 77l69 88h189zM147 946h185v-946h-185v946z" />
    <glyph glyph-name="Ocaron" unicode="&#x1d1;" horiz-adv-x="1267" 
d="M635 -25q-252 0 -398.5 165t-146.5 462q0 299 146.5 464t398.5 165t397.5 -165t145.5 -464q0 -298 -145.5 -462.5t-397.5 -164.5zM635 1065q-168 0 -257 -122.5t-89 -340.5q0 -219 89 -341t257 -122t256 121.5t88 341.5q0 218 -88.5 340.5t-255.5 122.5zM690 1329h-115
l-253 264h196l66 -67q17 -18 29 -35.5t15 -26.5l3 -8h6q8 29 47 70l64 67h198z" />
    <glyph glyph-name="ocaron" unicode="&#x1d2;" horiz-adv-x="1034" 
d="M516 -25q-198 0 -314 132t-116 372q0 237 115.5 363.5t314.5 126.5q201 0 316.5 -126.5t115.5 -363.5q0 -240 -116.5 -372t-315.5 -132zM516 819q-248 0 -248 -342q0 -356 248 -356q250 0 250 356q0 342 -250 342zM571 1081h-108l-256 301h188l70 -88q17 -21 29 -40
t15 -28l3 -9h10q8 30 47 77l70 88h188z" />
    <glyph glyph-name="Ucaron" unicode="&#x1d3;" horiz-adv-x="1191" 
d="M870 1206h191v-811q0 -91 -26 -163.5t-69.5 -120t-104 -78.5t-126 -44.5t-139.5 -13.5q-94 0 -174 22.5t-147 69.5t-105.5 131t-38.5 197v811h188v-762q0 -313 277 -313q274 0 274 309v766zM651 1329h-114l-254 264h196l66 -67q17 -18 29 -35.5t15 -26.5l3 -8h6
q8 29 47 70l64 67h198z" />
    <glyph glyph-name="ucaron" unicode="&#x1d4;" horiz-adv-x="1040" 
d="M735 0l-22 172q-33 -103 -105 -150t-186 -47q-136 0 -211.5 76t-75.5 238v657h184v-629q0 -105 41 -154.5t129 -49.5q85 0 152.5 73t67.5 201v559h184v-946h-158zM569 1081h-108l-256 301h188l70 -88q17 -21 29 -40t15 -28l3 -9h10q8 30 47 77l70 88h188z" />
    <glyph glyph-name="uni01D9" unicode="&#x1d9;" horiz-adv-x="1191" 
d="M870 1206h191v-811q0 -91 -26 -163.5t-69.5 -120t-104 -78.5t-126 -44.5t-139.5 -13.5q-94 0 -174 22.5t-147 69.5t-105.5 131t-38.5 197v811h188v-762q0 -313 277 -313q274 0 274 309v766zM270 1399q0 53 35.5 88t85.5 35q52 0 87.5 -35t35.5 -88q0 -52 -35.5 -86.5
t-87.5 -34.5q-50 0 -85.5 34.5t-35.5 86.5zM672 1397q0 53 35.5 88t85.5 35q53 0 87.5 -34.5t34.5 -88.5q0 -51 -35 -86t-87 -35q-50 0 -85.5 35t-35.5 86zM651 1548h-114l-254 264h196l66 -67q16 -18 28 -35.5t15 -25.5l4 -9h4q10 29 47 70l66 67h196z" />
    <glyph glyph-name="uni01DA" unicode="&#x1da;" horiz-adv-x="1040" 
d="M735 0l-22 172q-33 -103 -105 -150t-186 -47q-136 0 -211.5 76t-75.5 238v657h184v-629q0 -105 41 -154.5t129 -49.5q85 0 152.5 73t67.5 201v559h184v-946h-158zM193 1145q0 53 35 87t85 34q52 0 86.5 -34t34.5 -87q0 -52 -35 -86.5t-86 -34.5q-50 0 -85 34.5t-35 86.5z
M594 1143q0 53 35.5 88t85.5 35q51 0 86 -35t35 -88q0 -52 -35 -86.5t-86 -34.5q-50 0 -85.5 34.5t-35.5 86.5zM571 1294h-112l-256 265h198l64 -68q17 -18 29 -35.5t15 -25.5l3 -9h6q8 29 47 70l64 68h198z" />
    <glyph glyph-name="uni004100A800AF" unicode="&#x1de;" horiz-adv-x="1165" 
d="M942 0l-117 330h-493l-115 -330h-197l441 1206h248l436 -1206h-203zM481 758l-96 -273h385l-92 271q-30 84 -53.5 163t-32.5 117l-8 37h-9q-28 -127 -94 -315zM850 1645h-541v145h541v-145zM258 1421q0 53 35.5 88t85.5 35q52 0 87.5 -35t35.5 -88q0 -52 -35.5 -86.5
t-87.5 -34.5q-50 0 -85.5 34.5t-35.5 86.5zM659 1419q0 53 35.5 88t85.5 35q53 0 88 -34.5t35 -88.5q0 -51 -35.5 -86t-87.5 -35q-50 0 -85.5 35t-35.5 86z" />
    <glyph glyph-name="adieresismacron" unicode="&#x1df;" horiz-adv-x="980" 
d="M625 285v137q-188 4 -276.5 -38t-88.5 -132q0 -61 39.5 -99t112.5 -38q81 0 147 46t66 124zM811 678v-455q0 -88 70 -88q30 0 53 10v-143q-43 -16 -100 -16q-172 0 -195 151q-67 -162 -281 -162q-127 0 -204.5 68.5t-77.5 187.5q0 338 549 312v116q0 162 -170 162
q-77 0 -121.5 -39t-50.5 -112l-177 26q5 72 38 126.5t85 85.5t113 46t129 15q72 0 131 -15.5t107.5 -48.5t75 -90.5t26.5 -136.5zM745 1362h-536v149h536v-149zM152 1155q0 53 35 88t85 35q52 0 87.5 -35t35.5 -88q0 -52 -35.5 -86.5t-87.5 -34.5q-50 0 -85 34.5t-35 86.5z
M553 1153q0 53 35.5 88t85.5 35q53 0 88 -34.5t35 -88.5q0 -51 -35.5 -86t-87.5 -35q-50 0 -85.5 35t-35.5 86z" />
    <glyph glyph-name="AEmacron" unicode="&#x1e2;" horiz-adv-x="1705" 
d="M1604 0h-744v330h-438l-201 -330h-205l740 1206h848v-164h-555v-356h491v-164h-491v-358h555v-164zM864 1069l-352 -584h348v277q-1 91 2 168t6 108l4 31h-8zM1378 1380h-540v146h540v-146z" />
    <glyph glyph-name="aemacron" unicode="&#x1e3;" horiz-adv-x="1484" 
d="M1024 125q80 0 131.5 35t75.5 116l162 -45q-28 -134 -129.5 -195t-249.5 -61q-219 0 -332 162q-92 -162 -313 -162q-133 0 -213 68t-80 188q0 325 520 328q9 67 31 133q-17 129 -170 129q-78 0 -123 -39t-51 -112l-174 26q5 72 37.5 126.5t85 85.5t113 46t128.5 15
q180 0 262 -107q113 107 289 107q179 0 275.5 -112.5t99.5 -297.5q0 -67 -13 -127h-610q6 -140 69.5 -223.5t178.5 -83.5zM780 559h434q3 21 3 47q0 93 -54.5 155t-146.5 62q-101 0 -161.5 -69.5t-74.5 -194.5zM403 117q75 0 133.5 37.5t86.5 103.5q-28 76 -31 174
q-178 -1 -253 -42.5t-75 -135.5q0 -61 37 -99t102 -38zM1001 1143h-536v149h536v-149z" />
    <glyph glyph-name="Gstroke" unicode="&#x1e4;" horiz-adv-x="1294" 
d="M641 649h479v-233h121v-129h-121v-287h-149l-25 156q-35 -86 -128.5 -133.5t-203.5 -47.5q-238 0 -381 162t-143 461q0 298 153.5 465.5t409.5 167.5q340 0 453 -291l-176 -86q-36 106 -111 160.5t-176 54.5q-161 0 -256.5 -123t-95.5 -348q0 -214 86 -341.5t256 -127.5
q111 0 190 39t109 119h-291v129h293v94h-293v139z" />
    <glyph glyph-name="gstroke" unicode="&#x1e5;" horiz-adv-x="1097" 
d="M530 969q171 0 275 -76q31 17 46.5 50.5t25.5 92.5l159 -55q-10 -66 -53.5 -111t-105.5 -59q45 -71 45 -178q0 -157 -110.5 -242.5t-279.5 -85.5q-76 0 -122 17q-66 -35 -66 -99q0 -78 102 -78h232q159 0 243.5 -68t84.5 -196v-8h92v-72h-103q-18 -65 -68 -112.5
t-121.5 -72.5t-148 -36.5t-163.5 -11.5q-82 0 -150.5 11.5t-128.5 36.5t-95.5 72t-39.5 113h-80v72h86q19 69 80 111t158 49q-63 7 -98.5 47.5t-35.5 99.5q0 128 142 166q-185 81 -185 287q0 157 105 246.5t278 89.5zM332 635q0 -91 52 -145t146 -54q96 0 151.5 51t55.5 148
q0 98 -55.5 149.5t-151.5 49.5q-95 0 -146.5 -52t-51.5 -147zM461 -18q-184 0 -207 -109h575q-10 109 -159 109h-209zM510 -309q269 0 313 110h-569q28 -110 256 -110z" />
    <glyph glyph-name="Gcaron" unicode="&#x1e6;" horiz-adv-x="1249" 
d="M641 623h479v-623h-149l-25 156q-35 -86 -128.5 -133.5t-203.5 -47.5q-238 0 -381 162t-143 461q0 298 153.5 465.5t409.5 167.5q340 0 453 -291l-176 -86q-36 106 -111 160.5t-176 54.5q-162 0 -259 -123.5t-97 -347.5q0 -213 87.5 -340t258.5 -127q130 0 215.5 61
t85.5 177v90h-293v164zM711 1329h-115l-254 264h197l65 -67q17 -18 29 -35.5t15 -26.5l3 -8h6q9 29 48 70l63 67h199z" />
    <glyph glyph-name="gcaron" unicode="&#x1e7;" horiz-adv-x="993" 
d="M469 969q170 0 274 -76q31 17 46.5 50.5t25.5 92.5l160 -55q-10 -66 -54 -111t-104 -59q43 -73 43 -178q0 -157 -110 -242.5t-279 -85.5q-77 0 -123 17q-63 -34 -63 -99q0 -78 100 -78h231q161 0 245.5 -68t84.5 -196q0 -72 -30 -127.5t-79 -90t-117.5 -56.5
t-138.5 -30.5t-149 -8.5q-84 0 -153.5 12t-130.5 38.5t-95.5 77t-34.5 120.5q0 93 64 150.5t180 66.5q-63 7 -97 47.5t-34 99.5q0 128 139 166q-184 82 -184 287q0 157 105 246.5t278 89.5zM193 -164q0 -137 258 -137q155 0 236 35.5t81 120.5q0 125 -160 125h-205
q-210 0 -210 -144zM270 635q0 -91 52.5 -145t146.5 -54q96 0 151.5 51t55.5 148q0 98 -55.5 149.5t-151.5 49.5q-94 0 -146.5 -52t-52.5 -147zM545 1081h-109l-256 301h189l69 -88q17 -21 29 -40t15 -28l3 -9h11q8 30 47 77l69 88h189z" />
    <glyph glyph-name="Kcaron" unicode="&#x1e8;" horiz-adv-x="1099" 
d="M1063 0h-232l-378 530h-95v-530h-188v1206h188v-512h101l352 512h221l-420 -585zM588 1329h-115l-254 264h197l65 -67q17 -18 29 -35.5t15 -26.5l3 -8h7q8 29 47 70l63 67h199z" />
    <glyph glyph-name="kcaron" unicode="&#x1e9;" horiz-adv-x="958" 
d="M535 506l411 -506h-227l-330 424h-57v-424h-185v1368h185v-801h47l313 379h223zM297 1452h-115l-254 264h197l65 -67q17 -18 29 -35.5t15 -25.5l4 -9h6q8 29 47 70l63 67h199z" />
    <glyph glyph-name="Oogonek" unicode="&#x1ea;" horiz-adv-x="1267" 
d="M412 -217q0 124 98 205q-198 37 -309 196t-111 418q0 299 146.5 464t398.5 165t397.5 -165t145.5 -464q0 -279 -129 -441t-355 -181q-54 -24 -87.5 -66.5t-33.5 -103.5q0 -55 28.5 -86t80.5 -31q91 0 143 86l60 -90q-74 -121 -236 -121q-108 0 -172.5 55.5t-64.5 159.5z
M635 1065q-168 0 -257 -122.5t-89 -340.5q0 -219 89 -341t257 -122t256 121.5t88 341.5q0 218 -88.5 340.5t-255.5 122.5z" />
    <glyph glyph-name="oogonek" unicode="&#x1eb;" horiz-adv-x="1034" 
d="M279 -217q0 129 106 211q-141 39 -220 163.5t-79 321.5q0 237 115.5 363.5t314.5 126.5q201 0 316.5 -126.5t115.5 -363.5q0 -226 -104 -357t-285 -145q-117 -54 -117 -167q0 -55 28 -86t81 -31q89 0 141 86l60 -90q-71 -121 -236 -121q-108 0 -172.5 55.5t-64.5 159.5z
M516 819q-248 0 -248 -342q0 -356 248 -356q250 0 250 356q0 342 -250 342z" />
    <glyph glyph-name="uni004F02DB00AF" unicode="&#x1ec;" horiz-adv-x="1267" 
d="M905 1380h-540v146h540v-146zM412 -217q0 124 98 205q-198 37 -309 196t-111 418q0 299 146.5 464t398.5 165t397.5 -165t145.5 -464q0 -279 -129 -441t-355 -181q-54 -24 -87.5 -66.5t-33.5 -103.5q0 -55 28.5 -86t80.5 -31q91 0 143 86l60 -90q-74 -121 -236 -121
q-108 0 -172.5 55.5t-64.5 159.5zM635 1065q-168 0 -257 -122.5t-89 -340.5q0 -219 89 -341t257 -122t256 121.5t88 341.5q0 218 -88.5 340.5t-255.5 122.5z" />
    <glyph glyph-name="oogonekmacron" unicode="&#x1ed;" horiz-adv-x="1034" 
d="M786 1143h-536v149h536v-149zM279 -217q0 129 106 211q-141 39 -220 163.5t-79 321.5q0 237 115.5 363.5t314.5 126.5q201 0 316.5 -126.5t115.5 -363.5q0 -226 -104 -357t-285 -145q-117 -54 -117 -167q0 -55 28 -86t81 -31q89 0 141 86l60 -90q-71 -121 -236 -121
q-108 0 -172.5 55.5t-64.5 159.5zM516 819q-248 0 -248 -342q0 -356 248 -356q250 0 250 356q0 342 -250 342z" />
    <glyph glyph-name="Ezhcaron" unicode="&#x1ee;" horiz-adv-x="950" 
d="M281 553l237 338q31 44 60.5 81t43.5 52l13 16v9q-53 -7 -176 -7h-408v164h819v-127l-405 -542v-11q204 -3 319 -123t115 -317q0 -211 -132.5 -333t-338.5 -122q-197 0 -316 97.5t-141 275.5l156 57q21 -143 99 -214.5t198 -71.5q137 0 216 82.5t79 226.5
q0 161 -116 248.5t-322 85.5v135zM535 1329h-115l-254 264h196l66 -67q17 -18 29 -35.5t15 -26.5l3 -8h6q8 29 47 70l64 67h199z" />
    <glyph glyph-name="ezhcaron" unicode="&#x1ef;" horiz-adv-x="808" 
d="M231 436l162 203q34 43 66.5 80t48.5 53l16 16v9q-67 -6 -190 -6h-271v155h676v-123l-340 -413v-7q158 -4 251 -105.5t93 -256.5q0 -167 -114 -261.5t-293 -94.5q-147 0 -242.5 78t-116.5 208l164 47q15 -92 71.5 -140t139.5 -48q91 0 153 56.5t62 146.5q0 113 -79.5 188
t-256.5 96v119zM463 1081h-109l-256 301h189l69 -88q17 -21 29 -40t15 -28l3 -9h11q8 30 47 77l69 88h189z" />
    <glyph glyph-name="jcaron" unicode="&#x1f0;" horiz-adv-x="479" 
d="M295 1081h-109l-256 301h189l69 -88q17 -21 29 -40t15 -28l4 -9h10q8 30 47 77l69 88h189zM147 946h185v-960q0 -224 -114.5 -317t-336.5 -85v156q139 -12 202.5 44t63.5 193v969z" />
    <glyph glyph-name="jcaron" unicode="&#xe10c;" horiz-adv-x="479" 
d="M295 1081h-109l-256 301h189l69 -88q17 -21 29 -40t15 -28l4 -9h10q8 30 47 77l69 88h189zM147 946h185v-960q0 -224 -114.5 -317t-336.5 -85v156q139 -12 202.5 44t63.5 193v969z" />
    <glyph glyph-name="Gacute" unicode="&#x1f4;" horiz-adv-x="1249" 
d="M641 623h479v-623h-149l-25 156q-35 -86 -128.5 -133.5t-203.5 -47.5q-238 0 -381 162t-143 461q0 298 153.5 465.5t409.5 167.5q340 0 453 -291l-176 -86q-36 106 -111 160.5t-176 54.5q-162 0 -259 -123.5t-97 -347.5q0 -213 87.5 -340t258.5 -127q130 0 215.5 61
t85.5 177v90h-293v164zM731 1337h-168l129 252h246z" />
    <glyph glyph-name="gacute" unicode="&#x1f5;" horiz-adv-x="993" 
d="M469 969q170 0 274 -76q31 17 46.5 50.5t25.5 92.5l160 -55q-10 -66 -54 -111t-104 -59q43 -73 43 -178q0 -157 -110 -242.5t-279 -85.5q-77 0 -123 17q-63 -34 -63 -99q0 -78 100 -78h231q161 0 245.5 -68t84.5 -196q0 -72 -30 -127.5t-79 -90t-117.5 -56.5
t-138.5 -30.5t-149 -8.5q-84 0 -153.5 12t-130.5 38.5t-95.5 77t-34.5 120.5q0 93 64 150.5t180 66.5q-63 7 -97 47.5t-34 99.5q0 128 139 166q-184 82 -184 287q0 157 105 246.5t278 89.5zM193 -164q0 -137 258 -137q155 0 236 35.5t81 120.5q0 125 -160 125h-205
q-210 0 -210 -144zM270 635q0 -91 52.5 -145t146.5 -54q96 0 151.5 51t55.5 148q0 98 -55.5 149.5t-151.5 49.5q-94 0 -146.5 -52t-52.5 -147zM561 1083h-162l152 299h248z" />
    <glyph glyph-name="Ngrave" unicode="&#x1f8;" horiz-adv-x="1331" 
d="M362 1206l476 -690q32 -47 66.5 -104.5t52.5 -91.5l18 -33h8q-10 128 -10 280v639h188v-1206h-186l-481 688q-34 48 -69 106.5t-53 93.5l-18 34h-8q12 -129 12 -285v-637h-188v1206h192zM760 1337h-170l-205 252h246z" />
    <glyph glyph-name="ngrave" unicode="&#x1f9;" horiz-adv-x="1042" 
d="M293 946l22 -182q74 205 303 205q126 0 206.5 -73t80.5 -220v-676h-184v621q0 90 -41.5 139t-124.5 49q-98 0 -160.5 -62t-62.5 -204v-543h-185v946h146zM635 1083h-164l-235 299h247z" />
    <glyph glyph-name="uni004102DA00B4" unicode="&#x1fa;" horiz-adv-x="1165" 
d="M942 0l-117 330h-493l-115 -330h-197l441 1206h248l436 -1206h-203zM481 758l-96 -273h385l-92 271q-30 84 -53.5 163t-32.5 117l-8 37h-9q-28 -127 -94 -315zM580 1270q-98 0 -154.5 58t-56.5 147q0 82 59 140t152 58t152 -58t59 -140q0 -89 -56.5 -147t-154.5 -58z
M580 1587q-52 0 -82.5 -32.5t-30.5 -84.5q0 -48 29.5 -78t83.5 -30t83 30t29 78q0 52 -30 84.5t-82 32.5zM657 1737h-168l129 252h246z" />
    <glyph glyph-name="aringacute" unicode="&#x1fb;" horiz-adv-x="980" 
d="M625 285v137q-188 4 -276.5 -38t-88.5 -132q0 -61 39.5 -99t112.5 -38q81 0 147 46t66 124zM811 678v-455q0 -88 70 -88q30 0 53 10v-143q-43 -16 -100 -16q-172 0 -195 151q-67 -162 -281 -162q-127 0 -204.5 68.5t-77.5 187.5q0 338 549 312v116q0 162 -170 162
q-77 0 -121.5 -39t-50.5 -112l-177 26q5 72 38 126.5t85 85.5t113 46t129 15q72 0 131 -15.5t107.5 -48.5t75 -90.5t26.5 -136.5zM469 1040q-98 0 -154.5 58t-56.5 147q0 82 59 139.5t152 57.5t152 -57.5t59 -139.5q0 -89 -56.5 -147t-154.5 -58zM469 1356
q-52 0 -82.5 -31.5t-30.5 -83.5q0 -49 29.5 -78.5t83.5 -29.5t83.5 29.5t29.5 78.5q0 52 -30.5 83.5t-82.5 31.5zM557 1516h-168l129 251h246z" />
    <glyph glyph-name="AEacute" unicode="&#x1fc;" horiz-adv-x="1705" 
d="M1604 0h-744v330h-438l-201 -330h-205l740 1206h848v-164h-555v-356h491v-164h-491v-358h555v-164zM864 1069l-352 -584h348v277q-1 91 2 168t6 108l4 31h-8zM1184 1337h-168l129 252h246z" />
    <glyph glyph-name="aeacute" unicode="&#x1fd;" horiz-adv-x="1484" 
d="M1024 125q80 0 131.5 35t75.5 116l162 -45q-28 -134 -129.5 -195t-249.5 -61q-219 0 -332 162q-92 -162 -313 -162q-133 0 -213 68t-80 188q0 325 520 328q9 67 31 133q-17 129 -170 129q-78 0 -123 -39t-51 -112l-174 26q5 72 37.5 126.5t85 85.5t113 46t128.5 15
q180 0 262 -107q113 107 289 107q179 0 275.5 -112.5t99.5 -297.5q0 -67 -13 -127h-610q6 -140 69.5 -223.5t178.5 -83.5zM780 559h434q3 21 3 47q0 93 -54.5 155t-146.5 62q-101 0 -161.5 -69.5t-74.5 -194.5zM403 117q75 0 133.5 37.5t86.5 103.5q-28 76 -31 174
q-178 -1 -253 -42.5t-75 -135.5q0 -61 37 -99t102 -38zM797 1083h-162l151 299h248z" />
    <glyph glyph-name="Oslashacute" unicode="&#x1fe;" horiz-adv-x="1267" 
d="M152 -29l-89 82l130 144q-103 155 -103 405q0 299 146.5 464t398.5 165q224 0 364 -131l111 123l94 -84l-125 -138q99 -160 99 -399q0 -298 -145.5 -462.5t-397.5 -164.5q-227 0 -365 129zM635 1065q-168 0 -255 -122t-87 -341q0 -152 39 -250l542 606q-90 107 -239 107z
M975 602q0 141 -37 242l-543 -602q83 -103 240 -103q168 0 254 121t86 342zM711 1337h-168l129 252h246z" />
    <glyph glyph-name="oslashacute" unicode="&#x1ff;" horiz-adv-x="1034" 
d="M143 -29l-92 80l109 115q-74 129 -74 313q0 237 115.5 363.5t314.5 126.5q182 0 293 -105l96 103l92 -78l-112 -121q63 -117 63 -289q0 -240 -116.5 -372t-315.5 -132q-167 0 -278 97zM516 819q-248 0 -248 -342q0 -101 21 -172l407 438q-64 76 -180 76zM766 477
q0 80 -16 146l-404 -435q61 -67 170 -67q250 0 250 356zM598 1083h-162l152 299h248z" />
    <glyph glyph-name="Adoublegrave" unicode="&#x200;" horiz-adv-x="1165" 
d="M942 0l-117 330h-493l-115 -330h-197l441 1206h248l436 -1206h-203zM481 758l-96 -273h385l-92 271q-30 84 -53.5 163t-32.5 117l-8 37h-9q-28 -127 -94 -315zM819 1337h-137l-213 252h223zM518 1337h-145l-236 252h232z" />
    <glyph glyph-name="edoublegrave" unicode="&#x201;" horiz-adv-x="978" 
d="M518 121q81 0 132 35.5t75 117.5l162 -43q-28 -134 -130 -195t-249 -61q-193 0 -307.5 129t-114.5 361q0 236 116.5 370t315.5 134q179 0 277 -111t98 -293q0 -76 -19 -131h-610q6 -143 71.5 -228t182.5 -85zM268 567h443q2 14 2 39q0 93 -56 155t-149 62
q-101 0 -164 -66.5t-76 -189.5zM752 1083h-138l-213 299h224zM451 1083h-146l-235 299h231z" />
    <glyph glyph-name="edoublegrave" unicode="&#x205;" horiz-adv-x="978" 
d="M518 121q81 0 132 35.5t75 117.5l162 -43q-28 -134 -130 -195t-249 -61q-193 0 -307.5 129t-114.5 361q0 236 116.5 370t315.5 134q179 0 277 -111t98 -293q0 -76 -19 -131h-610q6 -143 71.5 -228t182.5 -85zM268 567h443q2 14 2 39q0 93 -56 155t-149 62
q-101 0 -164 -66.5t-76 -189.5zM752 1083h-138l-213 299h224zM451 1083h-146l-235 299h231z" />
    <glyph glyph-name="Ainvertedbreve" unicode="&#x202;" horiz-adv-x="1165" 
d="M942 0l-117 330h-493l-115 -330h-197l441 1206h248l436 -1206h-203zM481 758l-96 -273h385l-92 271q-30 84 -53.5 163t-32.5 117l-8 37h-9q-28 -127 -94 -315zM578 1608q133 0 205.5 -73t72.5 -198h-145q-5 67 -35.5 101.5t-97.5 34.5t-97 -34.5t-35 -101.5h-145
q0 125 72.5 198t204.5 73z" />
    <glyph glyph-name="ainvertedbreve" unicode="&#x203;" horiz-adv-x="980" 
d="M625 285v137q-188 4 -276.5 -38t-88.5 -132q0 -61 39.5 -99t112.5 -38q81 0 147 46t66 124zM811 678v-455q0 -88 70 -88q30 0 53 10v-143q-43 -16 -100 -16q-172 0 -195 151q-67 -162 -281 -162q-127 0 -204.5 68.5t-77.5 187.5q0 338 549 312v116q0 162 -170 162
q-77 0 -121.5 -39t-50.5 -112l-177 26q5 72 38 126.5t85 85.5t113 46t129 15q72 0 131 -15.5t107.5 -48.5t75 -90.5t26.5 -136.5zM471 1376q133 0 206 -78.5t73 -210.5h-146q-5 75 -33.5 113.5t-99.5 38.5q-72 0 -100 -38t-33 -114h-145q0 132 73 210.5t205 78.5z" />
    <glyph glyph-name="Edoublegrave" unicode="&#x204;" horiz-adv-x="1015" 
d="M913 164v-164h-743v1206h743v-164h-555v-356h492v-164h-492v-358h555zM778 1337h-137l-213 252h223zM477 1337h-145l-236 252h232z" />
    <glyph glyph-name="Einvertedbreve" unicode="&#x206;" horiz-adv-x="1015" 
d="M913 164v-164h-743v1206h743v-164h-555v-356h492v-164h-492v-358h555zM526 1612q133 0 206 -73t73 -198h-146q-5 67 -35.5 101.5t-97.5 34.5t-96.5 -34.5t-34.5 -101.5h-145q0 125 72 198t204 73z" />
    <glyph glyph-name="einvertedbreve" unicode="&#x207;" horiz-adv-x="978" 
d="M518 121q81 0 132 35.5t75 117.5l162 -43q-28 -134 -130 -195t-249 -61q-193 0 -307.5 129t-114.5 361q0 236 116.5 370t315.5 134q179 0 277 -111t98 -293q0 -76 -19 -131h-610q6 -143 71.5 -228t182.5 -85zM268 567h443q2 14 2 39q0 93 -56 155t-149 62
q-101 0 -164 -66.5t-76 -189.5zM514 1376q133 0 206 -78.5t73 -210.5h-146q-5 75 -33.5 113.5t-99.5 38.5q-72 0 -100 -38t-33 -114h-145q0 132 73 210.5t205 78.5z" />
    <glyph glyph-name="Idoublegrave" unicode="&#x208;" horiz-adv-x="528" 
d="M170 1206h188v-1206h-188v1206zM502 1337h-137l-213 252h223zM201 1337h-146l-235 252h231z" />
    <glyph glyph-name="idoublegrave" unicode="&#x209;" horiz-adv-x="479" 
d="M147 946h185v-946h-185v946zM475 1083h-137l-213 299h223zM174 1083h-145l-236 299h232z" />
    <glyph glyph-name="Iinvertedbreve" unicode="&#x20a;" horiz-adv-x="528" 
d="M170 1206h188v-1206h-188v1206zM264 1612q133 0 206 -73t73 -198h-146q-5 67 -35.5 101.5t-97.5 34.5t-96.5 -34.5t-34.5 -101.5h-145q0 125 72 198t204 73z" />
    <glyph glyph-name="iinvertedbreve" unicode="&#x20b;" horiz-adv-x="479" 
d="M147 946h185v-946h-185v946zM240 1376q132 0 205 -78.5t73 -210.5h-145q-5 75 -33.5 113.5t-99.5 38.5q-73 0 -101 -38t-33 -114h-145q0 132 73 210.5t206 78.5z" />
    <glyph glyph-name="Odoublegrave" unicode="&#x20c;" horiz-adv-x="1267" 
d="M635 -25q-252 0 -398.5 165t-146.5 462q0 299 146.5 464t398.5 165t397.5 -165t145.5 -464q0 -298 -145.5 -462.5t-397.5 -164.5zM635 1065q-168 0 -257 -122.5t-89 -340.5q0 -219 89 -341t257 -122t256 121.5t88 341.5q0 218 -88.5 340.5t-255.5 122.5zM870 1337h-137
l-213 252h223zM569 1337h-145l-236 252h232z" />
    <glyph glyph-name="odoublegrave" unicode="&#x20d;" horiz-adv-x="1034" 
d="M516 -25q-198 0 -314 132t-116 372q0 237 115.5 363.5t314.5 126.5q201 0 316.5 -126.5t115.5 -363.5q0 -240 -116.5 -372t-315.5 -132zM516 819q-248 0 -248 -342q0 -356 248 -356q250 0 250 356q0 342 -250 342zM752 1083h-138l-213 299h224zM451 1083h-146l-235 299
h231z" />
    <glyph glyph-name="Oinvertedbreve" unicode="&#x20e;" horiz-adv-x="1267" 
d="M635 -25q-252 0 -398.5 165t-146.5 462q0 299 146.5 464t398.5 165t397.5 -165t145.5 -464q0 -298 -145.5 -462.5t-397.5 -164.5zM635 1065q-168 0 -257 -122.5t-89 -340.5q0 -219 89 -341t257 -122t256 121.5t88 341.5q0 218 -88.5 340.5t-255.5 122.5zM635 1612
q133 0 205.5 -73t72.5 -198h-145q-5 67 -35.5 101.5t-97.5 34.5t-96.5 -34.5t-34.5 -101.5h-146q0 125 72.5 198t204.5 73z" />
    <glyph glyph-name="oinvertedbreve" unicode="&#x20f;" horiz-adv-x="1034" 
d="M516 -25q-198 0 -314 132t-116 372q0 237 115.5 363.5t314.5 126.5q201 0 316.5 -126.5t115.5 -363.5q0 -240 -116.5 -372t-315.5 -132zM516 819q-248 0 -248 -342q0 -356 248 -356q250 0 250 356q0 342 -250 342zM518 1376q133 0 206 -78.5t73 -210.5h-146
q-5 75 -33.5 113.5t-99.5 38.5q-72 0 -100 -38t-33 -114h-145q0 132 73 210.5t205 78.5z" />
    <glyph glyph-name="Rinvertedbreve" unicode="&#x212;" horiz-adv-x="1126" 
d="M1055 0h-207q-38 43 -53 113l-50 209q-25 100 -76.5 133.5t-148.5 33.5h-162v-489h-188v1206h418q411 0 411 -344q0 -137 -79 -215t-199 -84v-6q88 -11 136.5 -54t72.5 -138l61 -238q22 -77 64 -127zM358 1049v-402h222q114 0 168.5 49t54.5 152q0 96 -55.5 148.5
t-165.5 52.5h-224zM535 1612q133 0 205.5 -73t72.5 -198h-145q-5 67 -35.5 101.5t-97.5 34.5t-97 -34.5t-35 -101.5h-145q0 125 72.5 198t204.5 73z" />
    <glyph glyph-name="rinvertedbreve" unicode="&#x213;" horiz-adv-x="729" 
d="M692 967l-14 -207q-46 8 -84 8q-106 0 -184 -78.5t-78 -210.5v-479h-185v946h156l23 -256q29 134 121.5 209t244.5 68zM420 1376q132 0 205 -78.5t73 -210.5h-145q-5 75 -33.5 113.5t-99.5 38.5q-72 0 -100 -38t-33 -114h-146q0 132 73 210.5t206 78.5z" />
    <glyph glyph-name="Udoublegrave" unicode="&#x214;" horiz-adv-x="1191" 
d="M870 1206h191v-811q0 -91 -26 -163.5t-69.5 -120t-104 -78.5t-126 -44.5t-139.5 -13.5q-94 0 -174 22.5t-147 69.5t-105.5 131t-38.5 197v811h188v-762q0 -313 277 -313q274 0 274 309v766zM831 1337h-137l-213 252h224zM530 1337h-145l-235 252h231z" />
    <glyph glyph-name="udoublegrave" unicode="&#x215;" horiz-adv-x="1040" 
d="M735 0l-22 172q-33 -103 -105 -150t-186 -47q-136 0 -211.5 76t-75.5 238v657h184v-629q0 -105 41 -154.5t129 -49.5q85 0 152.5 73t67.5 201v559h184v-946h-158zM750 1083h-138l-213 299h224zM449 1083h-146l-235 299h231z" />
    <glyph glyph-name="Uinvertedbreve" unicode="&#x216;" horiz-adv-x="1191" 
d="M870 1206h191v-811q0 -91 -26 -163.5t-69.5 -120t-104 -78.5t-126 -44.5t-139.5 -13.5q-94 0 -174 22.5t-147 69.5t-105.5 131t-38.5 197v811h188v-762q0 -313 277 -313q274 0 274 309v766zM594 1612q133 0 205.5 -73t72.5 -198h-145q-5 67 -35.5 101.5t-97.5 34.5
t-96.5 -34.5t-34.5 -101.5h-146q0 125 72.5 198t204.5 73z" />
    <glyph glyph-name="uinvertedbreve" unicode="&#x217;" horiz-adv-x="1040" 
d="M735 0l-22 172q-33 -103 -105 -150t-186 -47q-136 0 -211.5 76t-75.5 238v657h184v-629q0 -105 41 -154.5t129 -49.5q85 0 152.5 73t67.5 201v559h184v-946h-158zM514 1376q133 0 206 -78.5t73 -210.5h-146q-5 75 -33.5 113.5t-99.5 38.5q-72 0 -100 -38t-33 -114h-145
q0 132 73 210.5t205 78.5z" />
    <glyph glyph-name="Scommaaccent" unicode="&#x218;" horiz-adv-x="978" 
d="M57 289l176 47q18 -107 84.5 -161t167.5 -54q99 0 158 44.5t59 127.5q0 80 -51 128t-198 103q-65 23 -110 42.5t-94.5 51t-79.5 67t-49.5 88.5t-19.5 118q0 73 22 132t59 97.5t87.5 64.5t104 37t112.5 11q85 0 154.5 -17.5t125 -54.5t89.5 -99.5t41 -146.5l-186 -36
q-9 97 -69 149.5t-153 52.5q-87 0 -140.5 -45.5t-53.5 -128.5q0 -36 12.5 -64.5t31 -48.5t56 -40.5t71.5 -34t93 -35.5q65 -24 107 -43t90 -50.5t76 -67t46.5 -88.5t18.5 -118q0 -87 -33 -153.5t-91 -107t-132.5 -61t-163.5 -20.5q-181 0 -285 76t-133 238zM645 -291
q0 -113 -62.5 -164t-185.5 -51v76q64 3 93.5 22t29.5 66q-55 -9 -90 18t-35 78q0 52 32 80.5t85 28.5q56 0 94.5 -42t38.5 -112z" />
    <glyph glyph-name="scommaaccent" unicode="&#x219;" horiz-adv-x="858" 
d="M55 213l164 49q20 -156 205 -156q85 0 136.5 32.5t51.5 94.5q0 60 -32 94.5t-115 55.5l-139 33q-126 30 -182 95.5t-56 172.5q0 62 20 111.5t53.5 81.5t80 53t96.5 30t106 9q155 0 241 -61t99 -195l-180 -21q-9 137 -172 137q-78 0 -122 -33.5t-44 -93.5q0 -54 28 -85
t101 -48l131 -30q132 -32 197 -98.5t65 -186.5q0 -144 -99.5 -211.5t-266.5 -67.5q-166 0 -256.5 56t-110.5 182zM571 -291q0 -113 -62 -164t-185 -51v76q64 3 93 22t29 66q-55 -9 -89.5 18t-34.5 78q0 52 31.5 80.5t84.5 28.5q56 0 94.5 -42t38.5 -112z" />
    <glyph glyph-name="Hcaron" unicode="&#x21e;" horiz-adv-x="1292" 
d="M358 0h-188v1206h188v-512h576v512h188v-1206h-188v530h-576v-530zM702 1329h-114l-254 264h196l66 -67q17 -18 29 -35.5t15 -26.5l3 -8h6q8 29 47 70l64 67h198z" />
    <glyph glyph-name="hcaron" unicode="&#x21f;" horiz-adv-x="1042" 
d="M332 1368v-602q68 203 286 203q126 0 206.5 -73t80.5 -220v-676h-184v623q0 88 -41.5 137t-124.5 49q-98 0 -160.5 -61.5t-62.5 -204.5v-543h-185v1368h185zM297 1452h-115l-254 264h197l65 -67q17 -18 29 -35.5t15 -25.5l4 -9h6q8 29 47 70l63 67h199z" />
    <glyph glyph-name="Adotabove" unicode="&#x226;" horiz-adv-x="1165" 
d="M942 0l-117 330h-493l-115 -330h-197l441 1206h248l436 -1206h-203zM481 758l-96 -273h385l-92 271q-30 84 -53.5 163t-32.5 117l-8 37h-9q-28 -127 -94 -315zM455 1460q0 54 35.5 88.5t87.5 34.5q55 0 91 -34t36 -89q0 -52 -36.5 -87.5t-90.5 -35.5q-51 0 -87 35.5
t-36 87.5z" />
    <glyph glyph-name="adotabove" unicode="&#x227;" horiz-adv-x="980" 
d="M625 285v137q-188 4 -276.5 -38t-88.5 -132q0 -61 39.5 -99t112.5 -38q81 0 147 46t66 124zM811 678v-455q0 -88 70 -88q30 0 53 10v-143q-43 -16 -100 -16q-172 0 -195 151q-67 -162 -281 -162q-127 0 -204.5 68.5t-77.5 187.5q0 338 549 312v116q0 162 -170 162
q-77 0 -121.5 -39t-50.5 -112l-177 26q5 72 38 126.5t85 85.5t113 46t129 15q72 0 131 -15.5t107.5 -48.5t75 -90.5t26.5 -136.5zM340 1221q0 53 35.5 87.5t87.5 34.5q55 0 91 -34t36 -88q0 -52 -36.5 -87.5t-90.5 -35.5q-51 0 -87 35.5t-36 87.5z" />
    <glyph glyph-name="Otildemacron" unicode="&#x22c;" horiz-adv-x="1267" 
d="M635 -25q-252 0 -398.5 165t-146.5 462q0 299 146.5 464t398.5 165t397.5 -165t145.5 -464q0 -298 -145.5 -462.5t-397.5 -164.5zM635 1065q-168 0 -257 -122.5t-89 -340.5q0 -219 89 -341t257 -122t256 121.5t88 341.5q0 218 -88.5 340.5t-255.5 122.5zM776 1288
q-12 0 -23 1t-19.5 2.5t-18.5 5t-16.5 5.5t-17.5 7.5l-16 8t-18 9.5t-18 10q-10 5 -29.5 16.5t-27 15.5t-20.5 10t-23.5 8t-22.5 2q-73 0 -62 -97h-112q-39 99 6.5 178.5t144.5 79.5q49 0 82.5 -12.5t79.5 -40.5q46 -29 67.5 -39t45.5 -10q67 0 59 100h117
q37 -109 -7 -184.5t-151 -75.5zM905 1640h-540v146h540v-146z" />
    <glyph glyph-name="otildemacron" unicode="&#x22d;" horiz-adv-x="1034" 
d="M516 -25q-198 0 -314 132t-116 372q0 237 115.5 363.5t314.5 126.5q201 0 316.5 -126.5t115.5 -363.5q0 -240 -116.5 -372t-315.5 -132zM516 819q-248 0 -248 -342q0 -356 248 -356q250 0 250 356q0 342 -250 342zM659 1047q-30 0 -57.5 7.5t-40 14t-49.5 25.5
q-4 2 -11 6q-63 39 -92 43l-20 2q-72 0 -61 -96h-113q-38 100 7.5 177t144.5 77q34 0 64.5 -9t46 -17.5t50.5 -29.5q47 -28 68 -37.5t45 -9.5q67 0 59 100h117q37 -108 -6.5 -180.5t-151.5 -72.5zM786 1397h-536v149h536v-149z" />
    <glyph glyph-name="Odotabove" unicode="&#x22e;" horiz-adv-x="1267" 
d="M635 -25q-252 0 -398.5 165t-146.5 462q0 299 146.5 464t398.5 165t397.5 -165t145.5 -464q0 -298 -145.5 -462.5t-397.5 -164.5zM635 1065q-168 0 -257 -122.5t-89 -340.5q0 -219 89 -341t257 -122t256 121.5t88 341.5q0 218 -88.5 340.5t-255.5 122.5zM510 1460
q0 54 35.5 88.5t87.5 34.5q55 0 91 -34t36 -89q0 -52 -36.5 -87.5t-90.5 -35.5q-51 0 -87 35.5t-36 87.5z" />
    <glyph glyph-name="odotabove" unicode="&#x22f;" horiz-adv-x="1034" 
d="M516 -25q-198 0 -314 132t-116 372q0 237 115.5 363.5t314.5 126.5q201 0 316.5 -126.5t115.5 -363.5q0 -240 -116.5 -372t-315.5 -132zM516 819q-248 0 -248 -342q0 -356 248 -356q250 0 250 356q0 342 -250 342zM391 1219q0 53 35.5 87.5t87.5 34.5q55 0 91 -34t36 -88
q0 -52 -36.5 -87.5t-90.5 -35.5q-51 0 -87 35.5t-36 87.5z" />
    <glyph glyph-name="odotabovemacron" unicode="&#x231;" horiz-adv-x="1034" 
d="M516 -25q-198 0 -314 132t-116 372q0 237 115.5 363.5t314.5 126.5q201 0 316.5 -126.5t115.5 -363.5q0 -240 -116.5 -372t-315.5 -132zM516 819q-248 0 -248 -342q0 -356 248 -356q250 0 250 356q0 342 -250 342zM786 1397h-536v149h536v-149zM391 1188q0 53 35.5 88
t87.5 35q54 0 90.5 -34.5t36.5 -88.5q0 -52 -36.5 -87.5t-90.5 -35.5q-51 0 -87 35.5t-36 87.5z" />
    <glyph glyph-name="odotabovemacron" unicode="&#xe11e;" horiz-adv-x="1034" 
d="M516 -25q-198 0 -314 132t-116 372q0 237 115.5 363.5t314.5 126.5q201 0 316.5 -126.5t115.5 -363.5q0 -240 -116.5 -372t-315.5 -132zM516 819q-248 0 -248 -342q0 -356 248 -356q250 0 250 356q0 342 -250 342zM786 1397h-536v149h536v-149zM391 1188q0 53 35.5 88
t87.5 35q54 0 90.5 -34.5t36.5 -88.5q0 -52 -36.5 -87.5t-90.5 -35.5q-51 0 -87 35.5t-36 87.5z" />
    <glyph glyph-name="Ymacron" unicode="&#x232;" horiz-adv-x="991" 
d="M236 1206l188 -383q31 -61 52 -112t26 -72l6 -21h8q12 68 78 205l178 383h199l-369 -749v-457h-188v457l-394 749h216zM768 1380h-541v146h541v-146z" />
    <glyph glyph-name="ymacron" unicode="&#x233;" horiz-adv-x="901" 
d="M219 946l162 -520q25 -82 43.5 -156.5t24.5 -108.5l6 -34h8q17 113 72 299l157 520h193l-348 -1024q-35 -103 -76 -172t-90 -107t-100.5 -53.5t-118.5 -15.5q-71 0 -138 23l17 157q57 -28 123 -28q76 0 124 48t89 171l-351 1001h203zM731 1143h-536v149h536v-149z" />
    <glyph glyph-name="dotlessj" unicode="&#x237;" horiz-adv-x="479" 
d="M147 946h185v-960q0 -224 -114.5 -317t-336.5 -85v156q139 -12 202.5 44t63.5 193v969z" />
    <glyph glyph-name="schwa" unicode="&#x259;" horiz-adv-x="978" 
d="M463 819q-158 0 -209 -162l-162 43q28 135 131.5 202t247.5 67q193 0 307.5 -129t114.5 -361q0 -236 -114 -370t-312 -134q-180 0 -279 112t-102 300q0 61 12 117h611q-6 142 -69.5 228.5t-176.5 86.5zM705 377h-433q-2 -16 -2 -41q0 -93 56.5 -155t148.5 -62
q102 0 160 66.5t70 191.5z" />
    <glyph glyph-name="ezh" unicode="&#x292;" horiz-adv-x="808" 
d="M231 436l162 203q34 43 66.5 80t48.5 53l16 16v9q-67 -6 -190 -6h-271v155h676v-123l-340 -413v-7q158 -4 251 -105.5t93 -256.5q0 -167 -114 -261.5t-293 -94.5q-147 0 -242.5 78t-116.5 208l164 47q15 -92 71.5 -140t139.5 -48q91 0 153 56.5t62 146.5q0 113 -79.5 188
t-256.5 96v119z" />
    <glyph glyph-name="circumflex" unicode="&#x2c6;" horiz-adv-x="948" 
d="M420 1382h108l256 -301h-188l-70 86q-17 21 -29 40.5t-15 28.5l-3 9h-10q-8 -31 -47 -78l-70 -86h-188z" />
    <glyph glyph-name="caron" unicode="&#x2c7;" horiz-adv-x="948" 
d="M528 1081h-108l-256 301h188l70 -88q17 -21 29 -40t15 -28l3 -9h10q8 30 47 77l70 88h188z" />
    <glyph glyph-name="breve" unicode="&#x2d8;" horiz-adv-x="884" 
d="M442 1077q-132 0 -205 78.5t-73 210.5h145q5 -76 33 -114t100 -38q71 0 99.5 38.5t33.5 113.5h146q0 -132 -73 -210.5t-206 -78.5z" />
    <glyph glyph-name="dotaccent" unicode="&#x2d9;" horiz-adv-x="577" 
d="M164 1247q0 53 35.5 88t87.5 35q54 0 90.5 -34.5t36.5 -88.5q0 -52 -36.5 -87.5t-90.5 -35.5q-51 0 -87 35.5t-36 87.5z" />
    <glyph glyph-name="ring" unicode="&#x2da;" horiz-adv-x="749" 
d="M375 1065q-98 0 -154.5 58t-56.5 147q0 82 59 139t152 57t152 -57t59 -139q0 -89 -56.5 -147t-154.5 -58zM375 1380q-52 0 -82.5 -31.5t-30.5 -82.5q0 -49 29.5 -79t83.5 -30t83 30t29 79q0 52 -30 83t-82 31z" />
    <glyph glyph-name="ogonek" unicode="&#x2db;" horiz-adv-x="786" 
d="M127 -217q0 60 24 110t60 82t82.5 56t87.5 35t78 14l59 -80q-54 0 -104 -19.5t-86.5 -64.5t-36.5 -106q0 -55 27 -86t79 -31q92 0 144 86l59 -90q-71 -121 -235 -121q-108 0 -173 55.5t-65 159.5z" />
    <glyph glyph-name="tilde" unicode="&#x2dc;" horiz-adv-x="966" 
d="M627 1083q-30 0 -57.5 7.5t-41 14t-49.5 25.5q-5 3 -17 10.5t-16 9.5t-14 8t-14 7.5t-12 5.5t-12.5 5t-11.5 3t-13 2.5t-13 0.5q-72 0 -61 -97h-113q-38 100 7.5 177t144.5 77q34 0 64.5 -8.5t47.5 -17.5t50 -29q35 -21 47.5 -28t30 -13t34.5 -6q68 0 60 100h116
q37 -109 -6.5 -181.5t-150.5 -72.5z" />
    <glyph glyph-name="hungarumlaut" unicode="&#x2dd;" horiz-adv-x="1009" 
d="M301 1083h-137l127 299h223zM608 1083h-145l151 299h232z" />
    <glyph glyph-name="uni0312" unicode="&#x312;" horiz-adv-x="577" 
d="M164 1489q0 113 62.5 164t185.5 51v-76q-64 -3 -93.5 -22t-29.5 -66q55 9 90 -18t35 -78t-32.5 -80t-84.5 -29q-56 0 -94.5 42t-38.5 112z" />
    <glyph glyph-name="uni0320" unicode="&#x320;" horiz-adv-x="864" 
d="M700 -373h-536v148h536v-148z" />
    <glyph glyph-name="uni0323" unicode="&#x323;" horiz-adv-x="577" 
d="M164 -244q0 54 35.5 88.5t87.5 34.5q54 0 90.5 -34.5t36.5 -88.5q0 -52 -37 -87.5t-90 -35.5q-51 0 -87 35.5t-36 87.5z" />
    <glyph glyph-name="uni0329" unicode="&#x329;" horiz-adv-x="495" 
d="M164 -403v294h168v-284z" />
    <glyph glyph-name="pi" unicode="&#x3c0;" horiz-adv-x="1308" 
d="M342 985h844v-147h-219v-594q0 -62 18 -90.5t59 -28.5q39 0 62 22.5t47 69.5l94 -94q-40 -78 -94 -113t-145 -35q-113 0 -170.5 59t-57.5 185v619h-243l-91 -838h-186l100 838h-26q-159 0 -162 -187h-152q0 160 81 247t241 87z" />
    <glyph glyph-name="uni0E3F" unicode="&#xe3f;" horiz-adv-x="1101" 
d="M502 -217v217h-322v985h322v191h102v-191h21q156 0 246 -65t90 -187q0 -189 -185 -223v-8q103 -6 165.5 -70.5t62.5 -159.5q0 -272 -369 -272h-31v-217h-102zM635 428h-31v-285h17q101 0 149.5 32t48.5 114q0 139 -184 139zM780 705q0 68 -48.5 102.5t-127.5 36.5v-277
h10q166 0 166 138zM367 428v-285h135v285h-135zM367 567h135v277h-135v-277z" />
    <glyph glyph-name="Ddotbelow" unicode="&#x1e0c;" horiz-adv-x="1216" 
d="M358 158h162q189 0 298.5 109t109.5 341q0 99 -20.5 175.5t-55 126t-85 81.5t-106 45t-122.5 13h-181v-891zM539 0h-369v1206h375q104 0 190.5 -20.5t159.5 -65.5t124 -113t79 -167t28 -224q0 -130 -30.5 -234.5t-83.5 -175t-127.5 -117.5t-160.5 -68t-185 -21zM418 -285
q0 53 35.5 88t87.5 35q54 0 90.5 -34.5t36.5 -88.5q0 -52 -36.5 -87.5t-90.5 -35.5q-51 0 -87 35.5t-36 87.5z" />
    <glyph glyph-name="ddotbelow" unicode="&#x1e0d;" 
d="M762 377v209q0 60 -21.5 107.5t-56 75.5t-75 42t-83.5 14q-114 0 -184 -87t-70 -275q0 -165 67.5 -253.5t184.5 -88.5q55 0 108 27t91.5 87.5t38.5 141.5zM760 819v549h186v-1368h-164l-20 164q-70 -189 -301 -189q-158 0 -266.5 127t-108.5 355q0 242 111 377t313 135
q89 0 159 -43.5t91 -106.5zM391 -285q0 53 35.5 88t87.5 35q54 0 90.5 -34.5t36.5 -88.5q0 -52 -36.5 -87.5t-90.5 -35.5q-51 0 -87 35.5t-36 87.5z" />
    <glyph glyph-name="Dcedilla" unicode="&#x1e10;" horiz-adv-x="1216" 
d="M739 -254q0 -87 -60.5 -132.5t-154.5 -45.5q-125 0 -184 78l49 104q53 -74 129 -74q35 0 54.5 18t19.5 52q0 83 -135 86l12 168h-299v1206h375q104 0 190.5 -20.5t159.5 -65.5t124 -113t79 -167t28 -224q0 -158 -43.5 -277.5t-122 -191t-178 -108t-219.5 -39.5l-4 -84
q180 -14 180 -170zM358 158h162q189 0 298.5 109t109.5 341q0 99 -20.5 175.5t-55 126t-85 81.5t-106 45t-122.5 13h-181v-891z" />
    <glyph glyph-name="dcedilla" unicode="&#x1e11;" 
d="M713 -254q0 -87 -60.5 -132.5t-154.5 -45.5q-126 0 -185 78l49 104q53 -74 130 -74q73 0 73 70q0 83 -135 86l10 143q-151 8 -252.5 134.5t-101.5 347.5q0 242 111 377t313 135q89 0 159 -43.5t91 -106.5v549h186v-1368h-164l-20 164q-58 -159 -225 -182l-5 -66
q181 -14 181 -170zM762 377v209q0 60 -21.5 107.5t-56 75.5t-75 42t-83.5 14q-114 0 -184 -87t-70 -275q0 -165 67.5 -253.5t184.5 -88.5q55 0 108 27t91.5 87.5t38.5 141.5z" />
    <glyph glyph-name="Hdotbelow" unicode="&#x1e24;" horiz-adv-x="1292" 
d="M358 0h-188v1206h188v-512h576v512h188v-1206h-188v530h-576v-530zM520 -285q0 53 35.5 88t87.5 35q54 0 90.5 -34.5t36.5 -88.5q0 -52 -36.5 -87.5t-90.5 -35.5q-51 0 -87 35.5t-36 87.5z" />
    <glyph glyph-name="hdotbelow" unicode="&#x1e25;" horiz-adv-x="1042" 
d="M332 1368v-602q68 203 286 203q126 0 206.5 -73t80.5 -220v-676h-184v623q0 88 -41.5 137t-124.5 49q-98 0 -160.5 -61.5t-62.5 -204.5v-543h-185v1368h185zM401 -285q0 53 35.5 88t87.5 35q54 0 90.5 -34.5t36.5 -88.5q0 -52 -36.5 -87.5t-90.5 -35.5q-51 0 -87 35.5
t-36 87.5z" />
    <glyph glyph-name="Ldotbelow" unicode="&#x1e36;" horiz-adv-x="944" 
d="M170 1206h188v-1042h541v-164h-729v1206zM410 -285q0 53 35 88t87 35q54 0 90.5 -34.5t36.5 -88.5q0 -52 -36.5 -87.5t-90.5 -35.5q-51 0 -86.5 35.5t-35.5 87.5z" />
    <glyph glyph-name="ldotbelow" unicode="&#x1e37;" horiz-adv-x="534" 
d="M469 154l-2 -154q-65 -16 -115 -16q-95 0 -156 51.5t-61 152.5v1180h184v-1141q0 -42 22.5 -63t61.5 -21q29 0 66 11zM176 -285q0 53 35.5 88t87.5 35q54 0 90.5 -34.5t36.5 -88.5q0 -52 -36.5 -87.5t-90.5 -35.5q-51 0 -87 35.5t-36 87.5z" />
    <glyph glyph-name="uni004C032300AF" unicode="&#x1e38;" horiz-adv-x="944" 
d="M170 1206h188v-1042h541v-164h-729v1206zM410 -285q0 53 35 88t87 35q54 0 90.5 -34.5t36.5 -88.5q0 -52 -36.5 -87.5t-90.5 -35.5q-51 0 -86.5 35.5t-35.5 87.5zM571 1380h-540v146h540v-146z" />
    <glyph glyph-name="ldotbelowmacron" unicode="&#x1e39;" horiz-adv-x="534" 
d="M469 154l-2 -154q-65 -16 -115 -16q-95 0 -156 51.5t-61 152.5v1180h184v-1141q0 -42 22.5 -63t61.5 -21q29 0 66 11zM176 -285q0 53 35.5 88t87.5 35q54 0 90.5 -34.5t36.5 -88.5q0 -52 -36.5 -87.5t-90.5 -35.5q-51 0 -87 35.5t-36 87.5zM506 1518h-541v145h541v-145z
" />
    <glyph glyph-name="Mdotbelow" unicode="&#x1e42;" horiz-adv-x="1472" 
d="M799 295h-125l-228 418q-31 58 -53.5 110t-29.5 75l-7 22h-8q10 -75 10 -218v-702h-188v1206h219l287 -557q21 -41 36 -77.5t20 -53.5l5 -16h8q13 55 62 147l285 557h211v-1206h-191v702q0 64 3 118.5t6 77.5l3 22h-8q-20 -76 -92 -207zM610 -285q0 53 35.5 88t87.5 35
q54 0 90.5 -34.5t36.5 -88.5q0 -52 -36.5 -87.5t-90.5 -35.5q-51 0 -87 35.5t-36 87.5z" />
    <glyph glyph-name="mdotbelow" unicode="&#x1e43;" horiz-adv-x="1583" 
d="M868 760q33 108 113.5 158.5t183.5 50.5q127 0 204 -71t77 -214v-684h-184v623q0 89 -40 137.5t-118 48.5q-90 0 -152.5 -66.5t-62.5 -199.5v-543h-184v623q0 89 -40 137.5t-118 48.5q-88 0 -151.5 -67t-63.5 -199v-543h-185v946h146l22 -182q35 104 113.5 154.5
t181.5 50.5q223 0 258 -209zM672 -285q0 53 35.5 88t87.5 35q54 0 90.5 -34.5t36.5 -88.5q0 -52 -36.5 -87.5t-90.5 -35.5q-51 0 -87 35.5t-36 87.5z" />
    <glyph glyph-name="Ndotaccent" unicode="&#x1e44;" horiz-adv-x="1331" 
d="M362 1206l476 -690q32 -47 66.5 -104.5t52.5 -91.5l18 -33h8q-10 128 -10 280v639h188v-1206h-186l-481 688q-34 48 -69 106.5t-53 93.5l-18 34h-8q12 -129 12 -285v-637h-188v1206h192zM541 1458q0 54 35.5 88.5t87.5 34.5q55 0 91 -34t36 -89q0 -52 -36.5 -87.5
t-90.5 -35.5q-51 0 -87 35.5t-36 87.5z" />
    <glyph glyph-name="ndotaccent" unicode="&#x1e45;" horiz-adv-x="1042" 
d="M293 946l22 -182q74 205 303 205q126 0 206.5 -73t80.5 -220v-676h-184v621q0 90 -41.5 139t-124.5 49q-98 0 -160.5 -62t-62.5 -204v-543h-185v946h146zM412 1221q0 53 35.5 87.5t87.5 34.5q55 0 91 -34t36 -88q0 -52 -36.5 -87.5t-90.5 -35.5q-51 0 -87 35.5t-36 87.5z
" />
    <glyph glyph-name="Ndotbelow" unicode="&#x1e46;" horiz-adv-x="1331" 
d="M362 1206l476 -690q32 -47 66.5 -104.5t52.5 -91.5l18 -33h8q-10 128 -10 280v639h188v-1206h-186l-481 688q-34 48 -69 106.5t-53 93.5l-18 34h-8q12 -129 12 -285v-637h-188v1206h192zM541 -285q0 53 35.5 88t87.5 35q54 0 90.5 -34.5t36.5 -88.5q0 -52 -36.5 -87.5
t-90.5 -35.5q-51 0 -87 35.5t-36 87.5z" />
    <glyph glyph-name="ndotbelow" unicode="&#x1e47;" horiz-adv-x="1042" 
d="M293 946l22 -182q74 205 303 205q126 0 206.5 -73t80.5 -220v-676h-184v621q0 90 -41.5 139t-124.5 49q-98 0 -160.5 -62t-62.5 -204v-543h-185v946h146zM408 -285q0 53 35 88t87 35q54 0 90.5 -34.5t36.5 -88.5q0 -52 -36.5 -87.5t-90.5 -35.5q-51 0 -86.5 35.5
t-35.5 87.5z" />
    <glyph glyph-name="Rdotbelow" unicode="&#x1e5a;" horiz-adv-x="1126" 
d="M1055 0h-207q-38 43 -53 113l-50 209q-25 100 -76.5 133.5t-148.5 33.5h-162v-489h-188v1206h418q411 0 411 -344q0 -137 -79 -215t-199 -84v-6q88 -11 136.5 -54t72.5 -138l61 -238q22 -77 64 -127zM358 1049v-402h222q114 0 168.5 49t54.5 152q0 96 -55.5 148.5
t-165.5 52.5h-224zM410 -285q0 53 35 88t87 35q54 0 90.5 -34.5t36.5 -88.5q0 -52 -36.5 -87.5t-90.5 -35.5q-51 0 -86.5 35.5t-35.5 87.5z" />
    <glyph glyph-name="rdotbelow" unicode="&#x1e5b;" horiz-adv-x="729" 
d="M692 967l-14 -207q-46 8 -84 8q-106 0 -184 -78.5t-78 -210.5v-479h-185v946h156l23 -256q29 134 121.5 209t244.5 68zM113 -285q0 53 35.5 88t87.5 35q54 0 90 -34.5t36 -88.5q0 -53 -36 -88t-90 -35q-51 0 -87 35.5t-36 87.5z" />
    <glyph glyph-name="Rdotbelowmacron" unicode="&#x1e5c;" horiz-adv-x="1126" 
d="M1055 0h-207q-38 43 -53 113l-50 209q-25 100 -76.5 133.5t-148.5 33.5h-162v-489h-188v1206h418q411 0 411 -344q0 -137 -79 -215t-199 -84v-6q88 -11 136.5 -54t72.5 -138l61 -238q22 -77 64 -127zM358 1049v-402h222q114 0 168.5 49t54.5 152q0 96 -55.5 148.5
t-165.5 52.5h-224zM410 -285q0 53 35 88t87 35q54 0 90.5 -34.5t36.5 -88.5q0 -52 -36.5 -87.5t-90.5 -35.5q-51 0 -86.5 35.5t-35.5 87.5zM807 1380h-541v146h541v-146z" />
    <glyph glyph-name="rdotbelowmacron" unicode="&#x1e5d;" horiz-adv-x="729" 
d="M692 967l-14 -207q-46 8 -84 8q-106 0 -184 -78.5t-78 -210.5v-479h-185v946h156l23 -256q29 134 121.5 209t244.5 68zM688 1143h-536v149h536v-149zM113 -285q0 53 35.5 88t87.5 35q54 0 90 -34.5t36 -88.5q0 -53 -36 -88t-90 -35q-51 0 -87 35.5t-36 87.5z" />
    <glyph glyph-name="Sdotbelow" unicode="&#x1e62;" horiz-adv-x="978" 
d="M57 289l176 47q18 -107 84.5 -161t167.5 -54q99 0 158 44.5t59 127.5q0 80 -51 128t-198 103q-65 23 -110 42.5t-94.5 51t-79.5 67t-49.5 88.5t-19.5 118q0 73 22 132t59 97.5t87.5 64.5t104 37t112.5 11q85 0 154.5 -17.5t125 -54.5t89.5 -99.5t41 -146.5l-186 -36
q-9 97 -69 149.5t-153 52.5q-87 0 -140.5 -45.5t-53.5 -128.5q0 -36 12.5 -64.5t31 -48.5t56 -40.5t71.5 -34t93 -35.5q65 -24 107 -43t90 -50.5t76 -67t46.5 -88.5t18.5 -118q0 -87 -33 -153.5t-91 -107t-132.5 -61t-163.5 -20.5q-181 0 -285 76t-133 238zM375 -285
q0 53 35.5 88t87.5 35q54 0 90.5 -34.5t36.5 -88.5q0 -52 -36.5 -87.5t-90.5 -35.5q-51 0 -87 35.5t-36 87.5z" />
    <glyph glyph-name="sdotbelow" unicode="&#x1e63;" horiz-adv-x="858" 
d="M55 213l164 49q20 -156 205 -156q85 0 136.5 32.5t51.5 94.5q0 60 -32 94.5t-115 55.5l-139 33q-126 30 -182 95.5t-56 172.5q0 62 20 111.5t53.5 81.5t80 53t96.5 30t106 9q155 0 241 -61t99 -195l-180 -21q-9 137 -172 137q-78 0 -122 -33.5t-44 -93.5q0 -54 28 -85
t101 -48l131 -30q132 -32 197 -98.5t65 -186.5q0 -144 -99.5 -211.5t-266.5 -67.5q-166 0 -256.5 56t-110.5 182zM322 -285q0 53 35 88t87 35q54 0 90.5 -34.5t36.5 -88.5q0 -52 -36.5 -87.5t-90.5 -35.5q-51 0 -86.5 35.5t-35.5 87.5z" />
    <glyph glyph-name="Tdotbelow" unicode="&#x1e6c;" horiz-adv-x="933" 
d="M561 0h-190v1042h-351v164h893v-164h-352v-1042zM342 -285q0 53 35.5 88t87.5 35q54 0 90.5 -34.5t36.5 -88.5q0 -52 -36.5 -87.5t-90.5 -35.5q-51 0 -87 35.5t-36 87.5z" />
    <glyph glyph-name="tdotbelow" unicode="&#x1e6d;" horiz-adv-x="690" 
d="M625 184l34 -153q-92 -56 -229 -56q-129 0 -200.5 68.5t-71.5 198.5v557h-138v147h138v201l186 22v-223h281v-147h-283v-520q0 -146 125 -146q81 0 158 51zM254 -285q0 53 35.5 88t87.5 35q54 0 90.5 -34.5t36.5 -88.5q0 -52 -36.5 -87.5t-90.5 -35.5q-51 0 -87 35.5
t-36 87.5z" />
    <glyph glyph-name="Wgrave" unicode="&#x1e80;" horiz-adv-x="1691" 
d="M963 1206l188 -755q21 -84 37.5 -165.5t22.5 -121.5l6 -39h8q16 140 61 324l191 757h190l-313 -1206h-269l-184 711q-22 83 -34.5 163.5t-14.5 119.5l-2 40h-8q-9 -135 -56 -323l-182 -711h-268l-311 1206h200l189 -751q20 -83 36 -165.5t22 -123.5l5 -41h8
q15 142 64 328l194 753h220zM940 1337h-170l-205 252h246z" />
    <glyph glyph-name="wgrave" unicode="&#x1e81;" horiz-adv-x="1376" 
d="M784 946l134 -491q24 -84 39.5 -164.5t19.5 -118.5l4 -39h8q6 129 53 322l127 491h187l-258 -946h-221l-125 449q-23 80 -38.5 154.5t-19.5 109.5l-4 35h-8q-10 -117 -57 -299l-119 -449h-221l-265 946h191l129 -491q23 -84 38.5 -164.5t19.5 -118.5l5 -39h9
q6 136 57 324l131 489h184zM784 1083h-163l-236 299h248z" />
    <glyph glyph-name="Wacute" unicode="&#x1e82;" horiz-adv-x="1691" 
d="M963 1206l188 -755q21 -84 37.5 -165.5t22.5 -121.5l6 -39h8q16 140 61 324l191 757h190l-313 -1206h-269l-184 711q-22 83 -34.5 163.5t-14.5 119.5l-2 40h-8q-9 -135 -56 -323l-182 -711h-268l-311 1206h200l189 -751q20 -83 36 -165.5t22 -123.5l5 -41h8
q15 142 64 328l194 753h220zM922 1337h-168l129 252h245z" />
    <glyph glyph-name="wacute" unicode="&#x1e83;" horiz-adv-x="1376" 
d="M784 946l134 -491q24 -84 39.5 -164.5t19.5 -118.5l4 -39h8q6 129 53 322l127 491h187l-258 -946h-221l-125 449q-23 80 -38.5 154.5t-19.5 109.5l-4 35h-8q-10 -117 -57 -299l-119 -449h-221l-265 946h191l129 -491q23 -84 38.5 -164.5t19.5 -118.5l5 -39h9
q6 136 57 324l131 489h184zM752 1083h-162l151 299h248z" />
    <glyph glyph-name="Wdieresis" unicode="&#x1e84;" horiz-adv-x="1691" 
d="M963 1206l188 -755q21 -84 37.5 -165.5t22.5 -121.5l6 -39h8q16 140 61 324l191 757h190l-313 -1206h-269l-184 711q-22 83 -34.5 163.5t-14.5 119.5l-2 40h-8q-9 -135 -56 -323l-182 -711h-268l-311 1206h200l189 -751q20 -83 36 -165.5t22 -123.5l5 -41h8
q15 142 64 328l194 753h220zM520 1460q0 53 35.5 88t85.5 35q52 0 87.5 -35t35.5 -88q0 -52 -35.5 -86.5t-87.5 -34.5q-50 0 -85.5 34.5t-35.5 86.5zM922 1458q0 53 35 88t85 35q53 0 88 -34.5t35 -88.5q0 -51 -35.5 -86t-87.5 -35q-50 0 -85 35t-35 86z" />
    <glyph glyph-name="wdieresis" unicode="&#x1e85;" horiz-adv-x="1376" 
d="M784 946l134 -491q24 -84 39.5 -164.5t19.5 -118.5l4 -39h8q6 129 53 322l127 491h187l-258 -946h-221l-125 449q-23 80 -38.5 154.5t-19.5 109.5l-4 35h-8q-10 -117 -57 -299l-119 -449h-221l-265 946h191l129 -491q23 -84 38.5 -164.5t19.5 -118.5l5 -39h9
q6 136 57 324l131 489h184zM362 1219q0 53 35.5 87.5t85.5 34.5q52 0 87.5 -34.5t35.5 -87.5q0 -52 -35.5 -86.5t-87.5 -34.5q-50 0 -85.5 34.5t-35.5 86.5zM764 1217q0 53 35.5 87.5t85.5 34.5q53 0 88 -34t35 -88q0 -51 -35.5 -86t-87.5 -35q-50 0 -85.5 35t-35.5 86z" />
    <glyph glyph-name="Idotbelow" unicode="&#x1eca;" horiz-adv-x="528" 
d="M170 1206h188v-1206h-188v1206zM139 -285q0 53 35.5 88t87.5 35q54 0 90.5 -34.5t36.5 -88.5q0 -52 -36.5 -87.5t-90.5 -35.5q-51 0 -87 35.5t-36 87.5z" />
    <glyph glyph-name="idotbelow" unicode="&#x1ecb;" horiz-adv-x="479" 
d="M115 1249q0 54 36 88.5t87 34.5q55 0 92 -34t37 -89q0 -52 -37.5 -87.5t-91.5 -35.5q-50 0 -86.5 35.5t-36.5 87.5zM147 946h185v-946h-185v946zM115 -285q0 53 35.5 88t87.5 35q54 0 90.5 -34.5t36.5 -88.5q0 -52 -36.5 -87.5t-90.5 -35.5q-51 0 -87 35.5t-36 87.5z" />
    <glyph glyph-name="Odotbelow" unicode="&#x1ecc;" horiz-adv-x="1267" 
d="M635 -25q-252 0 -398.5 165t-146.5 462q0 299 146.5 464t398.5 165t397.5 -165t145.5 -464q0 -298 -145.5 -462.5t-397.5 -164.5zM635 1065q-168 0 -257 -122.5t-89 -340.5q0 -219 89 -341t257 -122t256 121.5t88 341.5q0 218 -88.5 340.5t-255.5 122.5zM510 -285
q0 53 35.5 88t87.5 35q54 0 90.5 -34.5t36.5 -88.5q0 -52 -36.5 -87.5t-90.5 -35.5q-51 0 -87 35.5t-36 87.5z" />
    <glyph glyph-name="odotbelow" unicode="&#x1ecd;" horiz-adv-x="1034" 
d="M516 -25q-198 0 -314 132t-116 372q0 237 115.5 363.5t314.5 126.5q201 0 316.5 -126.5t115.5 -363.5q0 -240 -116.5 -372t-315.5 -132zM516 819q-248 0 -248 -342q0 -356 248 -356q250 0 250 356q0 342 -250 342zM391 -285q0 53 35.5 88t87.5 35q54 0 90.5 -34.5
t36.5 -88.5q0 -52 -36.5 -87.5t-90.5 -35.5q-51 0 -87 35.5t-36 87.5z" />
    <glyph glyph-name="Udotbelow" unicode="&#x1ee4;" horiz-adv-x="1191" 
d="M870 1206h191v-811q0 -91 -26 -163.5t-69.5 -120t-104 -78.5t-126 -44.5t-139.5 -13.5q-94 0 -174 22.5t-147 69.5t-105.5 131t-38.5 197v811h188v-762q0 -313 277 -313q274 0 274 309v766zM469 -285q0 53 35.5 88t87.5 35q54 0 90.5 -34.5t36.5 -88.5q0 -52 -36.5 -87.5
t-90.5 -35.5q-51 0 -87 35.5t-36 87.5z" />
    <glyph glyph-name="udotbelow" unicode="&#x1ee5;" horiz-adv-x="1040" 
d="M735 0l-22 172q-33 -103 -105 -150t-186 -47q-136 0 -211.5 76t-75.5 238v657h184v-629q0 -105 41 -154.5t129 -49.5q85 0 152.5 73t67.5 201v559h184v-946h-158zM389 -285q0 53 35.5 88t87.5 35q54 0 90.5 -34.5t36.5 -88.5q0 -52 -36.5 -87.5t-90.5 -35.5
q-51 0 -87 35.5t-36 87.5z" />
    <glyph glyph-name="Ygrave" unicode="&#x1ef2;" horiz-adv-x="991" 
d="M236 1206l188 -383q31 -61 52 -112t26 -72l6 -21h8q12 68 78 205l178 383h199l-369 -749v-457h-188v457l-394 749h216zM590 1337h-170l-205 252h246z" />
    <glyph glyph-name="ygrave" unicode="&#x1ef3;" horiz-adv-x="901" 
d="M219 946l162 -520q25 -82 43.5 -156.5t24.5 -108.5l6 -34h8q17 113 72 299l157 520h193l-348 -1024q-35 -103 -76 -172t-90 -107t-100.5 -53.5t-118.5 -15.5q-71 0 -138 23l17 157q57 -28 123 -28q76 0 124 48t89 171l-351 1001h203zM561 1083h-164l-235 299h248z" />
    <glyph glyph-name="Ytilde" unicode="&#x1ef8;" horiz-adv-x="991" 
d="M236 1206l188 -383q31 -61 52 -112t26 -72l6 -21h8q12 68 78 205l178 383h199l-369 -749v-457h-188v457l-394 749h216zM639 1337q-12 0 -23 1t-19.5 2.5t-18.5 5t-16.5 5.5t-17.5 7.5l-16 8t-18 9.5t-18 10q-10 5 -29.5 16.5t-27 15.5t-20.5 10t-23.5 8t-22.5 2
q-73 0 -62 -97h-112q-39 99 6.5 178.5t144.5 79.5q49 0 82.5 -12.5t79.5 -40.5q46 -29 67.5 -39t45.5 -10q67 0 59 100h117q37 -109 -7 -184.5t-151 -75.5z" />
    <glyph glyph-name="ytilde" unicode="&#x1ef9;" horiz-adv-x="901" 
d="M219 946l162 -520q25 -82 43.5 -156.5t24.5 -108.5l6 -34h8q17 113 72 299l157 520h193l-348 -1024q-35 -103 -76 -172t-90 -107t-100.5 -53.5t-118.5 -15.5q-71 0 -138 23l17 157q57 -28 123 -28q76 0 124 48t89 171l-351 1001h203zM608 1083q-30 0 -57.5 7.5t-40 14
t-49.5 25.5q-5 3 -17 10.5t-16 9.5t-14 8t-14 7.5t-12 5.5t-12.5 5t-11.5 3t-13 2.5t-13 0.5q-73 0 -62 -97h-112q-38 100 7 177t144 77q34 0 64.5 -8.5t47.5 -17.5t50 -29q47 -28 68 -37.5t45 -9.5q67 0 59 100h117q37 -109 -6.5 -181.5t-151.5 -72.5z" />
    <glyph glyph-name="enspace" unicode="&#x2002;" horiz-adv-x="921" 
 />
    <glyph glyph-name="emspace" unicode="&#x2003;" horiz-adv-x="1843" 
 />
    <glyph glyph-name="threeperemspace" unicode="&#x2004;" horiz-adv-x="614" 
 />
    <glyph glyph-name="fourperemspace" unicode="&#x2005;" horiz-adv-x="460" 
 />
    <glyph glyph-name="sixperemspace" unicode="&#x2006;" horiz-adv-x="307" 
 />
    <glyph glyph-name="figurespace" unicode="&#x2007;" horiz-adv-x="1050" 
 />
    <glyph glyph-name="punctuationspace" unicode="&#x2008;" horiz-adv-x="350" 
 />
    <glyph glyph-name="thinspace" unicode="&#x2009;" horiz-adv-x="184" 
 />
    <glyph glyph-name="hairspace" unicode="&#x200a;" horiz-adv-x="92" 
 />
    <glyph glyph-name="zerowidthspace" unicode="&#x200b;" horiz-adv-x="0" 
 />
    <glyph glyph-name="figuredash" unicode="&#x2012;" horiz-adv-x="1218" 
d="M139 451v131h940v-131h-940z" />
    <glyph glyph-name="endash" unicode="&#x2013;" horiz-adv-x="1024" 
d="M139 451v131h746v-131h-746z" />
    <glyph glyph-name="emdash" unicode="&#x2014;" horiz-adv-x="2048" 
d="M139 451v131h1770v-131h-1770z" />
    <glyph glyph-name="uni2015" unicode="&#x2015;" horiz-adv-x="2560" 
d="M139 451v131h2282v-131h-2282z" />
    <glyph glyph-name="doublebar" unicode="&#x2016;" horiz-adv-x="897" 
d="M362 -416h-157v1786h157v-1786zM692 -416h-157v1786h157v-1786z" />
    <glyph glyph-name="quoteleft" unicode="&#x2018;" horiz-adv-x="466" 
d="M78 1087q0 148 82 221t229 81v-89q-166 -23 -166 -151q63 12 105.5 -21t42.5 -94q0 -59 -38.5 -93t-99.5 -34q-65 0 -110 49.5t-45 130.5z" />
    <glyph glyph-name="quoteright" unicode="&#x2019;" horiz-adv-x="466" 
d="M389 1208q0 -284 -311 -301v88q166 23 166 152q-63 -12 -105.5 21.5t-42.5 93.5t37.5 93.5t99.5 33.5q65 0 110.5 -49.5t45.5 -131.5z" />
    <glyph glyph-name="quotesinglbase" unicode="&#x201a;" horiz-adv-x="466" 
d="M389 63q0 -284 -311 -301v88q166 23 166 152q-63 -12 -105.5 21.5t-42.5 93.5t37.5 93.5t99.5 33.5q65 0 110.5 -49.5t45.5 -131.5z" />
    <glyph glyph-name="reversequoteleft" unicode="&#x201b;" horiz-adv-x="466" 
d="M78 1208q0 82 45 131.5t110 49.5q62 0 100 -33.5t38 -93.5t-42.5 -93.5t-105.5 -21.5q0 -129 166 -152v-88q-311 17 -311 301z" />
    <glyph glyph-name="quotedblleft" unicode="&#x201c;" horiz-adv-x="862" 
d="M78 1087q0 148 82 221t229 81v-89q-166 -23 -166 -151q63 12 105.5 -21t42.5 -94q0 -59 -38.5 -93t-99.5 -34q-65 0 -110 49.5t-45 130.5zM473 1087q0 148 82 221t229 81v-89q-166 -23 -166 -151q63 12 105.5 -21t42.5 -94q0 -59 -38 -93t-99 -34q-65 0 -110.5 49.5
t-45.5 130.5z" />
    <glyph glyph-name="quotedblright" unicode="&#x201d;" horiz-adv-x="862" 
d="M389 1208q0 -284 -311 -301v88q166 23 166 152q-63 -12 -105.5 21t-42.5 94q0 59 38 93t99 34q65 0 110.5 -50t45.5 -131zM784 1208q0 -284 -311 -301v88q166 23 166 152q-63 -12 -105 21t-42 94q0 59 38 93t99 34q65 0 110 -50t45 -131z" />
    <glyph glyph-name="quotedblbase" unicode="&#x201e;" horiz-adv-x="862" 
d="M389 63q0 -284 -311 -301v88q166 23 166 152q-63 -12 -105.5 21t-42.5 94q0 59 38 93t99 34q65 0 110.5 -50t45.5 -131zM784 63q0 -284 -311 -301v88q166 23 166 152q-63 -12 -105 21t-42 94q0 59 38 93t99 34q65 0 110 -50t45 -131z" />
    <glyph glyph-name="reversequotedblleft" unicode="&#x201f;" horiz-adv-x="862" 
d="M78 1208q0 81 45 131t110 50q61 0 99.5 -34t38.5 -93q0 -61 -42.5 -94t-105.5 -21q0 -129 166 -152v-88q-311 17 -311 301zM473 1208q0 81 45.5 131t110.5 50q61 0 99 -34t38 -93q0 -61 -42.5 -94t-105.5 -21q0 -129 166 -152v-88q-311 17 -311 301z" />
    <glyph glyph-name="dagger" unicode="&#x2020;" horiz-adv-x="1118" 
d="M483 590l-385 -23v183l385 -21l-20 477h194l-20 -477l383 21v-183l-383 23l20 -895h-194z" />
    <glyph glyph-name="daggerdbl" unicode="&#x2021;" horiz-adv-x="1118" 
d="M637 627l-2 -346l385 22v-180l-383 22l20 -452h-194l20 452l-385 -22v180l385 -22v346l-385 -23v178l385 -22l-20 446h194l-22 -446l385 22v-178z" />
    <glyph glyph-name="bullet" unicode="&#x2022;" horiz-adv-x="675" 
d="M162 498q0 72 51.5 124t122.5 52q73 0 125.5 -52t52.5 -124q0 -71 -52.5 -122.5t-125.5 -51.5q-70 0 -122 52t-52 122z" />
    <glyph glyph-name="ellipsis" unicode="&#x2026;" horiz-adv-x="1757" 
d="M154 127q0 60 40 99.5t99 39.5t99 -39.5t40 -99.5q0 -59 -40 -99t-99 -40t-99 40t-40 99zM739 127q0 60 40.5 99.5t99.5 39.5t99 -39.5t40 -99.5q0 -59 -40 -99t-99 -40t-99.5 40.5t-40.5 98.5zM1325 127q0 60 40 99.5t99 39.5t99.5 -39.5t40.5 -99.5q0 -58 -40.5 -98.5
t-99.5 -40.5q-58 0 -98.5 40t-40.5 99z" />
    <glyph glyph-name="perthousand" unicode="&#x2030;" horiz-adv-x="2484" 
d="M358 469q-141 0 -215.5 102.5t-74.5 274.5q0 168 78.5 272.5t211.5 104.5q132 0 210.5 -104.5t78.5 -272.5q0 -172 -75 -274.5t-214 -102.5zM358 1094q-70 0 -106.5 -68t-36.5 -182q0 -112 37.5 -183t105.5 -71q67 0 105.5 71.5t38.5 182.5q0 113 -37.5 181.5
t-106.5 68.5zM508 0l627 1208h127l-627 -1208h-127zM1411 -14q-141 0 -216 102t-75 274q0 168 79 272.5t212 104.5q132 0 210.5 -104.5t78.5 -272.5q0 -172 -75 -274t-214 -102zM1411 610q-70 0 -106.5 -68t-36.5 -182q0 -112 37.5 -183t105.5 -71q67 0 105 71.5t38 182.5
q0 113 -37 181.5t-106 68.5zM2128 -14q-141 0 -216 102t-75 274q0 168 79 272.5t212 104.5q132 0 210.5 -104.5t78.5 -272.5q0 -172 -75 -274t-214 -102zM2128 610q-70 0 -106.5 -68t-36.5 -182q0 -112 37.5 -183t105.5 -71q67 0 105 71.5t38 182.5q0 113 -37 181.5
t-106 68.5z" />
    <glyph glyph-name="tripleprime" unicode="&#x2034;" horiz-adv-x="1015" 
d="M125 844v524h201l-86 -524h-115zM428 844v524h201l-86 -524h-115zM731 844v524h201l-86 -524h-115z" />
    <glyph glyph-name="guilsinglleft" unicode="&#x2039;" horiz-adv-x="602" 
d="M225 481v-8q37 -12 113 -104l203 -238l-101 -88l-379 436l379 436l101 -100l-203 -233q-35 -40 -63 -65t-39 -31z" />
    <glyph glyph-name="guilsinglright" unicode="&#x203a;" horiz-adv-x="602" 
d="M377 473v8q-33 11 -113 101l-203 233l101 100l379 -436l-379 -436l-99 88l201 238q35 41 63 67t39 32z" />
    <glyph glyph-name="fraction" unicode="&#x2044;" horiz-adv-x="335" 
d="M-209 0l627 1208h127l-627 -1208h-127z" />
    <glyph glyph-name="uni2070" unicode="&#x2070;" horiz-adv-x="714" 
d="M358 469q-141 0 -215.5 102.5t-74.5 274.5q0 168 78.5 272.5t211.5 104.5q132 0 210.5 -104.5t78.5 -272.5q0 -172 -75 -274.5t-214 -102.5zM358 1094q-70 0 -106.5 -68t-36.5 -182q0 -112 37.5 -183t105.5 -71q67 0 105.5 71.5t38.5 182.5q0 113 -37.5 181.5
t-106.5 68.5z" />
    <glyph glyph-name="uni2074" unicode="&#x2074;" horiz-adv-x="700" 
d="M395 483v176h-366v111l360 436h154v-436h116v-111h-116v-176h-148zM399 768v172q0 36 2.5 72.5t4.5 54.5l2 18h-9q-20 -52 -71 -120l-86 -103q-22 -27 -46.5 -50.5t-38.5 -33.5l-14 -10v-8q31 8 115 8h141z" />
    <glyph glyph-name="uni2075" unicode="&#x2075;" horiz-adv-x="645" 
d="M102 801l19 405h430v-121h-315l-11 -190q45 57 146 57q97 0 156 -59t59 -166q0 -125 -77.5 -191.5t-213.5 -66.5q-109 0 -178 47t-80 125l127 55q20 -116 141 -116q64 0 100.5 34.5t36.5 102.5q0 63 -30.5 97t-83.5 34q-67 0 -107 -47h-119z" />
    <glyph glyph-name="uni2076" unicode="&#x2076;" horiz-adv-x="679" 
d="M612 1083l-108 -61q-34 82 -127 82q-84 0 -131 -79t-47 -228h8q12 68 62.5 108.5t131.5 40.5q101 0 164.5 -65.5t63.5 -165.5q0 -105 -72.5 -175.5t-202.5 -70.5q-133 0 -209.5 89.5t-76.5 264.5q0 195 90 297.5t227 102.5q79 0 138.5 -36t88.5 -104zM233 707
q0 -60 37.5 -96t94.5 -36t94 36t37 96t-36.5 95.5t-92.5 35.5q-58 0 -96 -35.5t-38 -95.5z" />
    <glyph glyph-name="uni2077" unicode="&#x2077;" horiz-adv-x="610" 
d="M426 1081h-260v-108h-127v233h549v-82l-289 -641h-149z" />
    <glyph glyph-name="uni2078" unicode="&#x2078;" horiz-adv-x="712" 
d="M356 797q-55 0 -94 -28.5t-39 -82.5t35.5 -83.5t97.5 -29.5t97.5 29.5t35.5 83.5t-38 82.5t-95 28.5zM356 469q-126 0 -203 52.5t-77 148.5q0 69 42.5 115.5t114.5 58.5v8q-67 10 -104 55t-37 109q0 96 72.5 151.5t191.5 55.5q120 0 192.5 -55.5t72.5 -151.5
q0 -63 -37.5 -108.5t-104.5 -55.5v-8q72 -12 115 -58.5t43 -115.5q0 -96 -76.5 -148.5t-204.5 -52.5zM356 1116q-58 0 -94.5 -28.5t-36.5 -75.5q0 -48 39 -75.5t92 -27.5t92 27.5t39 75.5q0 47 -36.5 75.5t-94.5 28.5z" />
    <glyph glyph-name="uni2079" unicode="&#x2079;" horiz-adv-x="679" 
d="M59 608l109 62q34 -82 127 -82q89 0 137.5 79t48.5 228h-8q-12 -68 -63 -109t-131 -41q-102 0 -165 65.5t-63 166.5q0 105 72.5 175.5t202.5 70.5q133 0 209.5 -90t76.5 -265q0 -194 -90.5 -296.5t-228.5 -102.5q-80 0 -142.5 36t-91.5 103zM446 981q0 60 -37.5 95.5
t-93.5 35.5q-57 0 -95 -35.5t-38 -95.5q0 -58 37.5 -94.5t91.5 -36.5q58 0 96.5 36t38.5 95z" />
    <glyph glyph-name="uni207A" unicode="&#x207a;" horiz-adv-x="911" 
d="M92 905h314v303h92v-303h321v-94h-321v-328h-92v328h-314v94z" />
    <glyph glyph-name="uni207B" unicode="&#x207b;" horiz-adv-x="911" 
d="M819 811h-727v94h727v-94z" />
    <glyph glyph-name="uni207C" unicode="&#x207c;" horiz-adv-x="911" 
d="M819 696h-727v95h727v-95zM819 944h-727v94h727v-94z" />
    <glyph glyph-name="uni207D" unicode="&#x207d;" horiz-adv-x="471" 
d="M199 838q0 -140 45.5 -243t140.5 -222h-119q-81 99 -127.5 210t-46.5 255t46.5 255t127.5 210h119q-94 -114 -140 -219.5t-46 -245.5z" />
    <glyph glyph-name="uni207E" unicode="&#x207e;" horiz-adv-x="471" 
d="M279 838q0 139 -46.5 245t-140.5 220h117q82 -99 129 -209.5t47 -255.5t-47 -255.5t-129 -209.5h-117q96 119 141.5 222t45.5 243z" />
    <glyph glyph-name="n.superior" unicode="&#x207f;" horiz-adv-x="802" 
d="M244 1214l18 -120q24 68 81.5 102.5t129.5 34.5q92 0 155.5 -54.5t63.5 -168.5v-420h-155v389q0 133 -113 133q-148 0 -148 -190v-332h-155v626h123z" />
    <glyph glyph-name="uni2080" unicode="&#x2080;" horiz-adv-x="714" 
d="M358 -14q-141 0 -215.5 102t-74.5 274q0 168 78.5 272.5t211.5 104.5q132 0 210.5 -104.5t78.5 -272.5q0 -172 -75 -274t-214 -102zM358 610q-70 0 -106.5 -68t-36.5 -182q0 -112 37.5 -183t105.5 -71q67 0 105.5 71.5t38.5 182.5q0 113 -37.5 181.5t-106.5 68.5z" />
    <glyph glyph-name="uni2081" unicode="&#x2081;" horiz-adv-x="610" 
d="M586 0h-520v115h196v467l-217 -23v119l365 47v-610h176v-115z" />
    <glyph glyph-name="uni2082" unicode="&#x2082;" horiz-adv-x="632" 
d="M590 117v-117h-545v106q101 71 156.5 114t107.5 93.5t73 94.5t21 94q0 108 -110 108q-59 0 -90 -38.5t-33 -100.5l-123 55q2 84 74 148.5t194 64.5q104 0 173 -56.5t69 -166.5q0 -42 -12.5 -82.5t-31 -72.5t-48 -64t-56 -54.5t-63 -47t-60.5 -38.5t-57 -32v-8h361z" />
    <glyph glyph-name="uni2083" unicode="&#x2083;" horiz-adv-x="649" 
d="M373 377v-6q200 -17 200 -187q0 -94 -75.5 -146t-200.5 -52q-117 0 -189.5 45t-87.5 121l127 51q12 -47 54 -77t98 -30q123 0 123 99q0 59 -47.5 90t-167.5 32v99q106 3 151 31t45 81q0 43 -28.5 69t-77.5 26q-44 0 -77.5 -24.5t-43.5 -70.5l-125 47q19 75 86.5 119.5
t171.5 44.5t172 -47t68 -141q0 -152 -176 -174z" />
    <glyph glyph-name="uni2084" unicode="&#x2084;" horiz-adv-x="700" 
d="M395 0v176h-366v111l360 436h154v-436h116v-111h-116v-176h-148zM399 285v172q0 36 2.5 72.5t4.5 54.5l2 18h-9q-20 -53 -71 -121l-86 -102q-22 -27 -46.5 -50.5t-38.5 -33.5l-14 -10v-9q31 9 115 9h141z" />
    <glyph glyph-name="uni2085" unicode="&#x2085;" horiz-adv-x="645" 
d="M102 317l19 406h430v-121h-315l-11 -190q45 57 146 57q97 0 156 -59t59 -166q0 -125 -77.5 -191.5t-213.5 -66.5q-109 0 -178 47t-80 125l127 55q10 -59 47 -88t94 -29q64 0 100.5 34.5t36.5 102.5q0 64 -30.5 98t-83.5 34q-66 0 -107 -48h-119z" />
    <glyph glyph-name="uni2086" unicode="&#x2086;" horiz-adv-x="679" 
d="M612 600l-108 -61q-34 82 -127 82q-84 0 -131 -79.5t-47 -228.5h8q12 68 62.5 109t131.5 41q100 0 164 -65.5t64 -166.5q0 -105 -72.5 -175t-202.5 -70q-133 0 -209.5 89.5t-76.5 264.5q0 194 90 296.5t227 102.5q79 0 138.5 -35.5t88.5 -103.5zM233 223
q0 -60 37.5 -95.5t94.5 -35.5t94 35.5t37 95.5t-36.5 95.5t-92.5 35.5q-58 0 -96 -35.5t-38 -95.5z" />
    <glyph glyph-name="uni2087" unicode="&#x2087;" horiz-adv-x="610" 
d="M426 598h-260v-109h-127v234h549v-82l-289 -641h-149z" />
    <glyph glyph-name="uni2088" unicode="&#x2088;" horiz-adv-x="712" 
d="M356 313q-56 0 -94.5 -28t-38.5 -82t35.5 -83.5t97.5 -29.5t97.5 29.5t35.5 83.5t-38 82t-95 28zM356 -14q-127 0 -203.5 52t-76.5 148q0 69 42.5 115.5t114.5 58.5v9q-67 10 -104 55t-37 108q0 96 72.5 151.5t191.5 55.5q120 0 192.5 -55.5t72.5 -151.5
q0 -63 -37.5 -108t-104.5 -55v-9q72 -12 115 -58.5t43 -115.5q0 -96 -76.5 -148t-204.5 -52zM356 633q-57 0 -94 -29t-37 -76q0 -48 38.5 -75t92.5 -27t92.5 27t38.5 75q0 47 -37 76t-94 29z" />
    <glyph glyph-name="uni2089" unicode="&#x2089;" horiz-adv-x="679" 
d="M59 125l109 61q34 -82 127 -82q89 0 137.5 79.5t48.5 228.5h-8q-12 -68 -63 -109t-131 -41q-102 0 -165 65.5t-63 166.5q0 105 72.5 175t202.5 70q133 0 209.5 -89.5t76.5 -264.5q0 -194 -90.5 -296.5t-228.5 -102.5q-80 0 -142.5 36t-91.5 103zM446 498q0 60 -37.5 95.5
t-93.5 35.5q-57 0 -95 -35.5t-38 -95.5q0 -58 37.5 -94.5t91.5 -36.5q58 0 96.5 36t38.5 95z" />
    <glyph glyph-name="uni208A" unicode="&#x208a;" horiz-adv-x="911" 
d="M92 422h314v305h92v-305h321v-92h-321v-330h-92v330h-314v92z" />
    <glyph glyph-name="uni208B" unicode="&#x208b;" horiz-adv-x="911" 
d="M819 328h-727v94h727v-94z" />
    <glyph glyph-name="uni208C" unicode="&#x208c;" horiz-adv-x="911" 
d="M819 213h-727v94h727v-94zM819 461h-727v94h727v-94z" />
    <glyph glyph-name="uni208D" unicode="&#x208d;" horiz-adv-x="471" 
d="M199 356q0 -141 45.5 -244.5t140.5 -222.5h-119q-81 99 -127.5 210t-46.5 257q0 143 46.5 253.5t127.5 209.5h119q-94 -113 -140 -219t-46 -244z" />
    <glyph glyph-name="uni208E" unicode="&#x208e;" horiz-adv-x="471" 
d="M279 356q0 138 -46.5 243.5t-140.5 219.5h117q82 -99 129 -209.5t47 -253.5q0 -146 -47 -257t-129 -210h-117q96 119 141.5 222.5t45.5 244.5z" />
    <glyph glyph-name="uni20A1" unicode="&#x20a1;" horiz-adv-x="1042" 
d="M217 -135l66 192q-185 132 -185 432q0 246 132.5 383.5t349.5 137.5h28l60 172l96 -33l-53 -154q44 -8 90 -32l57 165l96 -32l-67 -199q46 -48 82 -129l-156 -84l-190 -557q67 9 114.5 45.5t87.5 108.5l144 -99q-65 -107 -162 -156t-236 -51l-67 -196l-96 33l57 172
q-47 9 -90 24l-60 -178zM285 498q0 -163 61 -254l211 618q-130 -6 -201 -102.5t-71 -261.5zM428 162q45 -25 88 -33l225 659q-39 42 -82 58z" />
    <glyph glyph-name="uni20A2" unicode="&#x20a2;" horiz-adv-x="1067" 
d="M840 276l137 -94q-67 -109 -166 -158t-242 -49q-207 0 -335 132t-128 382q0 246 132.5 383.5t349.5 137.5q149 0 242.5 -59t146.5 -183l-166 -90q-64 184 -231 184q-136 0 -211.5 -97t-75.5 -267q0 -145 52 -239.5t149 -125.5v416h133l14 -135q17 68 69.5 107.5
t125.5 39.5l-9 -170q-20 10 -45 10q-53 0 -96 -35.5t-43 -99.5v-141q125 21 197 151z" />
    <glyph glyph-name="franc" unicode="&#x20a3;" horiz-adv-x="919" 
d="M723 307h-320v-307h-188v307h-149v103h149v102h-149v102h149v371h666v-156h-478v-215h320v-102h-320v-102h320v-103z" />
    <glyph glyph-name="lira" unicode="&#x20a4;" horiz-adv-x="1015" 
d="M682 315h-238v-2q0 -119 -90 -157h342q58 0 97 20t53 80l137 -74q-20 -88 -88.5 -135t-173.5 -47h-600v160h59q45 0 70.5 36t25.5 93q0 18 -2 26h-200v103h172q-5 14 -18 45t-19 49h-135v102h112q-4 46 -4 76q0 81 31.5 144.5t84 100.5t116 56t133.5 19q296 0 336 -267
l-170 -34q-14 77 -53.5 115t-120.5 38q-85 0 -132 -44t-47 -134q0 -36 9 -70h313v-102h-285q23 -64 31 -94h254v-103z" />
    <glyph glyph-name="uni20A6" unicode="&#x20a6;" horiz-adv-x="1376" 
d="M1300 328h-161v-328h-191l-383 510q-40 53 -76 110t-53 88l-16 31h-8q10 -147 10 -305v-434h-189v328h-157v102h157v90h-157v103h157v362h205l379 -518q39 -54 72.5 -107.5t46.5 -80.5l14 -27h8q-8 153 -8 305v428h189v-362h161v-103h-161v-90h161v-102z" />
    <glyph glyph-name="peseta" unicode="&#x20a7;" horiz-adv-x="2447" 
d="M362 0h-186v985h346q313 0 391 -184h676q29 108 128.5 158.5t234.5 50.5q331 0 354 -267l-186 -18q-9 145 -187 145q-79 0 -126.5 -36.5t-47.5 -100.5q0 -59 32 -93.5t107 -49.5l140 -29q129 -27 201.5 -102.5t72.5 -196.5q0 -100 -52 -166t-136 -93.5t-199 -27.5
q-343 0 -383 261l170 36q12 -80 71 -119.5t154 -39.5q90 0 142.5 32.5t52.5 100.5q0 63 -33 96t-121 53l-151 33q-213 46 -242 217h-246v-645h-188v645h-209v-2q0 -354 -416 -354h-164v-289zM362 834v-394h146q129 0 185.5 44.5t56.5 158.5q0 100 -58 145.5t-182 45.5h-148z
" />
    <glyph glyph-name="uni20A8" unicode="&#x20a8;" horiz-adv-x="1724" 
d="M362 834v-316h181q103 0 147.5 36.5t44.5 119.5q0 160 -192 160h-181zM567 985q365 0 365 -297q0 -118 -68 -179.5t-182 -66.5v-8q47 -6 79 -24.5t75.5 -62t56.5 -54.5l121 -100q55 -48 118.5 -66t161.5 -18q61 0 102.5 19.5t41.5 61.5q0 38 -24 61t-85 36l-108 22
q-185 44 -185 217q0 59 24.5 103.5t66.5 69.5t92 37t106 12q255 0 272 -201l-163 -17q-13 95 -125 95q-49 0 -77 -21t-28 -63q0 -34 22 -54t77 -32l88 -19q115 -26 165 -83.5t50 -157.5q0 -111 -89 -165.5t-247 -54.5q-173 0 -274.5 38t-194.5 128l-105 101q-9 8 -33.5 31.5
t-35 32.5t-32.5 25.5t-39 23t-41.5 12.5t-51.5 6h-101v-373h-186v985h391z" />
    <glyph glyph-name="uni20A9" unicode="&#x20a9;" horiz-adv-x="1751" 
d="M1669 362h-268l-98 -362h-230l-151 535q-19 68 -30.5 137.5t-13.5 105.5l-1 35h-7q-2 -124 -45 -278l-147 -535h-236l-96 362h-264v105h237l-24 88h-213v104h186l-86 326h193l151 -588q18 -68 30 -136t14 -102l3 -34h7q8 118 49 270l155 590h193l153 -590
q18 -68 31 -135.5t17 -101.5l4 -33h6q6 116 43 268l153 592h185l-88 -326h188v-104h-217l-22 -88h239v-105z" />
    <glyph glyph-name="uni20AA" unicode="&#x20aa;" horiz-adv-x="1472" 
d="M987 254h-178v440q0 67 -32.5 105.5t-114.5 38.5h-293v-838h-189v985h514q88 0 147.5 -22t90.5 -65.5t43 -96.5t12 -127v-420zM1124 985h189v-674q0 -75 -12 -128t-43.5 -96.5t-91 -65t-148.5 -21.5h-516v729h178v-582h299q145 0 145 142v696z" />
    <glyph glyph-name="Euro" unicode="&#x20ac;" horiz-adv-x="1101" 
d="M690 332h-289q30 -99 95.5 -152t162.5 -53q85 0 140.5 36.5t99.5 119.5l139 -101q-64 -109 -158.5 -158t-234.5 -49q-165 0 -280 91t-152 266h-156v104h142v53q0 47 2 70h-144v103h160q41 167 159.5 257.5t287.5 90.5q143 0 233 -59t143 -183l-161 -90q-64 180 -224 180
q-96 0 -160 -50.5t-94 -145.5h344l-20 -103h-342q-2 -20 -2 -61q0 -44 2 -62h328z" />
    <glyph glyph-name="uni20AE" unicode="&#x20ae;" horiz-adv-x="937" 
d="M561 0h-188v285l-221 -37v104l221 37v100l-221 -36v104l221 37v235h-332v156h856v-156h-336v-202l217 37v-105l-217 -37v-100l217 37v-105l-217 -37v-317z" />
    <glyph glyph-name="uni20B1" unicode="&#x20b1;" horiz-adv-x="1175" 
d="M1135 573h-160q-38 -284 -410 -284h-162v-289h-188v573h-154v105h154v307h346q197 0 302.5 -74.5t115.5 -232.5h156v-105zM403 838v-160h383q-9 84 -66 122t-171 38h-146zM547 436q106 0 162 31t73 106h-379v-137h144z" />
    <glyph glyph-name="afii61289" unicode="&#x2113;" horiz-adv-x="688" 
d="M80 262l-62 100l136 95v491q0 219 71 320.5t211 101.5q215 0 215 -260q0 -115 -28 -224t-76.5 -197.5t-104 -158t-118.5 -124.5v-119q0 -89 32 -123.5t105 -34.5q60 0 119 25l-2 -154q-77 -25 -156 -25q-268 0 -268 261v81zM324 985v-426q90 86 150.5 234.5t60.5 328.5
q0 129 -91 129q-57 0 -88.5 -66.5t-31.5 -199.5z" />
    <glyph glyph-name="afii61352" unicode="&#x2116;" horiz-adv-x="2033" 
d="M1339 0v143h609v-143h-609zM362 627v-385q0 -138 -62 -206t-191 -89l-52 170q66 11 90.5 43.5t24.5 115.5v930h193l466 -682q33 -47 67.5 -104.5t52.5 -91.5l18 -33h8q-10 128 -10 280v365q0 138 62.5 206t191.5 89l51 -170q-67 -11 -91 -43.5t-24 -116.5v-905h-188
l-471 680q-35 48 -70 106.5t-52 92.5l-18 34h-8q12 -128 12 -286zM1640 313q-139 0 -220 87t-81 247q0 157 81 241.5t220 84.5q138 0 218.5 -84.5t80.5 -241.5q0 -160 -80.5 -247t-218.5 -87zM1636 844q-131 0 -131 -199q0 -211 131 -211t131 211q0 199 -131 199z" />
    <glyph glyph-name="published" unicode="&#x2117;" horiz-adv-x="1439" 
d="M778 500h-141v-269h-156v762h299q132 0 205.5 -60.5t73.5 -182.5q0 -125 -78.5 -187.5t-202.5 -62.5zM637 864v-235h121q77 0 111 28.5t34 87.5q0 57 -37.5 88t-107.5 31h-121zM92 602q0 179 84.5 323.5t227.5 225t315 80.5q128 0 244 -47.5t200.5 -129.5t134.5 -200
t50 -252t-50 -251.5t-134.5 -199.5t-200.5 -129t-244 -47t-243.5 47t-200 129t-134 199.5t-49.5 251.5zM156 602q0 -122 44.5 -228.5t121 -180t180.5 -116t219 -42.5t219 42.5t180.5 116t121 180t44.5 228.5t-44.5 228.5t-121 181t-180.5 117t-219 42.5t-219 -42.5
t-180.5 -117t-121 -181t-44.5 -228.5z" />
    <glyph glyph-name="servicemark" unicode="&#x2120;" horiz-adv-x="1220" 
d="M41 821l113 25q14 -72 106 -72q82 0 82 57q0 52 -72 68l-71 16q-64 14 -101 52t-37 94q0 83 58.5 120.5t146.5 37.5q185 0 199 -136l-117 -14q-8 64 -86 64q-35 0 -57.5 -15t-22.5 -43q0 -49 72 -67l63 -15q70 -14 109 -54t39 -103q0 -146 -209 -146q-195 0 -215 131z
M1122 700h-114v334h-11l-98 -231h-96l-103 231h-10v-334h-115v508h146l127 -274h8l125 274h141v-508z" />
    <glyph glyph-name="trademark" unicode="&#x2122;" horiz-adv-x="1212" 
d="M305 698h-115v410h-149v98h414v-98h-150v-410zM1114 698h-115v334h-10l-98 -231h-96l-103 231h-10v-334h-115v508h146l127 -274h8l125 274h141v-508z" />
    <glyph glyph-name="ohm" unicode="&#x2126;" horiz-adv-x="1333" 
d="M668 1067q-167 0 -255.5 -118t-88.5 -322q0 -167 66.5 -286t164.5 -169v-172h-430v172h221q-86 48 -154.5 181.5t-68.5 291.5q0 269 147.5 427.5t397.5 158.5q249 0 395.5 -158t146.5 -428q0 -159 -67.5 -292.5t-155.5 -180.5h221v-172h-428v172q97 50 163.5 169
t66.5 286q0 204 -87.5 322t-254.5 118z" />
    <glyph glyph-name="estimated" unicode="&#x212e;" horiz-adv-x="1325" 
d="M662 1231q145 0 257.5 -53t179.5 -143t100.5 -199.5t33.5 -233.5v-53h-883v-346q122 -119 312 -119q264 0 376 213h136q-62 -149 -190.5 -235.5t-321.5 -86.5q-116 0 -211.5 35t-161 94.5t-111 140t-66 170.5t-20.5 187q0 98 21 188t66 171t110.5 140.5t161 94.5
t211.5 35zM662 1122q-194 0 -312 -118v-349h623v349q-118 118 -311 118z" />
    <glyph glyph-name="uni2153" unicode="&#x2153;" horiz-adv-x="1769" 
d="M625 483h-521v115h197v467l-217 -23v119l365 47v-610h176v-115zM508 0l627 1208h127l-627 -1208h-127zM1425 377v-6q201 -17 201 -187q0 -94 -75.5 -146t-200.5 -52q-117 0 -189.5 45t-87.5 121l127 51q12 -47 54 -77t98 -30q123 0 123 99q0 59 -47.5 90t-167.5 32v99
q106 3 151 31t45 81q0 43 -28.5 69t-77.5 26q-44 0 -77.5 -24.5t-43.5 -70.5l-125 47q19 75 86.5 119.5t171.5 44.5t172 -47t68 -141q0 -71 -43 -116.5t-134 -57.5z" />
    <glyph glyph-name="uni2154" unicode="&#x2154;" horiz-adv-x="1769" 
d="M645 600v-117h-545v107q103 72 157 114t107 92.5t74 95t21 93.5q0 53 -29 81t-82 28q-59 0 -90 -39t-33 -101l-123 56q2 84 74.5 148.5t194.5 64.5q104 0 172.5 -57t68.5 -167q0 -59 -23.5 -113.5t-55.5 -93t-82 -78t-84 -60t-82 -46.5v-8h360zM508 0l627 1208h127
l-627 -1208h-127zM1425 377v-6q201 -17 201 -187q0 -94 -75.5 -146t-200.5 -52q-117 0 -189.5 45t-87.5 121l127 51q12 -47 54 -77t98 -30q123 0 123 99q0 59 -47.5 90t-167.5 32v99q106 3 151 31t45 81q0 43 -28.5 69t-77.5 26q-44 0 -77.5 -24.5t-43.5 -70.5l-125 47
q19 75 86.5 119.5t171.5 44.5t172 -47t68 -141q0 -71 -43 -116.5t-134 -57.5z" />
    <glyph glyph-name="uni215B" unicode="&#x215b;" horiz-adv-x="1769" 
d="M625 483h-521v115h197v467l-217 -23v119l365 47v-610h176v-115zM508 0l627 1208h127l-627 -1208h-127zM1409 313q-56 0 -94.5 -28t-38.5 -82t35.5 -83.5t97.5 -29.5t97.5 29.5t35.5 83.5t-38 82t-95 28zM1409 -14q-127 0 -204 52t-77 148q0 69 43 115.5t115 58.5v9
q-67 10 -104 55t-37 108q0 96 72.5 151.5t191.5 55.5q120 0 192 -55.5t72 -151.5q0 -63 -37 -108t-104 -55v-9q72 -12 115 -58.5t43 -115.5q0 -96 -76.5 -148t-204.5 -52zM1409 633q-57 0 -94 -29t-37 -76q0 -48 39 -75t92 -27t92 27t39 75q0 47 -37 76t-94 29z" />
    <glyph glyph-name="uni215C" unicode="&#x215c;" horiz-adv-x="1769" 
d="M432 860v-6q201 -17 201 -186q0 -94 -76 -146.5t-201 -52.5q-117 0 -189 45t-87 121l127 51q12 -47 53.5 -76.5t97.5 -29.5q123 0 123 98q0 60 -47.5 91t-167.5 32v98q106 3 151.5 31.5t45.5 81.5q0 43 -29 68.5t-78 25.5q-45 0 -77.5 -24t-42.5 -70l-125 47
q19 75 86.5 119.5t171.5 44.5q103 0 171 -47.5t68 -141.5q0 -152 -176 -174zM508 0l627 1208h127l-627 -1208h-127zM1409 313q-56 0 -94.5 -28t-38.5 -82t35.5 -83.5t97.5 -29.5t97.5 29.5t35.5 83.5t-38 82t-95 28zM1409 -14q-127 0 -204 52t-77 148q0 69 43 115.5
t115 58.5v9q-67 10 -104 55t-37 108q0 96 72.5 151.5t191.5 55.5q120 0 192 -55.5t72 -151.5q0 -63 -37 -108t-104 -55v-9q72 -12 115 -58.5t43 -115.5q0 -96 -76.5 -148t-204.5 -52zM1409 633q-57 0 -94 -29t-37 -76q0 -48 39 -75t92 -27t92 27t39 75q0 47 -37 76t-94 29z
" />
    <glyph glyph-name="uni215D" unicode="&#x215d;" horiz-adv-x="1769" 
d="M147 801l19 405h430v-121h-315l-11 -190q45 57 146 57q97 0 156 -59t59 -166q0 -125 -77.5 -191.5t-213.5 -66.5q-109 0 -178 47t-80 125l127 55q20 -116 141 -116q64 0 100.5 34.5t36.5 102.5q0 63 -30.5 97t-83.5 34q-67 0 -107 -47h-119zM508 0l627 1208h127
l-627 -1208h-127zM1409 313q-56 0 -94.5 -28t-38.5 -82t35.5 -83.5t97.5 -29.5t97.5 29.5t35.5 83.5t-38 82t-95 28zM1409 -14q-127 0 -204 52t-77 148q0 69 43 115.5t115 58.5v9q-67 10 -104 55t-37 108q0 96 72.5 151.5t191.5 55.5q120 0 192 -55.5t72 -151.5
q0 -63 -37 -108t-104 -55v-9q72 -12 115 -58.5t43 -115.5q0 -96 -76.5 -148t-204.5 -52zM1409 633q-57 0 -94 -29t-37 -76q0 -48 39 -75t92 -27t92 27t39 75q0 47 -37 76t-94 29z" />
    <glyph glyph-name="uni215E" unicode="&#x215e;" horiz-adv-x="1652" 
d="M471 1081h-260v-108h-127v233h549v-82l-289 -641h-149zM395 0l627 1208h127l-627 -1208h-127zM1296 313q-56 0 -94.5 -28t-38.5 -82t35.5 -83.5t97.5 -29.5t98 30t36 83q0 54 -38.5 82t-95.5 28zM1296 -14q-127 0 -203.5 52t-76.5 148q0 69 43 115.5t115 58.5v9
q-67 10 -104.5 55t-37.5 108q0 96 72.5 151.5t191.5 55.5q120 0 192.5 -55.5t72.5 -151.5q0 -63 -37.5 -108t-104.5 -55v-9q72 -12 115 -58.5t43 -115.5q0 -96 -76.5 -148t-204.5 -52zM1296 633q-57 0 -94 -29t-37 -76q0 -48 38.5 -75t92.5 -27t92.5 27t38.5 75q0 47 -37 76
t-94 29z" />
    <glyph glyph-name="arrowleft" unicode="&#x2190;" horiz-adv-x="1376" 
d="M348 688h936v-168h-940l420 -428l-123 -117l-600 625l598 631l127 -115z" />
    <glyph glyph-name="arrowup" unicode="&#x2191;" horiz-adv-x="1402" 
d="M786 924v-924h-168v928l-428 -422l-116 125l624 600l631 -598l-117 -127z" />
    <glyph glyph-name="arrowright" unicode="&#x2192;" horiz-adv-x="1376" 
d="M41 688h936l-412 428l127 115l592 -631l-590 -625l-125 117l414 428h-942v168z" />
    <glyph glyph-name="arrowdown" unicode="&#x2193;" horiz-adv-x="1402" 
d="M616 285v921h168v-927l428 421l117 -122l-624 -603l-631 600l116 127z" />
    <glyph glyph-name="uni2196" unicode="&#x2196;" horiz-adv-x="1398" 
d="M1243 0l-919 926v-723h-162v1003h962v-157h-684l922 -928z" />
    <glyph glyph-name="uni2197" unicode="&#x2197;" horiz-adv-x="1398" 
d="M1075 926l-919 -926l-119 121l921 928h-682v157h961v-1003h-162v723z" />
    <glyph glyph-name="uni2198" unicode="&#x2198;" horiz-adv-x="1398" 
d="M156 1206l919 -923v721h162v-1004h-961v158h682l-921 927z" />
    <glyph glyph-name="uni2199" unicode="&#x2199;" horiz-adv-x="1398" 
d="M324 283l919 923l119 -121l-922 -927h684v-158h-962v1004h162v-721z" />
    <glyph glyph-name="partialdiff" unicode="&#x2202;" horiz-adv-x="1060" 
d="M287 1276l125 104q254 -111 402.5 -342t148.5 -497q0 -282 -115 -418.5t-318 -136.5q-200 0 -316 128.5t-116 362.5q0 115 30.5 206.5t84.5 149.5t124 88.5t152 30.5q158 0 256 -127q-126 289 -458 451zM778 473q0 158 -65.5 242t-188.5 84q-241 0 -241 -326
q0 -162 62 -249t183 -87q126 0 188 87t62 249z" />
    <glyph glyph-name="increment" unicode="&#x2206;" horiz-adv-x="1165" 
d="M1145 0h-1125l441 1206h248zM887 158l-209 598q-30 84 -54 161.5t-33 113.5l-9 36h-9q-26 -121 -92 -309l-209 -598z" />
    <glyph glyph-name="product" unicode="&#x220f;" horiz-adv-x="1275" 
d="M348 -414h-186v1620h952v-1620h-188v1446h-578v-1446z" />
    <glyph glyph-name="summation" unicode="&#x2211;" horiz-adv-x="913" 
d="M823 1042h-307q-56 0 -104.5 2t-69.5 4l-20 1v-9q57 -47 131 -143l227 -293l-240 -295q-33 -42 -66 -77.5t-50 -50.5l-17 -15v-8q72 6 195 6h321v-164h-823l457 606l-457 600h823v-164z" />
    <glyph glyph-name="minus" unicode="&#x2212;" horiz-adv-x="1019" 
d="M928 453h-836v110h836v-110z" />
    <glyph glyph-name="radical" unicode="&#x221a;" horiz-adv-x="1181" 
d="M395 948l275 -741h6l313 1194l172 -19l-385 -1382h-188l-291 709l-191 -101l-69 142z" />
    <glyph glyph-name="infinity" unicode="&#x221e;" horiz-adv-x="1769" 
d="M260 508q0 -108 57.5 -167.5t141.5 -59.5q68 0 119.5 23.5t103.5 78.5l113 125l-113 125q-50 55 -102.5 78.5t-120.5 23.5q-84 0 -141.5 -59.5t-57.5 -167.5zM885 408l-101 -111q-72 -80 -149.5 -120t-179.5 -40q-155 0 -255 100t-100 271t100 271t255 100
q103 0 180.5 -40t148.5 -120l101 -111l100 111q74 80 151 120t179 40q155 0 254.5 -100t99.5 -271t-99.5 -271t-254.5 -100q-103 0 -181 40t-149 120zM1509 508q0 108 -57 167.5t-141 59.5q-68 0 -121 -23.5t-103 -78.5l-112 -125l112 -125q50 -55 103 -78.5t121 -23.5
q84 0 141 59.5t57 167.5z" />
    <glyph glyph-name="integral" unicode="&#x222b;" horiz-adv-x="577" 
d="M182 -76v1131q0 86 28 150.5t76.5 100t105 52t122.5 16.5q97 0 191 -33l-35 -167q-78 43 -150 43q-69 0 -110 -44.5t-41 -140.5v-1130q0 -86 -28 -150.5t-76.5 -100t-105 -52.5t-122.5 -17q-105 0 -189 35l35 166q75 -43 150 -43q68 0 108.5 44t40.5 140z" />
    <glyph glyph-name="approxequal" unicode="&#x2248;" horiz-adv-x="1019" 
d="M739 516q-78 0 -230 49t-220 49q-114 0 -197 -96v113q69 92 195 92q74 0 228.5 -48t225.5 -48q47 0 97.5 23.5t89.5 68.5v-129q-68 -74 -189 -74zM739 274q-78 0 -230 50.5t-220 50.5q-112 0 -197 -101v117q37 45 89 68.5t106 23.5q74 0 228.5 -50t225.5 -50
q46 0 96.5 24.5t90.5 69.5v-129q-68 -74 -189 -74z" />
    <glyph glyph-name="notequal" unicode="&#x2260;" horiz-adv-x="1019" 
d="M928 584h-260l-133 -160h393v-109h-484l-211 -256l-83 70l153 186h-211v109h299l133 160h-432v108h520l193 232l86 -70l-137 -162h174v-108z" />
    <glyph glyph-name="lessequal" unicode="&#x2264;" horiz-adv-x="829" 
d="M709 897l-414 -299l416 -303l-80 -94l-531 395l535 393zM737 43h-645v109h645v-109z" />
    <glyph glyph-name="greaterequal" unicode="&#x2265;" horiz-adv-x="829" 
d="M535 598l-414 299l76 92l530 -393l-528 -395l-80 94zM737 43h-645v109h645v-109z" />
    <glyph glyph-name="blacksquare" unicode="&#x25a0;" horiz-adv-x="1546" 
d="M170 0v1206h1206v-1206h-1206z" />
    <glyph glyph-name="whitesquare" unicode="&#x25a1;" horiz-adv-x="1546" 
d="M170 0v1206h1206v-1206h-1206zM258 1118v-1030h1030v1030h-1030z" />
    <glyph glyph-name="blacksmallsquare" unicode="&#x25aa;" horiz-adv-x="1007" 
d="M170 285v665h668v-665h-668z" />
    <glyph glyph-name="whitesmallsquare" unicode="&#x25ab;" horiz-adv-x="1007" 
d="M170 285v665h668v-665h-668zM258 862v-489h492v489h-492z" />
    <glyph glyph-name="triagup" unicode="&#x25b2;" horiz-adv-x="1169" 
d="M82 0l502 1231l503 -1231h-1005z" />
    <glyph glyph-name="triagrt" unicode="&#x25ba;" horiz-adv-x="1400" 
d="M170 1098l1231 -502l-1231 -504v1006z" />
    <glyph glyph-name="triagdn" unicode="&#x25bc;" horiz-adv-x="1169" 
d="M584 -25l-502 1231h1005z" />
    <glyph glyph-name="triaglf" unicode="&#x25c4;" horiz-adv-x="1400" 
d="M0 596l1231 502v-1006z" />
    <glyph glyph-name="lozenge" unicode="&#x25ca;" horiz-adv-x="1042" 
d="M944 621l-356 -689h-135l-355 689l355 671h135zM778 618l-254 500l-256 -500l256 -518z" />
    <glyph glyph-name="circle" unicode="&#x25cb;" horiz-adv-x="1069" 
d="M90 604q0 185 129 315t313 130q185 0 316 -130.5t131 -314.5t-131 -313t-316 -129q-184 0 -313 129t-129 313zM182 602q0 -148 103.5 -252t249.5 -104t250 104t104 252q0 149 -104 255t-250 106t-249.5 -106t-103.5 -255z" />
    <glyph glyph-name="blackcircle" unicode="&#x25cf;" horiz-adv-x="1435" 
d="M90 602q0 170 84 315t228.5 229.5t314.5 84.5t315 -84.5t229.5 -229.5t84.5 -315t-84.5 -314.5t-229.5 -228.5t-315 -84t-314.5 84t-228.5 228.5t-84 314.5z" />
    <glyph glyph-name="whitecircle" unicode="&#x25ef;" horiz-adv-x="1435" 
d="M90 602q0 170 84 315t228.5 229.5t314.5 84.5t315 -84.5t229.5 -229.5t84.5 -315t-84.5 -314.5t-229.5 -228.5t-315 -84t-314.5 84t-228.5 228.5t-84 314.5zM180 600q0 -147 71.5 -272t195.5 -198t270 -73q145 0 268.5 73t195.5 198t72 272q0 148 -72 274t-195.5 199.5
t-268.5 73.5q-109 0 -208.5 -43.5t-171.5 -117t-114.5 -174.5t-42.5 -212z" />
    <glyph glyph-name="anglebracketleft" unicode="&#x3008;" horiz-adv-x="671" 
d="M590 -416h-176l-314 903l314 881h176l-307 -887z" />
    <glyph glyph-name="anglebracketright" unicode="&#x3009;" horiz-adv-x="671" 
d="M258 -416h-176l307 897l-307 887h176l313 -881z" />
    <glyph glyph-name="lcedilla" unicode="&#xe100;" horiz-adv-x="534" 
d="M516 -254q0 -87 -60.5 -132.5t-154.5 -45.5q-125 0 -184 78l49 104q53 -74 129 -74q35 0 54.5 18t19.5 52q0 83 -136 86l13 172q-111 49 -111 184v1180h184v-1141q0 -42 22.5 -63t61.5 -21q29 0 66 11l-2 -154q-65 -16 -115 -16h-12l-4 -68q180 -14 180 -170z" />
    <glyph glyph-name="uni004500600323" unicode="&#xe101;" horiz-adv-x="1015" 
d="M913 164v-164h-743v1206h743v-164h-555v-356h492v-164h-492v-358h555zM416 -285q0 53 35.5 88t87.5 35q54 0 90.5 -34.5t36.5 -88.5q0 -52 -36.5 -87.5t-90.5 -35.5q-51 0 -87 35.5t-36 87.5zM618 1337h-167l129 252h245z" />
    <glyph glyph-name="uni006500600323" unicode="&#xe102;" horiz-adv-x="978" 
d="M518 121q81 0 132 35.5t75 117.5l162 -43q-28 -134 -130 -195t-249 -61q-193 0 -307.5 129t-114.5 361q0 236 116.5 370t315.5 134q179 0 277 -111t98 -293q0 -76 -19 -131h-610q6 -143 71.5 -228t182.5 -85zM268 567h443q2 14 2 39q0 93 -56 155t-149 62
q-101 0 -164 -66.5t-76 -189.5zM580 1083h-162l151 299h248zM389 -285q0 53 35.5 88t87.5 35q54 0 90.5 -34.5t36.5 -88.5q0 -52 -36.5 -87.5t-90.5 -35.5q-51 0 -87 35.5t-36 87.5z" />
    <glyph glyph-name="uni004500B40323" unicode="&#xe103;" horiz-adv-x="1015" 
d="M913 164v-164h-743v1206h743v-164h-555v-356h492v-164h-492v-358h555zM416 -285q0 53 35.5 88t87.5 35q54 0 90.5 -34.5t36.5 -88.5q0 -52 -36.5 -87.5t-90.5 -35.5q-51 0 -87 35.5t-36 87.5zM637 1337h-170l-205 252h246z" />
    <glyph glyph-name="uni006500B40323" unicode="&#xe104;" horiz-adv-x="978" 
d="M518 121q81 0 132 35.5t75 117.5l162 -43q-28 -134 -130 -195t-249 -61q-193 0 -307.5 129t-114.5 361q0 236 116.5 370t315.5 134q179 0 277 -111t98 -293q0 -76 -19 -131h-610q6 -143 71.5 -228t182.5 -85zM268 567h443q2 14 2 39q0 93 -56 155t-149 62
q-101 0 -164 -66.5t-76 -189.5zM610 1083h-164l-235 299h248zM389 -285q0 53 35.5 88t87.5 35q54 0 90.5 -34.5t36.5 -88.5q0 -52 -36.5 -87.5t-90.5 -35.5q-51 0 -87 35.5t-36 87.5z" />
    <glyph glyph-name="Gtilde" unicode="&#xe105;" horiz-adv-x="1249" 
d="M641 623h479v-623h-149l-25 156q-35 -86 -128.5 -133.5t-203.5 -47.5q-238 0 -381 162t-143 461q0 298 153.5 465.5t409.5 167.5q340 0 453 -291l-176 -86q-36 106 -111 160.5t-176 54.5q-162 0 -259 -123.5t-97 -347.5q0 -213 87.5 -340t258.5 -127q130 0 215.5 61
t85.5 177v90h-293v164zM797 1337q-12 0 -23 1t-19 2.5t-19 5t-17 5.5t-18 8l-16 8t-18 9.5t-18 9.5q-10 5 -29.5 16.5t-27 15.5t-20.5 10t-23.5 8t-22.5 2q-72 0 -61 -97h-113q-39 99 7 178.5t145 79.5q49 0 82.5 -12.5t79.5 -40.5q47 -30 67.5 -39.5t44.5 -9.5q68 0 60 100
h116q37 -109 -6.5 -184.5t-150.5 -75.5z" />
    <glyph glyph-name="gtilde" unicode="&#xe106;" horiz-adv-x="993" 
d="M469 969q170 0 274 -76q31 17 46.5 50.5t25.5 92.5l160 -55q-10 -66 -54 -111t-104 -59q43 -73 43 -178q0 -157 -110 -242.5t-279 -85.5q-77 0 -123 17q-63 -34 -63 -99q0 -78 100 -78h231q161 0 245.5 -68t84.5 -196q0 -72 -30 -127.5t-79 -90t-117.5 -56.5
t-138.5 -30.5t-149 -8.5q-84 0 -153.5 12t-130.5 38.5t-95.5 77t-34.5 120.5q0 93 64 150.5t180 66.5q-63 7 -97 47.5t-34 99.5q0 128 139 166q-184 82 -184 287q0 157 105 246.5t278 89.5zM193 -164q0 -137 258 -137q155 0 236 35.5t81 120.5q0 125 -160 125h-205
q-210 0 -210 -144zM270 635q0 -91 52.5 -145t146.5 -54q96 0 151.5 51t55.5 148q0 98 -55.5 149.5t-151.5 49.5q-94 0 -146.5 -52t-52.5 -147zM631 1083q-30 0 -57.5 7.5t-41 14t-49.5 25.5q-5 3 -17 10.5t-16 9.5t-14 8t-14 7.5t-12 5.5t-12.5 5t-11.5 3t-13 2.5t-13 0.5
q-72 0 -61 -97h-113q-38 100 7.5 177t144.5 77q34 0 64.5 -8.5t47.5 -17.5t50 -29q35 -21 47.5 -28t30 -13t34.5 -6q68 0 60 100h116q37 -109 -6.5 -181.5t-150.5 -72.5z" />
    <glyph glyph-name="Gcommaturnedabove" unicode="&#xe107;" horiz-adv-x="1249" 
d="M641 623h479v-623h-149l-25 156q-35 -86 -128.5 -133.5t-203.5 -47.5q-238 0 -381 162t-143 461q0 298 153.5 465.5t409.5 167.5q340 0 453 -291l-176 -86q-36 106 -111 160.5t-176 54.5q-162 0 -259 -123.5t-97 -347.5q0 -213 87.5 -340t258.5 -127q130 0 215.5 61
t85.5 177v90h-293v164zM498 1489q0 113 62 164t185 51v-76q-64 -3 -93 -22t-29 -66q55 9 90 -18t35 -78t-32.5 -80t-84.5 -29q-56 0 -94.5 42t-38.5 112z" />
    <glyph glyph-name="gcommaturnedabove" unicode="&#xe108;" horiz-adv-x="993" 
d="M469 969q170 0 274 -76q31 17 46.5 50.5t25.5 92.5l160 -55q-10 -66 -54 -111t-104 -59q43 -73 43 -178q0 -157 -110 -242.5t-279 -85.5q-77 0 -123 17q-63 -34 -63 -99q0 -78 100 -78h231q161 0 245.5 -68t84.5 -196q0 -72 -30 -127.5t-79 -90t-117.5 -56.5
t-138.5 -30.5t-149 -8.5q-84 0 -153.5 12t-130.5 38.5t-95.5 77t-34.5 120.5q0 93 64 150.5t180 66.5q-63 7 -97 47.5t-34 99.5q0 128 139 166q-184 82 -184 287q0 157 105 246.5t278 89.5zM193 -164q0 -137 258 -137q155 0 236 35.5t81 120.5q0 125 -160 125h-205
q-210 0 -210 -144zM270 635q0 -91 52.5 -145t146.5 -54q96 0 151.5 51t55.5 148q0 98 -55.5 149.5t-151.5 49.5q-94 0 -146.5 -52t-52.5 -147zM340 1241q0 113 62.5 164t185.5 51v-76q-64 -3 -93.5 -22t-29.5 -66q55 9 90 -18t35 -78t-32.5 -80t-84.5 -29q-56 0 -94.5 42
t-38.5 112z" />
    <glyph glyph-name="Hmacronbelow" unicode="&#xe109;" horiz-adv-x="1292" 
d="M358 0h-188v1206h188v-512h576v512h188v-1206h-188v530h-576v-530zM915 -373h-536v148h536v-148z" />
    <glyph glyph-name="hmacronbelow" unicode="&#xe10a;" horiz-adv-x="1042" 
d="M332 1368v-602q68 203 286 203q126 0 206.5 -73t80.5 -220v-676h-184v623q0 88 -41.5 137t-124.5 49q-98 0 -160.5 -61.5t-62.5 -204.5v-543h-185v1368h185zM797 -373h-537v148h537v-148z" />
    <glyph glyph-name="Jcaron" unicode="&#xe10b;" horiz-adv-x="894" 
d="M573 1206h191v-856q0 -101 -30.5 -175.5t-85 -117t-120.5 -62.5t-145 -20q-268 0 -383 236l147 111q48 -104 100.5 -146.5t137.5 -42.5q108 0 148 65t40 195v813zM725 1329h-115l-254 264h197l65 -67q17 -18 29 -35.5t15 -26.5l4 -8h6q8 29 47 70l63 67h199z" />
    <glyph glyph-name="Kcedilla" unicode="&#xe10d;" horiz-adv-x="1099" 
d="M1063 0h-232l-378 530h-95v-530h-188v1206h188v-512h101l352 512h221l-420 -585zM729 -254q0 -87 -60.5 -132.5t-154.5 -45.5q-125 0 -184 78l49 104q53 -74 129 -74q35 0 54.5 18t19.5 52q0 83 -136 86l15 184h94l-6 -100q180 -14 180 -170z" />
    <glyph glyph-name="kcedilla" unicode="&#xe10e;" horiz-adv-x="958" 
d="M535 506l411 -506h-227l-330 424h-57v-424h-185v1368h185v-801h47l313 379h223zM700 -254q0 -87 -60.5 -132.5t-154.5 -45.5q-125 0 -184 78l49 104q53 -74 129 -74q35 0 54.5 18t19.5 52q0 83 -135 86l14 184h94l-6 -100q180 -14 180 -170z" />
    <glyph glyph-name="Lcedilla" unicode="&#xe10f;" horiz-adv-x="944" 
d="M731 -254q0 -87 -60.5 -132.5t-154.5 -45.5q-125 0 -184 78l49 104q53 -74 129 -74q35 0 54.5 18t19.5 52q0 83 -135 86l12 168h-291v1206h188v-1042h541v-164h-344l-4 -84q180 -14 180 -170z" />
    <glyph glyph-name="ocedilla" unicode="&#xe110;" horiz-adv-x="1034" 
d="M731 -254q0 -87 -60.5 -132.5t-154.5 -45.5q-125 0 -184 78l49 104q53 -74 129 -74q35 0 54.5 18t19.5 52q0 83 -135 86l10 148q-173 18 -273 147.5t-100 351.5q0 237 115.5 363.5t314.5 126.5q201 0 316.5 -126.5t115.5 -363.5q0 -227 -105 -358.5t-288 -143.5l-4 -61
q180 -14 180 -170zM516 819q-248 0 -248 -342q0 -356 248 -356q250 0 250 356q0 342 -250 342z" />
    <glyph glyph-name="Mmacron" unicode="&#xe111;" horiz-adv-x="1472" 
d="M799 295h-125l-228 418q-31 58 -53.5 110t-29.5 75l-7 22h-8q10 -75 10 -218v-702h-188v1206h219l287 -557q21 -41 36 -77.5t20 -53.5l5 -16h8q13 55 62 147l285 557h211v-1206h-191v702q0 64 3 118.5t6 77.5l3 22h-8q-20 -76 -92 -207zM1008 1380h-541v146h541v-146z
" />
    <glyph glyph-name="mmacron" unicode="&#xe112;" horiz-adv-x="1583" 
d="M868 760q33 108 113.5 158.5t183.5 50.5q127 0 204 -71t77 -214v-684h-184v623q0 89 -40 137.5t-118 48.5q-90 0 -152.5 -66.5t-62.5 -199.5v-543h-184v623q0 89 -40 137.5t-118 48.5q-88 0 -151.5 -67t-63.5 -199v-543h-185v946h146l22 -182q35 104 113.5 154.5
t181.5 50.5q223 0 258 -209zM1067 1143h-537v149h537v-149z" />
    <glyph glyph-name="Mcedilla" unicode="&#xe113;" horiz-adv-x="1472" 
d="M799 295h-125l-228 418q-31 58 -53.5 110t-29.5 75l-7 22h-8q10 -75 10 -218v-702h-188v1206h219l287 -557q21 -41 36 -77.5t20 -53.5l5 -16h8q13 55 62 147l285 557h211v-1206h-191v702q0 64 3 118.5t6 77.5l3 22h-8q-20 -76 -92 -207zM934 -254q0 -87 -60.5 -132.5
t-154.5 -45.5q-125 0 -184 78l49 104q53 -74 129 -74q73 0 73 70q0 83 -135 86l15 184h94l-6 -100q180 -14 180 -170z" />
    </font>
</defs>
</svg>
