<?xml version="1.0" standalone="no"?>
<!DOCTYPE svg PUBLIC "-//W3C//DTD SVG 1.1//EN" "http://www.w3.org/Graphics/SVG/1.1/DTD/svg11.dtd" >
<svg xmlns="http://www.w3.org/2000/svg" xmlns:xlink="http://www.w3.org/1999/xlink" version="1.1">
<metadata>
Created by FontForge 20170731 at Fri Sep 17 22:21:28 2021
 By Aleksey,,,
Copyright (c) 2004-9 by Kris Sowersby. All rights reserved.
</metadata>
<defs>
<font id="National-Thin" horiz-adv-x="1060" >
  <font-face 
    font-family="National Thin"
    font-weight="440"
    font-stretch="normal"
    units-per-em="2048"
    panose-1="0 0 0 0 0 0 0 0 0 0"
    ascent="1638"
    descent="-410"
    x-height="946"
    cap-height="1206"
    bbox="-164 -526 2437 1825"
    underline-thickness="102"
    underline-position="-307"
    unicode-range="U+0020-F778"
  />
<missing-glyph horiz-adv-x="1546" 
d="M170 0v1206h1206v-1206h-1206zM772 541l-453 -453h908zM319 1118l453 -454l455 454h-908zM834 602l454 -452v907zM711 602l-453 455v-907z" />
    <glyph glyph-name="f_b" unicode="fb" horiz-adv-x="1554" 
d="M729 0h-33v1284q-40 27 -96 44.5t-113 17.5q-50 0 -92.5 -15.5t-78 -48t-56 -90t-20.5 -133.5v-113h241v-37h-241v-909h-41v909h-138v37h138v119q0 160 81 238.5t207 78.5q121 0 211 -57l17 43h22v-663q26 116 118.5 184.5t221.5 68.5q174 0 277.5 -120.5t103.5 -350.5
q0 -245 -105.5 -372t-291.5 -127q-127 0 -212.5 66.5t-111.5 166.5zM737 543v-156q0 -90 27.5 -161t73.5 -113.5t103 -64t120 -21.5q162 0 259 115t97 345q0 213 -92.5 323t-247.5 110q-67 0 -126.5 -22.5t-107.5 -66.5t-76.5 -118t-29.5 -170z" />
    <glyph glyph-name="f_f_b" unicode="ffb" horiz-adv-x="2052" 
d="M1235 543v-156q0 -90 27.5 -161t73.5 -113.5t103 -64t120 -21.5q162 0 259 115t97 345q0 213 -92.5 323t-247.5 110q-67 0 -126.5 -22.5t-107.5 -66.5t-76.5 -118t-29.5 -170zM1212 1368h23v-663q26 116 118.5 184.5t221.5 68.5q174 0 277.5 -120.5t103.5 -350.5
q0 -245 -105.5 -372t-291.5 -127q-127 0 -212.5 66.5t-111.5 166.5l-8 -221h-33v1284q-40 27 -96 44.5t-113 17.5q-106 0 -177 -70t-71 -217v-113h242v-37h-242v-909h-41v909h-456v-909h-41v909h-138v37h138v131q0 139 62 212t177 73q104 0 172 -53l-22 -35q-60 49 -150 49
q-96 0 -147 -63t-51 -189v-125h456v119q0 160 81.5 238.5t207.5 78.5q121 0 211 -57z" />
    <glyph glyph-name="f_f_h" unicode="ffh" horiz-adv-x="2013" 
d="M1212 1368h23v-682q26 115 116.5 193.5t219.5 78.5q134 0 211.5 -75.5t77.5 -231.5v-651h-41v637q0 138 -65 210.5t-183 72.5q-142 0 -239 -109.5t-97 -292.5v-518h-41v1284q-40 27 -96 44.5t-113 17.5q-106 0 -177 -70t-71 -217v-113h242v-37h-242v-909h-41v909h-456
v-909h-41v909h-138v37h138v131q0 139 62 212t177 73q104 0 172 -53l-22 -35q-60 49 -150 49q-96 0 -147 -63t-51 -189v-125h456v119q0 160 81.5 238.5t207.5 78.5q121 0 211 -57z" />
    <glyph glyph-name="f_f_j" unicode="ffj" horiz-adv-x="1398" 
d="M737 909v-909h-41v909h-456v-909h-41v909h-138v37h138v131q0 139 62 212t177 73q104 0 172 -53l-22 -35q-60 49 -150 49q-96 0 -147 -63t-51 -189v-125h456v111q0 163 73.5 244t195.5 81q131 0 204 -57l-20 -35q-80 56 -184 56q-102 0 -165 -72.5t-63 -222.5v-105h498
v-1100q0 -129 -64.5 -196.5t-193.5 -67.5v37q105 0 161 55t56 179v1056h-457z" />
    <glyph glyph-name="f_f_k" unicode="ffk" horiz-adv-x="1859" 
d="M1212 1368h23v-852h113l391 430h53l-408 -446l455 -500h-55l-434 477h-115v-477h-41v1284q-40 27 -96 44.5t-113 17.5q-106 0 -177 -70t-71 -217v-113h242v-37h-242v-909h-41v909h-456v-909h-41v909h-138v37h138v131q0 139 62 212t177 73q104 0 172 -53l-22 -35
q-60 49 -150 49q-96 0 -147 -63t-51 -189v-125h456v119q0 160 81.5 238.5t207.5 78.5q121 0 211 -57z" />
    <glyph glyph-name="f_h" unicode="fh" horiz-adv-x="1515" 
d="M715 1368h22v-682q26 115 116.5 193.5t219.5 78.5q134 0 211.5 -75.5t77.5 -231.5v-651h-41v637q0 138 -65 210.5t-183 72.5q-142 0 -239 -109.5t-97 -292.5v-518h-41v1284q-40 27 -96 44.5t-113 17.5q-50 0 -92.5 -15.5t-78 -48t-56 -90t-20.5 -133.5v-113h241v-37h-241
v-909h-41v909h-138v37h138v119q0 160 81 238.5t207 78.5q121 0 211 -57z" />
    <glyph glyph-name="f_j" unicode="fj" horiz-adv-x="901" 
d="M696 -147v1056h-456v-909h-41v909h-138v37h138v111q0 163 73 244t195 81q116 0 205 -69l-23 -33q-85 63 -182 63q-102 0 -164.5 -71t-62.5 -221v-105h497v-1100q0 -129 -64.5 -196.5t-193.5 -67.5v37q105 0 161 55t56 179z" />
    <glyph glyph-name="f_k" unicode="fk" horiz-adv-x="1361" 
d="M715 1368h22v-852h113l391 430h53l-407 -446l454 -500h-55l-434 477h-115v-477h-41v1284q-40 27 -96 44.5t-113 17.5q-50 0 -92.5 -15.5t-78 -48t-56 -90t-20.5 -133.5v-113h241v-37h-241v-909h-41v909h-138v37h138v119q0 160 81 238.5t207 78.5q121 0 211 -57z" />
    <glyph glyph-name="ff" unicode="ff" horiz-adv-x="985" 
d="M696 909h-456v-909h-41v909h-138v37h138v131q0 139 62 212t177 73q104 0 172 -53l-22 -35q-60 49 -150 49q-96 0 -147 -63t-51 -189v-125h456v152q0 138 62.5 211t177.5 73q104 0 172 -53l-23 -35q-60 49 -149 49q-97 0 -148 -62.5t-51 -188.5v-146h242v-37h-242v-909
h-41v909z" />
    <glyph glyph-name="ffi" unicode="ffi" horiz-adv-x="1398" 
d="M696 946v111q0 163 73.5 244t195.5 81q131 0 204 -57l-20 -35q-80 56 -184 56q-102 0 -165 -72.5t-63 -222.5v-105h498v-946h-41v909h-457v-909h-41v909h-456v-909h-41v909h-138v37h138v131q0 139 62 212t177 73q104 0 172 -53l-22 -35q-60 49 -150 49q-96 0 -147 -63
t-51 -189v-125h456z" />
    <glyph glyph-name="ffl" unicode="ffl" horiz-adv-x="1433" 
d="M1212 1368h23v-1210q0 -125 98 -125q30 0 60 10v-39q-30 -10 -60 -10q-139 0 -139 160v1130q-40 27 -96 44.5t-113 17.5q-106 0 -177 -70t-71 -217v-113h242v-37h-242v-909h-41v909h-456v-909h-41v909h-138v37h138v131q0 139 62 212t177 73q104 0 172 -53l-22 -35
q-60 49 -150 49q-96 0 -147 -63t-51 -189v-125h456v119q0 160 81.5 238.5t207.5 78.5q121 0 211 -57z" />
    <glyph glyph-name="fi" unicode="fi" horiz-adv-x="901" 
d="M199 909h-138v37h138v111q0 163 73 244t195 81q116 0 205 -69l-23 -33q-85 63 -182 63q-102 0 -164.5 -71t-62.5 -221v-105h497v-946h-41v909h-456v-909h-41v909z" />
    <glyph glyph-name="fl" unicode="fl" horiz-adv-x="935" 
d="M715 1368h22v-1210q0 -125 99 -125q29 0 59 10v-39q-30 -10 -59 -10q-140 0 -140 160v1130q-40 27 -96 44.5t-113 17.5q-50 0 -92.5 -15.5t-78 -48t-56 -90t-20.5 -133.5v-113h241v-37h-241v-909h-41v909h-138v37h138v119q0 160 81 238.5t207 78.5q121 0 211 -57z" />
    <glyph glyph-name=".notdef" horiz-adv-x="1546" 
d="M170 0v1206h1206v-1206h-1206zM772 541l-453 -453h908zM319 1118l453 -454l455 454h-908zM834 602l454 -452v907zM711 602l-453 455v-907z" />
    <glyph glyph-name=".null" horiz-adv-x="0" 
 />
    <glyph glyph-name="nonmarkingreturn" horiz-adv-x="682" 
 />
    <glyph glyph-name="space" unicode=" " horiz-adv-x="389" 
 />
    <glyph glyph-name="exclam" unicode="!" horiz-adv-x="462" 
d="M207 1206h49l-8 -866h-33zM195 37q0 37 36 37q37 0 37 -37t-37 -37q-36 0 -36 37z" />
    <glyph glyph-name="quotedbl" unicode="&#x22;" horiz-adv-x="499" 
d="M143 844v524h50l-19 -524h-31zM307 844v524h49l-18 -524h-31z" />
    <glyph glyph-name="numbersign" unicode="#" horiz-adv-x="1275" 
d="M1133 344h-347l-102 -344h-45l102 344h-301l-102 -344h-45l102 344h-293v39h306l79 268h-344v39h355l90 295h45l-88 -295h299l90 295h45l-88 -295h283v-39h-295l-80 -268h334v-39zM532 651l-79 -268h301l80 268h-302z" />
    <glyph glyph-name="dollar" unicode="$" horiz-adv-x="839" 
d="M399 -217v205q-140 5 -229.5 72.5t-110.5 191.5l39 12q47 -230 301 -239v469l-51 10q-122 23 -187 80.5t-65 165.5q0 64 24.5 112.5t68 76.5t96 42t114.5 16v179h39v-181q134 -5 212.5 -66t99.5 -188l-39 -8q-21 112 -88.5 165.5t-184.5 59.5v-432l47 -8
q275 -51 275 -270q0 -122 -84.5 -188.5t-237.5 -71.5v-205h-39zM717 248q0 185 -238 231l-41 8v-462q130 3 204.5 60.5t74.5 162.5zM139 750q0 -89 56.5 -138t160.5 -69l43 -8v423q-117 -3 -188.5 -54t-71.5 -154z" />
    <glyph glyph-name="percent" unicode="%" horiz-adv-x="1581" 
d="M348 473q-128 0 -198 105t-70 268q0 160 71 265.5t197 105.5q125 0 195.5 -105.5t70.5 -265.5q0 -163 -70 -268t-196 -105zM348 1178q-104 0 -165.5 -92.5t-61.5 -239.5q0 -149 61.5 -242.5t165.5 -93.5q103 0 164 93.5t61 242.5q0 147 -61 239.5t-164 92.5zM414 0
l708 1206h45l-708 -1206h-45zM1233 -10q-125 0 -195.5 105t-70.5 265q0 163 70 268t196 105q128 0 198 -105t70 -268q0 -160 -71 -265t-197 -105zM1233 696q-103 0 -164 -93.5t-61 -242.5q0 -147 61 -239t164 -92q104 0 165.5 92t61.5 239q0 149 -61.5 242.5t-165.5 93.5z
" />
    <glyph glyph-name="ampersand" unicode="&#x26;" horiz-adv-x="1050" 
d="M1006 14l-33 -26l-160 166q-150 -166 -377 -166q-169 0 -268.5 77.5t-99.5 221.5q0 60 21.5 111.5t64 93.5t88 74t110.5 67l-53 55q-60 62 -93.5 123.5t-33.5 138.5q0 124 76 196.5t205 72.5q131 0 200.5 -74t69.5 -187q0 -41 -9.5 -76t-31.5 -65.5t-44.5 -53.5
t-63.5 -49.5t-71.5 -44t-84.5 -46.5l393 -410q107 146 125 375l41 -8q-19 -239 -137 -394zM111 287q0 -125 87 -191.5t238 -66.5q219 0 350 153l-405 420q-66 -36 -108 -64.5t-82.5 -67t-60 -84t-19.5 -99.5zM453 1178q-109 0 -173.5 -61.5t-64.5 -166.5q0 -67 29.5 -122
t101.5 -130l43 -47q42 22 60 32t53 30t51 32.5t41.5 33t37 38t25 40.5t18.5 48t5 53q0 90 -56.5 155t-170.5 65z" />
    <glyph glyph-name="quotesingle" unicode="'" horiz-adv-x="335" 
d="M143 844v524h50l-19 -524h-31z" />
    <glyph glyph-name="parenleft" unicode="(" horiz-adv-x="643" 
d="M227 477q0 -140 22.5 -259.5t70.5 -227.5t109 -202t151 -202h-52q-106 126 -177.5 248t-119 289.5t-47.5 353.5t47.5 353.5t119 289.5t177.5 248h52q-90 -108 -151 -202t-109 -202t-70.5 -227.5t-22.5 -259.5z" />
    <glyph glyph-name="parenright" unicode=")" horiz-adv-x="643" 
d="M416 477q0 140 -22.5 259.5t-70.5 227.5t-109 202t-151 202h52q106 -126 177.5 -248t119 -289.5t47.5 -353.5t-47.5 -353.5t-119 -289.5t-177.5 -248h-52q90 108 151 202t109 202t70.5 227.5t22.5 259.5z" />
    <glyph glyph-name="asterisk" unicode="*" horiz-adv-x="663" 
d="M354 1206l-6 -233l219 78l15 -43l-226 -66l144 -184l-37 -27l-131 191l-131 -191l-37 27l143 184l-225 66l14 43l219 -78l-6 233h45z" />
    <glyph glyph-name="plus" unicode="+" 
d="M113 528h393v383h41v-383h401v-41h-401v-411h-41v411h-393v41z" />
    <glyph glyph-name="comma" unicode="," horiz-adv-x="409" 
d="M274 -16q0 -66 -38 -104t-113 -38v31q117 0 117 111q0 19 -7 30q-11 -14 -28 -14t-27 10t-10 25q0 18 11.5 28.5t31.5 10.5q25 0 44 -23.5t19 -66.5z" />
    <glyph glyph-name="hyphen" unicode="-" horiz-adv-x="786" 
d="M164 549v41h459v-41h-459z" />
    <glyph glyph-name="period" unicode="." horiz-adv-x="409" 
d="M168 37q0 37 37 37t37 -37t-37 -37t-37 37z" />
    <glyph glyph-name="slash" unicode="/" horiz-adv-x="759" 
d="M41 -416l561 1786h43l-561 -1786h-43z" />
    <glyph glyph-name="zero" unicode="0" horiz-adv-x="1114" 
d="M557 -12q-147 0 -254 69t-159 182t-52 255q0 218 123 360.5t342 142.5t342 -142.5t123 -360.5q0 -142 -52 -255t-159 -182t-254 -69zM557 956q-132 0 -229 -62t-145 -165.5t-48 -234.5q0 -201 112.5 -333t309.5 -132t309.5 132t112.5 333q0 131 -48 234.5t-145 165.5
t-229 62z" />
    <glyph glyph-name="one" unicode="1" horiz-adv-x="598" 
d="M373 0h-43v942l-289 -80v41l332 94v-997z" />
    <glyph glyph-name="two" unicode="2" horiz-adv-x="882" 
d="M819 41v-41h-747v41q137 51 248.5 114t198.5 140.5t135 172.5t48 198q0 145 -81 217.5t-209 72.5q-255 0 -293 -280l-41 10q23 166 113.5 238.5t220.5 72.5q68 0 127 -20t106 -59t73.5 -104t26.5 -148q0 -90 -35.5 -176t-93.5 -154t-135 -126t-157 -98.5t-162 -66.5v-4
h657z" />
    <glyph glyph-name="three" unicode="3" horiz-adv-x="882" 
d="M442 383v-4q74 -5 139 -28.5t114.5 -64t78.5 -101.5t29 -134q0 -102 -52.5 -179.5t-137 -116t-185.5 -38.5q-169 0 -270.5 76.5t-116.5 208.5l41 8q39 -252 346 -252q142 0 237 80t95 213q0 146 -116.5 225.5t-340.5 79.5v41q69 0 130.5 11t114 35t90.5 58.5t59.5 85
t21.5 111.5q0 87 -42 147t-106.5 85.5t-146.5 25.5q-125 0 -205.5 -66.5t-101.5 -193.5l-41 11q19 131 109.5 210.5t238.5 79.5q68 0 127.5 -18t107.5 -53t75.5 -93.5t27.5 -134.5q0 -132 -90 -218t-230 -97z" />
    <glyph glyph-name="four" unicode="4" horiz-adv-x="989" 
d="M684 -268v379h-653v39l657 835h39v-833h201v-41h-201v-379h-43zM211 152h473v645q0 36 1.5 69.5t2.5 48.5l2 15h-4q-30 -50 -102 -142l-385 -493q-36 -46 -66.5 -82t-42.5 -49l-12 -12v-5q70 5 133 5z" />
    <glyph glyph-name="five" unicode="5" horiz-adv-x="897" 
d="M168 317l31 668h571v-41h-530l-27 -575q36 50 104 84t160 34q154 0 251 -100.5t97 -282.5q0 -186 -108.5 -287.5t-286.5 -101.5q-159 0 -257 81.5t-112 213.5l41 6q15 -124 104.5 -192t223.5 -68q158 0 255 90.5t97 257.5q0 160 -84.5 251t-220.5 91q-159 0 -274 -129
h-35z" />
    <glyph glyph-name="six" unicode="6" horiz-adv-x="974" 
d="M866 985l-39 -14q-35 106 -105.5 156.5t-182.5 50.5q-81 0 -151 -37.5t-125 -110.5t-86.5 -191.5t-31.5 -269.5v-120h5q15 151 113 237t247 86q173 0 278 -107.5t105 -285.5q0 -80 -24.5 -150t-70.5 -124.5t-120.5 -85.5t-167.5 -31q-237 0 -340 207q-68 139 -68 374
q0 160 34.5 286t94.5 204.5t138 119t170 40.5q256 0 327 -234zM172 379q0 -150 92.5 -250t245.5 -100q160 0 250 98t90 252t-91.5 253t-248.5 99q-156 0 -247 -99.5t-91 -252.5z" />
    <glyph glyph-name="seven" unicode="7" horiz-adv-x="862" 
d="M758 944h-676v-207h-41v248h760v-41l-463 -1212h-45z" />
    <glyph glyph-name="eight" unicode="8" horiz-adv-x="958" 
d="M479 -12q-172 0 -277.5 86.5t-105.5 236.5q0 117 72 200.5t197 98.5v4q-104 23 -169 97t-65 192q0 143 94.5 229.5t253.5 86.5t253.5 -86.5t94.5 -229.5q0 -118 -65 -192t-168 -97v-4q124 -15 196 -98.5t72 -200.5q0 -150 -105.5 -236.5t-277.5 -86.5zM479 1178
q-141 0 -223 -74t-82 -201t82.5 -198.5t222.5 -71.5t222.5 71.5t82.5 198.5t-82 201t-223 74zM479 592q-154 0 -247 -73t-93 -208q0 -132 93.5 -207t246.5 -75t246.5 75t93.5 207q0 135 -93 208t-247 73z" />
    <glyph glyph-name="nine" unicode="9" horiz-adv-x="974" 
d="M86 -39l41 14q35 -106 112 -161.5t189 -55.5q187 0 294 168.5t107 483.5v122h-4q-15 -152 -113.5 -239.5t-246.5 -87.5q-174 0 -278.5 108.5t-104.5 288.5q0 110 40.5 197.5t129 142.5t213.5 55q204 0 313 -157q94 -134 94 -430q0 -332 -119 -512.5t-325 -180.5
q-126 0 -216.5 64.5t-125.5 179.5zM803 602q0 154 -92 254t-246 100q-160 0 -250 -99t-90 -255q0 -157 88.5 -256.5t251.5 -99.5q156 0 247 100.5t91 255.5z" />
    <glyph glyph-name="colon" unicode=":" horiz-adv-x="409" 
d="M168 37q0 37 37 37t37 -37t-37 -37t-37 37zM168 782q0 37 37 37t37 -37t-37 -37t-37 37z" />
    <glyph glyph-name="semicolon" unicode=";" horiz-adv-x="409" 
d="M170 782q0 37 37 37t37 -37t-37 -37t-37 37zM274 -16q0 -66 -38 -104t-113 -38v31q117 0 117 111q0 19 -7 30q-11 -14 -28 -14t-27 10t-10 25q0 18 11.5 28.5t31.5 10.5q25 0 44 -23.5t19 -66.5z" />
    <glyph glyph-name="less" unicode="&#x3c;" horiz-adv-x="817" 
d="M655 909l-477 -403l477 -404l-24 -30l-518 434l518 434z" />
    <glyph glyph-name="equal" unicode="=" 
d="M948 344h-835v41h835v-41zM948 610h-835v41h835v-41z" />
    <glyph glyph-name="greater" unicode="&#x3e;" horiz-adv-x="817" 
d="M627 506l-477 403l24 31l518 -434l-518 -434l-24 30z" />
    <glyph glyph-name="question" unicode="?" horiz-adv-x="811" 
d="M76 934l-41 12q26 125 110.5 199t229.5 74q166 0 262 -92t96 -248q0 -173 -109 -262t-274 -89v-206h-43v245h47q145 0 240.5 78t95.5 234q0 141 -85.5 220t-229.5 79q-127 0 -202.5 -65t-96.5 -179zM293 37q0 37 37 37t37 -37t-37 -37t-37 37z" />
    <glyph glyph-name="at" unicode="@" horiz-adv-x="1730" 
d="M1149 350v137q0 154 -84 232t-209 78q-153 0 -240.5 -98t-87.5 -300q0 -186 83.5 -279t228.5 -93q63 0 117.5 18.5t97.5 56.5t68 101.5t26 146.5zM1190 825v-616q0 -78 45.5 -126t122.5 -48q235 0 235 450q0 150 -46 276t-134 220t-226 146.5t-313 52.5
q-340 0 -538.5 -217.5t-198.5 -579.5q0 -161 44 -290t119 -214.5t178.5 -142.5t217.5 -82t242 -25q212 0 387 66l12 -43q-186 -62 -399 -62q-135 0 -255 26t-229 86t-187.5 149.5t-124.5 226t-46 307.5q0 186 53 340.5t152 263.5t245.5 169.5t327.5 60.5q153 0 278.5 -36.5
t214 -102.5t149.5 -158t89.5 -201.5t28.5 -235.5q0 -237 -64 -362t-212 -125q-99 0 -154 57.5t-55 153.5q-25 -101 -107 -161t-202 -60q-163 0 -258 104.5t-95 306.5q0 214 97.5 325.5t271.5 111.5q118 0 193 -57.5t100 -147.5l10 194h31z" />
    <glyph glyph-name="A" unicode="A" horiz-adv-x="1048" 
d="M981 0l-166 418h-582l-165 -418h-48l480 1206h49l479 -1206h-47zM416 874l-166 -415h549l-166 415q-33 81 -59.5 153.5t-37.5 104.5l-10 33h-4q-32 -109 -106 -291z" />
    <glyph glyph-name="B" unicode="B" horiz-adv-x="995" 
d="M627 631v-6q116 -5 201 -83.5t85 -211.5q0 -330 -421 -330h-308v1206h297q200 0 286.5 -75t86.5 -228q0 -118 -61 -187t-166 -85zM227 647h271q313 0 313 256q0 142 -81.5 202t-252.5 60h-250v-518zM227 606v-565h260q189 0 286 68.5t97 220.5q0 134 -96 205t-276 71
h-271z" />
    <glyph glyph-name="C" unicode="C" horiz-adv-x="1122" 
d="M1012 283l39 -21q-116 -274 -422 -274q-243 0 -383 158.5t-140 455.5q0 296 141.5 456.5t381.5 160.5q310 0 420 -289l-37 -19q-102 267 -383 267q-227 0 -353 -153.5t-126 -422.5t126 -421t353 -152q285 0 383 254z" />
    <glyph glyph-name="D" unicode="D" horiz-adv-x="1181" 
d="M227 41h262q263 0 403 150t140 425q0 267 -133.5 408t-406.5 141h-265v-1124zM494 0h-310v1206h312q131 0 234.5 -33t182 -102t120.5 -184.5t42 -270.5q0 -130 -30.5 -235t-83.5 -175t-127.5 -117t-159 -68t-180.5 -21z" />
    <glyph glyph-name="E" unicode="E" horiz-adv-x="940" 
d="M827 41v-41h-643v1206h643v-41h-600v-538h537v-41h-537v-545h600z" />
    <glyph glyph-name="F" unicode="F" horiz-adv-x="858" 
d="M227 0h-43v1206h623v-41h-580v-538h516v-41h-516v-586z" />
    <glyph glyph-name="G" unicode="G" horiz-adv-x="1191" 
d="M653 559h396v-559h-35l-8 262q-31 -127 -131.5 -200.5t-245.5 -73.5q-242 0 -382.5 160t-140.5 454q0 296 141.5 456.5t381.5 160.5q310 0 420 -289l-37 -19q-102 267 -383 267q-227 0 -353 -153.5t-126 -422.5t126 -421t353 -152q75 0 140.5 23t119.5 70.5t85.5 130
t31.5 191.5v74h-353v41z" />
    <glyph glyph-name="H" unicode="H" horiz-adv-x="1257" 
d="M227 0h-43v1206h43v-579h803v579h43v-1206h-43v586h-803v-586z" />
    <glyph glyph-name="I" unicode="I" horiz-adv-x="411" 
d="M184 1206h43v-1206h-43v1206z" />
    <glyph glyph-name="J" unicode="J" horiz-adv-x="874" 
d="M684 1206h43v-850q0 -368 -334 -368q-139 0 -226.5 67.5t-125.5 180.5l37 18q39 -109 118.5 -168t196.5 -59q66 0 116.5 16.5t91 54t62 105t21.5 162.5v841z" />
    <glyph glyph-name="K" unicode="K" horiz-adv-x="970" 
d="M950 0h-57l-557 586h-109v-586h-43v1206h43v-579h109l524 579h55l-540 -598z" />
    <glyph glyph-name="L" unicode="L" horiz-adv-x="839" 
d="M184 1206h43v-1165h561v-41h-604v1206z" />
    <glyph glyph-name="M" unicode="M" horiz-adv-x="1417" 
d="M725 301h-33l-368 666l-99 186h-4q6 -50 6 -195v-958h-43v1206h54l415 -747q20 -36 33.5 -63.5t17.5 -37.5l3 -10h4q8 31 53 111l416 747h53v-1206h-43v958q0 64 1.5 113t2.5 65l2 17h-4q-22 -49 -98 -186z" />
    <glyph glyph-name="N" unicode="N" horiz-adv-x="1255" 
d="M236 1206l675 -977q32 -45 61.5 -89.5t42.5 -66.5l13 -22h4q-4 82 -4 197v958h43v-1206h-51l-676 977q-32 45 -61 89.5t-43 66.5l-13 22h-4q4 -82 4 -197v-958h-43v1206h52z" />
    <glyph glyph-name="O" unicode="O" horiz-adv-x="1236" 
d="M618 -12q-239 0 -375.5 160.5t-136.5 453.5t136.5 455t375.5 162t375.5 -162t136.5 -455t-136.5 -453.5t-375.5 -160.5zM618 1178q-224 0 -346 -153.5t-122 -422.5t121.5 -421t346.5 -152t347 152.5t122 420.5q0 269 -122 422.5t-347 153.5z" />
    <glyph glyph-name="P" unicode="P" horiz-adv-x="937" 
d="M227 1165v-633h252q181 0 268 76.5t87 245.5q0 158 -83.5 234.5t-271.5 76.5h-252zM227 0h-43v1206h299q203 0 298.5 -88.5t95.5 -263.5q0 -185 -98.5 -273.5t-295.5 -88.5h-256v-492z" />
    <glyph glyph-name="Q" unicode="Q" horiz-adv-x="1236" 
d="M1008 -219l-7 -39q-181 -12 -276 47.5t-131 198.5q-229 9 -358.5 169t-129.5 445q0 293 136.5 455t375.5 162t375.5 -162t136.5 -455q0 -287 -131 -446.5t-362 -167.5q37 -126 124 -171t247 -36zM618 1178q-224 0 -346 -153.5t-122 -422.5t121.5 -422t346.5 -153t347 153
t122 422t-122 422.5t-347 153.5z" />
    <glyph glyph-name="R" unicode="R" horiz-adv-x="1062" 
d="M991 0h-51q-45 48 -66 137l-49 207q-26 108 -95 159.5t-208 51.5h-295v-555h-43v1206h340q385 0 385 -327q0 -136 -79 -214.5t-197 -86.5v-5q94 -8 150.5 -57t80.5 -149l54 -224q20 -84 73 -143zM227 1165v-569h295q168 0 256 73t88 210q0 145 -84.5 215.5t-259.5 70.5
h-295z" />
    <glyph glyph-name="S" unicode="S" horiz-adv-x="952" 
d="M66 313l40 13q26 -146 116.5 -221.5t238.5 -75.5q157 0 246.5 69.5t89.5 204.5q0 125 -78.5 190t-249.5 111q-52 14 -86.5 24.5t-76.5 27t-69 32.5t-54.5 39.5t-43 50.5t-25.5 63t-10 79q0 80 28.5 140t78.5 93.5t109.5 49.5t128.5 16q162 0 255 -75t117 -239l-39 -8
q-26 150 -106 215.5t-227 65.5q-135 0 -218.5 -62.5t-83.5 -195.5q0 -43 9 -76t30.5 -59.5t46.5 -45.5t67.5 -36.5t82 -30t100.5 -29.5q90 -25 150 -50.5t110 -64.5t73.5 -94.5t23.5 -130.5q0 -153 -100.5 -234t-278.5 -81q-162 0 -265.5 84t-129.5 241z" />
    <glyph glyph-name="T" unicode="T" horiz-adv-x="993" 
d="M518 0h-43v1165h-434v41h911v-41h-434v-1165z" />
    <glyph glyph-name="U" unicode="U" horiz-adv-x="1179" 
d="M989 1206h43v-772q0 -114 -34 -201t-95 -140t-139.5 -79t-173.5 -26q-94 0 -173 26.5t-140 79.5t-95.5 140t-34.5 200v772h43v-770q0 -86 22 -155.5t59.5 -116t89 -78t109 -45.5t120.5 -14q80 0 149.5 23t126.5 70t90 128t33 188v770z" />
    <glyph glyph-name="V" unicode="V" horiz-adv-x="1050" 
d="M88 1206l369 -970q25 -68 42 -118t21 -66l4 -15h4q11 45 68 199l369 970h45l-457 -1206h-55l-457 1206h47z" />
    <glyph glyph-name="W" unicode="W" horiz-adv-x="1564" 
d="M805 1206l258 -874q24 -84 43.5 -158.5t27.5 -107.5l7 -33h4q25 111 80 299l256 874h43l-350 -1206h-60l-252 864q-24 84 -43.5 155t-26.5 101l-8 29h-4q-23 -97 -78 -285l-251 -864h-60l-350 1206h43l258 -874q24 -84 43.5 -158.5t26.5 -107.5l8 -33h4q25 109 80 299
l256 874h45z" />
    <glyph glyph-name="X" unicode="X" horiz-adv-x="999" 
d="M907 0l-323 467l-82 121h-4q-21 -31 -84 -121l-324 -467h-49l432 623l-405 583h51l299 -432l80 -117h4q21 29 82 117l299 432h49l-406 -583l432 -623h-51z" />
    <glyph glyph-name="Y" unicode="Y" horiz-adv-x="972" 
d="M90 1206l285 -477l110 -192h4q27 51 111 192l285 477h47l-424 -710v-496h-43v496l-424 710h49z" />
    <glyph glyph-name="Z" unicode="Z" horiz-adv-x="958" 
d="M879 1169l-650 -976l-100 -150v-6q33 4 162 4h610v-41h-825v37l651 979l98 149v4q-34 -4 -163 -4h-568v41h785v-37z" />
    <glyph glyph-name="bracketleft" unicode="[" horiz-adv-x="643" 
d="M236 1329v-1704h356v-41h-397v1786h397v-41h-356z" />
    <glyph glyph-name="backslash" unicode="\" horiz-adv-x="759" 
d="M158 1370l561 -1786h-43l-561 1786h43z" />
    <glyph glyph-name="bracketright" unicode="]" horiz-adv-x="643" 
d="M408 -375v1704h-357v41h398v-1786h-398v41h357z" />
    <glyph glyph-name="asciicircum" unicode="^" horiz-adv-x="933" 
d="M788 698l-221 422q-24 44 -48.5 94t-36.5 78l-13 27h-4q-45 -99 -98 -199l-222 -422h-43l349 670h32l348 -670h-43z" />
    <glyph glyph-name="underscore" unicode="_" horiz-adv-x="862" 
d="M123 -188v41h616v-41h-616z" />
    <glyph glyph-name="grave" unicode="`" horiz-adv-x="561" 
d="M377 1098h-31l-162 260h58z" />
    <glyph glyph-name="a" unicode="a" horiz-adv-x="880" 
d="M674 315v162q-86 12 -172 12q-180 0 -279.5 -60.5t-99.5 -186.5q0 -101 65 -158t185 -57q126 0 213.5 76.5t87.5 211.5zM715 662v-474q0 -82 17.5 -118.5t62.5 -36.5q16 0 34 6v-35q-15 -6 -36 -6q-62 0 -90.5 43.5t-28.5 144.5q-28 -94 -110.5 -146t-190.5 -52
q-139 0 -215 67t-76 187q0 142 110.5 214t309.5 72q80 0 172 -12v135q0 146 -67 207.5t-191 61.5q-240 0 -260 -232l-39 6q5 73 31 125.5t68 82t91.5 43t108.5 13.5q299 0 299 -296z" />
    <glyph glyph-name="b" unicode="b" horiz-adv-x="1015" 
d="M199 543v-156q0 -90 27 -161t73 -113.5t103 -64t120 -21.5q162 0 259.5 115t97.5 345q0 213 -92.5 323t-247.5 110q-67 0 -126.5 -22.5t-107.5 -66.5t-76.5 -118t-29.5 -170zM199 221l-9 -221h-32v1368h41v-663q26 116 118.5 184.5t221.5 68.5q174 0 277.5 -120.5
t103.5 -350.5q0 -245 -106 -372t-292 -127q-127 0 -212 66.5t-111 166.5z" />
    <glyph glyph-name="c" unicode="c" horiz-adv-x="899" 
d="M784 262l37 -6q-24 -134 -114.5 -201t-231.5 -67q-179 0 -279 121.5t-100 361.5q0 236 100 361.5t285 125.5q156 0 237.5 -77.5t96.5 -235.5l-39 -4q-14 138 -85.5 208.5t-209.5 70.5q-167 0 -255.5 -116.5t-88.5 -332.5q0 -219 87.5 -331.5t250.5 -112.5q259 0 309 235z
" />
    <glyph glyph-name="d" unicode="d" horiz-adv-x="1015" 
d="M817 403v156q0 176 -94.5 268.5t-228.5 92.5q-162 0 -259.5 -115.5t-97.5 -345.5q0 -213 92.5 -322.5t247.5 -109.5q67 0 126.5 22t107.5 66t76.5 118t29.5 170zM817 725v643h41v-1368h-33l-8 242q-26 -116 -118.5 -185t-221.5 -69q-174 0 -277.5 120.5t-103.5 350.5
q0 245 106 372t292 127q127 0 212 -66.5t111 -166.5z" />
    <glyph glyph-name="e" unicode="e" horiz-adv-x="897" 
d="M485 27q121 0 190 51.5t97 161.5l37 -7q-52 -245 -324 -245q-186 0 -287.5 122.5t-101.5 366.5q0 231 101.5 356t283.5 125q159 0 240.5 -95.5t81.5 -252.5q0 -52 -6 -108h-660q-10 -234 84.5 -354.5t263.5 -120.5zM139 539h621q2 20 2 71q0 140 -71 225t-210 85
q-156 0 -243 -101t-99 -280z" />
    <glyph glyph-name="f" unicode="f" horiz-adv-x="487" 
d="M199 909h-138v37h138v152q0 139 62 211.5t177 72.5q104 0 172 -53l-22 -35q-60 49 -150 49q-198 0 -198 -251v-146h241v-37h-241v-909h-41v909z" />
    <glyph glyph-name="g" unicode="g" horiz-adv-x="894" 
d="M442 958q187 0 277 -129q96 60 96 195l41 -6q-6 -88 -36.5 -136.5t-84.5 -80.5q37 -67 37 -162q0 -147 -90 -233.5t-240 -86.5q-84 0 -149 27q-90 -41 -90 -121q0 -112 168 -112h211q60 0 109.5 -12.5t92 -39.5t66.5 -76t24 -116q0 -83 -40 -144t-107 -93.5t-140 -47
t-155 -14.5t-150.5 14t-126.5 44t-91 85.5t-33 130.5q0 115 72.5 180t183.5 70q-58 4 -91.5 39.5t-33.5 91.5q0 47 27.5 82t70.5 55q-70 39 -108.5 110t-38.5 167q0 147 89.5 233t239.5 86zM72 -154q0 -84 50 -139t128 -77.5t182 -22.5q78 0 146 14t127.5 43t94 81.5
t34.5 123.5q0 101 -67.5 153t-191.5 52h-204q-131 0 -215 -55.5t-84 -172.5zM154 639q0 -129 78 -206t210 -77t210.5 77t78.5 206t-78.5 205t-210.5 76t-210 -76t-78 -205z" />
    <glyph glyph-name="h" unicode="h" horiz-adv-x="976" 
d="M199 1368v-682q26 115 116.5 193.5t219.5 78.5q134 0 211 -75.5t77 -231.5v-651h-41v637q0 138 -64.5 210.5t-182.5 72.5q-142 0 -239 -109.5t-97 -292.5v-518h-41v1368h41z" />
    <glyph glyph-name="i" unicode="i" horiz-adv-x="368" 
d="M147 1219q0 36 37 36t37 -36q0 -37 -37 -37t-37 37zM164 946h41v-946h-41v946z" />
    <glyph glyph-name="j" unicode="j" horiz-adv-x="368" 
d="M164 946h41v-1100q0 -129 -64.5 -196.5t-193.5 -67.5v37q105 0 161 55t56 179v1093zM147 1219q0 36 37 36t37 -36q0 -37 -37 -37t-37 37z" />
    <glyph glyph-name="k" unicode="k" horiz-adv-x="823" 
d="M348 500l455 -500h-55l-435 477h-114v-477h-41v1368h41v-852h112l391 430h54z" />
    <glyph glyph-name="l" unicode="l" horiz-adv-x="393" 
d="M342 43v-39q-30 -10 -59 -10q-140 0 -140 160v1214h41v-1210q0 -125 99 -125q29 0 59 10z" />
    <glyph glyph-name="m" unicode="m" horiz-adv-x="1533" 
d="M788 690q26 119 109 193.5t209 74.5q274 0 274 -307v-651h-41v637q0 283 -233 283q-139 0 -226 -108t-87 -294v-518h-41v637q0 283 -234 283q-139 0 -226 -108t-87 -294v-518h-41v946h33l8 -256q24 119 105.5 193.5t207.5 74.5q253 0 270 -268z" />
    <glyph glyph-name="n" unicode="n" horiz-adv-x="983" 
d="M197 946l8 -260q26 115 116.5 193.5t219.5 78.5q134 0 211 -75.5t77 -231.5v-651h-41v637q0 138 -64.5 210.5t-182.5 72.5q-142 0 -239 -109.5t-97 -292.5v-518h-41v946h33z" />
    <glyph glyph-name="o" unicode="o" horiz-adv-x="960" 
d="M479 -12q-183 0 -283 124.5t-100 360.5t100 360.5t283 124.5q184 0 284.5 -124.5t100.5 -360.5t-100.5 -360.5t-284.5 -124.5zM479 920q-164 0 -253 -114.5t-89 -332.5t89 -332t253 -114q166 0 255 114t89 332t-89.5 332.5t-254.5 114.5z" />
    <glyph glyph-name="p" unicode="p" horiz-adv-x="1021" 
d="M205 543v-156q0 -90 27 -161t73 -113.5t103 -64t120 -21.5q162 0 259.5 115t97.5 345q0 213 -92.5 323t-247.5 110q-67 0 -126.5 -22.5t-107.5 -66.5t-76.5 -118t-29.5 -170zM205 221v-637h-41v1362h33l8 -241q26 116 118.5 184.5t221.5 68.5q174 0 277.5 -120.5
t103.5 -350.5q0 -245 -106 -372t-292 -127q-127 0 -212 66.5t-111 166.5z" />
    <glyph glyph-name="q" unicode="q" horiz-adv-x="1021" 
d="M817 403v156q0 176 -94.5 268.5t-228.5 92.5q-162 0 -259.5 -115.5t-97.5 -345.5q0 -213 92.5 -322.5t247.5 -109.5q67 0 126.5 22t107.5 66t76.5 118t29.5 170zM817 725l8 221h33v-1362h-41v658q-26 -116 -118.5 -185t-221.5 -69q-174 0 -277.5 120.5t-103.5 350.5
q0 245 106 372t292 127q127 0 212 -66.5t111 -166.5z" />
    <glyph glyph-name="r" unicode="r" horiz-adv-x="638" 
d="M598 934l-12 -39q-48 25 -103 25q-87 0 -151.5 -60t-95.5 -156.5t-31 -214.5v-489h-41v946h33l8 -284q18 136 89.5 216t188.5 80q69 0 115 -24z" />
    <glyph glyph-name="s" unicode="s" horiz-adv-x="786" 
d="M57 227l41 11q46 -211 287 -211q130 0 202 52t72 157q0 92 -56 141.5t-169 77.5l-106 26q-43 10 -74 21t-64 30t-53.5 43t-33.5 60.5t-13 83.5q0 83 43 138.5t106 78t140 22.5q134 0 210 -57.5t97 -187.5l-39 -6q-23 114 -85 163.5t-183 49.5q-108 0 -178 -50t-70 -151
q0 -48 13.5 -82t44.5 -56t63 -34.5t86 -26.5l108 -28q127 -34 190.5 -90t63.5 -166q0 -120 -84.5 -184t-230.5 -64q-133 0 -217.5 59t-110.5 180z" />
    <glyph glyph-name="t" unicode="t" horiz-adv-x="593" 
d="M528 94l25 -28q-66 -78 -195 -78q-94 0 -142 57.5t-48 167.5v696h-137v37h137v201l43 8v-209h281v-37h-283v-692q0 -190 149 -190q56 0 94 14.5t76 52.5z" />
    <glyph glyph-name="u" unicode="u" horiz-adv-x="962" 
d="M766 0l-8 254q-24 -117 -113 -191.5t-217 -74.5q-134 0 -211.5 75.5t-77.5 231.5v651h41v-639q0 -140 64.5 -210t183.5 -70q146 0 238 108t92 293v518h41v-946h-33z" />
    <glyph glyph-name="v" unicode="v" horiz-adv-x="829" 
d="M391 0l-360 946h43l293 -766q15 -37 26.5 -74t16.5 -55l4 -18h4q14 61 47 145l291 768h43l-361 -946h-47z" />
    <glyph glyph-name="w" unicode="w" horiz-adv-x="1232" 
d="M641 946l195 -674q24 -82 39 -141.5t19 -78.5l3 -19h4q11 55 64 239l194 674h43l-274 -946h-56l-190 659q-24 83 -40 145.5t-20 83.5l-4 21h-4q-10 -64 -63 -250l-191 -659h-55l-274 946h43l194 -674q24 -82 40 -141.5t20 -78.5l4 -19h4q8 55 61 239l195 674h49z" />
    <glyph glyph-name="x" unicode="x" horiz-adv-x="806" 
d="M717 0l-234 336q-27 40 -46.5 70.5t-24.5 40.5l-6 10h-5q-19 -31 -82 -123l-231 -334h-47l338 487l-318 459h50l211 -305q28 -41 48 -71.5t26 -41.5l5 -10h5q18 31 79 121l213 307h47l-317 -459l338 -487h-49z" />
    <glyph glyph-name="y" unicode="y" horiz-adv-x="831" 
d="M74 946l293 -778q13 -35 24 -69t16 -51l5 -17h4q18 53 49 133l293 782h43l-363 -964q-33 -88 -57 -144t-54.5 -111.5t-60.5 -85.5t-69 -48.5t-86 -18.5q-83 0 -140 37l17 41q56 -39 123 -39q88 0 149.5 82.5t132.5 284.5l-362 966h43z" />
    <glyph glyph-name="z" unicode="z" horiz-adv-x="804" 
d="M721 918l-502 -730q-30 -44 -57 -81.5t-39 -52.5l-12 -15v-4q47 2 176 2h456v-37h-682v29l500 729q30 44 58 82t41 54l12 15v4q-49 -4 -178 -4h-410v37h637v-28z" />
    <glyph glyph-name="braceleft" unicode="{" horiz-adv-x="827" 
d="M207 502q151 0 151 192v412q0 274 238 274q91 0 180 -39l-16 -38q-74 38 -164 38q-195 0 -195 -235v-418q0 -196 -145 -205v-4q145 -9 145 -205v-417q0 -236 195 -236q88 0 164 39l16 -39q-89 -39 -180 -39q-238 0 -238 275v411q0 193 -151 193h-94v41h94z" />
    <glyph glyph-name="bar" unicode="|" horiz-adv-x="491" 
d="M266 -416h-41v1786h41v-1786z" />
    <glyph glyph-name="braceright" unicode="}" horiz-adv-x="827" 
d="M621 502h94v-41h-94q-152 0 -152 -193v-411q0 -275 -238 -275q-91 0 -180 39l17 39q76 -39 163 -39q195 0 195 236v417q0 196 145 205v4q-145 9 -145 205v418q0 235 -195 235q-89 0 -163 -38l-17 38q89 39 180 39q238 0 238 -274v-412q0 -192 152 -192z" />
    <glyph glyph-name="asciitilde" unicode="~" horiz-adv-x="833" 
d="M565 444q-28 0 -58 12.5t-49 26t-50 37.5q-30 24 -48 36.5t-44 24t-48 11.5q-111 0 -73 -154h-35q-33 83 1.5 138t106.5 55q28 0 58 -12.5t50 -26t50 -37.5q31 -24 48 -36.5t43 -24t48 -11.5q112 0 74 154h35q33 -83 -2 -138t-107 -55z" />
    <glyph glyph-name="nbspace" unicode="&#xa0;" horiz-adv-x="313" 
 />
    <glyph glyph-name="exclamdown" unicode="&#xa1;" horiz-adv-x="462" 
d="M256 -248h-49l8 866h33zM195 922q0 36 36 36q37 0 37 -36q0 -37 -37 -37q-36 0 -36 37z" />
    <glyph glyph-name="cent" unicode="&#xa2;" horiz-adv-x="970" 
d="M512 -217v205q-192 9 -301 139t-109 365q0 236 108.5 366.5t301.5 138.5v179h39v-179q255 -9 346 -237l-37 -17q-82 206 -309 215v-931q116 1 191.5 52.5t119.5 151.5l37 -18q-100 -219 -348 -225v-205h-39zM143 492q0 -210 96.5 -333t272.5 -132v931
q-179 -7 -274 -130.5t-95 -335.5z" />
    <glyph glyph-name="sterling" unicode="&#xa3;" horiz-adv-x="1017" 
d="M662 444h-334q20 -40 30 -64t19.5 -59t9.5 -67q0 -85 -35 -140.5t-86 -74.5h393q94 0 144 27.5t69 99.5l43 -16q-21 -82 -80.5 -116t-166.5 -34h-553v39h59q72 0 121 60t49 155q0 46 -15.5 88t-47.5 102h-166v39h145q-55 116 -55 215q0 151 89.5 225t233.5 74
q286 0 328 -272l-41 -8q-41 241 -287 241q-127 0 -203.5 -65.5t-76.5 -194.5q0 -95 59 -215h355v-39z" />
    <glyph glyph-name="currency" unicode="&#xa4;" horiz-adv-x="925" 
d="M659 825l154 154l31 -31l-162 -162q37 -82 37 -190q0 -111 -37 -190l162 -162l-31 -31l-154 154q-68 -95 -196 -95q-132 0 -197 95l-153 -154l-31 31l162 162q-37 73 -37 190q0 115 37 190l-162 162l31 31l153 -154q67 95 197 95q126 0 196 -95zM463 881
q-104 0 -159.5 -72.5t-55.5 -212.5t55.5 -212.5t159.5 -72.5t159.5 72.5t55.5 212.5t-55.5 212.5t-159.5 72.5z" />
    <glyph glyph-name="yen" unicode="&#xa5;" horiz-adv-x="860" 
d="M762 313h-311v-313h-41v313h-316v39h316v51l-72 115h-244v39h221l-264 428h47l238 -385l94 -158h4q20 41 92 158l238 385h45l-264 -428h217v-39h-242l-69 -115v-51h311v-39z" />
    <glyph glyph-name="brokenbar" unicode="&#xa6;" horiz-adv-x="491" 
d="M266 569h-41v801h41v-801zM266 -416h-41v801h41v-801z" />
    <glyph glyph-name="section" unicode="&#xa7;" horiz-adv-x="897" 
d="M143 37l39 6q23 -114 87 -163.5t186 -49.5q108 0 180 52.5t72 154.5q0 93 -49.5 140t-143.5 71l-123 31q-126 32 -190 87t-64 162q0 71 43 131t107 93q-140 61 -140 221q0 122 82.5 184t202.5 62q135 0 212.5 -58t98.5 -188l-38 -6q-23 114 -87 163.5t-186 49.5
q-107 0 -175.5 -52.5t-68.5 -154.5q0 -48 14 -84t41.5 -60t60 -38.5t77.5 -26.5l123 -33q61 -17 103 -35.5t75.5 -48t49.5 -72t16 -100.5q0 -68 -39.5 -126.5t-100.5 -90.5q140 -61 140 -221q0 -63 -25 -111.5t-67.5 -77t-93.5 -43t-107 -14.5q-135 0 -213 58t-99 188z
M707 475q0 92 -53 140.5t-162 78.5l-166 45q-62 -28 -105 -85t-43 -126q0 -87 56.5 -136t168.5 -77l168 -43q59 27 97.5 81.5t38.5 121.5z" />
    <glyph glyph-name="dieresis" unicode="&#xa8;" horiz-adv-x="749" 
d="M184 1219q0 36 37 36t37 -36q0 -37 -37 -37t-37 37zM492 1219q0 36 36 36q37 0 37 -36q0 -37 -37 -37q-36 0 -36 37z" />
    <glyph glyph-name="copyright" unicode="&#xa9;" horiz-adv-x="1454" 
d="M989 401l35 -16q-81 -178 -287 -178q-160 0 -252 103t-92 296t91 296.5t251 103.5q210 0 287 -189l-35 -18q-34 85 -95 126.5t-157 41.5q-149 0 -224 -94t-75 -267t76.5 -266.5t224.5 -93.5q98 0 158 38t94 117zM113 602q0 175 82.5 317t222.5 221t309 79t309 -79
t222.5 -221t82.5 -317t-82.5 -316.5t-222.5 -219.5t-309 -78t-309 78t-222.5 219.5t-82.5 316.5zM152 602q0 -164 77.5 -297t209 -206.5t288.5 -73.5t289 73.5t209.5 206.5t77.5 297q0 123 -45.5 231.5t-123.5 184.5t-183.5 120t-223.5 44q-157 0 -288.5 -74t-209 -208
t-77.5 -298z" />
    <glyph glyph-name="ordfeminine" unicode="&#xaa;" horiz-adv-x="661" 
d="M461 799v104q-50 6 -96 6q-248 0 -248 -155q0 -62 39.5 -97.5t113.5 -35.5q79 0 135 47.5t56 130.5zM502 1032v-311q0 -51 12 -72.5t41 -21.5q15 0 25 4v-35q-12 -6 -31 -6q-43 0 -65 28.5t-23 92.5q-18 -61 -72 -94t-123 -33q-91 0 -141.5 44.5t-50.5 123.5q0 94 74 143
t212 49q46 0 101 -6v88q0 164 -162 164q-151 0 -164 -141l-37 6q6 91 62.5 132.5t140.5 41.5q93 0 147 -47t54 -150z" />
    <glyph glyph-name="guillemotleft" unicode="&#xab;" horiz-adv-x="831" 
d="M383 479v-4q14 -12 86 -96l238 -279l-33 -26l-342 403l342 404l33 -27l-238 -279zM174 479v-4q14 -12 86 -96l238 -279l-33 -26l-342 403l342 404l33 -27l-238 -279z" />
    <glyph glyph-name="logicalnot" unicode="&#xac;" horiz-adv-x="1019" 
d="M866 604h-753v41h794v-385h-41v344z" />
    <glyph glyph-name="uni00AD" unicode="&#xad;" horiz-adv-x="786" 
d="M164 551v39h459v-39h-459z" />
    <glyph glyph-name="registered" unicode="&#xae;" horiz-adv-x="1454" 
d="M1030 246h-45q-25 25 -41 84l-31 127q-16 66 -53 94.5t-123 28.5h-200v-334h-41v739h245q246 0 246 -201q0 -86 -51.5 -133.5t-126.5 -52.5q111 -11 141 -127l35 -137q12 -50 45 -88zM537 948v-332h200q209 0 209 168q0 86 -51.5 125t-161.5 39h-196zM113 602
q0 175 82.5 317t222.5 221t309 79t309 -79t222.5 -221t82.5 -317t-82.5 -316.5t-222.5 -219.5t-309 -78t-309 78t-222.5 219.5t-82.5 316.5zM154 602q0 -164 77 -297t208 -206.5t288 -73.5t288 73.5t208 206.5t77 297q0 165 -77 298.5t-208 207.5t-288 74t-288 -74
t-208 -207.5t-77 -298.5z" />
    <glyph glyph-name="macron" unicode="&#xaf;" horiz-adv-x="831" 
d="M606 1157h-381v39h381v-39z" />
    <glyph glyph-name="degree" unicode="&#xb0;" horiz-adv-x="532" 
d="M82 1044q0 78 52.5 132.5t131.5 54.5t132 -55t53 -132t-53 -130.5t-132 -53.5t-131.5 53.5t-52.5 130.5zM125 1044q0 -63 39 -105t102 -42t102.5 42t39.5 105t-39.5 106.5t-102.5 43.5t-102 -43.5t-39 -106.5z" />
    <glyph glyph-name="plusminus" unicode="&#xb1;" 
d="M113 653h393v312h41v-312h401v-41h-401v-336h-41v336h-393v41zM948 129h-835v41h835v-41z" />
    <glyph glyph-name="twosuperior" unicode="&#xb2;" horiz-adv-x="567" 
d="M518 520v-37h-469v35q63 43 104.5 73t102.5 82.5t98 97.5t64.5 103t27.5 113q0 92 -49.5 142.5t-132.5 50.5q-84 0 -129 -52.5t-45 -123.5l-39 6q0 85 56 146t157 61q98 0 160.5 -59t62.5 -171q0 -57 -27.5 -118.5t-69 -112.5t-94 -98.5t-99 -79.5t-86.5 -54v-4h407z" />
    <glyph glyph-name="threesuperior" unicode="&#xb3;" horiz-adv-x="534" 
d="M270 860v-4q92 -2 152.5 -52t60.5 -134q0 -91 -64 -144t-161 -53q-100 0 -161 47t-70 123l39 8q24 -141 192 -141q80 0 132 43.5t52 116.5q0 80 -64.5 124.5t-193.5 45.5v34q234 10 234 168q0 68 -44.5 103t-113.5 35q-70 0 -114 -37.5t-56 -106.5l-39 11q11 75 65 122.5
t144 47.5q89 0 145 -45t56 -130q0 -76 -53 -126t-138 -56z" />
    <glyph glyph-name="acute" unicode="&#xb4;" horiz-adv-x="561" 
d="M215 1098h-31l135 260h58z" />
    <glyph glyph-name="mu" unicode="&#xb5;" horiz-adv-x="962" 
d="M766 0l-8 254q-24 -117 -113 -191.5t-217 -74.5q-187 0 -248 139v-543h-41v1362h41v-639q0 -140 64.5 -210t183.5 -70q146 0 238 108t92 293v518h41v-946h-33z" />
    <glyph glyph-name="paragraph" unicode="&#xb6;" horiz-adv-x="833" 
d="M590 1165v-1282q0 -104 -47.5 -160.5t-136.5 -56.5q-107 0 -183 66l25 37q73 -64 158 -64q141 0 141 178v733h-64q-195 0 -298 78t-103 217t103 217t298 78h269v-41h-162z" />
    <glyph glyph-name="periodcentered" unicode="&#xb7;" horiz-adv-x="442" 
d="M184 543q0 37 37 37t37 -37t-37 -37t-37 37z" />
    <glyph glyph-name="periodcentered" unicode="&#x22c5;" horiz-adv-x="442" 
d="M184 543q0 37 37 37t37 -37t-37 -37t-37 37z" />
    <glyph glyph-name="cedilla" unicode="&#xb8;" horiz-adv-x="722" 
d="M539 -260q0 -72 -46.5 -109t-121.5 -37q-121 0 -187 89l27 28q63 -82 160 -82q127 0 127 111q0 114 -191 127l33 143h33l-27 -114q80 -5 136.5 -46t56.5 -110z" />
    <glyph glyph-name="onesuperior" unicode="&#xb9;" horiz-adv-x="571" 
d="M547 483h-490v35h238v645l-225 -49v39l266 59v-694h211v-35z" />
    <glyph glyph-name="ordmasculine" unicode="&#xba;" horiz-adv-x="681" 
d="M338 584q-121 0 -188.5 83t-67.5 238q0 158 67 241t189 83q125 0 193.5 -83t68.5 -241q0 -155 -69 -238t-193 -83zM338 1190q-104 0 -159.5 -72.5t-55.5 -212.5q0 -138 55.5 -210t159.5 -72q106 0 161.5 71.5t55.5 210.5q0 140 -56 212.5t-161 72.5z" />
    <glyph glyph-name="guillemotright" unicode="&#xbb;" horiz-adv-x="831" 
d="M449 475v4q-15 12 -87 96l-237 279l33 27l342 -404l-342 -403l-33 26l237 279q32 37 53.5 61t27.5 30zM657 475v4q-14 12 -86 96l-237 279l33 27l342 -404l-342 -403l-33 26l237 279z" />
    <glyph glyph-name="onequarter" unicode="&#xbc;" horiz-adv-x="1394" 
d="M547 483h-490v35h238v645l-225 -49v39l266 59v-694h211v-35zM408 0l708 1206h45l-708 -1206h-45zM1184 0v201h-381v30l383 492h39v-487h123v-35h-123v-201h-41zM1184 236v342l4 96h-4q-17 -35 -64 -94l-202 -261q-21 -26 -38.5 -46.5t-24.5 -27.5l-7 -7v-5q37 3 84 3h252
z" />
    <glyph glyph-name="onehalf" unicode="&#xbd;" horiz-adv-x="1482" 
d="M547 483h-490v35h238v645l-225 -49v39l266 59v-694h211v-35zM408 0l708 1206h45l-708 -1206h-45zM1434 37v-37h-469v35q63 43 104.5 73t102.5 82.5t98 97.5t64.5 103t27.5 113q0 92 -49 142t-133 50t-129 -52.5t-45 -123.5l-39 6q0 85 56 146t157 61q98 0 160.5 -58.5
t62.5 -170.5q0 -71 -40.5 -146.5t-103 -137t-122 -106.5t-111.5 -73v-4h408z" />
    <glyph glyph-name="threequarters" unicode="&#xbe;" horiz-adv-x="1296" 
d="M270 860v-4q92 -2 152.5 -52t60.5 -134q0 -91 -64 -144t-161 -53q-100 0 -161 47t-70 123l39 8q24 -141 192 -141q80 0 132 43.5t52 116.5q0 80 -64.5 124.5t-193.5 45.5v34q234 10 234 168q0 68 -44.5 103t-113.5 35q-70 0 -114 -37.5t-56 -106.5l-39 11q11 75 65 122.5
t144 47.5q89 0 145 -45t56 -130q0 -76 -53 -126t-138 -56zM309 0l709 1206h45l-709 -1206h-45zM1085 0v201h-380v30l382 492h39v-487h123v-35h-123v-201h-41zM1085 236v342l5 96h-5q-16 -35 -63 -94l-203 -261l-69 -81v-5q37 3 84 3h251z" />
    <glyph glyph-name="questiondown" unicode="&#xbf;" horiz-adv-x="811" 
d="M717 25l41 -13q-26 -125 -110.5 -198.5t-229.5 -73.5q-166 0 -262.5 92t-96.5 248q0 89 30.5 157.5t84.5 109.5t121.5 62t146.5 21v207h43v-246h-47q-145 0 -240.5 -77.5t-95.5 -233.5q0 -141 86 -220t230 -79q127 0 202.5 65t96.5 179zM500 922q0 -37 -37 -37t-37 37
q0 36 37 36t37 -36z" />
    <glyph glyph-name="Agrave" unicode="&#xc0;" horiz-adv-x="1048" 
d="M981 0l-166 418h-582l-165 -418h-48l480 1206h49l479 -1206h-47zM416 874l-166 -415h549l-166 415q-33 81 -59.5 153.5t-37.5 104.5l-10 33h-4q-32 -109 -106 -291zM543 1282h-31l-162 260h58z" />
    <glyph glyph-name="Aacute" unicode="&#xc1;" horiz-adv-x="1048" 
d="M981 0l-166 418h-582l-165 -418h-48l480 1206h49l479 -1206h-47zM416 874l-166 -415h549l-166 415q-33 81 -59.5 153.5t-37.5 104.5l-10 33h-4q-32 -109 -106 -291zM532 1282h-30l135 260h57z" />
    <glyph glyph-name="Acircumflex" unicode="&#xc2;" horiz-adv-x="1048" 
d="M981 0l-166 418h-582l-165 -418h-48l480 1206h49l479 -1206h-47zM416 874l-166 -415h549l-166 415q-33 81 -59.5 153.5t-37.5 104.5l-10 33h-4q-32 -109 -106 -291zM512 1542h25l219 -260h-45l-113 131l-72 88h-4q-28 -37 -71 -88l-113 -131h-45z" />
    <glyph glyph-name="Atilde" unicode="&#xc3;" horiz-adv-x="1048" 
d="M981 0l-166 418h-582l-165 -418h-48l480 1206h49l479 -1206h-47zM416 874l-166 -415h549l-166 415q-33 81 -59.5 153.5t-37.5 104.5l-10 33h-4q-32 -109 -106 -291zM662 1307q-40 0 -73.5 19t-74.5 54q-30 27 -45 38.5t-38.5 22.5t-45.5 11q-54 0 -75.5 -38t-2.5 -116
h-31q-32 83 2.5 137t106.5 54q28 0 56 -12t45.5 -25t45.5 -37q30 -26 45.5 -38t39 -23t45.5 -11q54 0 75 37.5t2 116.5h31q32 -83 -2 -136.5t-106 -53.5z" />
    <glyph glyph-name="Adieresis" unicode="&#xc4;" horiz-adv-x="1048" 
d="M981 0l-166 418h-582l-165 -418h-48l480 1206h49l479 -1206h-47zM416 874l-166 -415h549l-166 415q-33 81 -59.5 153.5t-37.5 104.5l-10 33h-4q-32 -109 -106 -291zM334 1362q0 37 37 37t37 -37t-37 -37t-37 37zM641 1362q0 37 37 37t37 -37t-37 -37t-37 37z" />
    <glyph glyph-name="Aring" unicode="&#xc5;" horiz-adv-x="1048" 
d="M981 0l-166 418h-582l-165 -418h-48l480 1206h49l479 -1206h-47zM416 874l-166 -415h549l-166 415q-33 81 -59.5 153.5t-37.5 104.5l-10 33h-4q-32 -109 -106 -291zM524 1270q-73 0 -115 43t-42 108t42 108.5t115 43.5t115.5 -43.5t42.5 -108.5t-42.5 -108t-115.5 -43z
M524 1538q-55 0 -85.5 -33t-30.5 -84t30.5 -83.5t85.5 -32.5t86 32.5t31 83.5t-31 84t-86 33z" />
    <glyph glyph-name="AE" unicode="&#xc6;" horiz-adv-x="1593" 
d="M1481 0h-643v424h-488l-280 -424h-50l801 1206h660v-41h-600v-538h536v-41h-536v-545h600v-41zM846 1171l-469 -706h461v389q0 90 3 169.5t6 113.5l3 34h-4z" />
    <glyph glyph-name="Ccedilla" unicode="&#xc7;" horiz-adv-x="1122" 
d="M809 -260q0 -72 -46.5 -109t-121.5 -37q-120 0 -186 89l26 28q63 -82 160 -82q127 0 127 111q0 114 -190 127l26 121q-232 8 -365 166.5t-133 447.5q0 296 141.5 456.5t381.5 160.5q310 0 420 -289l-37 -19q-102 267 -383 267q-227 0 -353 -153.5t-126 -422.5t126 -421
t353 -152q285 0 383 254l39 -21q-114 -268 -414 -274l-21 -92q80 -5 136.5 -46t56.5 -110z" />
    <glyph glyph-name="Egrave" unicode="&#xc8;" horiz-adv-x="940" 
d="M827 41v-41h-643v1206h643v-41h-600v-538h537v-41h-537v-545h600zM520 1282h-31l-161 260h57z" />
    <glyph glyph-name="Eacute" unicode="&#xc9;" horiz-adv-x="940" 
d="M827 41v-41h-643v1206h643v-41h-600v-538h537v-41h-537v-545h600zM510 1282h-31l135 260h58z" />
    <glyph glyph-name="Ecircumflex" unicode="&#xca;" horiz-adv-x="940" 
d="M827 41v-41h-643v1206h643v-41h-600v-538h537v-41h-537v-545h600zM489 1542h25l219 -260h-45l-113 131l-71 88h-4q-29 -37 -72 -88l-113 -131h-45z" />
    <glyph glyph-name="Edieresis" unicode="&#xcb;" horiz-adv-x="940" 
d="M827 41v-41h-643v1206h643v-41h-600v-538h537v-41h-537v-545h600zM311 1362q0 37 37 37t37 -37t-37 -37t-37 37zM618 1362q0 37 37 37t37 -37t-37 -37t-37 37z" />
    <glyph glyph-name="Igrave" unicode="&#xcc;" horiz-adv-x="411" 
d="M184 1206h43v-1206h-43v1206zM223 1282h-30l-162 260h57z" />
    <glyph glyph-name="Iacute" unicode="&#xcd;" horiz-adv-x="411" 
d="M184 1206h43v-1206h-43v1206zM213 1282h-31l135 260h58z" />
    <glyph glyph-name="Icircumflex" unicode="&#xce;" horiz-adv-x="411" 
d="M184 1206h43v-1206h-43v1206zM193 1542h24l219 -260h-45l-112 131l-72 88h-4q-29 -37 -72 -88l-113 -131h-45z" />
    <glyph glyph-name="Idieresis" unicode="&#xcf;" horiz-adv-x="411" 
d="M184 1206h43v-1206h-43v1206zM14 1362q0 37 37 37t37 -37t-37 -37t-37 37zM322 1362q0 37 36 37q37 0 37 -37t-37 -37q-36 0 -36 37z" />
    <glyph glyph-name="Eth" unicode="&#xd0;" horiz-adv-x="1196" 
d="M508 0h-309v586h-138v41h138v579h311q131 0 234.5 -33t182 -102t121 -184.5t42.5 -270.5q0 -130 -30.5 -235t-84 -175t-128 -117t-159 -68t-180.5 -21zM242 41h262q263 0 403 150t140 425q0 266 -134 407.5t-407 141.5h-264v-538h333v-41h-333v-545z" />
    <glyph glyph-name="Ntilde" unicode="&#xd1;" horiz-adv-x="1255" 
d="M236 1206l675 -977q32 -45 61.5 -89.5t42.5 -66.5l13 -22h4q-4 82 -4 197v958h43v-1206h-51l-676 977q-32 45 -61 89.5t-43 66.5l-13 22h-4q4 -82 4 -197v-958h-43v1206h52zM764 1307q-40 0 -73.5 19t-74.5 54q-30 27 -45 38.5t-38.5 22.5t-45.5 11q-54 0 -75 -37.5
t-2 -116.5h-31q-33 83 1.5 137t106.5 54q28 0 56 -12t46.5 -25.5t45.5 -36.5q30 -27 45 -38.5t38.5 -22.5t45.5 -11q54 0 75.5 38t2.5 116h30q32 -83 -2 -136.5t-106 -53.5z" />
    <glyph glyph-name="Ograve" unicode="&#xd2;" horiz-adv-x="1236" 
d="M618 -12q-239 0 -375.5 160.5t-136.5 453.5t136.5 455t375.5 162t375.5 -162t136.5 -455t-136.5 -453.5t-375.5 -160.5zM618 1178q-224 0 -346 -153.5t-122 -422.5t121.5 -421t346.5 -152t347 152.5t122 420.5q0 269 -122 422.5t-347 153.5zM637 1282h-31l-162 260h58z
" />
    <glyph glyph-name="Oacute" unicode="&#xd3;" horiz-adv-x="1236" 
d="M618 -12q-239 0 -375.5 160.5t-136.5 453.5t136.5 455t375.5 162t375.5 -162t136.5 -455t-136.5 -453.5t-375.5 -160.5zM618 1178q-224 0 -346 -153.5t-122 -422.5t121.5 -421t346.5 -152t347 152.5t122 420.5q0 269 -122 422.5t-347 153.5zM627 1282h-31l135 260h57z
" />
    <glyph glyph-name="Ocircumflex" unicode="&#xd4;" horiz-adv-x="1236" 
d="M618 -12q-239 0 -375.5 160.5t-136.5 453.5t136.5 455t375.5 162t375.5 -162t136.5 -455t-136.5 -453.5t-375.5 -160.5zM618 1178q-224 0 -346 -153.5t-122 -422.5t121.5 -421t346.5 -152t347 152.5t122 420.5q0 269 -122 422.5t-347 153.5zM606 1542h25l219 -260h-45
l-113 131l-71 88h-5q-28 -37 -71 -88l-113 -131h-45z" />
    <glyph glyph-name="Otilde" unicode="&#xd5;" horiz-adv-x="1236" 
d="M618 -12q-239 0 -375.5 160.5t-136.5 453.5t136.5 455t375.5 162t375.5 -162t136.5 -455t-136.5 -453.5t-375.5 -160.5zM618 1178q-224 0 -346 -153.5t-122 -422.5t121.5 -421t346.5 -152t347 152.5t122 420.5q0 269 -122 422.5t-347 153.5zM756 1307q-40 0 -73.5 19
t-74.5 54q-30 27 -45 38.5t-38.5 22.5t-45.5 11q-54 0 -75.5 -38t-2.5 -116h-30q-33 83 1.5 137t106.5 54q28 0 56 -12t46.5 -25.5t45.5 -36.5q30 -27 45 -38.5t38.5 -22.5t45.5 -11q54 0 75.5 38t2.5 116h30q32 -83 -2 -136.5t-106 -53.5z" />
    <glyph glyph-name="Odieresis" unicode="&#xd6;" horiz-adv-x="1236" 
d="M618 -12q-239 0 -375.5 160.5t-136.5 453.5t136.5 455t375.5 162t375.5 -162t136.5 -455t-136.5 -453.5t-375.5 -160.5zM618 1178q-224 0 -346 -153.5t-122 -422.5t121.5 -421t346.5 -152t347 152.5t122 420.5q0 269 -122 422.5t-347 153.5zM428 1362q0 37 37 37t37 -37
t-37 -37t-37 37zM735 1362q0 37 37 37t37 -37t-37 -37t-37 37z" />
    <glyph glyph-name="multiply" unicode="&#xd7;" horiz-adv-x="942" 
d="M143 211l299 297l-299 299l29 29l299 -299l299 299l29 -29l-299 -299l299 -297l-29 -29l-299 297l-299 -297z" />
    <glyph glyph-name="Oslash" unicode="&#xd8;" horiz-adv-x="1236" 
d="M133 -12l-31 24l127 154q-123 157 -123 436q0 293 136.5 455t375.5 162q224 0 361 -146l121 144l30 -25l-124 -152q124 -161 124 -438q0 -293 -136.5 -453.5t-375.5 -160.5q-229 0 -364 147zM618 1178q-224 0 -346 -153.5t-122 -422.5q0 -255 106 -403l696 839
q-124 140 -334 140zM1087 602q0 256 -110 406l-694 -840q120 -139 335 -139q225 0 347 152.5t122 420.5z" />
    <glyph glyph-name="Ugrave" unicode="&#xd9;" horiz-adv-x="1179" 
d="M989 1206h43v-772q0 -114 -34 -201t-95 -140t-139.5 -79t-173.5 -26q-94 0 -173 26.5t-140 79.5t-95.5 140t-34.5 200v772h43v-770q0 -86 22 -155.5t59.5 -116t89 -78t109 -45.5t120.5 -14q80 0 149.5 23t126.5 70t90 128t33 188v770zM608 1282h-30l-162 260h57z" />
    <glyph glyph-name="Uacute" unicode="&#xda;" horiz-adv-x="1179" 
d="M989 1206h43v-772q0 -114 -34 -201t-95 -140t-139.5 -79t-173.5 -26q-94 0 -173 26.5t-140 79.5t-95.5 140t-34.5 200v772h43v-770q0 -86 22 -155.5t59.5 -116t89 -78t109 -45.5t120.5 -14q80 0 149.5 23t126.5 70t90 128t33 188v770zM598 1282h-31l135 260h58z" />
    <glyph glyph-name="Ucircumflex" unicode="&#xdb;" horiz-adv-x="1179" 
d="M989 1206h43v-772q0 -114 -34 -201t-95 -140t-139.5 -79t-173.5 -26q-94 0 -173 26.5t-140 79.5t-95.5 140t-34.5 200v772h43v-770q0 -86 22 -155.5t59.5 -116t89 -78t109 -45.5t120.5 -14q80 0 149.5 23t126.5 70t90 128t33 188v770zM578 1542h24l219 -260h-45l-112 131
l-72 88h-4q-29 -37 -72 -88l-113 -131h-45z" />
    <glyph glyph-name="Udieresis" unicode="&#xdc;" horiz-adv-x="1179" 
d="M989 1206h43v-772q0 -114 -34 -201t-95 -140t-139.5 -79t-173.5 -26q-94 0 -173 26.5t-140 79.5t-95.5 140t-34.5 200v772h43v-770q0 -86 22 -155.5t59.5 -116t89 -78t109 -45.5t120.5 -14q80 0 149.5 23t126.5 70t90 128t33 188v770zM399 1362q0 37 37 37t37 -37
t-37 -37t-37 37zM707 1362q0 37 36 37q37 0 37 -37t-37 -37q-36 0 -36 37z" />
    <glyph glyph-name="Yacute" unicode="&#xdd;" horiz-adv-x="972" 
d="M90 1206l285 -477l110 -192h4q27 51 111 192l285 477h47l-424 -710v-496h-43v496l-424 710h49zM494 1282h-31l135 260h57z" />
    <glyph glyph-name="Thorn" unicode="&#xde;" horiz-adv-x="937" 
d="M227 940v-633h242q183 0 274 77t91 245q0 156 -88 233.5t-277 77.5h-242zM227 0h-43v1206h43v-225h246q404 0 404 -352q0 -363 -404 -363h-246v-266z" />
    <glyph glyph-name="germandbls" unicode="&#xdf;" horiz-adv-x="1054" 
d="M164 0v934q0 217 97 332.5t278 115.5q162 0 242.5 -83.5t80.5 -225.5q0 -138 -85 -220t-202 -95v-4q158 -5 267.5 -107t109.5 -272q0 -190 -84 -288.5t-243 -98.5q-104 0 -176.5 45t-106.5 131l35 20q35 -81 95 -119t153 -38q140 0 213 89t73 259q0 164 -121.5 263
t-308.5 99h-73v37h73q63 0 122 18t108.5 52.5t79.5 94t30 134.5q0 126 -68.5 198t-213.5 72q-163 0 -248.5 -104.5t-85.5 -312.5v-926h-41z" />
    <glyph glyph-name="agrave" unicode="&#xe0;" horiz-adv-x="880" 
d="M440 1098h-30l-162 260h57zM674 315v162q-86 12 -172 12q-180 0 -279.5 -60.5t-99.5 -186.5q0 -101 65 -158t185 -57q126 0 213.5 76.5t87.5 211.5zM715 662v-474q0 -82 17.5 -118.5t62.5 -36.5q16 0 34 6v-35q-15 -6 -36 -6q-62 0 -90.5 43.5t-28.5 144.5
q-28 -94 -110.5 -146t-190.5 -52q-139 0 -215 67t-76 187q0 142 110.5 214t309.5 72q80 0 172 -12v135q0 146 -67 207.5t-191 61.5q-240 0 -260 -232l-39 6q5 73 31 125.5t68 82t91.5 43t108.5 13.5q299 0 299 -296z" />
    <glyph glyph-name="aacute" unicode="&#xe1;" horiz-adv-x="880" 
d="M434 1098h-31l136 260h57zM674 315v162q-86 12 -172 12q-180 0 -279.5 -60.5t-99.5 -186.5q0 -101 65 -158t185 -57q126 0 213.5 76.5t87.5 211.5zM715 662v-474q0 -82 17.5 -118.5t62.5 -36.5q16 0 34 6v-35q-15 -6 -36 -6q-62 0 -90.5 43.5t-28.5 144.5
q-28 -94 -110.5 -146t-190.5 -52q-139 0 -215 67t-76 187q0 142 110.5 214t309.5 72q80 0 172 -12v135q0 146 -67 207.5t-191 61.5q-240 0 -260 -232l-39 6q5 73 31 125.5t68 82t91.5 43t108.5 13.5q299 0 299 -296z" />
    <glyph glyph-name="acircumflex" unicode="&#xe2;" horiz-adv-x="880" 
d="M410 1358h24l219 -260h-45l-112 131l-72 88h-4q-29 -37 -72 -88l-112 -131h-46zM674 315v162q-86 12 -172 12q-180 0 -279.5 -60.5t-99.5 -186.5q0 -101 65 -158t185 -57q126 0 213.5 76.5t87.5 211.5zM715 662v-474q0 -82 17.5 -118.5t62.5 -36.5q16 0 34 6v-35
q-15 -6 -36 -6q-62 0 -90.5 43.5t-28.5 144.5q-28 -94 -110.5 -146t-190.5 -52q-139 0 -215 67t-76 187q0 142 110.5 214t309.5 72q80 0 172 -12v135q0 146 -67 207.5t-191 61.5q-240 0 -260 -232l-39 6q5 73 31 125.5t68 82t91.5 43t108.5 13.5q299 0 299 -296z" />
    <glyph glyph-name="atilde" unicode="&#xe3;" horiz-adv-x="880" 
d="M561 1122q-28 0 -56 12t-45.5 25t-45.5 37q-30 27 -45 38.5t-38.5 22.5t-45.5 11q-54 0 -75.5 -38t-2.5 -116h-31q-32 83 2.5 137t106.5 54q28 0 56 -12t45.5 -25t45.5 -37q30 -27 45 -38.5t38.5 -22.5t45.5 -11q54 0 75.5 38t2.5 116h31q32 -83 -2.5 -137t-106.5 -54z
M674 315v162q-86 12 -172 12q-180 0 -279.5 -60.5t-99.5 -186.5q0 -101 65 -158t185 -57q126 0 213.5 76.5t87.5 211.5zM715 662v-474q0 -82 17.5 -118.5t62.5 -36.5q16 0 34 6v-35q-15 -6 -36 -6q-62 0 -90.5 43.5t-28.5 144.5q-28 -94 -110.5 -146t-190.5 -52
q-139 0 -215 67t-76 187q0 142 110.5 214t309.5 72q80 0 172 -12v135q0 146 -67 207.5t-191 61.5q-240 0 -260 -232l-39 6q5 73 31 125.5t68 82t91.5 43t108.5 13.5q299 0 299 -296z" />
    <glyph glyph-name="adieresis" unicode="&#xe4;" horiz-adv-x="880" 
d="M231 1219q0 36 37 36t37 -36q0 -37 -37 -37t-37 37zM539 1219q0 36 36 36q37 0 37 -36q0 -37 -37 -37q-36 0 -36 37zM674 315v162q-86 12 -172 12q-180 0 -279.5 -60.5t-99.5 -186.5q0 -101 65 -158t185 -57q126 0 213.5 76.5t87.5 211.5zM715 662v-474
q0 -82 17.5 -118.5t62.5 -36.5q16 0 34 6v-35q-15 -6 -36 -6q-62 0 -90.5 43.5t-28.5 144.5q-28 -94 -110.5 -146t-190.5 -52q-139 0 -215 67t-76 187q0 142 110.5 214t309.5 72q80 0 172 -12v135q0 146 -67 207.5t-191 61.5q-240 0 -260 -232l-39 6q5 73 31 125.5t68 82
t91.5 43t108.5 13.5q299 0 299 -296z" />
    <glyph glyph-name="aring" unicode="&#xe5;" horiz-adv-x="880" 
d="M422 1085q-73 0 -115.5 43.5t-42.5 108.5t42.5 108.5t115.5 43.5t115.5 -43.5t42.5 -108.5t-42.5 -108.5t-115.5 -43.5zM422 1354q-55 0 -86 -33t-31 -84t31 -84t86 -33t86 33t31 84t-31 84t-86 33zM674 315v162q-86 12 -172 12q-180 0 -279.5 -60.5t-99.5 -186.5
q0 -101 65 -158t185 -57q126 0 213.5 76.5t87.5 211.5zM715 662v-474q0 -82 17.5 -118.5t62.5 -36.5q16 0 34 6v-35q-15 -6 -36 -6q-62 0 -90.5 43.5t-28.5 144.5q-28 -94 -110.5 -146t-190.5 -52q-139 0 -215 67t-76 187q0 142 110.5 214t309.5 72q80 0 172 -12v135
q0 146 -67 207.5t-191 61.5q-240 0 -260 -232l-39 6q5 73 31 125.5t68 82t91.5 43t108.5 13.5q299 0 299 -296z" />
    <glyph glyph-name="ae" unicode="&#xe6;" horiz-adv-x="1452" 
d="M1040 27q121 0 190 51.5t97 161.5l37 -7q-52 -245 -324 -245q-247 0 -340 209q-44 -91 -130.5 -150t-211.5 -59q-128 0 -202 68t-74 182q0 159 139.5 228.5t431.5 72.5q2 56 21 129q-4 137 -70.5 194.5t-187.5 57.5q-240 0 -260 -232l-39 6q5 73 31 125.5t68 82t91.5 43
t108.5 13.5q243 0 284 -210q46 103 131.5 156.5t204.5 53.5q159 0 240.5 -95.5t81.5 -252.5q0 -52 -6 -108h-660q-10 -234 84.5 -354.5t263.5 -120.5zM694 539h621q2 20 2 71q0 140 -71 225t-210 85q-156 0 -243 -101t-99 -280zM358 27q108 0 192 54t134 161q-33 95 -33 235
v25q-269 -3 -398.5 -63.5t-129.5 -200.5q0 -94 63.5 -152.5t171.5 -58.5z" />
    <glyph glyph-name="ccedilla" unicode="&#xe7;" horiz-adv-x="899" 
d="M666 -260q0 -72 -46.5 -109t-121.5 -37q-121 0 -187 89l27 28q63 -82 160 -82q127 0 127 111q0 114 -191 127l27 121q-173 5 -269 126t-96 357t100 361.5t285 125.5q156 0 237.5 -77.5t96.5 -235.5l-39 -4q-14 138 -85.5 208.5t-209.5 70.5q-167 0 -255.5 -116.5
t-88.5 -332.5q0 -219 87.5 -331.5t250.5 -112.5q259 0 309 235l37 -6q-24 -130 -109 -196.5t-218 -71.5l-21 -92q80 -5 136.5 -46t56.5 -110z" />
    <glyph glyph-name="egrave" unicode="&#xe8;" horiz-adv-x="897" 
d="M485 27q121 0 190 51.5t97 161.5l37 -7q-52 -245 -324 -245q-186 0 -287.5 122.5t-101.5 366.5q0 231 101.5 356t283.5 125q159 0 240.5 -95.5t81.5 -252.5q0 -52 -6 -108h-660q-10 -234 84.5 -354.5t263.5 -120.5zM139 539h621q2 20 2 71q0 140 -71 225t-210 85
q-156 0 -243 -101t-99 -280zM500 1098h-31l-162 260h58z" />
    <glyph glyph-name="eacute" unicode="&#xe9;" horiz-adv-x="897" 
d="M485 27q121 0 190 51.5t97 161.5l37 -7q-52 -245 -324 -245q-186 0 -287.5 122.5t-101.5 366.5q0 231 101.5 356t283.5 125q159 0 240.5 -95.5t81.5 -252.5q0 -52 -6 -108h-660q-10 -234 84.5 -354.5t263.5 -120.5zM139 539h621q2 20 2 71q0 140 -71 225t-210 85
q-156 0 -243 -101t-99 -280zM494 1098h-31l135 260h57z" />
    <glyph glyph-name="ecircumflex" unicode="&#xea;" horiz-adv-x="897" 
d="M485 27q121 0 190 51.5t97 161.5l37 -7q-52 -245 -324 -245q-186 0 -287.5 122.5t-101.5 366.5q0 231 101.5 356t283.5 125q159 0 240.5 -95.5t81.5 -252.5q0 -52 -6 -108h-660q-10 -234 84.5 -354.5t263.5 -120.5zM139 539h621q2 20 2 71q0 140 -71 225t-210 85
q-156 0 -243 -101t-99 -280zM469 1358h25l219 -260h-45l-113 131l-72 88h-4q-28 -37 -71 -88l-113 -131h-45z" />
    <glyph glyph-name="edieresis" unicode="&#xeb;" horiz-adv-x="897" 
d="M485 27q121 0 190 51.5t97 161.5l37 -7q-52 -245 -324 -245q-186 0 -287.5 122.5t-101.5 366.5q0 231 101.5 356t283.5 125q159 0 240.5 -95.5t81.5 -252.5q0 -52 -6 -108h-660q-10 -234 84.5 -354.5t263.5 -120.5zM139 539h621q2 20 2 71q0 140 -71 225t-210 85
q-156 0 -243 -101t-99 -280zM291 1219q0 36 37 36t37 -36q0 -37 -37 -37t-37 37zM598 1219q0 36 37 36t37 -36q0 -37 -37 -37t-37 37z" />
    <glyph glyph-name="igrave" unicode="&#xec;" horiz-adv-x="368" 
d="M203 1098h-31l-162 260h58zM164 946h41v-946h-41v946z" />
    <glyph glyph-name="iacute" unicode="&#xed;" horiz-adv-x="368" 
d="M197 1098h-31l135 260h57zM164 946h41v-946h-41v946z" />
    <glyph glyph-name="icircumflex" unicode="&#xee;" horiz-adv-x="368" 
d="M164 946h41v-946h-41v946zM172 1358h25l219 -260h-45l-113 131l-72 88h-4q-28 -37 -71 -88l-113 -131h-45z" />
    <glyph glyph-name="idieresis" unicode="&#xef;" horiz-adv-x="368" 
d="M-6 1219q0 36 37 36t37 -36q0 -37 -37 -37t-37 37zM301 1219q0 36 37 36t37 -36q0 -37 -37 -37t-37 37zM164 946h41v-946h-41v946z" />
    <glyph glyph-name="eth" unicode="&#xf0;" horiz-adv-x="960" 
d="M254 1065l-10 33l282 86q-113 98 -252 162l21 30q158 -67 278 -178l215 66l11 -35l-197 -60q127 -132 194.5 -309.5t67.5 -386.5q0 -236 -100.5 -360.5t-284.5 -124.5q-183 0 -283 124.5t-100 360.5t100 360.5t283 124.5q98 0 173 -39t116 -104h4q-80 207 -215 340z
M823 473q0 218 -89.5 332.5t-254.5 114.5q-164 0 -253 -114.5t-89 -332.5t89 -332t253 -114q166 0 255 114t89 332z" />
    <glyph glyph-name="ntilde" unicode="&#xf1;" horiz-adv-x="983" 
d="M197 946l8 -260q26 115 116.5 193.5t219.5 78.5q134 0 211 -75.5t77 -231.5v-651h-41v637q0 138 -64.5 210.5t-182.5 72.5q-142 0 -239 -109.5t-97 -292.5v-518h-41v946h33zM633 1122q-28 0 -56 12t-46.5 25.5t-45.5 36.5q-30 27 -45 38.5t-38.5 22.5t-45.5 11
q-54 0 -75 -37.5t-2 -116.5h-31q-33 83 1.5 137t106.5 54q28 0 56 -12t46.5 -25.5t45.5 -36.5q30 -27 45 -38.5t38.5 -22.5t45.5 -11q54 0 75.5 38t2.5 116h30q33 -83 -1.5 -137t-106.5 -54z" />
    <glyph glyph-name="ograve" unicode="&#xf2;" horiz-adv-x="960" 
d="M479 -12q-183 0 -283 124.5t-100 360.5t100 360.5t283 124.5q184 0 284.5 -124.5t100.5 -360.5t-100.5 -360.5t-284.5 -124.5zM479 920q-164 0 -253 -114.5t-89 -332.5t89 -332t253 -114q166 0 255 114t89 332t-89.5 332.5t-254.5 114.5zM498 1098h-31l-162 260h57z" />
    <glyph glyph-name="oacute" unicode="&#xf3;" horiz-adv-x="960" 
d="M479 -12q-183 0 -283 124.5t-100 360.5t100 360.5t283 124.5q184 0 284.5 -124.5t100.5 -360.5t-100.5 -360.5t-284.5 -124.5zM479 920q-164 0 -253 -114.5t-89 -332.5t89 -332t253 -114q166 0 255 114t89 332t-89.5 332.5t-254.5 114.5zM492 1098h-31l135 260h57z" />
    <glyph glyph-name="ocircumflex" unicode="&#xf4;" horiz-adv-x="960" 
d="M479 -12q-183 0 -283 124.5t-100 360.5t100 360.5t283 124.5q184 0 284.5 -124.5t100.5 -360.5t-100.5 -360.5t-284.5 -124.5zM479 920q-164 0 -253 -114.5t-89 -332.5t89 -332t253 -114q166 0 255 114t89 332t-89.5 332.5t-254.5 114.5zM467 1358h25l219 -260h-45
l-113 131l-72 88h-4q-28 -37 -71 -88l-113 -131h-45z" />
    <glyph glyph-name="otilde" unicode="&#xf5;" horiz-adv-x="960" 
d="M479 -12q-183 0 -283 124.5t-100 360.5t100 360.5t283 124.5q184 0 284.5 -124.5t100.5 -360.5t-100.5 -360.5t-284.5 -124.5zM479 920q-164 0 -253 -114.5t-89 -332.5t89 -332t253 -114q166 0 255 114t89 332t-89.5 332.5t-254.5 114.5zM616 1122q-28 0 -56 12t-45.5 25
t-45.5 37q-30 27 -45 38.5t-38.5 22.5t-45.5 11q-54 0 -75.5 -38t-2.5 -116h-31q-32 83 2.5 137t106.5 54q28 0 56 -12t45.5 -25t45.5 -37q30 -27 45 -38.5t38.5 -22.5t45.5 -11q54 0 75.5 38t2.5 116h31q32 -83 -2.5 -137t-106.5 -54z" />
    <glyph glyph-name="odieresis" unicode="&#xf6;" horiz-adv-x="960" 
d="M479 -12q-183 0 -283 124.5t-100 360.5t100 360.5t283 124.5q184 0 284.5 -124.5t100.5 -360.5t-100.5 -360.5t-284.5 -124.5zM479 920q-164 0 -253 -114.5t-89 -332.5t89 -332t253 -114q166 0 255 114t89 332t-89.5 332.5t-254.5 114.5zM289 1219q0 36 37 36
q36 0 36 -36q0 -37 -36 -37q-37 0 -37 37zM596 1219q0 36 37 36t37 -36q0 -37 -37 -37t-37 37z" />
    <glyph glyph-name="divide" unicode="&#xf7;" 
d="M948 487h-835v41h835v-41zM475 160q0 22 13.5 36.5t35.5 14.5t36.5 -14.5t14.5 -36.5t-14.5 -35.5t-36.5 -13.5t-35.5 13.5t-13.5 35.5zM475 842q0 22 13.5 36.5t35.5 14.5t36.5 -14.5t14.5 -36.5t-14.5 -35.5t-36.5 -13.5t-35.5 13.5t-13.5 35.5z" />
    <glyph glyph-name="oslash" unicode="&#xf8;" horiz-adv-x="960" 
d="M127 -12l-31 24l88 115q-88 124 -88 346q0 236 100 360.5t283 124.5q173 0 271 -110l86 110l30 -24l-90 -117q88 -124 88 -344q0 -236 -100.5 -360.5t-284.5 -124.5q-173 0 -268 106zM479 920q-164 0 -253 -114.5t-89 -332.5q0 -198 74 -313l514 655q-88 105 -246 105z
M823 473q0 196 -73 311l-514 -657q89 -100 243 -100q166 0 255 114t89 332z" />
    <glyph glyph-name="ugrave" unicode="&#xf9;" horiz-adv-x="962" 
d="M766 0l-8 254q-24 -117 -113 -191.5t-217 -74.5q-134 0 -211.5 75.5t-77.5 231.5v651h41v-639q0 -140 64.5 -210t183.5 -70q146 0 238 108t92 293v518h41v-946h-33zM487 1098h-30l-162 260h57z" />
    <glyph glyph-name="uacute" unicode="&#xfa;" horiz-adv-x="962" 
d="M766 0l-8 254q-24 -117 -113 -191.5t-217 -74.5q-134 0 -211.5 75.5t-77.5 231.5v651h41v-639q0 -140 64.5 -210t183.5 -70q146 0 238 108t92 293v518h41v-946h-33zM481 1098h-30l135 260h57z" />
    <glyph glyph-name="ucircumflex" unicode="&#xfb;" horiz-adv-x="962" 
d="M766 0l-8 254q-24 -117 -113 -191.5t-217 -74.5q-134 0 -211.5 75.5t-77.5 231.5v651h41v-639q0 -140 64.5 -210t183.5 -70q146 0 238 108t92 293v518h41v-946h-33zM457 1358h24l219 -260h-45l-112 131l-72 88h-4q-29 -37 -72 -88l-112 -131h-45z" />
    <glyph glyph-name="udieresis" unicode="&#xfc;" horiz-adv-x="962" 
d="M766 0l-8 254q-24 -117 -113 -191.5t-217 -74.5q-134 0 -211.5 75.5t-77.5 231.5v651h41v-639q0 -140 64.5 -210t183.5 -70q146 0 238 108t92 293v518h41v-946h-33zM279 1219q0 36 36 36q37 0 37 -36q0 -37 -37 -37q-36 0 -36 37zM586 1219q0 36 37 36q36 0 36 -36
q0 -37 -36 -37q-37 0 -37 37z" />
    <glyph glyph-name="yacute" unicode="&#xfd;" horiz-adv-x="831" 
d="M74 946l293 -778q13 -35 24 -69t16 -51l5 -17h4q18 53 49 133l293 782h43l-363 -964q-33 -88 -57 -144t-54.5 -111.5t-60.5 -85.5t-69 -48.5t-86 -18.5q-83 0 -140 37l17 41q56 -39 123 -39q88 0 149.5 82.5t132.5 284.5l-362 966h43zM422 1098h-31l135 260h58z" />
    <glyph glyph-name="thorn" unicode="&#xfe;" horiz-adv-x="1021" 
d="M205 543v-156q0 -90 27 -161t73 -113.5t103 -64t120 -21.5q162 0 259.5 115t97.5 345q0 213 -92.5 323t-247.5 110q-67 0 -126.5 -22.5t-107.5 -66.5t-76.5 -118t-29.5 -170zM205 221v-637h-41v1784h41v-663q26 116 118.5 184.5t221.5 68.5q174 0 277.5 -120.5
t103.5 -350.5q0 -245 -106 -372t-292 -127q-127 0 -212 66.5t-111 166.5z" />
    <glyph glyph-name="ydieresis" unicode="&#xff;" horiz-adv-x="831" 
d="M74 946l293 -778q13 -35 24 -69t16 -51l5 -17h4q18 53 49 133l293 782h43l-363 -964q-33 -88 -57 -144t-54.5 -111.5t-60.5 -85.5t-69 -48.5t-86 -18.5q-83 0 -140 37l17 41q56 -39 123 -39q88 0 149.5 82.5t132.5 284.5l-362 966h43zM219 1219q0 36 37 36t37 -36
q0 -37 -37 -37t-37 37zM526 1219q0 36 37 36t37 -36q0 -37 -37 -37t-37 37z" />
    <glyph glyph-name="Amacron" unicode="&#x100;" horiz-adv-x="1048" 
d="M981 0l-166 418h-582l-165 -418h-48l480 1206h49l479 -1206h-47zM416 874l-166 -415h549l-166 415q-33 81 -59.5 153.5t-37.5 104.5l-10 33h-4q-32 -109 -106 -291zM715 1341h-381v39h381v-39z" />
    <glyph glyph-name="amacron" unicode="&#x101;" horiz-adv-x="880" 
d="M612 1157h-381v39h381v-39zM674 315v162q-86 12 -172 12q-180 0 -279.5 -60.5t-99.5 -186.5q0 -101 65 -158t185 -57q126 0 213.5 76.5t87.5 211.5zM715 662v-474q0 -82 17.5 -118.5t62.5 -36.5q16 0 34 6v-35q-15 -6 -36 -6q-62 0 -90.5 43.5t-28.5 144.5
q-28 -94 -110.5 -146t-190.5 -52q-139 0 -215 67t-76 187q0 142 110.5 214t309.5 72q80 0 172 -12v135q0 146 -67 207.5t-191 61.5q-240 0 -260 -232l-39 6q5 73 31 125.5t68 82t91.5 43t108.5 13.5q299 0 299 -296z" />
    <glyph glyph-name="Abreve" unicode="&#x102;" horiz-adv-x="1048" 
d="M981 0l-166 418h-582l-165 -418h-48l480 1206h49l479 -1206h-47zM416 874l-166 -415h549l-166 415q-33 81 -59.5 153.5t-37.5 104.5l-10 33h-4q-32 -109 -106 -291zM524 1272q-107 0 -163 61t-56 183h37q6 -207 182 -207q177 0 183 207h36q0 -122 -56 -183t-163 -61z" />
    <glyph glyph-name="abreve" unicode="&#x103;" horiz-adv-x="880" 
d="M422 1087q-107 0 -163 61t-56 183h37q6 -207 182 -207t182 207h37q0 -122 -56 -183t-163 -61zM674 315v162q-86 12 -172 12q-180 0 -279.5 -60.5t-99.5 -186.5q0 -101 65 -158t185 -57q126 0 213.5 76.5t87.5 211.5zM715 662v-474q0 -82 17.5 -118.5t62.5 -36.5
q16 0 34 6v-35q-15 -6 -36 -6q-62 0 -90.5 43.5t-28.5 144.5q-28 -94 -110.5 -146t-190.5 -52q-139 0 -215 67t-76 187q0 142 110.5 214t309.5 72q80 0 172 -12v135q0 146 -67 207.5t-191 61.5q-240 0 -260 -232l-39 6q5 73 31 125.5t68 82t91.5 43t108.5 13.5
q299 0 299 -296z" />
    <glyph glyph-name="Aogonek" unicode="&#x104;" horiz-adv-x="1048" 
d="M799 -244q0 146 176 258l-160 404h-582l-165 -418h-48l480 1206h49l479 -1206q-88 -40 -138 -104.5t-50 -139.5q0 -49 24.5 -76.5t67.5 -27.5q33 0 57 13t49 44l25 -24q-52 -70 -131 -70q-62 0 -97.5 38t-35.5 103zM416 874l-166 -415h549l-166 415q-33 81 -59.5 153.5
t-37.5 104.5l-10 33h-4q-32 -109 -106 -291z" />
    <glyph glyph-name="aogonek" unicode="&#x105;" horiz-adv-x="880" 
d="M588 -246q0 73 46.5 140t119.5 108q-80 24 -80 184q-28 -94 -110.5 -146t-190.5 -52q-139 0 -215 67t-76 187q0 142 110.5 214t309.5 72q80 0 172 -12v135q0 146 -67 207.5t-191 61.5q-240 0 -260 -232l-39 6q5 73 31 125.5t68 82t91.5 43t108.5 13.5q299 0 299 -296
v-474q0 -82 17.5 -118.5t62.5 -36.5q16 0 34 6v-35q-88 -32 -144 -102t-56 -148q0 -49 24.5 -76.5t67.5 -27.5q33 0 57 13t49 44l25 -24q-52 -70 -131 -70q-62 0 -97.5 38t-35.5 103zM674 315v162q-86 12 -172 12q-180 0 -279.5 -60.5t-99.5 -186.5q0 -101 65 -158t185 -57
q126 0 213.5 76.5t87.5 211.5z" />
    <glyph glyph-name="Cacute" unicode="&#x106;" horiz-adv-x="1122" 
d="M1012 283l39 -21q-116 -274 -422 -274q-243 0 -383 158.5t-140 455.5q0 296 141.5 456.5t381.5 160.5q310 0 420 -289l-37 -19q-102 267 -383 267q-227 0 -353 -153.5t-126 -422.5t126 -421t353 -152q285 0 383 254zM639 1282h-31l135 260h58z" />
    <glyph glyph-name="cacute" unicode="&#x107;" horiz-adv-x="899" 
d="M784 262l37 -6q-24 -134 -114.5 -201t-231.5 -67q-179 0 -279 121.5t-100 361.5q0 236 100 361.5t285 125.5q156 0 237.5 -77.5t96.5 -235.5l-39 -4q-14 138 -85.5 208.5t-209.5 70.5q-167 0 -255.5 -116.5t-88.5 -332.5q0 -219 87.5 -331.5t250.5 -112.5q259 0 309 235z
M500 1098h-31l135 260h58z" />
    <glyph glyph-name="Ccircumflex" unicode="&#x108;" horiz-adv-x="1122" 
d="M1012 283l39 -21q-116 -274 -422 -274q-243 0 -383 158.5t-140 455.5q0 296 141.5 456.5t381.5 160.5q310 0 420 -289l-37 -19q-102 267 -383 267q-227 0 -353 -153.5t-126 -422.5t126 -421t353 -152q285 0 383 254zM618 1542h25l219 -260h-45l-112 131l-72 88h-4
q-29 -37 -72 -88l-113 -131h-45z" />
    <glyph glyph-name="ccircumflex" unicode="&#x109;" horiz-adv-x="899" 
d="M784 262l37 -6q-24 -134 -114.5 -201t-231.5 -67q-179 0 -279 121.5t-100 361.5q0 236 100 361.5t285 125.5q156 0 237.5 -77.5t96.5 -235.5l-39 -4q-14 138 -85.5 208.5t-209.5 70.5q-167 0 -255.5 -116.5t-88.5 -332.5q0 -219 87.5 -331.5t250.5 -112.5q259 0 309 235z
M475 1358h25l219 -260h-45l-113 131l-72 88h-4q-28 -37 -71 -88l-113 -131h-45z" />
    <glyph glyph-name="Cdotaccent" unicode="&#x10a;" horiz-adv-x="1122" 
d="M1012 283l39 -21q-116 -274 -422 -274q-243 0 -383 158.5t-140 455.5q0 296 141.5 456.5t381.5 160.5q310 0 420 -289l-37 -19q-102 267 -383 267q-227 0 -353 -153.5t-126 -422.5t126 -421t353 -152q285 0 383 254zM594 1362q0 37 37 37t37 -37t-37 -37t-37 37z" />
    <glyph glyph-name="cdotaccent" unicode="&#x10b;" horiz-adv-x="899" 
d="M784 262l37 -6q-24 -134 -114.5 -201t-231.5 -67q-179 0 -279 121.5t-100 361.5q0 236 100 361.5t285 125.5q156 0 237.5 -77.5t96.5 -235.5l-39 -4q-14 138 -85.5 208.5t-209.5 70.5q-167 0 -255.5 -116.5t-88.5 -332.5q0 -219 87.5 -331.5t250.5 -112.5q259 0 309 235z
M451 1219q0 36 36 36q37 0 37 -36q0 -37 -37 -37q-36 0 -36 37z" />
    <glyph glyph-name="Ccaron" unicode="&#x10c;" horiz-adv-x="1122" 
d="M1012 283l39 -21q-116 -274 -422 -274q-243 0 -383 158.5t-140 455.5q0 296 141.5 456.5t381.5 160.5q310 0 420 -289l-37 -19q-102 267 -383 267q-227 0 -353 -153.5t-126 -422.5t126 -421t353 -152q285 0 383 254zM643 1282h-25l-219 260h45l113 -131l72 -88h4
q29 37 72 88l112 131h45z" />
    <glyph glyph-name="ccaron" unicode="&#x10d;" horiz-adv-x="899" 
d="M784 262l37 -6q-24 -134 -114.5 -201t-231.5 -67q-179 0 -279 121.5t-100 361.5q0 236 100 361.5t285 125.5q156 0 237.5 -77.5t96.5 -235.5l-39 -4q-14 138 -85.5 208.5t-209.5 70.5q-167 0 -255.5 -116.5t-88.5 -332.5q0 -219 87.5 -331.5t250.5 -112.5q259 0 309 235z
M500 1098h-25l-219 260h45l113 -131l71 -88h4q29 37 72 88l113 131h45z" />
    <glyph glyph-name="Dcaron" unicode="&#x10e;" horiz-adv-x="1181" 
d="M227 41h262q263 0 403 150t140 425q0 267 -133.5 408t-406.5 141h-265v-1124zM494 0h-310v1206h312q131 0 234.5 -33t182 -102t120.5 -184.5t42 -270.5q0 -130 -30.5 -235t-83.5 -175t-127.5 -117t-159 -68t-180.5 -21zM551 1282h-25l-219 260h45l113 -131l72 -88h4
q28 37 71 88l113 131h45z" />
    <glyph glyph-name="dcaron" unicode="&#x10f;" horiz-adv-x="1015" 
d="M1063 1368l-47 -358h-33l33 358h47zM817 403v156q0 176 -94.5 268.5t-228.5 92.5q-162 0 -259.5 -115.5t-97.5 -345.5q0 -213 92.5 -322.5t247.5 -109.5q67 0 126.5 22t107.5 66t76.5 118t29.5 170zM817 725v643h41v-1368h-33l-8 242q-26 -116 -118.5 -185t-221.5 -69
q-174 0 -277.5 120.5t-103.5 350.5q0 245 106 372t292 127q127 0 212 -66.5t111 -166.5z" />
    <glyph glyph-name="Dcroat" unicode="&#x110;" horiz-adv-x="1196" 
d="M508 0h-309v586h-138v41h138v579h311q131 0 234.5 -33t182 -102t121 -184.5t42.5 -270.5q0 -130 -30.5 -235t-84 -175t-128 -117t-159 -68t-180.5 -21zM242 41h262q263 0 403 150t140 425q0 266 -134 407.5t-407 141.5h-264v-538h333v-41h-333v-545z" />
    <glyph glyph-name="dcroat" unicode="&#x111;" horiz-adv-x="1015" 
d="M465 1128v37h352v203h41v-203h158v-37h-158v-1128h-33l-8 242q-26 -116 -118.5 -185t-221.5 -69q-174 0 -277.5 120.5t-103.5 350.5q0 245 106 372t292 127q127 0 212 -66.5t111 -166.5v403h-352zM817 403v156q0 176 -94.5 268.5t-228.5 92.5q-162 0 -259.5 -115.5
t-97.5 -345.5q0 -213 92.5 -322.5t247.5 -109.5q67 0 126.5 22t107.5 66t76.5 118t29.5 170z" />
    <glyph glyph-name="Emacron" unicode="&#x112;" horiz-adv-x="940" 
d="M827 41v-41h-643v1206h643v-41h-600v-538h537v-41h-537v-545h600zM692 1341h-381v39h381v-39z" />
    <glyph glyph-name="emacron" unicode="&#x113;" horiz-adv-x="897" 
d="M485 27q121 0 190 51.5t97 161.5l37 -7q-52 -245 -324 -245q-186 0 -287.5 122.5t-101.5 366.5q0 231 101.5 356t283.5 125q159 0 240.5 -95.5t81.5 -252.5q0 -52 -6 -108h-660q-10 -234 84.5 -354.5t263.5 -120.5zM139 539h621q2 20 2 71q0 140 -71 225t-210 85
q-156 0 -243 -101t-99 -280zM672 1157h-381v39h381v-39z" />
    <glyph glyph-name="Ebreve" unicode="&#x114;" horiz-adv-x="940" 
d="M827 41v-41h-643v1206h643v-41h-600v-538h537v-41h-537v-545h600zM514 1272q-107 0 -163 61t-56 183h37q6 -207 182 -207t182 207h37q0 -122 -56 -183t-163 -61z" />
    <glyph glyph-name="ebreve" unicode="&#x115;" horiz-adv-x="897" 
d="M485 27q121 0 190 51.5t97 161.5l37 -7q-52 -245 -324 -245q-186 0 -287.5 122.5t-101.5 366.5q0 231 101.5 356t283.5 125q159 0 240.5 -95.5t81.5 -252.5q0 -52 -6 -108h-660q-10 -234 84.5 -354.5t263.5 -120.5zM139 539h621q2 20 2 71q0 140 -71 225t-210 85
q-156 0 -243 -101t-99 -280zM481 1087q-107 0 -163 61t-56 183h37q6 -207 182 -207q177 0 183 207h36q0 -122 -56 -183t-163 -61z" />
    <glyph glyph-name="Edotaccent" unicode="&#x116;" horiz-adv-x="940" 
d="M827 41v-41h-643v1206h643v-41h-600v-538h537v-41h-537v-545h600zM465 1362q0 37 37 37t37 -37t-37 -37t-37 37z" />
    <glyph glyph-name="edotaccent" unicode="&#x117;" horiz-adv-x="897" 
d="M485 27q121 0 190 51.5t97 161.5l37 -7q-52 -245 -324 -245q-186 0 -287.5 122.5t-101.5 366.5q0 231 101.5 356t283.5 125q159 0 240.5 -95.5t81.5 -252.5q0 -52 -6 -108h-660q-10 -234 84.5 -354.5t263.5 -120.5zM139 539h621q2 20 2 71q0 140 -71 225t-210 85
q-156 0 -243 -101t-99 -280zM444 1219q0 36 37 36t37 -36q0 -37 -37 -37t-37 37z" />
    <glyph glyph-name="Eogonek" unicode="&#x118;" horiz-adv-x="940" 
d="M827 41v-41q-176 -107 -176 -246q0 -49 24.5 -76.5t67.5 -27.5q34 0 58 13t49 44l24 -24q-52 -70 -131 -70q-62 0 -97.5 38t-35.5 103q0 139 156 246h-582v1206h643v-41h-600v-538h537v-41h-537v-545h600z" />
    <glyph glyph-name="eogonek" unicode="&#x119;" horiz-adv-x="897" 
d="M414 -246q0 147 135 238q-40 -4 -64 -4q-186 0 -287.5 122.5t-101.5 366.5q0 231 101.5 356t283.5 125q159 0 240.5 -95.5t81.5 -252.5q0 -52 -6 -108h-660q-10 -234 84.5 -354.5t263.5 -120.5q121 0 190 51.5t97 161.5l37 -7q-18 -82 -59.5 -133t-110.5 -86
q-82 -41 -133 -110t-51 -150q0 -49 24.5 -76.5t67.5 -27.5q33 0 57 13t49 44l25 -24q-52 -70 -131 -70q-62 0 -97.5 38t-35.5 103zM139 539h621q2 20 2 71q0 140 -71 225t-210 85q-156 0 -243 -101t-99 -280z" />
    <glyph glyph-name="Ecaron" unicode="&#x11a;" horiz-adv-x="940" 
d="M827 41v-41h-643v1206h643v-41h-600v-538h537v-41h-537v-545h600zM524 1282h-24l-219 260h45l112 -131l72 -88h4q29 37 72 88l112 131h45z" />
    <glyph glyph-name="ecaron" unicode="&#x11b;" horiz-adv-x="897" 
d="M485 27q121 0 190 51.5t97 161.5l37 -7q-52 -245 -324 -245q-186 0 -287.5 122.5t-101.5 366.5q0 231 101.5 356t283.5 125q159 0 240.5 -95.5t81.5 -252.5q0 -52 -6 -108h-660q-10 -234 84.5 -354.5t263.5 -120.5zM139 539h621q2 20 2 71q0 140 -71 225t-210 85
q-156 0 -243 -101t-99 -280zM494 1098h-25l-219 260h45l113 -131l71 -88h4q29 37 72 88l113 131h45z" />
    <glyph glyph-name="Gcircumflex" unicode="&#x11c;" horiz-adv-x="1191" 
d="M653 559h396v-559h-35l-8 262q-31 -127 -131.5 -200.5t-245.5 -73.5q-242 0 -382.5 160t-140.5 454q0 296 141.5 456.5t381.5 160.5q310 0 420 -289l-37 -19q-102 267 -383 267q-227 0 -353 -153.5t-126 -422.5t126 -421t353 -152q75 0 140.5 23t119.5 70.5t85.5 130
t31.5 191.5v74h-353v41zM610 1542h25l219 -260h-45l-113 131l-71 88h-4q-29 -37 -72 -88l-113 -131h-45z" />
    <glyph glyph-name="gcircumflex" unicode="&#x11d;" horiz-adv-x="894" 
d="M442 958q187 0 277 -129q96 60 96 195l41 -6q-6 -88 -36.5 -136.5t-84.5 -80.5q37 -67 37 -162q0 -147 -90 -233.5t-240 -86.5q-84 0 -149 27q-90 -41 -90 -121q0 -112 168 -112h211q60 0 109.5 -12.5t92 -39.5t66.5 -76t24 -116q0 -83 -40 -144t-107 -93.5t-140 -47
t-155 -14.5t-150.5 14t-126.5 44t-91 85.5t-33 130.5q0 115 72.5 180t183.5 70q-58 4 -91.5 39.5t-33.5 91.5q0 47 27.5 82t70.5 55q-70 39 -108.5 110t-38.5 167q0 147 89.5 233t239.5 86zM72 -154q0 -84 50 -139t128 -77.5t182 -22.5q78 0 146 14t127.5 43t94 81.5
t34.5 123.5q0 101 -67.5 153t-191.5 52h-204q-131 0 -215 -55.5t-84 -172.5zM154 639q0 -129 78 -206t210 -77t210.5 77t78.5 206t-78.5 205t-210.5 76t-210 -76t-78 -205zM440 1358h25l219 -260h-45l-113 131l-71 88h-4q-29 -37 -72 -88l-113 -131h-45z" />
    <glyph glyph-name="Gbreve" unicode="&#x11e;" horiz-adv-x="1191" 
d="M653 559h396v-559h-35l-8 262q-31 -127 -131.5 -200.5t-245.5 -73.5q-242 0 -382.5 160t-140.5 454q0 296 141.5 456.5t381.5 160.5q310 0 420 -289l-37 -19q-102 267 -383 267q-227 0 -353 -153.5t-126 -422.5t126 -421t353 -152q75 0 140.5 23t119.5 70.5t85.5 130
t31.5 191.5v74h-353v41zM623 1272q-107 0 -163.5 61t-56.5 183h37q6 -207 183 -207q176 0 182 207h37q0 -122 -56 -183t-163 -61z" />
    <glyph glyph-name="gbreve" unicode="&#x11f;" horiz-adv-x="894" 
d="M442 958q187 0 277 -129q96 60 96 195l41 -6q-6 -88 -36.5 -136.5t-84.5 -80.5q37 -67 37 -162q0 -147 -90 -233.5t-240 -86.5q-84 0 -149 27q-90 -41 -90 -121q0 -112 168 -112h211q60 0 109.5 -12.5t92 -39.5t66.5 -76t24 -116q0 -83 -40 -144t-107 -93.5t-140 -47
t-155 -14.5t-150.5 14t-126.5 44t-91 85.5t-33 130.5q0 115 72.5 180t183.5 70q-58 4 -91.5 39.5t-33.5 91.5q0 47 27.5 82t70.5 55q-70 39 -108.5 110t-38.5 167q0 147 89.5 233t239.5 86zM72 -154q0 -84 50 -139t128 -77.5t182 -22.5q78 0 146 14t127.5 43t94 81.5
t34.5 123.5q0 101 -67.5 153t-191.5 52h-204q-131 0 -215 -55.5t-84 -172.5zM154 639q0 -129 78 -206t210 -77t210.5 77t78.5 206t-78.5 205t-210.5 76t-210 -76t-78 -205zM453 1087q-107 0 -163.5 61t-56.5 183h37q6 -207 183 -207q176 0 182 207h37q0 -122 -56 -183
t-163 -61z" />
    <glyph glyph-name="Gdotaccent" unicode="&#x120;" horiz-adv-x="1191" 
d="M653 559h396v-559h-35l-8 262q-31 -127 -131.5 -200.5t-245.5 -73.5q-242 0 -382.5 160t-140.5 454q0 296 141.5 456.5t381.5 160.5q310 0 420 -289l-37 -19q-102 267 -383 267q-227 0 -353 -153.5t-126 -422.5t126 -421t353 -152q75 0 140.5 23t119.5 70.5t85.5 130
t31.5 191.5v74h-353v41zM586 1362q0 37 37 37q36 0 36 -37t-36 -37q-37 0 -37 37z" />
    <glyph glyph-name="gdotaccent" unicode="&#x121;" horiz-adv-x="894" 
d="M442 958q187 0 277 -129q96 60 96 195l41 -6q-6 -88 -36.5 -136.5t-84.5 -80.5q37 -67 37 -162q0 -147 -90 -233.5t-240 -86.5q-84 0 -149 27q-90 -41 -90 -121q0 -112 168 -112h211q60 0 109.5 -12.5t92 -39.5t66.5 -76t24 -116q0 -83 -40 -144t-107 -93.5t-140 -47
t-155 -14.5t-150.5 14t-126.5 44t-91 85.5t-33 130.5q0 115 72.5 180t183.5 70q-58 4 -91.5 39.5t-33.5 91.5q0 47 27.5 82t70.5 55q-70 39 -108.5 110t-38.5 167q0 147 89.5 233t239.5 86zM72 -154q0 -84 50 -139t128 -77.5t182 -22.5q78 0 146 14t127.5 43t94 81.5
t34.5 123.5q0 101 -67.5 153t-191.5 52h-204q-131 0 -215 -55.5t-84 -172.5zM154 639q0 -129 78 -206t210 -77t210.5 77t78.5 206t-78.5 205t-210.5 76t-210 -76t-78 -205zM416 1219q0 36 37 36q36 0 36 -36q0 -37 -36 -37q-37 0 -37 37z" />
    <glyph glyph-name="Gcommaaccent" unicode="&#x122;" horiz-adv-x="1191" 
d="M653 559h396v-559h-35l-8 262q-31 -127 -131.5 -200.5t-245.5 -73.5q-242 0 -382.5 160t-140.5 454q0 296 141.5 456.5t381.5 160.5q310 0 420 -289l-37 -19q-102 267 -383 267q-227 0 -353 -153.5t-126 -422.5t126 -421t353 -152q75 0 140.5 23t119.5 70.5t85.5 130
t31.5 191.5v74h-353v41zM719 -303q0 -66 -38.5 -103.5t-113.5 -37.5v30q117 0 117 111q0 22 -6 31q-11 -15 -29 -15q-17 0 -27 10t-10 25q0 18 11.5 28.5t31.5 10.5q26 0 45 -23.5t19 -66.5z" />
    <glyph glyph-name="gcommaaccent" unicode="&#x123;" horiz-adv-x="894" 
d="M442 958q187 0 277 -129q96 60 96 195l41 -6q-6 -88 -36.5 -136.5t-84.5 -80.5q37 -67 37 -162q0 -147 -90 -233.5t-240 -86.5q-84 0 -149 27q-90 -41 -90 -121q0 -112 168 -112h211q60 0 109.5 -12.5t92 -39.5t66.5 -76t24 -116q0 -83 -40 -144t-107 -93.5t-140 -47
t-155 -14.5t-150.5 14t-126.5 44t-91 85.5t-33 130.5q0 115 72.5 180t183.5 70q-58 4 -91.5 39.5t-33.5 91.5q0 47 27.5 82t70.5 55q-70 39 -108.5 110t-38.5 167q0 147 89.5 233t239.5 86zM72 -154q0 -84 50 -139t128 -77.5t182 -22.5q78 0 146 14t127.5 43t94 81.5
t34.5 123.5q0 101 -67.5 153t-191.5 52h-204q-131 0 -215 -55.5t-84 -172.5zM154 639q0 -129 78 -206t210 -77t210.5 77t78.5 206t-78.5 205t-210.5 76t-210 -76t-78 -205zM377 1231q0 66 38 103.5t113 37.5v-31q-116 0 -116 -110q0 -22 6 -31q10 14 28 14q17 0 27 -9.5
t10 -24.5q0 -18 -11.5 -28.5t-31.5 -10.5q-25 0 -44 23.5t-19 66.5z" />
    <glyph glyph-name="Hcircumflex" unicode="&#x124;" horiz-adv-x="1257" 
d="M227 0h-43v1206h43v-579h803v579h43v-1206h-43v586h-803v-586zM616 1542h25l219 -260h-45l-113 131l-71 88h-4q-29 -37 -72 -88l-113 -131h-45z" />
    <glyph glyph-name="hcircumflex" unicode="&#x125;" horiz-adv-x="976" 
d="M199 1368v-682q26 115 116.5 193.5t219.5 78.5q134 0 211 -75.5t77 -231.5v-651h-41v637q0 138 -64.5 210.5t-182.5 72.5q-142 0 -239 -109.5t-97 -292.5v-518h-41v1368h41zM170 1694h25l219 -260h-45l-113 131l-72 88h-4q-28 -37 -71 -88l-113 -131h-45z" />
    <glyph glyph-name="Hbar" unicode="&#x126;" horiz-adv-x="1277" 
d="M72 883v41h123v282h43v-282h802v282h43v-282h123v-41h-123v-883h-43v586h-802v-586h-43v883h-123zM238 627h802v256h-802v-256z" />
    <glyph glyph-name="hbar" unicode="&#x127;" horiz-adv-x="976" 
d="M199 1368v-203h352v-37h-352v-442q26 115 116.5 193.5t219.5 78.5q134 0 211 -75.5t77 -231.5v-651h-41v637q0 138 -64.5 210.5t-182.5 72.5q-142 0 -239 -109.5t-97 -292.5v-518h-41v1128h-158v37h158v203h41z" />
    <glyph glyph-name="Itilde" unicode="&#x128;" horiz-adv-x="411" 
d="M184 1206h43v-1206h-43v1206zM344 1307q-40 0 -73 19t-74 54q-30 27 -45 38.5t-38.5 22.5t-45.5 11q-54 0 -75.5 -38t-2.5 -116h-31q-32 83 2.5 137t106.5 54q28 0 56 -12t45.5 -25t45.5 -37q30 -27 45 -38.5t38.5 -22.5t45.5 -11q54 0 75.5 38t2.5 116h31
q32 -83 -2.5 -136.5t-106.5 -53.5z" />
    <glyph glyph-name="itilde" unicode="&#x129;" horiz-adv-x="368" 
d="M324 1122q-28 0 -56 12t-46.5 25.5t-45.5 36.5q-30 27 -45 38.5t-38.5 22.5t-45.5 11q-54 0 -75.5 -38t-2.5 -116h-30q-33 83 1.5 137t106.5 54q28 0 56 -12t46.5 -25.5t45.5 -36.5q30 -27 45 -38.5t38.5 -22.5t45.5 -11q54 0 75 37.5t2 116.5h31q33 -83 -1.5 -137
t-106.5 -54zM164 946h41v-946h-41v946z" />
    <glyph glyph-name="Imacron" unicode="&#x12a;" horiz-adv-x="411" 
d="M184 1206h43v-1206h-43v1206zM395 1341h-381v39h381v-39z" />
    <glyph glyph-name="imacron" unicode="&#x12b;" horiz-adv-x="368" 
d="M375 1157h-381v39h381v-39zM164 946h41v-946h-41v946z" />
    <glyph glyph-name="Ibreve" unicode="&#x12c;" horiz-adv-x="411" 
d="M184 1206h43v-1206h-43v1206zM205 1272q-107 0 -163 61t-56 183h37q6 -207 182 -207t182 207h37q0 -122 -56 -183t-163 -61z" />
    <glyph glyph-name="Iogonek" unicode="&#x12e;" horiz-adv-x="411" 
d="M10 -246q0 143 174 256v1196h43v-1206q-176 -107 -176 -246q0 -49 24.5 -76.5t67.5 -27.5q34 0 58 13t49 44l24 -24q-52 -70 -131 -70q-62 0 -97.5 38t-35.5 103z" />
    <glyph glyph-name="iogonek" unicode="&#x12f;" horiz-adv-x="368" 
d="M-12 -246q0 146 176 258v934h41v-946q-176 -107 -176 -246q0 -49 24.5 -76.5t67.5 -27.5q33 0 57 13t49 44l25 -24q-52 -70 -131 -70q-62 0 -97.5 38t-35.5 103zM147 1219q0 36 37 36t37 -36q0 -37 -37 -37t-37 37z" />
    <glyph glyph-name="Idotaccent" unicode="&#x130;" horiz-adv-x="411" 
d="M184 1206h43v-1206h-43v1206zM168 1362q0 37 37 37t37 -37t-37 -37t-37 37z" />
    <glyph glyph-name="dotlessi" unicode="&#x131;" horiz-adv-x="368" 
d="M164 946h41v-946h-41v946z" />
    <glyph glyph-name="IJ" unicode="&#x132;" horiz-adv-x="1331" 
d="M215 1206h43v-1206h-43v1206zM1102 1206h43v-850q0 -368 -334 -368q-139 0 -226.5 67.5t-125.5 180.5l37 18q39 -109 118.5 -168t196.5 -59q66 0 116.5 16.5t91 54t62 105t21.5 162.5v841z" />
    <glyph glyph-name="ij" unicode="&#x133;" horiz-adv-x="966" 
d="M188 1219q0 36 37 36t37 -36q0 -37 -37 -37t-37 37zM205 946h41v-946h-41v946zM668 946h41v-1100q0 -129 -64.5 -196.5t-193.5 -67.5v37q105 0 161 55t56 179v1093zM651 1219q0 36 37 36t37 -36q0 -37 -37 -37t-37 37z" />
    <glyph glyph-name="Jcircumflex" unicode="&#x134;" horiz-adv-x="874" 
d="M684 1206h43v-850q0 -368 -334 -368q-139 0 -226.5 67.5t-125.5 180.5l37 18q39 -109 118.5 -168t196.5 -59q66 0 116.5 16.5t91 54t62 105t21.5 162.5v841zM694 1542h25l219 -260h-45l-113 131l-71 88h-4q-29 -37 -72 -88l-113 -131h-45z" />
    <glyph glyph-name="jcircumflex" unicode="&#x135;" horiz-adv-x="368" 
d="M164 946h41v-1100q0 -129 -64.5 -196.5t-193.5 -67.5v37q105 0 161 55t56 179v1093zM174 1358h25l219 -260h-45l-113 131l-72 88h-4q-28 -37 -71 -88l-113 -131h-45z" />
    <glyph glyph-name="Kcommaaccent" unicode="&#x136;" horiz-adv-x="970" 
d="M950 0h-57l-557 586h-109v-586h-43v1206h43v-579h109l524 579h55l-540 -598zM557 -303q0 -66 -38 -103.5t-113 -37.5v30q116 0 116 111q0 22 -6 31q-11 -15 -29 -15q-17 0 -26.5 10t-9.5 25q0 18 11.5 28.5t31.5 10.5q25 0 44 -23.5t19 -66.5z" />
    <glyph glyph-name="kcommaaccent" unicode="&#x137;" horiz-adv-x="823" 
d="M348 500l455 -500h-55l-435 477h-114v-477h-41v1368h41v-852h112l391 430h54zM485 -303q0 -66 -38 -103.5t-113 -37.5v30q117 0 117 111q0 21 -7 31q-11 -15 -28 -15t-27 10t-10 25q0 18 11.5 28.5t31.5 10.5q25 0 44 -23.5t19 -66.5z" />
    <glyph glyph-name="kgreenlandic" unicode="&#x138;" horiz-adv-x="823" 
d="M348 500l455 -500h-55l-435 477h-114v-477h-41v946h41v-430h112l391 430h54z" />
    <glyph glyph-name="Lacute" unicode="&#x139;" horiz-adv-x="839" 
d="M184 1206h43v-1165h561v-41h-604v1206zM227 1282h-30l135 260h57z" />
    <glyph glyph-name="lacute" unicode="&#x13a;" horiz-adv-x="393" 
d="M342 43v-39q-30 -10 -59 -10q-140 0 -140 160v1214h41v-1210q0 -125 99 -125q29 0 59 10zM180 1450h-30l135 260h57z" />
    <glyph glyph-name="Lcommaaccent" unicode="&#x13b;" horiz-adv-x="839" 
d="M184 1206h43v-1165h561v-41h-604v1206zM561 -303q0 -66 -38 -103.5t-113 -37.5v30q116 0 116 111q0 22 -6 31q-11 -15 -28 -15t-27 10t-10 25q0 18 11.5 28.5t31.5 10.5q25 0 44 -23.5t19 -66.5z" />
    <glyph glyph-name="lcommaaccent" unicode="&#x13c;" horiz-adv-x="393" 
d="M342 43v-39q-30 -10 -59 -10q-140 0 -140 160v1214h41v-1210q0 -125 99 -125q29 0 59 10zM317 -303q0 -66 -38 -103.5t-113 -37.5v30q117 0 117 111q0 21 -7 31q-11 -15 -28 -15t-27 10t-10 25q0 18 11.5 28.5t31.5 10.5q25 0 44 -23.5t19 -66.5z" />
    <glyph glyph-name="Lcaron" unicode="&#x13d;" horiz-adv-x="839" 
d="M184 1206h43v-1165h561v-41h-604v1206zM666 1206l-48 -358h-32l32 358h48z" />
    <glyph glyph-name="lcaron" unicode="&#x13e;" horiz-adv-x="393" 
d="M389 1368l-47 -358h-33l33 358h47zM342 43v-39q-30 -10 -59 -10q-140 0 -140 160v1214h41v-1210q0 -125 99 -125q29 0 59 10z" />
    <glyph glyph-name="Ldot" unicode="&#x13f;" horiz-adv-x="839" 
d="M184 1206h43v-1165h561v-41h-604v1206zM555 602q0 37 37 37t37 -37t-37 -37t-37 37z" />
    <glyph glyph-name="ldot" unicode="&#x140;" horiz-adv-x="425" 
d="M342 43v-39q-30 -10 -59 -10q-140 0 -140 160v1214h41v-1210q0 -125 99 -125q29 0 59 10zM342 680q0 37 37 37t37 -37t-37 -37t-37 37z" />
    <glyph glyph-name="Lslash" unicode="&#x141;" horiz-adv-x="847" 
d="M51 434v45l142 76v651h43v-628l333 180v-45l-333 -181v-491h561v-41h-604v510z" />
    <glyph glyph-name="lslash" unicode="&#x142;" horiz-adv-x="393" 
d="M41 657v45l113 60v606h41v-586l161 86v-45l-161 -86v-579q0 -125 98 -125q29 0 59 10v-39q-30 -10 -59 -10q-139 0 -139 160v563z" />
    <glyph glyph-name="Nacute" unicode="&#x143;" horiz-adv-x="1255" 
d="M236 1206l675 -977q32 -45 61.5 -89.5t42.5 -66.5l13 -22h4q-4 82 -4 197v958h43v-1206h-51l-676 977q-32 45 -61 89.5t-43 66.5l-13 22h-4q4 -82 4 -197v-958h-43v1206h52zM635 1282h-31l135 260h58z" />
    <glyph glyph-name="nacute" unicode="&#x144;" horiz-adv-x="983" 
d="M197 946l8 -260q26 115 116.5 193.5t219.5 78.5q134 0 211 -75.5t77 -231.5v-651h-41v637q0 138 -64.5 210.5t-182.5 72.5q-142 0 -239 -109.5t-97 -292.5v-518h-41v946h33zM508 1098h-31l135 260h58z" />
    <glyph glyph-name="Ncommaaccent" unicode="&#x145;" horiz-adv-x="1255" 
d="M236 1206l675 -977q32 -45 61.5 -89.5t42.5 -66.5l13 -22h4q-4 82 -4 197v958h43v-1206h-51l-676 977q-32 45 -61 89.5t-43 66.5l-13 22h-4q4 -82 4 -197v-958h-43v1206h52zM702 -303q0 -66 -38 -103.5t-113 -37.5v30q117 0 117 111q0 22 -6 31q-11 -15 -29 -15
q-17 0 -27 10t-10 25q0 18 11.5 28.5t31.5 10.5q25 0 44 -23.5t19 -66.5z" />
    <glyph glyph-name="ncommaaccent" unicode="&#x146;" horiz-adv-x="983" 
d="M197 946l8 -260q26 115 116.5 193.5t219.5 78.5q134 0 211 -75.5t77 -231.5v-651h-41v637q0 138 -64.5 210.5t-182.5 72.5q-142 0 -239 -109.5t-97 -292.5v-518h-41v946h33zM571 -303q0 -66 -38 -103.5t-113 -37.5v30q117 0 117 111q0 21 -7 31q-11 -15 -28 -15t-27 10
t-10 25q0 18 11.5 28.5t31.5 10.5q25 0 44 -23.5t19 -66.5z" />
    <glyph glyph-name="Ncaron" unicode="&#x147;" horiz-adv-x="1255" 
d="M236 1206l675 -977q32 -45 61.5 -89.5t42.5 -66.5l13 -22h4q-4 82 -4 197v958h43v-1206h-51l-676 977q-32 45 -61 89.5t-43 66.5l-13 22h-4q4 -82 4 -197v-958h-43v1206h52zM639 1282h-25l-219 260h45l113 -131l72 -88h4q28 37 71 88l113 131h45z" />
    <glyph glyph-name="ncaron" unicode="&#x148;" horiz-adv-x="983" 
d="M197 946l8 -260q26 115 116.5 193.5t219.5 78.5q134 0 211 -75.5t77 -231.5v-651h-41v637q0 138 -64.5 210.5t-182.5 72.5q-142 0 -239 -109.5t-97 -292.5v-518h-41v946h33zM508 1098h-25l-219 260h45l113 -131l72 -88h4q28 37 71 88l113 131h45z" />
    <glyph glyph-name="Eng" unicode="&#x14a;" horiz-adv-x="1255" 
d="M1071 1206v-1265q0 -369 -330 -369q-171 0 -272 104l29 35q90 -100 243 -100q66 0 116 16.5t90 54t60.5 104.5t20.5 163v39l-684 989q-32 45 -61 89.5t-43 66.5l-13 22h-4q4 -82 4 -197v-958h-43v1206h52l675 -977q32 -45 61.5 -89.5t42.5 -66.5l13 -22h4q-4 82 -4 197
v958h43z" />
    <glyph glyph-name="eng" unicode="&#x14b;" horiz-adv-x="983" 
d="M205 0h-41v946h33l8 -260q26 115 116.5 193.5t219.5 78.5q134 0 211 -75.5t77 -231.5v-805q0 -129 -64.5 -196.5t-193.5 -67.5v37q105 0 161 55t56 179v784q0 138 -64.5 210.5t-182.5 72.5q-142 0 -239 -109.5t-97 -292.5v-518z" />
    <glyph glyph-name="Omacron" unicode="&#x14c;" horiz-adv-x="1236" 
d="M618 -12q-239 0 -375.5 160.5t-136.5 453.5t136.5 455t375.5 162t375.5 -162t136.5 -455t-136.5 -453.5t-375.5 -160.5zM618 1178q-224 0 -346 -153.5t-122 -422.5t121.5 -421t346.5 -152t347 152.5t122 420.5q0 269 -122 422.5t-347 153.5zM809 1341h-381v39h381v-39z
" />
    <glyph glyph-name="omacron" unicode="&#x14d;" horiz-adv-x="960" 
d="M479 -12q-183 0 -283 124.5t-100 360.5t100 360.5t283 124.5q184 0 284.5 -124.5t100.5 -360.5t-100.5 -360.5t-284.5 -124.5zM479 920q-164 0 -253 -114.5t-89 -332.5t89 -332t253 -114q166 0 255 114t89 332t-89.5 332.5t-254.5 114.5zM670 1157h-381v39h381v-39z" />
    <glyph glyph-name="Obreve" unicode="&#x14e;" horiz-adv-x="1236" 
d="M618 -12q-239 0 -375.5 160.5t-136.5 453.5t136.5 455t375.5 162t375.5 -162t136.5 -455t-136.5 -453.5t-375.5 -160.5zM618 1178q-224 0 -346 -153.5t-122 -422.5t121.5 -421t346.5 -152t347 152.5t122 420.5q0 269 -122 422.5t-347 153.5zM618 1272q-107 0 -163 61
t-56 183h37q6 -207 182 -207q177 0 183 207h37q0 -122 -56.5 -183t-163.5 -61z" />
    <glyph glyph-name="obreve" unicode="&#x14f;" horiz-adv-x="960" 
d="M479 -12q-183 0 -283 124.5t-100 360.5t100 360.5t283 124.5q184 0 284.5 -124.5t100.5 -360.5t-100.5 -360.5t-284.5 -124.5zM479 920q-164 0 -253 -114.5t-89 -332.5t89 -332t253 -114q166 0 255 114t89 332t-89.5 332.5t-254.5 114.5zM479 1087q-107 0 -163 61
t-56 183h37q6 -207 182 -207q177 0 183 207h36q0 -122 -56 -183t-163 -61z" />
    <glyph glyph-name="Ohungarumlaut" unicode="&#x150;" horiz-adv-x="1236" 
d="M618 -12q-239 0 -375.5 160.5t-136.5 453.5t136.5 455t375.5 162t375.5 -162t136.5 -455t-136.5 -453.5t-375.5 -160.5zM618 1178q-224 0 -346 -153.5t-122 -422.5t121.5 -421t346.5 -152t347 152.5t122 420.5q0 269 -122 422.5t-347 153.5zM520 1282h-31l136 260h57z
M725 1282h-31l135 260h58z" />
    <glyph glyph-name="ohungarumlaut" unicode="&#x151;" horiz-adv-x="960" 
d="M479 -12q-183 0 -283 124.5t-100 360.5t100 360.5t283 124.5q184 0 284.5 -124.5t100.5 -360.5t-100.5 -360.5t-284.5 -124.5zM479 920q-164 0 -253 -114.5t-89 -332.5t89 -332t253 -114q166 0 255 114t89 332t-89.5 332.5t-254.5 114.5zM381 1098h-31l135 260h58z
M586 1098h-31l135 260h58z" />
    <glyph glyph-name="OE" unicode="&#x152;" horiz-adv-x="1773" 
d="M618 -12q-239 0 -375.5 160.5t-136.5 453.5t136.5 455t375.5 162q60 0 123 -13h920v-41h-803q126 -65 197 -202.5t75 -335.5h467v-41h-467q-3 -203 -73.5 -342t-198.5 -203h803v-41h-920q-59 -12 -123 -12zM618 1178q-224 0 -346 -153.5t-122 -422.5t121.5 -421
t346.5 -152t347 152.5t122 420.5q0 269 -122 422.5t-347 153.5z" />
    <glyph glyph-name="oe" unicode="&#x153;" horiz-adv-x="1624" 
d="M1212 27q121 0 190 51.5t97 161.5l37 -7q-52 -245 -324 -245q-143 0 -237.5 74t-130.5 223q-35 -146 -128.5 -221.5t-236.5 -75.5q-183 0 -283 124.5t-100 360.5t100 360.5t283 124.5q142 0 236 -75t129 -219q35 144 128.5 219t235.5 75q159 0 240.5 -95.5t81.5 -252.5
q0 -52 -6 -108h-660q-10 -234 84.5 -354.5t263.5 -120.5zM479 920q-164 0 -253 -114.5t-89 -332.5t89 -332t253 -114q166 0 255 114t89 332t-89.5 332.5t-254.5 114.5zM866 539h621q2 20 2 71q0 140 -71 225t-210 85q-156 0 -243 -101t-99 -280z" />
    <glyph glyph-name="Racute" unicode="&#x154;" horiz-adv-x="1062" 
d="M991 0h-51q-45 48 -66 137l-49 207q-26 108 -95 159.5t-208 51.5h-295v-555h-43v1206h340q385 0 385 -327q0 -136 -79 -214.5t-197 -86.5v-5q94 -8 150.5 -57t80.5 -149l54 -224q20 -84 73 -143zM227 1165v-569h295q168 0 256 73t88 210q0 145 -84.5 215.5t-259.5 70.5
h-295zM526 1282h-30l135 260h57z" />
    <glyph glyph-name="racute" unicode="&#x155;" horiz-adv-x="638" 
d="M352 1098h-30l135 260h57zM598 934l-12 -39q-48 25 -103 25q-87 0 -151.5 -60t-95.5 -156.5t-31 -214.5v-489h-41v946h33l8 -284q18 136 89.5 216t188.5 80q69 0 115 -24z" />
    <glyph glyph-name="Rcommaaccent" unicode="&#x156;" horiz-adv-x="1062" 
d="M991 0h-51q-45 48 -66 137l-49 207q-26 108 -95 159.5t-208 51.5h-295v-555h-43v1206h340q385 0 385 -327q0 -136 -79 -214.5t-197 -86.5v-5q94 -8 150.5 -57t80.5 -149l54 -224q20 -84 73 -143zM227 1165v-569h295q168 0 256 73t88 210q0 145 -84.5 215.5t-259.5 70.5
h-295zM594 -303q0 -66 -38.5 -103.5t-113.5 -37.5v30q117 0 117 111q0 22 -6 31q-11 -15 -29 -15q-17 0 -27 10t-10 25q0 18 11.5 28.5t31.5 10.5q26 0 45 -23.5t19 -66.5z" />
    <glyph glyph-name="rcommaaccent" unicode="&#x157;" horiz-adv-x="638" 
d="M248 -303q0 -66 -38.5 -103.5t-113.5 -37.5v30q117 0 117 111q0 22 -6 31q-11 -15 -29 -15q-17 0 -27 10t-10 25q0 18 11.5 28.5t31.5 10.5q26 0 45 -23.5t19 -66.5zM598 934l-12 -39q-48 25 -103 25q-87 0 -151.5 -60t-95.5 -156.5t-31 -214.5v-489h-41v946h33l8 -284
q18 136 89.5 216t188.5 80q69 0 115 -24z" />
    <glyph glyph-name="Rcaron" unicode="&#x158;" horiz-adv-x="1062" 
d="M991 0h-51q-45 48 -66 137l-49 207q-26 108 -95 159.5t-208 51.5h-295v-555h-43v1206h340q385 0 385 -327q0 -136 -79 -214.5t-197 -86.5v-5q94 -8 150.5 -57t80.5 -149l54 -224q20 -84 73 -143zM227 1165v-569h295q168 0 256 73t88 210q0 145 -84.5 215.5t-259.5 70.5
h-295zM510 1282h-25l-219 260h45l113 -131l72 -88h4q28 37 71 88l113 131h45z" />
    <glyph glyph-name="rcaron" unicode="&#x159;" horiz-adv-x="638" 
d="M369 1098h-25l-219 260h45l113 -131l71 -88h4q29 37 72 88l113 131h45zM598 934l-12 -39q-48 25 -103 25q-87 0 -151.5 -60t-95.5 -156.5t-31 -214.5v-489h-41v946h33l8 -284q18 136 89.5 216t188.5 80q69 0 115 -24z" />
    <glyph glyph-name="Sacute" unicode="&#x15a;" horiz-adv-x="952" 
d="M66 313l40 13q26 -146 116.5 -221.5t238.5 -75.5q157 0 246.5 69.5t89.5 204.5q0 125 -78.5 190t-249.5 111q-52 14 -86.5 24.5t-76.5 27t-69 32.5t-54.5 39.5t-43 50.5t-25.5 63t-10 79q0 80 28.5 140t78.5 93.5t109.5 49.5t128.5 16q162 0 255 -75t117 -239l-39 -8
q-26 150 -106 215.5t-227 65.5q-135 0 -218.5 -62.5t-83.5 -195.5q0 -43 9 -76t30.5 -59.5t46.5 -45.5t67.5 -36.5t82 -30t100.5 -29.5q90 -25 150 -50.5t110 -64.5t73.5 -94.5t23.5 -130.5q0 -153 -100.5 -234t-278.5 -81q-162 0 -265.5 84t-129.5 241zM473 1282h-31
l136 260h57z" />
    <glyph glyph-name="sacute" unicode="&#x15b;" horiz-adv-x="786" 
d="M57 227l41 11q46 -211 287 -211q130 0 202 52t72 157q0 92 -56 141.5t-169 77.5l-106 26q-43 10 -74 21t-64 30t-53.5 43t-33.5 60.5t-13 83.5q0 83 43 138.5t106 78t140 22.5q134 0 210 -57.5t97 -187.5l-39 -6q-23 114 -85 163.5t-183 49.5q-108 0 -178 -50t-70 -151
q0 -48 13.5 -82t44.5 -56t63 -34.5t86 -26.5l108 -28q127 -34 190.5 -90t63.5 -166q0 -120 -84.5 -184t-230.5 -64q-133 0 -217.5 59t-110.5 180zM403 1098h-30l135 260h57z" />
    <glyph glyph-name="Scircumflex" unicode="&#x15c;" horiz-adv-x="952" 
d="M66 313l40 13q26 -146 116.5 -221.5t238.5 -75.5q157 0 246.5 69.5t89.5 204.5q0 125 -78.5 190t-249.5 111q-52 14 -86.5 24.5t-76.5 27t-69 32.5t-54.5 39.5t-43 50.5t-25.5 63t-10 79q0 80 28.5 140t78.5 93.5t109.5 49.5t128.5 16q162 0 255 -75t117 -239l-39 -8
q-26 150 -106 215.5t-227 65.5q-135 0 -218.5 -62.5t-83.5 -195.5q0 -43 9 -76t30.5 -59.5t46.5 -45.5t67.5 -36.5t82 -30t100.5 -29.5q90 -25 150 -50.5t110 -64.5t73.5 -94.5t23.5 -130.5q0 -153 -100.5 -234t-278.5 -81q-162 0 -265.5 84t-129.5 241zM453 1542h24
l219 -260h-45l-112 131l-72 88h-4q-29 -37 -72 -88l-112 -131h-46z" />
    <glyph glyph-name="scircumflex" unicode="&#x15d;" horiz-adv-x="786" 
d="M57 227l41 11q46 -211 287 -211q130 0 202 52t72 157q0 92 -56 141.5t-169 77.5l-106 26q-43 10 -74 21t-64 30t-53.5 43t-33.5 60.5t-13 83.5q0 83 43 138.5t106 78t140 22.5q134 0 210 -57.5t97 -187.5l-39 -6q-23 114 -85 163.5t-183 49.5q-108 0 -178 -50t-70 -151
q0 -48 13.5 -82t44.5 -56t63 -34.5t86 -26.5l108 -28q127 -34 190.5 -90t63.5 -166q0 -120 -84.5 -184t-230.5 -64q-133 0 -217.5 59t-110.5 180zM379 1358h24l220 -260h-45l-113 131l-72 88h-4q-29 -37 -72 -88l-112 -131h-45z" />
    <glyph glyph-name="Scedilla" unicode="&#x15e;" horiz-adv-x="952" 
d="M643 -260q0 -72 -46.5 -109t-121.5 -37q-120 0 -186 89l26 28q63 -82 160 -82q127 0 127 111q0 114 -190 127l26 121q-154 6 -250.5 89.5t-121.5 235.5l40 13q26 -146 116.5 -221.5t238.5 -75.5q157 0 246.5 69.5t89.5 204.5q0 125 -78.5 190t-249.5 111
q-52 14 -86.5 24.5t-76.5 27t-69 32.5t-54.5 39.5t-43 50.5t-25.5 63t-10 79q0 80 28.5 140t78.5 93.5t109.5 49.5t128.5 16q162 0 255 -75t117 -239l-39 -8q-26 150 -106 215.5t-227 65.5q-135 0 -218.5 -62.5t-83.5 -195.5q0 -43 9 -76t30.5 -59.5t46.5 -45.5t67.5 -36.5
t82 -30t100.5 -29.5q90 -25 150 -50.5t110 -64.5t73.5 -94.5t23.5 -130.5q0 -151 -97.5 -231.5t-271.5 -83.5l-20 -92q80 -5 136 -46t56 -110z" />
    <glyph glyph-name="scedilla" unicode="&#x15f;" horiz-adv-x="786" 
d="M569 -260q0 -72 -46.5 -109t-121.5 -37q-120 0 -186 89l27 28q63 -82 159 -82q127 0 127 111q0 114 -190 127l27 121q-261 10 -308 239l41 11q46 -211 287 -211q130 0 202 52t72 157q0 92 -56 141.5t-169 77.5l-106 26q-43 10 -74 21t-64 30t-53.5 43t-33.5 60.5
t-13 83.5q0 83 43 138.5t106 78t140 22.5q134 0 210 -57.5t97 -187.5l-39 -6q-23 114 -85 163.5t-183 49.5q-108 0 -178 -50t-70 -151q0 -48 13.5 -82t44.5 -56t63 -34.5t86 -26.5l108 -28q127 -34 190.5 -90t63.5 -166q0 -118 -81 -181.5t-222 -66.5l-20 -92q80 -5 136 -46
t56 -110z" />
    <glyph glyph-name="Scaron" unicode="&#x160;" horiz-adv-x="952" 
d="M66 313l40 13q26 -146 116.5 -221.5t238.5 -75.5q157 0 246.5 69.5t89.5 204.5q0 125 -78.5 190t-249.5 111q-52 14 -86.5 24.5t-76.5 27t-69 32.5t-54.5 39.5t-43 50.5t-25.5 63t-10 79q0 80 28.5 140t78.5 93.5t109.5 49.5t128.5 16q162 0 255 -75t117 -239l-39 -8
q-26 150 -106 215.5t-227 65.5q-135 0 -218.5 -62.5t-83.5 -195.5q0 -43 9 -76t30.5 -59.5t46.5 -45.5t67.5 -36.5t82 -30t100.5 -29.5q90 -25 150 -50.5t110 -64.5t73.5 -94.5t23.5 -130.5q0 -153 -100.5 -234t-278.5 -81q-162 0 -265.5 84t-129.5 241zM477 1282h-24
l-220 260h46l112 -131l72 -88h4q29 37 72 88l112 131h45z" />
    <glyph glyph-name="scaron" unicode="&#x161;" horiz-adv-x="786" 
d="M57 227l41 11q46 -211 287 -211q130 0 202 52t72 157q0 92 -56 141.5t-169 77.5l-106 26q-43 10 -74 21t-64 30t-53.5 43t-33.5 60.5t-13 83.5q0 83 43 138.5t106 78t140 22.5q134 0 210 -57.5t97 -187.5l-39 -6q-23 114 -85 163.5t-183 49.5q-108 0 -178 -50t-70 -151
q0 -48 13.5 -82t44.5 -56t63 -34.5t86 -26.5l108 -28q127 -34 190.5 -90t63.5 -166q0 -120 -84.5 -184t-230.5 -64q-133 0 -217.5 59t-110.5 180zM403 1098h-24l-219 260h45l112 -131l72 -88h4q29 37 72 88l113 131h45z" />
    <glyph glyph-name="Tcommaaccent" unicode="&#x162;" horiz-adv-x="993" 
d="M518 0h-43v1165h-434v41h911v-41h-434v-1165zM571 -303q0 -66 -38 -103.5t-113 -37.5v30q117 0 117 111q0 21 -7 31q-11 -15 -28 -15t-27 10t-10 25q0 18 11.5 28.5t31.5 10.5q25 0 44 -23.5t19 -66.5z" />
    <glyph glyph-name="tcommaaccent" unicode="&#x163;" horiz-adv-x="593" 
d="M528 94l25 -28q-66 -78 -195 -78q-94 0 -142 57.5t-48 167.5v696h-137v37h137v201l43 8v-209h281v-37h-283v-692q0 -190 149 -190q56 0 94 14.5t76 52.5zM367 -303q0 -66 -38.5 -103.5t-113.5 -37.5v30q117 0 117 111q0 22 -6 31q-11 -15 -29 -15q-17 0 -27 10t-10 25
q0 18 11.5 28.5t31.5 10.5q26 0 45 -23.5t19 -66.5z" />
    <glyph glyph-name="Tcaron" unicode="&#x164;" horiz-adv-x="993" 
d="M518 0h-43v1165h-434v41h911v-41h-434v-1165zM508 1282h-25l-219 260h45l113 -131l72 -88h4q28 37 71 88l113 131h45z" />
    <glyph glyph-name="tcaron" unicode="&#x165;" horiz-adv-x="593" 
d="M528 94l25 -28q-66 -78 -195 -78q-94 0 -142 57.5t-48 167.5v696h-137v37h137v201l43 8v-209h281v-37h-283v-692q0 -190 149 -190q56 0 94 14.5t76 52.5zM385 1368l-47 -358h-33l33 358h47z" />
    <glyph glyph-name="Tbar" unicode="&#x166;" horiz-adv-x="993" 
d="M518 0h-43v627h-266v41h266v497h-434v41h911v-41h-434v-497h266v-41h-266v-627z" />
    <glyph glyph-name="tbar" unicode="&#x167;" horiz-adv-x="593" 
d="M31 592v37h137v280h-137v37h137v201l43 8v-209h281v-37h-283v-280h283v-37h-283v-375q0 -190 149 -190q56 0 94 14.5t76 52.5l25 -28q-66 -78 -195 -78q-94 0 -142 57.5t-48 167.5v379h-137z" />
    <glyph glyph-name="Utilde" unicode="&#x168;" horiz-adv-x="1179" 
d="M989 1206h43v-772q0 -114 -34 -201t-95 -140t-139.5 -79t-173.5 -26q-94 0 -173 26.5t-140 79.5t-95.5 140t-34.5 200v772h43v-770q0 -86 22 -155.5t59.5 -116t89 -78t109 -45.5t120.5 -14q80 0 149.5 23t126.5 70t90 128t33 188v770zM727 1307q-40 0 -73 19t-74 54
q-30 27 -45 38.5t-38.5 22.5t-45.5 11q-54 0 -75.5 -38t-2.5 -116h-31q-32 83 2.5 137t106.5 54q28 0 56 -12t45.5 -25t45.5 -37q30 -27 45 -38.5t38.5 -22.5t45.5 -11q54 0 75.5 38t2.5 116h31q32 -83 -2.5 -136.5t-106.5 -53.5z" />
    <glyph glyph-name="utilde" unicode="&#x169;" horiz-adv-x="962" 
d="M766 0l-8 254q-24 -117 -113 -191.5t-217 -74.5q-134 0 -211.5 75.5t-77.5 231.5v651h41v-639q0 -140 64.5 -210t183.5 -70q146 0 238 108t92 293v518h41v-946h-33zM606 1122q-28 0 -56 12t-45.5 25t-45.5 37q-30 27 -45 38.5t-38.5 22.5t-45.5 11q-54 0 -75.5 -38
t-2.5 -116h-31q-32 83 2.5 137t106.5 54q28 0 56 -12t45.5 -25t45.5 -37q30 -27 45 -38.5t38.5 -22.5t45.5 -11q54 0 75.5 38t2.5 116h31q32 -83 -2.5 -137t-106.5 -54z" />
    <glyph glyph-name="Umacron" unicode="&#x16a;" horiz-adv-x="1179" 
d="M989 1206h43v-772q0 -114 -34 -201t-95 -140t-139.5 -79t-173.5 -26q-94 0 -173 26.5t-140 79.5t-95.5 140t-34.5 200v772h43v-770q0 -86 22 -155.5t59.5 -116t89 -78t109 -45.5t120.5 -14q80 0 149.5 23t126.5 70t90 128t33 188v770zM780 1341h-381v39h381v-39z" />
    <glyph glyph-name="umacron" unicode="&#x16b;" horiz-adv-x="962" 
d="M766 0l-8 254q-24 -117 -113 -191.5t-217 -74.5q-134 0 -211.5 75.5t-77.5 231.5v651h41v-639q0 -140 64.5 -210t183.5 -70q146 0 238 108t92 293v518h41v-946h-33zM659 1157h-380v39h380v-39z" />
    <glyph glyph-name="Ubreve" unicode="&#x16c;" horiz-adv-x="1179" 
d="M989 1206h43v-772q0 -114 -34 -201t-95 -140t-139.5 -79t-173.5 -26q-94 0 -173 26.5t-140 79.5t-95.5 140t-34.5 200v772h43v-770q0 -86 22 -155.5t59.5 -116t89 -78t109 -45.5t120.5 -14q80 0 149.5 23t126.5 70t90 128t33 188v770zM590 1272q-107 0 -163 61t-56 183
h37q6 -207 182 -207t182 207h37q0 -122 -56 -183t-163 -61z" />
    <glyph glyph-name="ubreve" unicode="&#x16d;" horiz-adv-x="962" 
d="M766 0l-8 254q-24 -117 -113 -191.5t-217 -74.5q-134 0 -211.5 75.5t-77.5 231.5v651h41v-639q0 -140 64.5 -210t183.5 -70q146 0 238 108t92 293v518h41v-946h-33zM469 1087q-107 0 -163 61t-56 183h37q6 -207 182 -207t182 207h37q0 -122 -56 -183t-163 -61z" />
    <glyph glyph-name="Uring" unicode="&#x16e;" horiz-adv-x="1179" 
d="M989 1206h43v-772q0 -114 -34 -201t-95 -140t-139.5 -79t-173.5 -26q-94 0 -173 26.5t-140 79.5t-95.5 140t-34.5 200v772h43v-770q0 -86 22 -155.5t59.5 -116t89 -78t109 -45.5t120.5 -14q80 0 149.5 23t126.5 70t90 128t33 188v770zM590 1270q-73 0 -115.5 43
t-42.5 108t42.5 108.5t115.5 43.5t115.5 -43.5t42.5 -108.5t-42.5 -108t-115.5 -43zM590 1538q-55 0 -86 -33t-31 -84t31 -83.5t86 -32.5t86 32.5t31 83.5t-31 84t-86 33z" />
    <glyph glyph-name="uring" unicode="&#x16f;" horiz-adv-x="962" 
d="M766 0l-8 254q-24 -117 -113 -191.5t-217 -74.5q-134 0 -211.5 75.5t-77.5 231.5v651h41v-639q0 -140 64.5 -210t183.5 -70q146 0 238 108t92 293v518h41v-946h-33zM469 1085q-73 0 -115.5 43.5t-42.5 108.5t42.5 108.5t115.5 43.5t115.5 -43.5t42.5 -108.5t-42.5 -108.5
t-115.5 -43.5zM469 1354q-55 0 -86 -33t-31 -84t31 -84t86 -33t86 33t31 84t-31 84t-86 33z" />
    <glyph glyph-name="Uhungarumlaut" unicode="&#x170;" horiz-adv-x="1179" 
d="M989 1206h43v-772q0 -114 -34 -201t-95 -140t-139.5 -79t-173.5 -26q-94 0 -173 26.5t-140 79.5t-95.5 140t-34.5 200v772h43v-770q0 -86 22 -155.5t59.5 -116t89 -78t109 -45.5t120.5 -14q80 0 149.5 23t126.5 70t90 128t33 188v770zM492 1282h-31l135 260h57zM696 1282
h-30l135 260h57z" />
    <glyph glyph-name="uhungarumlaut" unicode="&#x171;" horiz-adv-x="962" 
d="M766 0l-8 254q-24 -117 -113 -191.5t-217 -74.5q-134 0 -211.5 75.5t-77.5 231.5v651h41v-639q0 -140 64.5 -210t183.5 -70q146 0 238 108t92 293v518h41v-946h-33zM371 1098h-31l135 260h57zM575 1098h-30l135 260h57z" />
    <glyph glyph-name="Uogonek" unicode="&#x172;" horiz-adv-x="1179" 
d="M528 -246q0 130 138 238q-50 -4 -76 -4q-94 0 -173 26.5t-140 79.5t-95.5 140t-34.5 200v772h43v-770q0 -86 22 -155.5t59.5 -116t89 -78t109 -45.5t120.5 -14q80 0 149.5 23t126.5 70t90 128t33 188v770h43v-772q0 -176 -76.5 -282.5t-207.5 -143.5q-79 -50 -129 -117.5
t-50 -136.5q0 -49 25 -76.5t68 -27.5q33 0 57 13t49 44l25 -24q-52 -70 -131 -70q-63 0 -98.5 38t-35.5 103z" />
    <glyph glyph-name="uogonek" unicode="&#x173;" horiz-adv-x="962" 
d="M582 -246q0 149 182 262l-6 238q-24 -117 -113 -191.5t-217 -74.5q-134 0 -211.5 75.5t-77.5 231.5v651h41v-639q0 -140 64.5 -210t183.5 -70q146 0 238 108t92 293v518h41v-946q-176 -107 -176 -246q0 -49 24.5 -76.5t67.5 -27.5q33 0 57 13t49 44l25 -24
q-52 -70 -131 -70q-62 0 -97.5 38t-35.5 103z" />
    <glyph glyph-name="Wcircumflex" unicode="&#x174;" horiz-adv-x="1564" 
d="M805 1206l258 -874q24 -84 43.5 -158.5t27.5 -107.5l7 -33h4q25 111 80 299l256 874h43l-350 -1206h-60l-252 864q-24 84 -43.5 155t-26.5 101l-8 29h-4q-23 -97 -78 -285l-251 -864h-60l-350 1206h43l258 -874q24 -84 43.5 -158.5t26.5 -107.5l8 -33h4q25 109 80 299
l256 874h45zM770 1542h25l219 -260h-45l-113 131l-72 88h-4q-28 -37 -71 -88l-113 -131h-45z" />
    <glyph glyph-name="wcircumflex" unicode="&#x175;" horiz-adv-x="1232" 
d="M641 946l195 -674q24 -82 39 -141.5t19 -78.5l3 -19h4q11 55 64 239l194 674h43l-274 -946h-56l-190 659q-24 83 -40 145.5t-20 83.5l-4 21h-4q-10 -64 -63 -250l-191 -659h-55l-274 946h43l194 -674q24 -82 40 -141.5t20 -78.5l4 -19h4q8 55 61 239l195 674h49z
M604 1358h25l219 -260h-45l-113 131l-72 88h-4q-28 -37 -71 -88l-113 -131h-45z" />
    <glyph glyph-name="Ycircumflex" unicode="&#x176;" horiz-adv-x="972" 
d="M90 1206l285 -477l110 -192h4q27 51 111 192l285 477h47l-424 -710v-496h-43v496l-424 710h49zM473 1542h25l219 -260h-45l-113 131l-72 88h-4q-28 -37 -71 -88l-113 -131h-45z" />
    <glyph glyph-name="ycircumflex" unicode="&#x177;" horiz-adv-x="831" 
d="M74 946l293 -778q13 -35 24 -69t16 -51l5 -17h4q18 53 49 133l293 782h43l-363 -964q-33 -88 -57 -144t-54.5 -111.5t-60.5 -85.5t-69 -48.5t-86 -18.5q-83 0 -140 37l17 41q56 -39 123 -39q88 0 149.5 82.5t132.5 284.5l-362 966h43zM397 1358h25l219 -260h-45l-113 131
l-71 88h-4q-29 -37 -72 -88l-113 -131h-45z" />
    <glyph glyph-name="Ydieresis" unicode="&#x178;" horiz-adv-x="972" 
d="M90 1206l285 -477l110 -192h4q27 51 111 192l285 477h47l-424 -710v-496h-43v496l-424 710h49zM295 1362q0 37 37 37t37 -37t-37 -37t-37 37zM602 1362q0 37 37 37t37 -37t-37 -37t-37 37z" />
    <glyph glyph-name="Zacute" unicode="&#x179;" horiz-adv-x="958" 
d="M879 1169l-650 -976l-100 -150v-6q33 4 162 4h610v-41h-825v37l651 979l98 149v4q-34 -4 -163 -4h-568v41h785v-37zM516 1282h-31l136 260h57z" />
    <glyph glyph-name="zacute" unicode="&#x17a;" horiz-adv-x="804" 
d="M721 918l-502 -730q-30 -44 -57 -81.5t-39 -52.5l-12 -15v-4q47 2 176 2h456v-37h-682v29l500 729q30 44 58 82t41 54l12 15v4q-49 -4 -178 -4h-410v37h637v-28zM426 1098h-31l135 260h58z" />
    <glyph glyph-name="Zdotaccent" unicode="&#x17b;" horiz-adv-x="958" 
d="M879 1169l-650 -976l-100 -150v-6q33 4 162 4h610v-41h-825v37l651 979l98 149v4q-34 -4 -163 -4h-568v41h785v-37zM471 1362q0 37 37 37t37 -37t-37 -37t-37 37z" />
    <glyph glyph-name="zdotaccent" unicode="&#x17c;" horiz-adv-x="804" 
d="M721 918l-502 -730q-30 -44 -57 -81.5t-39 -52.5l-12 -15v-4q47 2 176 2h456v-37h-682v29l500 729q30 44 58 82t41 54l12 15v4q-49 -4 -178 -4h-410v37h637v-28zM377 1219q0 36 37 36t37 -36q0 -37 -37 -37t-37 37z" />
    <glyph glyph-name="Zcaron" unicode="&#x17d;" horiz-adv-x="958" 
d="M879 1169l-650 -976l-100 -150v-6q33 4 162 4h610v-41h-825v37l651 979l98 149v4q-34 -4 -163 -4h-568v41h785v-37zM520 1282h-24l-220 260h46l112 -131l72 -88h4q29 37 72 88l112 131h45z" />
    <glyph glyph-name="zcaron" unicode="&#x17e;" horiz-adv-x="804" 
d="M721 918l-502 -730q-30 -44 -57 -81.5t-39 -52.5l-12 -15v-4q47 2 176 2h456v-37h-682v29l500 729q30 44 58 82t41 54l12 15v4q-49 -4 -178 -4h-410v37h637v-28zM426 1098h-25l-219 260h45l113 -131l72 -88h4q28 37 71 88l113 131h45z" />
    <glyph glyph-name="Schwa" unicode="&#x18f;" horiz-adv-x="1103" 
d="M96 893q38 154 149 240t271 86q230 0 355.5 -157.5t125.5 -471.5q0 -290 -122 -446t-347 -156q-136 0 -236 65t-150 173t-50 245q0 74 8 137h854q0 283 -117 426.5t-321 143.5q-142 0 -242.5 -79t-134.5 -218zM954 567h-813q-4 -37 -4 -96q0 -194 103.5 -318t287.5 -124
q142 0 239.5 70.5t142 189.5t44.5 278z" />
    <glyph glyph-name="florin" unicode="&#x192;" horiz-adv-x="757" 
d="M145 -246l119 670h-182l8 39h180l49 270q25 138 77 201t143 63q60 0 107 -26t71 -68l-27 -31q-32 47 -64.5 66.5t-86.5 19.5q-74 0 -114 -50t-63 -175l-49 -270h262l-8 -39h-260l-119 -670h-43z" />
    <glyph glyph-name="Khook" unicode="&#x198;" horiz-adv-x="970" 
d="M635 1026l-262 -414l577 -612h-57l-557 586h-109v-586h-43v1206h43v-579h109l258 415q60 96 106 136.5t113 40.5q105 0 133 -91l-43 -16q-26 66 -90 66q-53 0 -90 -35.5t-88 -116.5z" />
    <glyph glyph-name="khook" unicode="&#x199;" horiz-adv-x="823" 
d="M199 477v-477h-41v1098q0 139 62 211.5t177 72.5q104 0 172 -53l-22 -35q-60 49 -150 49q-198 0 -198 -251v-576h112l391 430h54l-408 -446l455 -500h-55l-435 477h-114z" />
    <glyph glyph-name="Ezh" unicode="&#x1b7;" horiz-adv-x="944" 
d="M283 549l403 471l129 145v4q-35 -4 -164 -4h-567v41h784v-37l-530 -616v-4q88 0 167.5 -15t153 -50.5t127 -87.5t85.5 -131.5t32 -178.5q0 -214 -125.5 -335.5t-322.5 -121.5t-318.5 96t-136.5 281l41 12q14 -175 126 -261.5t288 -86.5q186 0 295.5 111t109.5 305
q0 94 -31.5 168t-84 122t-127.5 79t-157 44t-177 13v37z" />
    <glyph glyph-name="Acaron" unicode="&#x1cd;" horiz-adv-x="1048" 
d="M981 0l-166 418h-582l-165 -418h-48l480 1206h49l479 -1206h-47zM416 874l-166 -415h549l-166 415q-33 81 -59.5 153.5t-37.5 104.5l-10 33h-4q-32 -109 -106 -291zM537 1282h-25l-219 260h45l113 -131l71 -88h4q29 37 72 88l113 131h45z" />
    <glyph glyph-name="acaron" unicode="&#x1ce;" horiz-adv-x="880" 
d="M434 1098h-24l-220 260h46l112 -131l72 -88h4q29 37 72 88l112 131h45zM674 315v162q-86 12 -172 12q-180 0 -279.5 -60.5t-99.5 -186.5q0 -101 65 -158t185 -57q126 0 213.5 76.5t87.5 211.5zM715 662v-474q0 -82 17.5 -118.5t62.5 -36.5q16 0 34 6v-35q-15 -6 -36 -6
q-62 0 -90.5 43.5t-28.5 144.5q-28 -94 -110.5 -146t-190.5 -52q-139 0 -215 67t-76 187q0 142 110.5 214t309.5 72q80 0 172 -12v135q0 146 -67 207.5t-191 61.5q-240 0 -260 -232l-39 6q5 73 31 125.5t68 82t91.5 43t108.5 13.5q299 0 299 -296z" />
    <glyph glyph-name="Icaron" unicode="&#x1cf;" horiz-adv-x="411" 
d="M184 1206h43v-1206h-43v1206zM217 1282h-24l-220 260h45l113 -131l72 -88h4q29 37 72 88l112 131h45z" />
    <glyph glyph-name="icaron" unicode="&#x1d0;" horiz-adv-x="368" 
d="M197 1098h-25l-219 260h45l113 -131l71 -88h4q29 37 72 88l113 131h45zM164 946h41v-946h-41v946z" />
    <glyph glyph-name="Ocaron" unicode="&#x1d1;" horiz-adv-x="1236" 
d="M618 -12q-239 0 -375.5 160.5t-136.5 453.5t136.5 455t375.5 162t375.5 -162t136.5 -455t-136.5 -453.5t-375.5 -160.5zM618 1178q-224 0 -346 -153.5t-122 -422.5t121.5 -421t346.5 -152t347 152.5t122 420.5q0 269 -122 422.5t-347 153.5zM631 1282h-25l-219 260h45
l113 -131l71 -88h5q28 37 71 88l113 131h45z" />
    <glyph glyph-name="ocaron" unicode="&#x1d2;" horiz-adv-x="960" 
d="M479 -12q-183 0 -283 124.5t-100 360.5t100 360.5t283 124.5q184 0 284.5 -124.5t100.5 -360.5t-100.5 -360.5t-284.5 -124.5zM479 920q-164 0 -253 -114.5t-89 -332.5t89 -332t253 -114q166 0 255 114t89 332t-89.5 332.5t-254.5 114.5zM492 1098h-25l-219 260h45
l113 -131l71 -88h4q29 37 72 88l113 131h45z" />
    <glyph glyph-name="Ucaron" unicode="&#x1d3;" horiz-adv-x="1179" 
d="M989 1206h43v-772q0 -114 -34 -201t-95 -140t-139.5 -79t-173.5 -26q-94 0 -173 26.5t-140 79.5t-95.5 140t-34.5 200v772h43v-770q0 -86 22 -155.5t59.5 -116t89 -78t109 -45.5t120.5 -14q80 0 149.5 23t126.5 70t90 128t33 188v770zM602 1282h-24l-220 260h45l113 -131
l72 -88h4q29 37 72 88l112 131h45z" />
    <glyph glyph-name="ucaron" unicode="&#x1d4;" horiz-adv-x="962" 
d="M766 0l-8 254q-24 -117 -113 -191.5t-217 -74.5q-134 0 -211.5 75.5t-77.5 231.5v651h41v-639q0 -140 64.5 -210t183.5 -70q146 0 238 108t92 293v518h41v-946h-33zM481 1098h-24l-219 260h45l112 -131l72 -88h4q29 37 72 88l112 131h45z" />
    <glyph glyph-name="uni01D9" unicode="&#x1d9;" horiz-adv-x="1179" 
d="M602 1434h-24l-220 260h45l113 -131l72 -88h4q29 37 72 88l112 131h45zM989 1206h43v-772q0 -114 -34 -201t-95 -140t-139.5 -79t-173.5 -26q-94 0 -173 26.5t-140 79.5t-95.5 140t-34.5 200v772h43v-770q0 -86 22 -155.5t59.5 -116t89 -78t109 -45.5t120.5 -14
q80 0 149.5 23t126.5 70t90 128t33 188v770zM399 1335q0 37 37 37t37 -37t-37 -37t-37 37zM707 1335q0 37 36 37q37 0 37 -37t-37 -37q-36 0 -36 37z" />
    <glyph glyph-name="uni01DA" unicode="&#x1da;" horiz-adv-x="962" 
d="M483 1198h-24l-219 260h45l112 -131l72 -88h4q29 37 72 88l112 131h45zM281 1100q0 37 36 37q37 0 37 -37t-37 -37q-36 0 -36 37zM588 1100q0 37 37 37t37 -37t-37 -37t-37 37zM766 0l-8 254q-24 -117 -113 -191.5t-217 -74.5q-134 0 -211.5 75.5t-77.5 231.5v651h41
v-639q0 -140 64.5 -210t183.5 -70q146 0 238 108t92 293v518h41v-946h-33z" />
    <glyph glyph-name="uni004100A800AF" unicode="&#x1de;" horiz-adv-x="1048" 
d="M981 0l-166 418h-582l-165 -418h-48l480 1206h49l479 -1206h-47zM416 874l-166 -415h549l-166 415q-33 81 -59.5 153.5t-37.5 104.5l-10 33h-4q-32 -109 -106 -291zM715 1448h-381v39h381v-39zM334 1325q0 37 37 37t37 -37t-37 -37t-37 37zM641 1325q0 37 37 37t37 -37
t-37 -37t-37 37z" />
    <glyph glyph-name="adieresismacron" unicode="&#x1df;" horiz-adv-x="880" 
d="M612 1260h-381v38h381v-38zM231 1112q0 37 37 37t37 -37t-37 -37t-37 37zM539 1112q0 37 36 37q37 0 37 -37t-37 -37q-36 0 -36 37zM674 315v162q-86 12 -172 12q-180 0 -279.5 -60.5t-99.5 -186.5q0 -101 65 -158t185 -57q126 0 213.5 76.5t87.5 211.5zM715 662v-474
q0 -82 17.5 -118.5t62.5 -36.5q16 0 34 6v-35q-15 -6 -36 -6q-62 0 -90.5 43.5t-28.5 144.5q-28 -94 -110.5 -146t-190.5 -52q-139 0 -215 67t-76 187q0 142 110.5 214t309.5 72q80 0 172 -12v135q0 146 -67 207.5t-191 61.5q-240 0 -260 -232l-39 6q5 73 31 125.5t68 82
t91.5 43t108.5 13.5q299 0 299 -296z" />
    <glyph glyph-name="AEmacron" unicode="&#x1e2;" horiz-adv-x="1593" 
d="M1481 0h-643v424h-488l-280 -424h-50l801 1206h660v-41h-600v-538h536v-41h-536v-545h600v-41zM846 1171l-469 -706h461v389q0 90 3 169.5t6 113.5l3 34h-4zM1335 1341h-381v39h381v-39z" />
    <glyph glyph-name="aemacron" unicode="&#x1e3;" horiz-adv-x="1452" 
d="M926 1157h-381v39h381v-39zM1040 27q121 0 190 51.5t97 161.5l37 -7q-52 -245 -324 -245q-247 0 -340 209q-44 -91 -130.5 -150t-211.5 -59q-128 0 -202 68t-74 182q0 159 139.5 228.5t431.5 72.5q2 56 21 129q-4 137 -70.5 194.5t-187.5 57.5q-240 0 -260 -232l-39 6
q5 73 31 125.5t68 82t91.5 43t108.5 13.5q243 0 284 -210q46 103 131.5 156.5t204.5 53.5q159 0 240.5 -95.5t81.5 -252.5q0 -52 -6 -108h-660q-10 -234 84.5 -354.5t263.5 -120.5zM694 539h621q2 20 2 71q0 140 -71 225t-210 85q-156 0 -243 -101t-99 -280zM358 27
q108 0 192 54t134 161q-33 95 -33 235v25q-269 -3 -398.5 -63.5t-129.5 -200.5q0 -94 63.5 -152.5t171.5 -58.5z" />
    <glyph glyph-name="Gstroke" unicode="&#x1e4;" horiz-adv-x="1208" 
d="M653 657h396v-174h118v-41h-118v-442h-35l-8 262q-31 -127 -131.5 -200.5t-245.5 -73.5q-242 0 -382.5 160t-140.5 454q0 296 141.5 456.5t381.5 160.5q310 0 420 -289l-37 -19q-102 267 -383 267q-227 0 -353 -153.5t-126 -422.5t126 -421t353 -152q60 0 113.5 14
t102 45t83.5 78t56 117.5t22 158.5h-353v41h353v133h-353v41z" />
    <glyph glyph-name="gstroke" unicode="&#x1e5;" horiz-adv-x="894" 
d="M442 958q187 0 277 -129q96 60 96 195l41 -6q-6 -88 -36.5 -136.5t-84.5 -80.5q37 -67 37 -162q0 -147 -90 -233.5t-240 -86.5q-84 0 -149 27q-90 -41 -90 -121q0 -112 168 -112h211q58 0 107.5 -12.5t92 -39t67 -75.5t25.5 -115h91v-37h-93q-8 -73 -50.5 -127
t-108 -82.5t-135 -41.5t-146.5 -13q-64 0 -120 8t-107.5 27.5t-89 49t-60 75t-24.5 104.5h-88v37h88q9 102 80.5 160t175.5 63q-58 4 -91.5 39.5t-33.5 91.5q0 47 27.5 82t70.5 55q-70 39 -108.5 110t-38.5 167q0 147 89.5 233t239.5 86zM154 639q0 -129 78 -206t210 -77
t210.5 77t78.5 206t-78.5 205t-210.5 76t-210 -76t-78 -205zM432 -393q72 0 136.5 12.5t121.5 38t94.5 70.5t46.5 106h-759q4 -116 103 -171.5t257 -55.5zM371 74q-124 0 -206.5 -49.5t-92.5 -153.5h762q-1 100 -69 151.5t-190 51.5h-204z" />
    <glyph glyph-name="Gcaron" unicode="&#x1e6;" horiz-adv-x="1191" 
d="M653 559h396v-559h-35l-8 262q-31 -127 -131.5 -200.5t-245.5 -73.5q-242 0 -382.5 160t-140.5 454q0 296 141.5 456.5t381.5 160.5q310 0 420 -289l-37 -19q-102 267 -383 267q-227 0 -353 -153.5t-126 -422.5t126 -421t353 -152q75 0 140.5 23t119.5 70.5t85.5 130
t31.5 191.5v74h-353v41zM635 1282h-25l-219 260h45l113 -131l72 -88h4q28 37 71 88l113 131h45z" />
    <glyph glyph-name="gcaron" unicode="&#x1e7;" horiz-adv-x="894" 
d="M442 958q187 0 277 -129q96 60 96 195l41 -6q-6 -88 -36.5 -136.5t-84.5 -80.5q37 -67 37 -162q0 -147 -90 -233.5t-240 -86.5q-84 0 -149 27q-90 -41 -90 -121q0 -112 168 -112h211q60 0 109.5 -12.5t92 -39.5t66.5 -76t24 -116q0 -83 -40 -144t-107 -93.5t-140 -47
t-155 -14.5t-150.5 14t-126.5 44t-91 85.5t-33 130.5q0 115 72.5 180t183.5 70q-58 4 -91.5 39.5t-33.5 91.5q0 47 27.5 82t70.5 55q-70 39 -108.5 110t-38.5 167q0 147 89.5 233t239.5 86zM72 -154q0 -84 50 -139t128 -77.5t182 -22.5q78 0 146 14t127.5 43t94 81.5
t34.5 123.5q0 101 -67.5 153t-191.5 52h-204q-131 0 -215 -55.5t-84 -172.5zM154 639q0 -129 78 -206t210 -77t210.5 77t78.5 206t-78.5 205t-210.5 76t-210 -76t-78 -205zM465 1098h-25l-219 260h45l113 -131l72 -88h4q28 37 71 88l113 131h45z" />
    <glyph glyph-name="Kcaron" unicode="&#x1e8;" horiz-adv-x="970" 
d="M950 0h-57l-557 586h-109v-586h-43v1206h43v-579h109l524 579h55l-540 -598zM494 1282h-25l-219 260h45l113 -131l71 -88h4q29 37 72 88l113 131h45z" />
    <glyph glyph-name="kcaron" unicode="&#x1e9;" horiz-adv-x="823" 
d="M348 500l455 -500h-55l-435 477h-114v-477h-41v1368h41v-852h112l391 430h54zM188 1421h-24l-219 260h45l112 -131l72 -88h4q29 37 72 88l112 131h46z" />
    <glyph glyph-name="Oogonek" unicode="&#x1ea;" horiz-adv-x="1236" 
d="M549 -246q0 129 139 238q-46 -4 -70 -4q-239 0 -375.5 160.5t-136.5 453.5t136.5 455t375.5 162t375.5 -162t136.5 -455q0 -243 -94.5 -396.5t-265.5 -199.5q-80 -51 -130 -116.5t-50 -135.5q0 -49 24.5 -76.5t67.5 -27.5q33 0 57 13t49 44l25 -24q-52 -70 -131 -70
q-62 0 -97.5 38t-35.5 103zM618 1178q-224 0 -346 -153.5t-122 -422.5t121.5 -421t346.5 -152t347 152.5t122 420.5q0 269 -122 422.5t-347 153.5z" />
    <glyph glyph-name="oogonek" unicode="&#x1eb;" horiz-adv-x="960" 
d="M389 -246q0 64 35.5 125.5t97.5 110.5q-7 0 -21.5 -1t-21.5 -1q-183 0 -283 124.5t-100 360.5t100 360.5t283 124.5q184 0 284.5 -124.5t100.5 -360.5q0 -194 -68 -313t-196 -156q-78 -49 -124 -114t-46 -136q0 -49 24.5 -76.5t67.5 -27.5q34 0 58 13t49 44l24 -24
q-52 -70 -131 -70q-62 0 -97.5 38t-35.5 103zM479 920q-164 0 -253 -114.5t-89 -332.5t89 -332t253 -114q166 0 255 114t89 332t-89.5 332.5t-254.5 114.5z" />
    <glyph glyph-name="uni004F02DB00AF" unicode="&#x1ec;" horiz-adv-x="1236" 
d="M809 1341h-381v39h381v-39zM487 -246q0 132 140 234h-9q-239 0 -375.5 160.5t-136.5 453.5t136.5 455t375.5 162t375.5 -162t136.5 -455q0 -270 -116.5 -428t-323.5 -182q-162 -103 -162 -238q0 -49 25 -76.5t68 -27.5q33 0 57 13t49 44l25 -24q-52 -70 -131 -70
q-63 0 -98.5 38t-35.5 103zM618 1178q-224 0 -346 -153.5t-122 -422.5t121.5 -421t346.5 -152t347 152.5t122 420.5q0 269 -122 422.5t-347 153.5z" />
    <glyph glyph-name="oogonekmacron" unicode="&#x1ed;" horiz-adv-x="960" 
d="M670 1157h-381v39h381v-39zM348 -246q0 133 139 234h-8q-183 0 -283 124.5t-100 360.5t100 360.5t283 124.5q184 0 284.5 -124.5t100.5 -360.5q0 -210 -80 -332t-229 -147q-166 -103 -166 -240q0 -49 24.5 -76.5t67.5 -27.5q34 0 58 13t49 44l24 -24q-52 -70 -131 -70
q-62 0 -97.5 38t-35.5 103zM479 920q-164 0 -253 -114.5t-89 -332.5t89 -332t253 -114q166 0 255 114t89 332t-89.5 332.5t-254.5 114.5z" />
    <glyph glyph-name="Ezhcaron" unicode="&#x1ee;" horiz-adv-x="944" 
d="M283 549l403 471l129 145v4q-35 -4 -164 -4h-567v41h784v-37l-530 -616v-4q88 0 167.5 -15t153 -50.5t127 -87.5t85.5 -131.5t32 -178.5q0 -214 -125.5 -335.5t-322.5 -121.5t-318.5 96t-136.5 281l41 12q14 -175 126 -261.5t288 -86.5q186 0 295.5 111t109.5 305
q0 94 -31.5 168t-84 122t-127.5 79t-157 44t-177 13v37zM485 1282h-24l-219 260h45l112 -131l72 -88h4q29 37 72 88l112 131h46z" />
    <glyph glyph-name="ezhcaron" unicode="&#x1ef;" horiz-adv-x="763" 
d="M248 393l301 387l102 129v4q-49 -4 -178 -4h-410v37h637v-31l-411 -528v-4q84 0 160 -20.5t138 -61t99 -109t37 -155.5q0 -168 -99 -260t-266 -92q-143 0 -239.5 79t-118.5 207l41 9q24 -118 107.5 -187t209.5 -69q150 0 237 81.5t87 231.5t-119.5 232.5t-314.5 82.5v41z
M391 1098h-24l-220 260h46l112 -131l72 -88h4q29 37 72 88l112 131h45z" />
    <glyph glyph-name="jcaron" unicode="&#x1f0;" horiz-adv-x="368" 
d="M199 1098h-25l-219 260h45l113 -131l71 -88h4q29 37 72 88l113 131h45zM164 946h41v-1100q0 -129 -64.5 -196.5t-193.5 -67.5v37q105 0 161 55t56 179v1093z" />
    <glyph glyph-name="jcaron" unicode="&#xe10c;" horiz-adv-x="368" 
d="M199 1098h-25l-219 260h45l113 -131l71 -88h4q29 37 72 88l113 131h45zM164 946h41v-1100q0 -129 -64.5 -196.5t-193.5 -67.5v37q105 0 161 55t56 179v1093z" />
    <glyph glyph-name="Gacute" unicode="&#x1f4;" horiz-adv-x="1191" 
d="M653 559h396v-559h-35l-8 262q-31 -127 -131.5 -200.5t-245.5 -73.5q-242 0 -382.5 160t-140.5 454q0 296 141.5 456.5t381.5 160.5q310 0 420 -289l-37 -19q-102 267 -383 267q-227 0 -353 -153.5t-126 -422.5t126 -421t353 -152q75 0 140.5 23t119.5 70.5t85.5 130
t31.5 191.5v74h-353v41zM651 1282h-30l135 260h57z" />
    <glyph glyph-name="gacute" unicode="&#x1f5;" horiz-adv-x="894" 
d="M442 958q187 0 277 -129q96 60 96 195l41 -6q-6 -88 -36.5 -136.5t-84.5 -80.5q37 -67 37 -162q0 -147 -90 -233.5t-240 -86.5q-84 0 -149 27q-90 -41 -90 -121q0 -112 168 -112h211q60 0 109.5 -12.5t92 -39.5t66.5 -76t24 -116q0 -83 -40 -144t-107 -93.5t-140 -47
t-155 -14.5t-150.5 14t-126.5 44t-91 85.5t-33 130.5q0 115 72.5 180t183.5 70q-58 4 -91.5 39.5t-33.5 91.5q0 47 27.5 82t70.5 55q-70 39 -108.5 110t-38.5 167q0 147 89.5 233t239.5 86zM72 -154q0 -84 50 -139t128 -77.5t182 -22.5q78 0 146 14t127.5 43t94 81.5
t34.5 123.5q0 101 -67.5 153t-191.5 52h-204q-131 0 -215 -55.5t-84 -172.5zM154 639q0 -129 78 -206t210 -77t210.5 77t78.5 206t-78.5 205t-210.5 76t-210 -76t-78 -205zM465 1098h-31l135 260h58z" />
    <glyph glyph-name="Ngrave" unicode="&#x1f8;" horiz-adv-x="1255" 
d="M236 1206l675 -977q32 -45 61.5 -89.5t42.5 -66.5l13 -22h4q-4 82 -4 197v958h43v-1206h-51l-676 977q-32 45 -61 89.5t-43 66.5l-13 22h-4q4 -82 4 -197v-958h-43v1206h52zM645 1282h-31l-161 260h57z" />
    <glyph glyph-name="ngrave" unicode="&#x1f9;" horiz-adv-x="983" 
d="M197 946l8 -260q26 115 116.5 193.5t219.5 78.5q134 0 211 -75.5t77 -231.5v-651h-41v637q0 138 -64.5 210.5t-182.5 72.5q-142 0 -239 -109.5t-97 -292.5v-518h-41v946h33zM514 1098h-31l-161 260h57z" />
    <glyph glyph-name="uni004102DA00B4" unicode="&#x1fa;" horiz-adv-x="1048" 
d="M981 0l-166 418h-582l-165 -418h-48l480 1206h49l479 -1206h-47zM416 874l-166 -415h549l-166 415q-33 81 -59.5 153.5t-37.5 104.5l-10 33h-4q-32 -109 -106 -291zM524 1237q-73 0 -115 43.5t-42 108.5t42 108t115 43t115.5 -43t42.5 -108t-42.5 -108.5t-115.5 -43.5z
M524 1505q-55 0 -85.5 -32.5t-30.5 -83.5t30.5 -84t85.5 -33t86 33t31 84t-31 83.5t-86 32.5zM532 1565h-30l135 260h57z" />
    <glyph glyph-name="aringacute" unicode="&#x1fb;" horiz-adv-x="880" 
d="M422 1036q-73 0 -115.5 43.5t-42.5 108.5t42.5 108t115.5 43t115.5 -43t42.5 -108t-42.5 -108.5t-115.5 -43.5zM422 1305q-55 0 -86 -33t-31 -84t31 -84t86 -33t86 33t31 84t-31 84t-86 33zM430 1405h-31l136 260h57zM674 315v162q-86 12 -172 12q-180 0 -279.5 -60.5
t-99.5 -186.5q0 -101 65 -158t185 -57q126 0 213.5 76.5t87.5 211.5zM715 662v-474q0 -82 17.5 -118.5t62.5 -36.5q16 0 34 6v-35q-15 -6 -36 -6q-62 0 -90.5 43.5t-28.5 144.5q-28 -94 -110.5 -146t-190.5 -52q-139 0 -215 67t-76 187q0 142 110.5 214t309.5 72
q80 0 172 -12v135q0 146 -67 207.5t-191 61.5q-240 0 -260 -232l-39 6q5 73 31 125.5t68 82t91.5 43t108.5 13.5q299 0 299 -296z" />
    <glyph glyph-name="AEacute" unicode="&#x1fc;" horiz-adv-x="1593" 
d="M1481 0h-643v424h-488l-280 -424h-50l801 1206h660v-41h-600v-538h536v-41h-536v-545h600v-41zM846 1171l-469 -706h461v389q0 90 3 169.5t6 113.5l3 34h-4zM1153 1282h-31l135 260h58z" />
    <glyph glyph-name="aeacute" unicode="&#x1fd;" horiz-adv-x="1452" 
d="M748 1098h-31l135 260h57zM1040 27q121 0 190 51.5t97 161.5l37 -7q-52 -245 -324 -245q-247 0 -340 209q-44 -91 -130.5 -150t-211.5 -59q-128 0 -202 68t-74 182q0 159 139.5 228.5t431.5 72.5q2 56 21 129q-4 137 -70.5 194.5t-187.5 57.5q-240 0 -260 -232l-39 6
q5 73 31 125.5t68 82t91.5 43t108.5 13.5q243 0 284 -210q46 103 131.5 156.5t204.5 53.5q159 0 240.5 -95.5t81.5 -252.5q0 -52 -6 -108h-660q-10 -234 84.5 -354.5t263.5 -120.5zM694 539h621q2 20 2 71q0 140 -71 225t-210 85q-156 0 -243 -101t-99 -280zM358 27
q108 0 192 54t134 161q-33 95 -33 235v25q-269 -3 -398.5 -63.5t-129.5 -200.5q0 -94 63.5 -152.5t171.5 -58.5z" />
    <glyph glyph-name="Oslashacute" unicode="&#x1fe;" horiz-adv-x="1236" 
d="M133 -12l-31 24l127 154q-123 157 -123 436q0 293 136.5 455t375.5 162q224 0 361 -146l121 144l30 -25l-124 -152q124 -161 124 -438q0 -293 -136.5 -453.5t-375.5 -160.5q-229 0 -364 147zM618 1178q-224 0 -346 -153.5t-122 -422.5q0 -255 106 -403l696 839
q-124 140 -334 140zM1087 602q0 256 -110 406l-694 -840q120 -139 335 -139q225 0 347 152.5t122 420.5zM625 1282h-31l135 260h57z" />
    <glyph glyph-name="oslashacute" unicode="&#x1ff;" horiz-adv-x="960" 
d="M127 -12l-31 24l88 115q-88 124 -88 346q0 236 100 360.5t283 124.5q173 0 271 -110l86 110l30 -24l-90 -117q88 -124 88 -344q0 -236 -100.5 -360.5t-284.5 -124.5q-173 0 -268 106zM479 920q-164 0 -253 -114.5t-89 -332.5q0 -198 74 -313l514 655q-88 105 -246 105z
M823 473q0 196 -73 311l-514 -657q89 -100 243 -100q166 0 255 114t89 332zM494 1098h-31l135 260h57z" />
    <glyph glyph-name="Adoublegrave" unicode="&#x200;" horiz-adv-x="1048" 
d="M981 0l-166 418h-582l-165 -418h-48l480 1206h49l479 -1206h-47zM416 874l-166 -415h549l-166 415q-33 81 -59.5 153.5t-37.5 104.5l-10 33h-4q-32 -109 -106 -291zM653 1282h-30l-162 260h57zM449 1282h-31l-162 260h57z" />
    <glyph glyph-name="edoublegrave" unicode="&#x201;" horiz-adv-x="897" 
d="M485 27q121 0 190 51.5t97 161.5l37 -7q-52 -245 -324 -245q-186 0 -287.5 122.5t-101.5 366.5q0 231 101.5 356t283.5 125q159 0 240.5 -95.5t81.5 -252.5q0 -52 -6 -108h-660q-10 -234 84.5 -354.5t263.5 -120.5zM139 539h621q2 20 2 71q0 140 -71 225t-210 85
q-156 0 -243 -101t-99 -280zM610 1098h-30l-162 260h57zM406 1098h-31l-162 260h57z" />
    <glyph glyph-name="edoublegrave" unicode="&#x205;" horiz-adv-x="897" 
d="M485 27q121 0 190 51.5t97 161.5l37 -7q-52 -245 -324 -245q-186 0 -287.5 122.5t-101.5 366.5q0 231 101.5 356t283.5 125q159 0 240.5 -95.5t81.5 -252.5q0 -52 -6 -108h-660q-10 -234 84.5 -354.5t263.5 -120.5zM139 539h621q2 20 2 71q0 140 -71 225t-210 85
q-156 0 -243 -101t-99 -280zM610 1098h-30l-162 260h57zM406 1098h-31l-162 260h57z" />
    <glyph glyph-name="Ainvertedbreve" unicode="&#x202;" horiz-adv-x="1048" 
d="M981 0l-166 418h-582l-165 -418h-48l480 1206h49l479 -1206h-47zM416 874l-166 -415h549l-166 415q-33 81 -59.5 153.5t-37.5 104.5l-10 33h-4q-32 -109 -106 -291zM524 1520q107 0 163 -61t56 -183h-36q-6 207 -183 207q-176 0 -182 -207h-37q0 122 56 183t163 61z" />
    <glyph glyph-name="ainvertedbreve" unicode="&#x203;" horiz-adv-x="880" 
d="M422 1335q219 0 219 -243h-37q-6 206 -182 206t-182 -206h-37q0 243 219 243zM674 315v162q-86 12 -172 12q-180 0 -279.5 -60.5t-99.5 -186.5q0 -101 65 -158t185 -57q126 0 213.5 76.5t87.5 211.5zM715 662v-474q0 -82 17.5 -118.5t62.5 -36.5q16 0 34 6v-35
q-15 -6 -36 -6q-62 0 -90.5 43.5t-28.5 144.5q-28 -94 -110.5 -146t-190.5 -52q-139 0 -215 67t-76 187q0 142 110.5 214t309.5 72q80 0 172 -12v135q0 146 -67 207.5t-191 61.5q-240 0 -260 -232l-39 6q5 73 31 125.5t68 82t91.5 43t108.5 13.5q299 0 299 -296z" />
    <glyph glyph-name="Edoublegrave" unicode="&#x204;" horiz-adv-x="940" 
d="M827 41v-41h-643v1206h643v-41h-600v-538h537v-41h-537v-545h600zM631 1282h-31l-162 260h58zM426 1282h-31l-162 260h58z" />
    <glyph glyph-name="Einvertedbreve" unicode="&#x206;" horiz-adv-x="940" 
d="M827 41v-41h-643v1206h643v-41h-600v-538h537v-41h-537v-545h600zM510 1520q107 0 163 -61t56 -183h-37q-6 207 -182 207t-182 -207h-37q0 122 56 183t163 61z" />
    <glyph glyph-name="einvertedbreve" unicode="&#x207;" horiz-adv-x="897" 
d="M485 27q121 0 190 51.5t97 161.5l37 -7q-52 -245 -324 -245q-186 0 -287.5 122.5t-101.5 366.5q0 231 101.5 356t283.5 125q159 0 240.5 -95.5t81.5 -252.5q0 -52 -6 -108h-660q-10 -234 84.5 -354.5t263.5 -120.5zM139 539h621q2 20 2 71q0 140 -71 225t-210 85
q-156 0 -243 -101t-99 -280zM481 1335q219 0 219 -243h-36q-6 206 -183 206q-176 0 -182 -206h-37q0 243 219 243z" />
    <glyph glyph-name="Idoublegrave" unicode="&#x208;" horiz-adv-x="411" 
d="M184 1206h43v-1206h-43v1206zM334 1282h-31l-162 260h58zM129 1282h-31l-161 260h57z" />
    <glyph glyph-name="idoublegrave" unicode="&#x209;" horiz-adv-x="368" 
d="M164 946h41v-946h-41v946zM313 1098h-30l-162 260h57zM109 1098h-31l-162 260h57z" />
    <glyph glyph-name="Iinvertedbreve" unicode="&#x20a;" horiz-adv-x="411" 
d="M184 1206h43v-1206h-43v1206zM205 1520q107 0 163 -61t56 -183h-37q-6 207 -182 207t-182 -207h-37q0 122 56 183t163 61z" />
    <glyph glyph-name="iinvertedbreve" unicode="&#x20b;" horiz-adv-x="368" 
d="M164 946h41v-946h-41v946zM184 1335q219 0 219 -243h-36q-6 206 -183 206q-176 0 -182 -206h-37q0 243 219 243z" />
    <glyph glyph-name="Odoublegrave" unicode="&#x20c;" horiz-adv-x="1236" 
d="M618 -12q-239 0 -375.5 160.5t-136.5 453.5t136.5 455t375.5 162t375.5 -162t136.5 -455t-136.5 -453.5t-375.5 -160.5zM618 1178q-224 0 -346 -153.5t-122 -422.5t121.5 -421t346.5 -152t347 152.5t122 420.5q0 269 -122 422.5t-347 153.5zM748 1282h-31l-162 260h57z
M543 1282h-31l-162 260h58z" />
    <glyph glyph-name="odoublegrave" unicode="&#x20d;" horiz-adv-x="960" 
d="M479 -12q-183 0 -283 124.5t-100 360.5t100 360.5t283 124.5q184 0 284.5 -124.5t100.5 -360.5t-100.5 -360.5t-284.5 -124.5zM479 920q-164 0 -253 -114.5t-89 -332.5t89 -332t253 -114q166 0 255 114t89 332t-89.5 332.5t-254.5 114.5zM608 1098h-30l-162 260h57z
M403 1098h-30l-162 260h57z" />
    <glyph glyph-name="Oinvertedbreve" unicode="&#x20e;" horiz-adv-x="1236" 
d="M618 -12q-239 0 -375.5 160.5t-136.5 453.5t136.5 455t375.5 162t375.5 -162t136.5 -455t-136.5 -453.5t-375.5 -160.5zM618 1178q-224 0 -346 -153.5t-122 -422.5t121.5 -421t346.5 -152t347 152.5t122 420.5q0 269 -122 422.5t-347 153.5zM618 1520q107 0 163.5 -61
t56.5 -183h-37q-6 207 -183 207q-176 0 -182 -207h-37q0 122 56 183t163 61z" />
    <glyph glyph-name="oinvertedbreve" unicode="&#x20f;" horiz-adv-x="960" 
d="M479 -12q-183 0 -283 124.5t-100 360.5t100 360.5t283 124.5q184 0 284.5 -124.5t100.5 -360.5t-100.5 -360.5t-284.5 -124.5zM479 920q-164 0 -253 -114.5t-89 -332.5t89 -332t253 -114q166 0 255 114t89 332t-89.5 332.5t-254.5 114.5zM479 1335q219 0 219 -243h-36
q-6 206 -183 206q-176 0 -182 -206h-37q0 243 219 243z" />
    <glyph glyph-name="Rinvertedbreve" unicode="&#x212;" horiz-adv-x="1062" 
d="M991 0h-51q-45 48 -66 137l-49 207q-26 108 -95 159.5t-208 51.5h-295v-555h-43v1206h340q385 0 385 -327q0 -136 -79 -214.5t-197 -86.5v-5q94 -8 150.5 -57t80.5 -149l54 -224q20 -84 73 -143zM227 1165v-569h295q168 0 256 73t88 210q0 145 -84.5 215.5t-259.5 70.5
h-295zM498 1520q107 0 163 -61t56 -183h-37q-6 207 -182 207q-177 0 -183 -207h-36q0 122 56 183t163 61z" />
    <glyph glyph-name="rinvertedbreve" unicode="&#x213;" horiz-adv-x="638" 
d="M381 1335q219 0 219 -243h-37q-6 206 -182 206t-182 -206h-37q0 243 219 243zM598 934l-12 -39q-48 25 -103 25q-87 0 -151.5 -60t-95.5 -156.5t-31 -214.5v-489h-41v946h33l8 -284q18 136 89.5 216t188.5 80q69 0 115 -24z" />
    <glyph glyph-name="Udoublegrave" unicode="&#x214;" horiz-adv-x="1179" 
d="M989 1206h43v-772q0 -114 -34 -201t-95 -140t-139.5 -79t-173.5 -26q-94 0 -173 26.5t-140 79.5t-95.5 140t-34.5 200v772h43v-770q0 -86 22 -155.5t59.5 -116t89 -78t109 -45.5t120.5 -14q80 0 149.5 23t126.5 70t90 128t33 188v770zM719 1282h-31l-162 260h58z
M514 1282h-31l-161 260h57z" />
    <glyph glyph-name="udoublegrave" unicode="&#x215;" horiz-adv-x="962" 
d="M766 0l-8 254q-24 -117 -113 -191.5t-217 -74.5q-134 0 -211.5 75.5t-77.5 231.5v651h41v-639q0 -140 64.5 -210t183.5 -70q146 0 238 108t92 293v518h41v-946h-33zM598 1098h-31l-161 260h57zM393 1098h-31l-161 260h57z" />
    <glyph glyph-name="Uinvertedbreve" unicode="&#x216;" horiz-adv-x="1179" 
d="M989 1206h43v-772q0 -114 -34 -201t-95 -140t-139.5 -79t-173.5 -26q-94 0 -173 26.5t-140 79.5t-95.5 140t-34.5 200v772h43v-770q0 -86 22 -155.5t59.5 -116t89 -78t109 -45.5t120.5 -14q80 0 149.5 23t126.5 70t90 128t33 188v770zM590 1520q107 0 163 -61t56 -183
h-37q-6 207 -182 207t-182 -207h-37q0 122 56 183t163 61z" />
    <glyph glyph-name="uinvertedbreve" unicode="&#x217;" horiz-adv-x="962" 
d="M766 0l-8 254q-24 -117 -113 -191.5t-217 -74.5q-134 0 -211.5 75.5t-77.5 231.5v651h41v-639q0 -140 64.5 -210t183.5 -70q146 0 238 108t92 293v518h41v-946h-33zM469 1335q219 0 219 -243h-37q-6 206 -182 206t-182 -206h-37q0 243 219 243z" />
    <glyph glyph-name="Scommaaccent" unicode="&#x218;" horiz-adv-x="952" 
d="M66 313l40 13q26 -146 116.5 -221.5t238.5 -75.5q157 0 246.5 69.5t89.5 204.5q0 125 -78.5 190t-249.5 111q-52 14 -86.5 24.5t-76.5 27t-69 32.5t-54.5 39.5t-43 50.5t-25.5 63t-10 79q0 80 28.5 140t78.5 93.5t109.5 49.5t128.5 16q162 0 255 -75t117 -239l-39 -8
q-26 150 -106 215.5t-227 65.5q-135 0 -218.5 -62.5t-83.5 -195.5q0 -43 9 -76t30.5 -59.5t46.5 -45.5t67.5 -36.5t82 -30t100.5 -29.5q90 -25 150 -50.5t110 -64.5t73.5 -94.5t23.5 -130.5q0 -153 -100.5 -234t-278.5 -81q-162 0 -265.5 84t-129.5 241zM541 -303
q0 -66 -38.5 -103.5t-113.5 -37.5v30q117 0 117 111q0 22 -6 31q-11 -15 -29 -15q-17 0 -27 10t-10 25q0 18 11.5 28.5t31.5 10.5q26 0 45 -23.5t19 -66.5z" />
    <glyph glyph-name="scommaaccent" unicode="&#x219;" horiz-adv-x="786" 
d="M57 227l41 11q46 -211 287 -211q130 0 202 52t72 157q0 92 -56 141.5t-169 77.5l-106 26q-43 10 -74 21t-64 30t-53.5 43t-33.5 60.5t-13 83.5q0 83 43 138.5t106 78t140 22.5q134 0 210 -57.5t97 -187.5l-39 -6q-23 114 -85 163.5t-183 49.5q-108 0 -178 -50t-70 -151
q0 -48 13.5 -82t44.5 -56t63 -34.5t86 -26.5l108 -28q127 -34 190.5 -90t63.5 -166q0 -120 -84.5 -184t-230.5 -64q-133 0 -217.5 59t-110.5 180zM467 -303q0 -66 -38.5 -103.5t-113.5 -37.5v30q117 0 117 111q0 22 -6 31q-11 -15 -29 -15q-17 0 -27 10t-10 25
q0 18 11.5 28.5t31.5 10.5q26 0 45 -23.5t19 -66.5z" />
    <glyph glyph-name="Hcaron" unicode="&#x21e;" horiz-adv-x="1257" 
d="M227 0h-43v1206h43v-579h803v579h43v-1206h-43v586h-803v-586zM641 1282h-25l-219 260h45l113 -131l72 -88h4q28 37 71 88l113 131h45z" />
    <glyph glyph-name="hcaron" unicode="&#x21f;" horiz-adv-x="976" 
d="M199 1368v-682q26 115 116.5 193.5t219.5 78.5q134 0 211 -75.5t77 -231.5v-651h-41v637q0 138 -64.5 210.5t-182.5 72.5q-142 0 -239 -109.5t-97 -292.5v-518h-41v1368h41zM195 1434h-25l-219 260h45l113 -131l71 -88h4q29 37 72 88l113 131h45z" />
    <glyph glyph-name="Adotabove" unicode="&#x226;" horiz-adv-x="1048" 
d="M981 0l-166 418h-582l-165 -418h-48l480 1206h49l479 -1206h-47zM416 874l-166 -415h549l-166 415q-33 81 -59.5 153.5t-37.5 104.5l-10 33h-4q-32 -109 -106 -291zM487 1362q0 37 37 37t37 -37t-37 -37t-37 37z" />
    <glyph glyph-name="adotabove" unicode="&#x227;" horiz-adv-x="880" 
d="M385 1219q0 36 37 36t37 -36q0 -37 -37 -37t-37 37zM674 315v162q-86 12 -172 12q-180 0 -279.5 -60.5t-99.5 -186.5q0 -101 65 -158t185 -57q126 0 213.5 76.5t87.5 211.5zM715 662v-474q0 -82 17.5 -118.5t62.5 -36.5q16 0 34 6v-35q-15 -6 -36 -6q-62 0 -90.5 43.5
t-28.5 144.5q-28 -94 -110.5 -146t-190.5 -52q-139 0 -215 67t-76 187q0 142 110.5 214t309.5 72q80 0 172 -12v135q0 146 -67 207.5t-191 61.5q-240 0 -260 -232l-39 6q5 73 31 125.5t68 82t91.5 43t108.5 13.5q299 0 299 -296z" />
    <glyph glyph-name="Otildemacron" unicode="&#x22c;" horiz-adv-x="1236" 
d="M618 -12q-239 0 -375.5 160.5t-136.5 453.5t136.5 455t375.5 162t375.5 -162t136.5 -455t-136.5 -453.5t-375.5 -160.5zM618 1178q-224 0 -346 -153.5t-122 -422.5t121.5 -421t346.5 -152t347 152.5t122 420.5q0 269 -122 422.5t-347 153.5zM756 1241q-28 0 -56 12
t-46.5 25.5t-45.5 36.5q-29 26 -45 38t-39 22.5t-45 10.5q-54 0 -75.5 -37.5t-2.5 -115.5h-30q-32 83 2 136.5t106 53.5q40 0 73.5 -19t74.5 -54q30 -27 45 -38.5t38.5 -22.5t45.5 -11q54 0 75.5 38t2.5 116h30q33 -83 -1.5 -137t-106.5 -54zM815 1491h-381v39h381v-39z" />
    <glyph glyph-name="otildemacron" unicode="&#x22d;" horiz-adv-x="960" 
d="M479 -12q-183 0 -283 124.5t-100 360.5t100 360.5t283 124.5q184 0 284.5 -124.5t100.5 -360.5t-100.5 -360.5t-284.5 -124.5zM479 920q-164 0 -253 -114.5t-89 -332.5t89 -332t253 -114q166 0 255 114t89 332t-89.5 332.5t-254.5 114.5zM616 1040q-28 0 -56 12t-45.5 25
t-45.5 37q-30 27 -45 38.5t-38.5 22.5t-45.5 11q-54 0 -75.5 -38t-2.5 -116h-31q-32 83 2.5 137t106.5 54q28 0 56 -12t45.5 -25t45.5 -37q30 -27 45 -38.5t38.5 -22.5t45.5 -11q54 0 75.5 38t2.5 116h31q32 -83 -2.5 -137t-106.5 -54zM670 1329h-381v39h381v-39z" />
    <glyph glyph-name="Odotabove" unicode="&#x22e;" horiz-adv-x="1236" 
d="M618 -12q-239 0 -375.5 160.5t-136.5 453.5t136.5 455t375.5 162t375.5 -162t136.5 -455t-136.5 -453.5t-375.5 -160.5zM618 1178q-224 0 -346 -153.5t-122 -422.5t121.5 -421t346.5 -152t347 152.5t122 420.5q0 269 -122 422.5t-347 153.5zM582 1362q0 37 36 37
q37 0 37 -37t-37 -37q-36 0 -36 37z" />
    <glyph glyph-name="odotabove" unicode="&#x22f;" horiz-adv-x="960" 
d="M479 -12q-183 0 -283 124.5t-100 360.5t100 360.5t283 124.5q184 0 284.5 -124.5t100.5 -360.5t-100.5 -360.5t-284.5 -124.5zM479 920q-164 0 -253 -114.5t-89 -332.5t89 -332t253 -114q166 0 255 114t89 332t-89.5 332.5t-254.5 114.5zM442 1219q0 36 37 36t37 -36
q0 -37 -37 -37t-37 37z" />
    <glyph glyph-name="odotabovemacron" unicode="&#x231;" horiz-adv-x="960" 
d="M479 -12q-183 0 -283 124.5t-100 360.5t100 360.5t283 124.5q184 0 284.5 -124.5t100.5 -360.5t-100.5 -360.5t-284.5 -124.5zM479 920q-164 0 -253 -114.5t-89 -332.5t89 -332t253 -114q166 0 255 114t89 332t-89.5 332.5t-254.5 114.5zM442 1104q0 37 37 37t37 -37
t-37 -37t-37 37zM670 1264h-381v39h381v-39z" />
    <glyph glyph-name="odotabovemacron" unicode="&#xe11e;" horiz-adv-x="960" 
d="M479 -12q-183 0 -283 124.5t-100 360.5t100 360.5t283 124.5q184 0 284.5 -124.5t100.5 -360.5t-100.5 -360.5t-284.5 -124.5zM479 920q-164 0 -253 -114.5t-89 -332.5t89 -332t253 -114q166 0 255 114t89 332t-89.5 332.5t-254.5 114.5zM442 1104q0 37 37 37t37 -37
t-37 -37t-37 37zM670 1264h-381v39h381v-39z" />
    <glyph glyph-name="Ymacron" unicode="&#x232;" horiz-adv-x="972" 
d="M90 1206l285 -477l110 -192h4q27 51 111 192l285 477h47l-424 -710v-496h-43v496l-424 710h49zM676 1341h-381v39h381v-39z" />
    <glyph glyph-name="ymacron" unicode="&#x233;" horiz-adv-x="831" 
d="M74 946l293 -778q13 -35 24 -69t16 -51l5 -17h4q18 53 49 133l293 782h43l-363 -964q-33 -88 -57 -144t-54.5 -111.5t-60.5 -85.5t-69 -48.5t-86 -18.5q-83 0 -140 37l17 41q56 -39 123 -39q88 0 149.5 82.5t132.5 284.5l-362 966h43zM600 1157h-381v39h381v-39z" />
    <glyph glyph-name="dotlessj" unicode="&#x237;" horiz-adv-x="368" 
d="M164 946h41v-1100q0 -129 -64.5 -196.5t-193.5 -67.5v37q105 0 161 55t56 179v1093z" />
    <glyph glyph-name="schwa" unicode="&#x259;" horiz-adv-x="897" 
d="M412 920q-121 0 -190 -51.5t-97 -161.5l-37 6q52 245 324 245q186 0 287.5 -122.5t101.5 -366.5q0 -231 -101.5 -356t-283.5 -125q-159 0 -240.5 95.5t-81.5 252.5q0 52 6 108h660q10 234 -84.5 355t-263.5 121zM758 408h-621q-2 -20 -2 -72q0 -140 71 -224.5t210 -84.5
q156 0 243 101t99 280z" />
    <glyph glyph-name="ezh" unicode="&#x292;" horiz-adv-x="763" 
d="M248 393l301 387l102 129v4q-49 -4 -178 -4h-410v37h637v-31l-411 -528v-4q84 0 160 -20.5t138 -61t99 -109t37 -155.5q0 -168 -99 -260t-266 -92q-143 0 -239.5 79t-118.5 207l41 9q24 -118 107.5 -187t209.5 -69q150 0 237 81.5t87 231.5t-119.5 232.5t-314.5 82.5v41z
" />
    <glyph glyph-name="circumflex" unicode="&#x2c6;" horiz-adv-x="831" 
d="M403 1358h25l219 -260h-45l-113 131l-71 88h-4q-29 -37 -72 -88l-113 -131h-45z" />
    <glyph glyph-name="caron" unicode="&#x2c7;" horiz-adv-x="831" 
d="M428 1098h-25l-219 260h45l113 -131l72 -88h4q28 37 71 88l113 131h45z" />
    <glyph glyph-name="breve" unicode="&#x2d8;" horiz-adv-x="806" 
d="M403 1087q-107 0 -163 61t-56 183h37q6 -207 182 -207q177 0 183 207h37q0 -122 -56.5 -183t-163.5 -61z" />
    <glyph glyph-name="dotaccent" unicode="&#x2d9;" horiz-adv-x="442" 
d="M184 1219q0 36 37 36t37 -36q0 -37 -37 -37t-37 37z" />
    <glyph glyph-name="ring" unicode="&#x2da;" horiz-adv-x="684" 
d="M342 1085q-73 0 -115.5 43.5t-42.5 108.5t42.5 108.5t115.5 43.5t115.5 -43.5t42.5 -108.5t-42.5 -108.5t-115.5 -43.5zM342 1354q-55 0 -86 -33t-31 -84t31 -84t86 -33t86 33t31 84t-31 84t-86 33z" />
    <glyph glyph-name="ogonek" unicode="&#x2db;" horiz-adv-x="632" 
d="M184 -246q0 154 195 271l22 -25q-176 -107 -176 -246q0 -49 24.5 -76.5t67.5 -27.5q34 0 58 13t49 44l25 -24q-52 -70 -132 -70q-62 0 -97.5 38t-35.5 103z" />
    <glyph glyph-name="tilde" unicode="&#x2dc;" horiz-adv-x="915" 
d="M596 1122q-28 0 -56 12t-45.5 25t-45.5 37q-30 26 -45.5 38t-39 23t-45.5 11q-54 0 -75 -37.5t-2 -116.5h-31q-33 83 1.5 137t106.5 54q28 0 56 -12t46.5 -25.5t45.5 -36.5q30 -27 45 -38.5t38.5 -22.5t45.5 -11q54 0 75.5 38t2.5 116h31q32 -83 -2.5 -137t-106.5 -54z
" />
    <glyph glyph-name="hungarumlaut" unicode="&#x2dd;" horiz-adv-x="765" 
d="M215 1098h-31l135 260h58zM420 1098h-31l135 260h58z" />
    <glyph glyph-name="uni0312" unicode="&#x312;" horiz-adv-x="520" 
d="M184 1430q0 66 38.5 103.5t113.5 37.5v-31q-117 0 -117 -110q0 -22 6 -31q11 14 29 14q17 0 27 -10t10 -25q0 -18 -11.5 -28.5t-31.5 -10.5q-25 0 -44.5 24t-19.5 67z" />
    <glyph glyph-name="uni0320" unicode="&#x320;" horiz-adv-x="831" 
d="M647 -319h-463v40h463v-40z" />
    <glyph glyph-name="uni0323" unicode="&#x323;" horiz-adv-x="442" 
d="M184 -276q0 36 37 36t37 -36q0 -37 -37 -37t-37 37z" />
    <glyph glyph-name="uni0329" unicode="&#x329;" horiz-adv-x="407" 
d="M184 -393v276h39v-268z" />
    <glyph glyph-name="pi" unicode="&#x3c0;" horiz-adv-x="1286" 
d="M356 985h815v-41h-294v-713q0 -204 137 -204q114 0 178 127l33 -23q-38 -73 -88 -108t-123 -35q-180 0 -180 231v725h-390l-96 -944h-45l98 944h-49q-130 0 -200 -73.5t-70 -217.5h-41q0 162 82.5 247t232.5 85z" />
    <glyph glyph-name="uni0E3F" unicode="&#xe3f;" horiz-adv-x="913" 
d="M436 -217v217h-272v985h272v191h39v-191q287 -9 287 -248q0 -98 -48 -154.5t-136 -68.5v-4q97 -5 165 -69t68 -171q0 -267 -336 -270v-217h-39zM475 492v-453q153 1 224 57.5t71 173.5q0 106 -75.5 163.5t-219.5 58.5zM475 946v-416q246 0 246 207q0 103 -61 153.5
t-185 55.5zM205 492v-453h231v453h-231zM205 530h231v416h-231v-416z" />
    <glyph glyph-name="Ddotbelow" unicode="&#x1e0c;" horiz-adv-x="1181" 
d="M227 41h262q263 0 403 150t140 425q0 267 -133.5 408t-406.5 141h-265v-1124zM494 0h-310v1206h312q131 0 234.5 -33t182 -102t120.5 -184.5t42 -270.5q0 -130 -30.5 -235t-83.5 -175t-127.5 -117t-159 -68t-180.5 -21zM502 -276q0 36 37 36q36 0 36 -36q0 -37 -36 -37
q-37 0 -37 37z" />
    <glyph glyph-name="ddotbelow" unicode="&#x1e0d;" horiz-adv-x="1015" 
d="M817 403v156q0 176 -94.5 268.5t-228.5 92.5q-162 0 -259.5 -115.5t-97.5 -345.5q0 -213 92.5 -322.5t247.5 -109.5q67 0 126.5 22t107.5 66t76.5 118t29.5 170zM817 725v643h41v-1368h-33l-8 242q-26 -116 -118.5 -185t-221.5 -69q-174 0 -277.5 120.5t-103.5 350.5
q0 245 106 372t292 127q127 0 212 -66.5t111 -166.5zM457 -276q0 36 37 36q36 0 36 -36q0 -37 -36 -37q-37 0 -37 37z" />
    <glyph glyph-name="Dcedilla" unicode="&#x1e10;" horiz-adv-x="1181" 
d="M717 -260q0 -72 -46.5 -109t-121.5 -37q-121 0 -187 89l27 28q63 -82 160 -82q127 0 127 111q0 114 -191 127l31 133h-332v1206h312q131 0 234.5 -33t182 -102t120.5 -184.5t42 -270.5q0 -123 -27 -223t-74.5 -169.5t-114.5 -118t-144 -73t-166 -30.5l-25 -106
q80 -5 136.5 -46t56.5 -110zM227 41h262q263 0 403 150t140 425q0 267 -133.5 408t-406.5 141h-265v-1124z" />
    <glyph glyph-name="dcedilla" unicode="&#x1e11;" horiz-adv-x="1015" 
d="M662 -260q0 -72 -46.5 -109t-121.5 -37q-121 0 -187 89l27 28q63 -82 160 -82q127 0 127 111q0 114 -191 127l27 121q-166 8 -263.5 128t-97.5 343q0 245 106 372t292 127q127 0 212 -66.5t111 -166.5v643h41v-1368h-33l-8 242q-26 -112 -114.5 -180.5t-213.5 -73.5
l-20 -92q80 -5 136.5 -46t56.5 -110zM817 403v156q0 176 -94.5 268.5t-228.5 92.5q-162 0 -259.5 -115.5t-97.5 -345.5q0 -213 92.5 -322.5t247.5 -109.5q67 0 126.5 22t107.5 66t76.5 118t29.5 170z" />
    <glyph glyph-name="Hdotbelow" unicode="&#x1e24;" horiz-adv-x="1257" 
d="M227 0h-43v1206h43v-579h803v579h43v-1206h-43v586h-803v-586zM592 -276q0 36 37 36t37 -36q0 -37 -37 -37t-37 37z" />
    <glyph glyph-name="hdotbelow" unicode="&#x1e25;" horiz-adv-x="976" 
d="M199 1368v-682q26 115 116.5 193.5t219.5 78.5q134 0 211 -75.5t77 -231.5v-651h-41v637q0 138 -64.5 210.5t-182.5 72.5q-142 0 -239 -109.5t-97 -292.5v-518h-41v1368h41zM453 -276q0 36 36 36q37 0 37 -36q0 -37 -37 -37q-36 0 -36 37z" />
    <glyph glyph-name="Ldotbelow" unicode="&#x1e36;" horiz-adv-x="839" 
d="M184 1206h43v-1165h561v-41h-604v1206zM449 -276q0 36 36 36q37 0 37 -36q0 -37 -37 -37q-36 0 -36 37z" />
    <glyph glyph-name="ldotbelow" unicode="&#x1e37;" horiz-adv-x="393" 
d="M342 43v-39q-30 -10 -59 -10q-140 0 -140 160v1214h41v-1210q0 -125 99 -125q29 0 59 10zM205 -276q0 36 37 36t37 -36q0 -37 -37 -37t-37 37z" />
    <glyph glyph-name="uni004C032300AF" unicode="&#x1e38;" horiz-adv-x="839" 
d="M184 1206h43v-1165h561v-41h-604v1206zM449 -276q0 36 36 36q37 0 37 -36q0 -37 -37 -37q-36 0 -36 37zM401 1341h-381v39h381v-39z" />
    <glyph glyph-name="ldotbelowmacron" unicode="&#x1e39;" horiz-adv-x="393" 
d="M342 43v-39q-30 -10 -59 -10q-140 0 -140 160v1214h41v-1210q0 -125 99 -125q29 0 59 10zM205 -276q0 36 37 36t37 -36q0 -37 -37 -37t-37 37zM375 1468h-381v39h381v-39z" />
    <glyph glyph-name="Mdotbelow" unicode="&#x1e42;" horiz-adv-x="1417" 
d="M725 301h-33l-368 666l-99 186h-4q6 -50 6 -195v-958h-43v1206h54l415 -747q20 -36 33.5 -63.5t17.5 -37.5l3 -10h4q8 31 53 111l416 747h53v-1206h-43v958q0 64 1.5 113t2.5 65l2 17h-4q-22 -49 -98 -186zM672 -276q0 36 37 36q36 0 36 -36q0 -37 -36 -37q-37 0 -37 37z
" />
    <glyph glyph-name="mdotbelow" unicode="&#x1e43;" horiz-adv-x="1533" 
d="M788 690q26 119 109 193.5t209 74.5q274 0 274 -307v-651h-41v637q0 283 -233 283q-139 0 -226 -108t-87 -294v-518h-41v637q0 283 -234 283q-139 0 -226 -108t-87 -294v-518h-41v946h33l8 -256q24 119 105.5 193.5t207.5 74.5q253 0 270 -268zM735 -276q0 36 37 36
t37 -36q0 -37 -37 -37t-37 37z" />
    <glyph glyph-name="Ndotaccent" unicode="&#x1e44;" horiz-adv-x="1255" 
d="M236 1206l675 -977q32 -45 61.5 -89.5t42.5 -66.5l13 -22h4q-4 82 -4 197v958h43v-1206h-51l-676 977q-32 45 -61 89.5t-43 66.5l-13 22h-4q4 -82 4 -197v-958h-43v1206h52zM590 1362q0 37 37 37t37 -37t-37 -37t-37 37z" />
    <glyph glyph-name="ndotaccent" unicode="&#x1e45;" horiz-adv-x="983" 
d="M197 946l8 -260q26 115 116.5 193.5t219.5 78.5q134 0 211 -75.5t77 -231.5v-651h-41v637q0 138 -64.5 210.5t-182.5 72.5q-142 0 -239 -109.5t-97 -292.5v-518h-41v946h33zM459 1219q0 36 37 36q36 0 36 -36q0 -37 -36 -37q-37 0 -37 37z" />
    <glyph glyph-name="Ndotbelow" unicode="&#x1e46;" horiz-adv-x="1255" 
d="M236 1206l675 -977q32 -45 61.5 -89.5t42.5 -66.5l13 -22h4q-4 82 -4 197v958h43v-1206h-51l-676 977q-32 45 -61 89.5t-43 66.5l-13 22h-4q4 -82 4 -197v-958h-43v1206h52zM590 -276q0 36 37 36t37 -36q0 -37 -37 -37t-37 37z" />
    <glyph glyph-name="ndotbelow" unicode="&#x1e47;" horiz-adv-x="983" 
d="M197 946l8 -260q26 115 116.5 193.5t219.5 78.5q134 0 211 -75.5t77 -231.5v-651h-41v637q0 138 -64.5 210.5t-182.5 72.5q-142 0 -239 -109.5t-97 -292.5v-518h-41v946h33zM459 -276q0 36 37 36q36 0 36 -36q0 -37 -36 -37q-37 0 -37 37z" />
    <glyph glyph-name="Rdotbelow" unicode="&#x1e5a;" horiz-adv-x="1062" 
d="M991 0h-51q-45 48 -66 137l-49 207q-26 108 -95 159.5t-208 51.5h-295v-555h-43v1206h340q385 0 385 -327q0 -136 -79 -214.5t-197 -86.5v-5q94 -8 150.5 -57t80.5 -149l54 -224q20 -84 73 -143zM227 1165v-569h295q168 0 256 73t88 210q0 145 -84.5 215.5t-259.5 70.5
h-295zM481 -276q0 36 37 36t37 -36q0 -37 -37 -37t-37 37z" />
    <glyph glyph-name="rdotbelow" unicode="&#x1e5b;" horiz-adv-x="638" 
d="M147 -276q0 36 37 36t37 -36q0 -37 -37 -37t-37 37zM598 934l-12 -39q-48 25 -103 25q-87 0 -151.5 -60t-95.5 -156.5t-31 -214.5v-489h-41v946h33l8 -284q18 136 89.5 216t188.5 80q69 0 115 -24z" />
    <glyph glyph-name="Rdotbelowmacron" unicode="&#x1e5c;" horiz-adv-x="1062" 
d="M991 0h-51q-45 48 -66 137l-49 207q-26 108 -95 159.5t-208 51.5h-295v-555h-43v1206h340q385 0 385 -327q0 -136 -79 -214.5t-197 -86.5v-5q94 -8 150.5 -57t80.5 -149l54 -224q20 -84 73 -143zM227 1165v-569h295q168 0 256 73t88 210q0 145 -84.5 215.5t-259.5 70.5
h-295zM481 -276q0 36 37 36t37 -36q0 -37 -37 -37t-37 37zM684 1341h-381v39h381v-39z" />
    <glyph glyph-name="rdotbelowmacron" unicode="&#x1e5d;" horiz-adv-x="638" 
d="M571 1157h-381v39h381v-39zM147 -276q0 36 37 36t37 -36q0 -37 -37 -37t-37 37zM598 934l-12 -39q-48 25 -103 25q-87 0 -151.5 -60t-95.5 -156.5t-31 -214.5v-489h-41v946h33l8 -284q18 136 89.5 216t188.5 80q69 0 115 -24z" />
    <glyph glyph-name="Sdotbelow" unicode="&#x1e62;" horiz-adv-x="952" 
d="M66 313l40 13q26 -146 116.5 -221.5t238.5 -75.5q157 0 246.5 69.5t89.5 204.5q0 125 -78.5 190t-249.5 111q-52 14 -86.5 24.5t-76.5 27t-69 32.5t-54.5 39.5t-43 50.5t-25.5 63t-10 79q0 80 28.5 140t78.5 93.5t109.5 49.5t128.5 16q162 0 255 -75t117 -239l-39 -8
q-26 150 -106 215.5t-227 65.5q-135 0 -218.5 -62.5t-83.5 -195.5q0 -43 9 -76t30.5 -59.5t46.5 -45.5t67.5 -36.5t82 -30t100.5 -29.5q90 -25 150 -50.5t110 -64.5t73.5 -94.5t23.5 -130.5q0 -153 -100.5 -234t-278.5 -81q-162 0 -265.5 84t-129.5 241zM428 -276
q0 36 37 36t37 -36q0 -37 -37 -37t-37 37z" />
    <glyph glyph-name="sdotbelow" unicode="&#x1e63;" horiz-adv-x="786" 
d="M57 227l41 11q46 -211 287 -211q130 0 202 52t72 157q0 92 -56 141.5t-169 77.5l-106 26q-43 10 -74 21t-64 30t-53.5 43t-33.5 60.5t-13 83.5q0 83 43 138.5t106 78t140 22.5q134 0 210 -57.5t97 -187.5l-39 -6q-23 114 -85 163.5t-183 49.5q-108 0 -178 -50t-70 -151
q0 -48 13.5 -82t44.5 -56t63 -34.5t86 -26.5l108 -28q127 -34 190.5 -90t63.5 -166q0 -120 -84.5 -184t-230.5 -64q-133 0 -217.5 59t-110.5 180zM354 -276q0 36 37 36t37 -36q0 -37 -37 -37t-37 37z" />
    <glyph glyph-name="Tdotbelow" unicode="&#x1e6c;" horiz-adv-x="993" 
d="M518 0h-43v1165h-434v41h911v-41h-434v-1165zM459 -276q0 36 37 36q36 0 36 -36q0 -37 -36 -37q-37 0 -37 37z" />
    <glyph glyph-name="tdotbelow" unicode="&#x1e6d;" horiz-adv-x="593" 
d="M528 94l25 -28q-66 -78 -195 -78q-94 0 -142 57.5t-48 167.5v696h-137v37h137v201l43 8v-209h281v-37h-283v-692q0 -190 149 -190q56 0 94 14.5t76 52.5zM254 -276q0 36 37 36t37 -36q0 -37 -37 -37t-37 37z" />
    <glyph glyph-name="Wgrave" unicode="&#x1e80;" horiz-adv-x="1564" 
d="M805 1206l258 -874q24 -84 43.5 -158.5t27.5 -107.5l7 -33h4q25 111 80 299l256 874h43l-350 -1206h-60l-252 864q-24 84 -43.5 155t-26.5 101l-8 29h-4q-23 -97 -78 -285l-251 -864h-60l-350 1206h43l258 -874q24 -84 43.5 -158.5t26.5 -107.5l8 -33h4q25 109 80 299
l256 874h45zM801 1282h-31l-162 260h58z" />
    <glyph glyph-name="wgrave" unicode="&#x1e81;" horiz-adv-x="1232" 
d="M641 946l195 -674q24 -82 39 -141.5t19 -78.5l3 -19h4q11 55 64 239l194 674h43l-274 -946h-56l-190 659q-24 83 -40 145.5t-20 83.5l-4 21h-4q-10 -64 -63 -250l-191 -659h-55l-274 946h43l194 -674q24 -82 40 -141.5t20 -78.5l4 -19h4q8 55 61 239l195 674h49z
M635 1098h-31l-162 260h58z" />
    <glyph glyph-name="Wacute" unicode="&#x1e82;" horiz-adv-x="1564" 
d="M805 1206l258 -874q24 -84 43.5 -158.5t27.5 -107.5l7 -33h4q25 111 80 299l256 874h43l-350 -1206h-60l-252 864q-24 84 -43.5 155t-26.5 101l-8 29h-4q-23 -97 -78 -285l-251 -864h-60l-350 1206h43l258 -874q24 -84 43.5 -158.5t26.5 -107.5l8 -33h4q25 109 80 299
l256 874h45zM791 1282h-31l135 260h57z" />
    <glyph glyph-name="wacute" unicode="&#x1e83;" horiz-adv-x="1232" 
d="M641 946l195 -674q24 -82 39 -141.5t19 -78.5l3 -19h4q11 55 64 239l194 674h43l-274 -946h-56l-190 659q-24 83 -40 145.5t-20 83.5l-4 21h-4q-10 -64 -63 -250l-191 -659h-55l-274 946h43l194 -674q24 -82 40 -141.5t20 -78.5l4 -19h4q8 55 61 239l195 674h49z
M629 1098h-31l135 260h58z" />
    <glyph glyph-name="Wdieresis" unicode="&#x1e84;" horiz-adv-x="1564" 
d="M805 1206l258 -874q24 -84 43.5 -158.5t27.5 -107.5l7 -33h4q25 111 80 299l256 874h43l-350 -1206h-60l-252 864q-24 84 -43.5 155t-26.5 101l-8 29h-4q-23 -97 -78 -285l-251 -864h-60l-350 1206h43l258 -874q24 -84 43.5 -158.5t26.5 -107.5l8 -33h4q25 109 80 299
l256 874h45zM592 1362q0 37 37 37t37 -37t-37 -37t-37 37zM899 1362q0 37 37 37t37 -37t-37 -37t-37 37z" />
    <glyph glyph-name="wdieresis" unicode="&#x1e85;" horiz-adv-x="1232" 
d="M641 946l195 -674q24 -82 39 -141.5t19 -78.5l3 -19h4q11 55 64 239l194 674h43l-274 -946h-56l-190 659q-24 83 -40 145.5t-20 83.5l-4 21h-4q-10 -64 -63 -250l-191 -659h-55l-274 946h43l194 -674q24 -82 40 -141.5t20 -78.5l4 -19h4q8 55 61 239l195 674h49z
M426 1219q0 36 37 36t37 -36q0 -37 -37 -37t-37 37zM733 1219q0 36 37 36t37 -36q0 -37 -37 -37t-37 37z" />
    <glyph glyph-name="Idotbelow" unicode="&#x1eca;" horiz-adv-x="411" 
d="M184 1206h43v-1206h-43v1206zM168 -276q0 36 37 36t37 -36q0 -37 -37 -37t-37 37z" />
    <glyph glyph-name="idotbelow" unicode="&#x1ecb;" horiz-adv-x="368" 
d="M147 1219q0 36 37 36t37 -36q0 -37 -37 -37t-37 37zM164 946h41v-946h-41v946zM147 -276q0 36 37 36t37 -36q0 -37 -37 -37t-37 37z" />
    <glyph glyph-name="Odotbelow" unicode="&#x1ecc;" horiz-adv-x="1236" 
d="M618 -12q-239 0 -375.5 160.5t-136.5 453.5t136.5 455t375.5 162t375.5 -162t136.5 -455t-136.5 -453.5t-375.5 -160.5zM618 1178q-224 0 -346 -153.5t-122 -422.5t121.5 -421t346.5 -152t347 152.5t122 420.5q0 269 -122 422.5t-347 153.5zM582 -276q0 36 36 36
q37 0 37 -36q0 -37 -37 -37q-36 0 -36 37z" />
    <glyph glyph-name="odotbelow" unicode="&#x1ecd;" horiz-adv-x="960" 
d="M479 -12q-183 0 -283 124.5t-100 360.5t100 360.5t283 124.5q184 0 284.5 -124.5t100.5 -360.5t-100.5 -360.5t-284.5 -124.5zM479 920q-164 0 -253 -114.5t-89 -332.5t89 -332t253 -114q166 0 255 114t89 332t-89.5 332.5t-254.5 114.5zM442 -276q0 36 37 36t37 -36
q0 -37 -37 -37t-37 37z" />
    <glyph glyph-name="Udotbelow" unicode="&#x1ee4;" horiz-adv-x="1179" 
d="M989 1206h43v-772q0 -114 -34 -201t-95 -140t-139.5 -79t-173.5 -26q-94 0 -173 26.5t-140 79.5t-95.5 140t-34.5 200v772h43v-770q0 -86 22 -155.5t59.5 -116t89 -78t109 -45.5t120.5 -14q80 0 149.5 23t126.5 70t90 128t33 188v770zM553 -276q0 36 37 36t37 -36
q0 -37 -37 -37t-37 37z" />
    <glyph glyph-name="udotbelow" unicode="&#x1ee5;" horiz-adv-x="962" 
d="M766 0l-8 254q-24 -117 -113 -191.5t-217 -74.5q-134 0 -211.5 75.5t-77.5 231.5v651h41v-639q0 -140 64.5 -210t183.5 -70q146 0 238 108t92 293v518h41v-946h-33zM432 -276q0 36 37 36t37 -36q0 -37 -37 -37t-37 37z" />
    <glyph glyph-name="Ygrave" unicode="&#x1ef2;" horiz-adv-x="972" 
d="M90 1206l285 -477l110 -192h4q27 51 111 192l285 477h47l-424 -710v-496h-43v496l-424 710h49zM504 1282h-31l-162 260h58z" />
    <glyph glyph-name="ygrave" unicode="&#x1ef3;" horiz-adv-x="831" 
d="M74 946l293 -778q13 -35 24 -69t16 -51l5 -17h4q18 53 49 133l293 782h43l-363 -964q-33 -88 -57 -144t-54.5 -111.5t-60.5 -85.5t-69 -48.5t-86 -18.5q-83 0 -140 37l17 41q56 -39 123 -39q88 0 149.5 82.5t132.5 284.5l-362 966h43zM428 1098h-31l-161 260h57z" />
    <glyph glyph-name="Ytilde" unicode="&#x1ef8;" horiz-adv-x="972" 
d="M90 1206l285 -477l110 -192h4q27 51 111 192l285 477h47l-424 -710v-496h-43v496l-424 710h49zM623 1307q-40 0 -73.5 19t-74.5 54q-30 27 -45 38.5t-38.5 22.5t-45.5 11q-54 0 -75.5 -38t-2.5 -116h-30q-33 83 1.5 137t106.5 54q28 0 56 -12t46.5 -25.5t45.5 -36.5
q30 -27 45 -38.5t38.5 -22.5t45.5 -11q54 0 75 37.5t2 116.5h31q32 -83 -2 -136.5t-106 -53.5z" />
    <glyph glyph-name="ytilde" unicode="&#x1ef9;" horiz-adv-x="831" 
d="M74 946l293 -778q13 -35 24 -69t16 -51l5 -17h4q18 53 49 133l293 782h43l-363 -964q-33 -88 -57 -144t-54.5 -111.5t-60.5 -85.5t-69 -48.5t-86 -18.5q-83 0 -140 37l17 41q56 -39 123 -39q88 0 149.5 82.5t132.5 284.5l-362 966h43zM549 1122q-28 0 -56 12t-46.5 25.5
t-45.5 36.5q-30 27 -45 38.5t-38.5 22.5t-45.5 11q-54 0 -75 -37.5t-2 -116.5h-31q-33 83 1.5 137t106.5 54q28 0 56 -12t46.5 -25.5t45.5 -36.5q30 -27 45 -38.5t38.5 -22.5t45.5 -11q54 0 75.5 38t2.5 116h30q33 -83 -1.5 -137t-106.5 -54z" />
    <glyph glyph-name="enspace" unicode="&#x2002;" horiz-adv-x="921" 
 />
    <glyph glyph-name="emspace" unicode="&#x2003;" horiz-adv-x="1843" 
 />
    <glyph glyph-name="threeperemspace" unicode="&#x2004;" horiz-adv-x="614" 
 />
    <glyph glyph-name="fourperemspace" unicode="&#x2005;" horiz-adv-x="460" 
 />
    <glyph glyph-name="sixperemspace" unicode="&#x2006;" horiz-adv-x="307" 
 />
    <glyph glyph-name="figurespace" unicode="&#x2007;" horiz-adv-x="1050" 
 />
    <glyph glyph-name="punctuationspace" unicode="&#x2008;" horiz-adv-x="350" 
 />
    <glyph glyph-name="thinspace" unicode="&#x2009;" horiz-adv-x="184" 
 />
    <glyph glyph-name="hairspace" unicode="&#x200a;" horiz-adv-x="92" 
 />
    <glyph glyph-name="zerowidthspace" unicode="&#x200b;" horiz-adv-x="0" 
 />
    <glyph glyph-name="figuredash" unicode="&#x2012;" horiz-adv-x="1267" 
d="M164 532v39h940v-39h-940z" />
    <glyph glyph-name="endash" unicode="&#x2013;" horiz-adv-x="1064" 
d="M164 532v39h737v-39h-737z" />
    <glyph glyph-name="emdash" unicode="&#x2014;" horiz-adv-x="2088" 
d="M164 532v39h1761v-39h-1761z" />
    <glyph glyph-name="uni2015" unicode="&#x2015;" horiz-adv-x="2600" 
d="M164 532v39h2273v-39h-2273z" />
    <glyph glyph-name="doublebar" unicode="&#x2016;" horiz-adv-x="657" 
d="M266 -416h-41v1786h41v-1786zM432 -416h-41v1786h41v-1786z" />
    <glyph glyph-name="quoteleft" unicode="&#x2018;" horiz-adv-x="417" 
d="M193 1227q0 66 38 103.5t113 37.5v-31q-117 0 -117 -110q0 -22 6 -31q10 14 29 14q17 0 27 -9.5t10 -24.5q0 -18 -11.5 -28.5t-31.5 -10.5q-25 0 -44 23.5t-19 66.5z" />
    <glyph glyph-name="quoteright" unicode="&#x2019;" horiz-adv-x="417" 
d="M254 1278q0 -66 -38.5 -103.5t-113.5 -37.5v30q117 0 117 111q0 22 -6 31q-11 -15 -29 -15q-17 0 -27 10t-10 25q0 18 11.5 28.5t31.5 10.5q26 0 45 -23.5t19 -66.5z" />
    <glyph glyph-name="quotesinglbase" unicode="&#x201a;" horiz-adv-x="417" 
d="M254 14q0 -66 -38.5 -103.5t-113.5 -37.5v31q117 0 117 110q0 22 -6 31q-11 -14 -29 -14q-17 0 -27 10t-10 25q0 17 11.5 27.5t31.5 10.5q26 0 45 -23.5t19 -66.5z" />
    <glyph glyph-name="reversequoteleft" unicode="&#x201b;" horiz-adv-x="509" 
d="M260 1278q0 43 19 66.5t45 23.5q20 0 31.5 -10.5t11.5 -28.5q0 -15 -10 -25t-27 -10q-18 0 -29 15q-6 -9 -6 -31q0 -111 117 -111v-30q-75 0 -113.5 37.5t-38.5 103.5z" />
    <glyph glyph-name="quotedblleft" unicode="&#x201c;" horiz-adv-x="622" 
d="M193 1227q0 66 38 103.5t113 37.5v-31q-117 0 -117 -110q0 -22 6 -31q10 14 29 14q17 0 27 -9.5t10 -24.5q0 -18 -11.5 -28.5t-31.5 -10.5q-25 0 -44 23.5t-19 66.5zM397 1227q0 66 38.5 103.5t113.5 37.5v-31q-117 0 -117 -110q0 -22 6 -31q10 14 29 14q17 0 27 -9.5
t10 -24.5q0 -18 -11.5 -28.5t-31.5 -10.5q-26 0 -45 23.5t-19 66.5z" />
    <glyph glyph-name="quotedblright" unicode="&#x201d;" horiz-adv-x="622" 
d="M254 1278q0 -66 -38.5 -103.5t-113.5 -37.5v30q117 0 117 111q0 22 -6 31q-11 -15 -29 -15q-17 0 -27 10t-10 25q0 18 11.5 28.5t31.5 10.5q26 0 45 -23.5t19 -66.5zM459 1278q0 -66 -38.5 -103.5t-113.5 -37.5v30q117 0 117 111q0 22 -6 31q-11 -15 -29 -15
q-17 0 -27 10t-10 25q0 18 11.5 28.5t31.5 10.5q26 0 45 -23.5t19 -66.5z" />
    <glyph glyph-name="quotedblbase" unicode="&#x201e;" horiz-adv-x="622" 
d="M254 14q0 -66 -38.5 -103.5t-113.5 -37.5v31q117 0 117 110q0 22 -6 31q-11 -14 -29 -14q-17 0 -27 10t-10 25q0 17 11.5 27.5t31.5 10.5q26 0 45 -23.5t19 -66.5zM459 14q0 -66 -38.5 -103.5t-113.5 -37.5v31q117 0 117 110q0 22 -6 31q-11 -14 -29 -14q-17 0 -27 10
t-10 25q0 17 11.5 27.5t31.5 10.5q26 0 45 -23.5t19 -66.5z" />
    <glyph glyph-name="reversequotedblleft" unicode="&#x201f;" horiz-adv-x="755" 
d="M174 1284q0 43 19 66.5t45 23.5q20 0 31.5 -10.5t11.5 -28.5q0 -15 -10 -25t-27 -10q-18 0 -29 15q-6 -9 -6 -31q0 -110 117 -110v-31q-75 0 -113.5 37.5t-38.5 103.5zM420 1284q0 43 19 66.5t44 23.5q20 0 31.5 -10.5t11.5 -28.5q0 -15 -10 -25t-27 -10t-28 15
q-6 -9 -6 -31q0 -110 116 -110v-31q-75 0 -113 37.5t-38 103.5z" />
    <glyph glyph-name="dagger" unicode="&#x2020;" horiz-adv-x="1067" 
d="M518 739l-436 -10v51l436 -10l-10 436h51l-10 -436l436 10v-51l-436 10l10 -1044h-51z" />
    <glyph glyph-name="daggerdbl" unicode="&#x2021;" horiz-adv-x="1067" 
d="M549 739v-577l436 10v-51l-436 10l10 -436h-51l10 436l-436 -10v51l436 -10v577l-436 -10v51l436 -10l-10 436h51l-10 -436l436 10v-51z" />
    <glyph glyph-name="bullet" unicode="&#x2022;" horiz-adv-x="557" 
d="M184 549q0 38 28.5 66t66.5 28t66 -28t28 -66t-28 -66t-66 -28t-66.5 28t-28.5 66z" />
    <glyph glyph-name="ellipsis" unicode="&#x2026;" horiz-adv-x="1355" 
d="M168 37q0 37 37 37t37 -37t-37 -37t-37 37zM641 37q0 37 37 37t37 -37t-37 -37t-37 37zM1114 37q0 37 37 37t37 -37t-37 -37t-37 37z" />
    <glyph glyph-name="perthousand" unicode="&#x2030;" horiz-adv-x="2236" 
d="M348 473q-128 0 -198 105t-70 268q0 160 71 265.5t197 105.5q125 0 195.5 -105.5t70.5 -265.5q0 -163 -70 -268t-196 -105zM348 1178q-104 0 -165.5 -92.5t-61.5 -239.5q0 -149 61.5 -242.5t165.5 -93.5q103 0 164 93.5t61 242.5q0 147 -61 239.5t-164 92.5zM414 0
l708 1206h45l-708 -1206h-45zM1233 -10q-125 0 -195.5 105t-70.5 265q0 163 70 268t196 105q128 0 198 -105t70 -268q0 -160 -71 -265t-197 -105zM1233 696q-103 0 -164 -93.5t-61 -242.5q0 -147 61 -239t164 -92q104 0 165.5 92t61.5 239q0 149 -61.5 242.5t-165.5 93.5z
M1888 -10q-125 0 -195.5 105t-70.5 265q0 163 70 268t196 105q128 0 198.5 -105t70.5 -268q0 -160 -71.5 -265t-197.5 -105zM1888 696q-103 0 -164 -93.5t-61 -242.5q0 -147 61 -239t164 -92q104 0 166 92t62 239q0 149 -62 242.5t-166 93.5z" />
    <glyph glyph-name="tripleprime" unicode="&#x2034;" horiz-adv-x="663" 
d="M143 844v524h50l-19 -524h-31zM307 844v524h49l-18 -524h-31zM471 844v524h49l-18 -524h-31z" />
    <glyph glyph-name="guilsinglleft" unicode="&#x2039;" horiz-adv-x="622" 
d="M174 479v-4q14 -12 86 -96l238 -279l-33 -26l-342 403l342 404l33 -27l-238 -279z" />
    <glyph glyph-name="guilsinglright" unicode="&#x203a;" horiz-adv-x="622" 
d="M449 475v4q-15 12 -87 96l-237 279l33 27l342 -404l-342 -403l-33 26l237 279q32 37 53.5 61t27.5 30z" />
    <glyph glyph-name="fraction" unicode="&#x2044;" horiz-adv-x="425" 
d="M-164 0l709 1206h45l-709 -1206h-45z" />
    <glyph glyph-name="uni2070" unicode="&#x2070;" horiz-adv-x="677" 
d="M340 473q-128 0 -198 105t-70 268q0 160 71 265.5t197 105.5q125 0 195.5 -105.5t70.5 -265.5q0 -163 -70 -268t-196 -105zM340 1180q-104 0 -165.5 -93.5t-61.5 -240.5q0 -149 61.5 -242.5t165.5 -93.5q103 0 164 93.5t61 242.5q0 147 -61 240.5t-164 93.5z" />
    <glyph glyph-name="uni2074" unicode="&#x2074;" horiz-adv-x="622" 
d="M412 483v201h-381v31l383 491h39v-487h122v-35h-122v-201h-41zM412 719v342l4 96h-4q-17 -35 -64 -94l-203 -260l-69 -82v-4q37 2 84 2h252z" />
    <glyph glyph-name="uni2075" unicode="&#x2075;" horiz-adv-x="575" 
d="M104 836l17 370h346v-37h-309l-15 -295q56 64 148 64q93 0 153 -60.5t60 -170.5q0 -111 -67 -172.5t-175 -61.5q-99 0 -157 49t-66 129l39 6q9 -72 58 -109.5t126 -37.5q89 0 146 51t57 146q0 91 -50 143.5t-130 52.5q-81 0 -148 -67h-33z" />
    <glyph glyph-name="uni2076" unicode="&#x2076;" horiz-adv-x="612" 
d="M539 1075l-37 -14q-42 119 -162 119q-100 0 -164 -91t-65 -264v-65h4q10 88 66.5 137t142.5 49q105 0 167 -65t62 -170q0 -101 -61 -169.5t-173 -68.5q-141 0 -206 127q-41 78 -41 225q0 191 75.5 291.5t192.5 100.5q151 0 199 -142zM129 709q0 -86 52.5 -142.5
t137.5 -56.5q90 0 142.5 55.5t52.5 143.5t-53 144t-142 56q-86 0 -138 -56t-52 -144z" />
    <glyph glyph-name="uni2077" unicode="&#x2077;" horiz-adv-x="565" 
d="M473 1169h-393v-116h-39v153h475v-32l-280 -691h-41z" />
    <glyph glyph-name="uni2078" unicode="&#x2078;" horiz-adv-x="610" 
d="M305 834q-88 0 -142 -42.5t-54 -121.5q0 -75 54 -117.5t142 -42.5t142.5 42.5t54.5 117.5q0 79 -54.5 121.5t-142.5 42.5zM305 473q-107 0 -172 53t-65 144q0 70 42 119t115 61v2q-64 16 -101.5 60t-37.5 114q0 86 59.5 138.5t159.5 52.5t159.5 -52.5t59.5 -138.5
q0 -70 -37.5 -114t-101.5 -60v-2q73 -12 115.5 -61t42.5 -119q0 -91 -65.5 -144t-172.5 -53zM305 1180q-82 0 -130 -41.5t-48 -112.5q0 -75 49 -116.5t129 -41.5t129 41.5t49 116.5q0 71 -48 112.5t-130 41.5z" />
    <glyph glyph-name="uni2079" unicode="&#x2079;" horiz-adv-x="614" 
d="M70 614l36 15q40 -119 168 -119q104 0 166 93.5t62 264.5v64h-2q-9 -88 -67 -138.5t-144 -50.5q-105 0 -167.5 65.5t-62.5 170.5q0 102 60.5 170t173.5 68q144 0 209 -125q41 -84 41 -224q0 -193 -74 -294t-195 -101q-156 0 -204 141zM483 981q0 86 -52.5 142.5
t-137.5 56.5q-90 0 -141.5 -55.5t-51.5 -143.5q0 -89 52 -145t141 -56q87 0 138.5 56t51.5 145z" />
    <glyph glyph-name="uni207A" unicode="&#x207a;" horiz-adv-x="888" 
d="M82 879h342v329h41v-329h342v-39h-342v-359h-41v359h-342v39z" />
    <glyph glyph-name="uni207B" unicode="&#x207b;" horiz-adv-x="888" 
d="M807 840h-725v39h725v-39z" />
    <glyph glyph-name="uni207C" unicode="&#x207c;" horiz-adv-x="888" 
d="M807 729h-725v39h725v-39zM807 954h-725v39h725v-39z" />
    <glyph glyph-name="uni207D" unicode="&#x207d;" horiz-adv-x="454" 
d="M154 838q0 -140 46 -246.5t142 -218.5h-49q-180 210 -180 465t180 465h49q-96 -112 -142 -218.5t-46 -246.5z" />
    <glyph glyph-name="uni207E" unicode="&#x207e;" horiz-adv-x="454" 
d="M301 838q0 140 -46 246.5t-142 218.5h49q180 -210 180 -465t-180 -465h-49q96 112 142 218.5t46 246.5z" />
    <glyph glyph-name="n.superior" unicode="&#x207f;" horiz-adv-x="655" 
d="M139 1219l6 -162q21 76 78.5 124t138.5 48q89 0 140 -49.5t51 -151.5v-434h-41v420q0 85 -40.5 130.5t-113.5 45.5q-90 0 -149 -66.5t-59 -183.5v-346h-44v625h33z" />
    <glyph glyph-name="uni2080" unicode="&#x2080;" horiz-adv-x="677" 
d="M340 -10q-128 0 -198 104.5t-70 267.5q0 160 71 265.5t197 105.5q125 0 195.5 -105.5t70.5 -265.5q0 -163 -70 -267.5t-196 -104.5zM340 696q-104 0 -165.5 -93.5t-61.5 -240.5q0 -149 61.5 -242t165.5 -93q103 0 164 93.5t61 241.5q0 147 -61 240.5t-164 93.5z" />
    <glyph glyph-name="uni2081" unicode="&#x2081;" horiz-adv-x="571" 
d="M547 0h-490v35h238v645l-225 -49v39l266 59v-694h211v-35z" />
    <glyph glyph-name="uni2082" unicode="&#x2082;" horiz-adv-x="567" 
d="M518 37v-37h-469v35q63 43 104.5 73t102.5 82.5t98 97.5t64.5 103t27.5 113q0 92 -49 142t-133 50t-129 -52.5t-45 -123.5l-39 6q0 85 56 146t157 61q98 0 160.5 -58.5t62.5 -170.5q0 -57 -27.5 -118.5t-69 -112.5t-94 -98.5t-99 -79.5t-86.5 -54v-4h407z" />
    <glyph glyph-name="uni2083" unicode="&#x2083;" horiz-adv-x="534" 
d="M270 377v-4q92 -2 152.5 -52.5t60.5 -134.5q0 -91 -64 -143.5t-161 -52.5q-100 0 -161 47t-70 123l39 8q24 -141 192 -141q80 0 132 43t52 116q0 80 -64.5 124.5t-193.5 45.5v35q234 10 234 168q0 68 -44.5 102.5t-113.5 34.5q-70 0 -114 -37t-56 -106l-39 10
q11 75 65 122.5t144 47.5q89 0 145 -45t56 -129q0 -76 -53 -126t-138 -56z" />
    <glyph glyph-name="uni2084" unicode="&#x2084;" horiz-adv-x="622" 
d="M412 0v201h-381v30l383 492h39v-487h122v-35h-122v-201h-41zM412 236v342l4 96h-4q-17 -35 -64 -94l-203 -261l-69 -81v-5q37 3 84 3h252z" />
    <glyph glyph-name="uni2085" unicode="&#x2085;" horiz-adv-x="575" 
d="M104 352l17 371h346v-37h-309l-15 -295q56 64 148 64q93 0 153 -61t60 -171q0 -111 -67 -172t-175 -61q-99 0 -157 49t-66 129l39 6q9 -72 58 -109.5t126 -37.5q89 0 146 51t57 145q0 91 -50 144t-130 53t-148 -68h-33z" />
    <glyph glyph-name="uni2086" unicode="&#x2086;" horiz-adv-x="612" 
d="M539 592l-37 -14q-22 61 -61 89.5t-101 28.5q-100 0 -164 -90.5t-65 -263.5v-66h4q10 88 66.5 137.5t142.5 49.5q105 0 167 -65.5t62 -170.5q0 -101 -61 -169t-173 -68q-141 0 -206 127q-41 78 -41 225q0 191 75.5 291t192.5 100q151 0 199 -141zM129 225
q0 -86 52.5 -142t137.5 -56q91 0 143 55t52 143t-53 144.5t-142 56.5q-86 0 -138 -56.5t-52 -144.5z" />
    <glyph glyph-name="uni2087" unicode="&#x2087;" horiz-adv-x="565" 
d="M473 686h-393v-117h-39v154h475v-33l-280 -690h-41z" />
    <glyph glyph-name="uni2088" unicode="&#x2088;" horiz-adv-x="610" 
d="M305 350q-88 0 -142 -42.5t-54 -121.5q0 -75 54 -117t142 -42t142.5 42t54.5 117q0 79 -54.5 121.5t-142.5 42.5zM305 -10q-107 0 -172 52.5t-65 143.5q0 70 42 119.5t115 61.5v2q-64 16 -101.5 60t-37.5 114q0 86 59.5 138t159.5 52t159.5 -52t59.5 -138
q0 -70 -37.5 -114t-101.5 -60v-2q73 -12 115.5 -61.5t42.5 -119.5q0 -91 -65.5 -143.5t-172.5 -52.5zM305 696q-82 0 -130 -41.5t-48 -111.5q0 -75 49 -116.5t129 -41.5t129 41.5t49 116.5q0 70 -48 111.5t-130 41.5z" />
    <glyph glyph-name="uni2089" unicode="&#x2089;" horiz-adv-x="614" 
d="M70 131l36 14q40 -118 168 -118q104 0 166 93.5t62 264.5v64h-2q-9 -88 -67 -138.5t-144 -50.5q-105 0 -167.5 65.5t-62.5 170.5q0 101 60.5 169t173.5 68q144 0 209 -125q41 -84 41 -223q0 -193 -74 -294t-195 -101q-156 0 -204 141zM483 498q0 86 -52.5 142t-137.5 56
q-90 0 -141.5 -55t-51.5 -143q0 -89 52 -145t141 -56q87 0 138.5 56t51.5 145z" />
    <glyph glyph-name="uni208A" unicode="&#x208a;" horiz-adv-x="888" 
d="M82 395h342v330h41v-330h342v-39h-342v-358h-41v358h-342v39z" />
    <glyph glyph-name="uni208B" unicode="&#x208b;" horiz-adv-x="888" 
d="M807 356h-725v39h725v-39z" />
    <glyph glyph-name="uni208C" unicode="&#x208c;" horiz-adv-x="888" 
d="M807 246h-725v39h725v-39zM807 471h-725v39h725v-39z" />
    <glyph glyph-name="uni208D" unicode="&#x208d;" horiz-adv-x="454" 
d="M154 354q0 -140 46 -246.5t142 -218.5h-49q-180 210 -180 465t180 465h49q-96 -112 -142 -218.5t-46 -246.5z" />
    <glyph glyph-name="uni208E" unicode="&#x208e;" horiz-adv-x="454" 
d="M301 354q0 140 -46 246.5t-142 218.5h49q180 -210 180 -465t-180 -465h-49q96 112 142 218.5t46 246.5z" />
    <glyph glyph-name="uni20A1" unicode="&#x20a1;" horiz-adv-x="970" 
d="M174 -145l78 231q-150 131 -150 406q0 244 115 374.5t318 130.5h24l59 179l35 -11l-57 -172q90 -9 158 -53l61 182l35 -10l-66 -194q72 -57 113 -158l-37 -17q-38 87 -90 134l-285 -848q16 -2 54 -2q236 0 323 204l37 -18q-101 -225 -360 -225q-26 0 -66 4l-65 -199
l-37 8l65 197q-86 15 -153 61l-72 -215zM143 492q0 -240 123 -363l279 829h-10q-189 0 -290.5 -124t-101.5 -342zM297 100q66 -50 152 -65l290 866q-64 46 -155 55z" />
    <glyph glyph-name="uni20A2" unicode="&#x20a2;" horiz-adv-x="970" 
d="M862 231l37 -18q-101 -225 -360 -225q-203 0 -320 130.5t-117 373.5q0 244 115 374.5t318 130.5q267 0 362 -237l-37 -17q-85 215 -325 215q-189 0 -290.5 -124t-101.5 -342q0 -208 95.5 -331.5t267.5 -133.5v465h33l8 -183q11 101 63.5 148t132.5 47q62 0 107 -23
l-12 -39q-45 23 -95 23q-97 0 -146.5 -79t-49.5 -249v-110q227 3 315 204z" />
    <glyph glyph-name="franc" unicode="&#x20a3;" horiz-adv-x="817" 
d="M707 375h-422v-375h-43v375h-181v39h181v166h-181v38h181v367h532v-39h-489v-328h422v-38h-422v-166h422v-39z" />
    <glyph glyph-name="lira" unicode="&#x20a4;" horiz-adv-x="1017" 
d="M662 332h-287q12 -54 12 -78q0 -85 -35 -140.5t-86 -74.5h393q94 0 144 27.5t69 99.5l43 -16q-21 -82 -80.5 -116t-166.5 -34h-553v39h59q72 0 121 60t49 155q0 31 -14 78h-211v39h196q-8 18 -36.5 74.5t-42.5 91.5h-117v38h104q-18 55 -18 123q0 151 89.5 225t233.5 74
q286 0 328 -272l-41 -8q-41 241 -287 241q-127 0 -203.5 -65.5t-76.5 -194.5q0 -61 20 -123h394v-38h-379q11 -26 38.5 -81.5t38.5 -84.5h302v-39z" />
    <glyph glyph-name="uni20A6" unicode="&#x20a6;" horiz-adv-x="1196" 
d="M1139 375h-160v-375h-49l-565 786l-101 146h-4q2 -70 2 -164v-768h-41v375h-160v39h160v166h-160v38h160v367h49l570 -792l96 -140h4q-2 68 -2 164v768h41v-367h160v-38h-160v-166h160v-39z" />
    <glyph glyph-name="peseta" unicode="&#x20a7;" horiz-adv-x="1968" 
d="M203 0h-43v985h256q168 0 249.5 -68.5t86.5 -203.5h469q-11 145 71 214.5t221 69.5q138 0 218 -61t100 -195l-39 -8q-21 119 -89 172t-190 53q-112 0 -181.5 -51t-69.5 -157q0 -82 50.5 -127t151.5 -74l121 -35q60 -17 101.5 -36t80.5 -49t58.5 -75t19.5 -106
q0 -126 -85.5 -193t-237.5 -67q-138 0 -226 68t-110 196l39 12q47 -239 299 -239q129 0 204.5 57.5t75.5 165.5q0 50 -17 88.5t-50 64.5t-70 42.5t-88 31.5l-123 35q-94 27 -149.5 64t-77.5 100h-219v-674h-43v674h-217q-6 -141 -88.5 -208t-243.5 -67h-215v-399zM203 946
v-508h211q152 0 224.5 61t72.5 197q0 126 -70.5 188t-226.5 62h-211z" />
    <glyph glyph-name="uni20A8" unicode="&#x20a8;" horiz-adv-x="1527" 
d="M205 946v-457h256q136 0 209 59t73 169q0 116 -71 172.5t-217 56.5h-250zM457 985q327 0 327 -268q0 -112 -69.5 -176t-169.5 -74v-4q51 -13 121 -80l217 -217q142 -139 311 -139q207 0 207 155q0 72 -40.5 109.5t-127.5 58.5l-84 23q-88 21 -136 61t-48 125
q0 96 64.5 142.5t160.5 46.5q104 0 163.5 -45.5t76.5 -147.5l-39 -8q-17 89 -63.5 125.5t-137.5 36.5q-186 0 -186 -150q0 -66 36 -97t117 -52l86 -23q99 -27 149 -73t50 -132q0 -95 -66.5 -144.5t-181.5 -49.5q-188 0 -344 153l-223 221q-35 34 -54.5 49.5t-48 27.5
t-63.5 12h-256v-451h-41v985h293z" />
    <glyph glyph-name="uni20A9" unicode="&#x20a9;" horiz-adv-x="1460" 
d="M1399 395h-211l-119 -395h-57l-211 698l-66 240h-4q-20 -88 -65 -240l-211 -698h-60l-119 395h-215v35h205l-51 170h-154v35h144l-105 350h41l217 -717q21 -68 37.5 -127.5t22.5 -84.5l6 -25h4q21 81 68 237l215 717h45l217 -717q20 -67 36.5 -127.5t22 -85t6.5 -24.5h2
q1 0 7.5 23t24.5 85.5t36 124.5l217 721h41l-106 -350h139v-35h-150l-51 -170h201v-35z" />
    <glyph glyph-name="uni20AA" unicode="&#x20aa;" horiz-adv-x="1146" 
d="M737 256h-41v438q0 132 -52 192t-191 60h-289v-946h-41v985h330q85 0 141.5 -19t87.5 -58.5t43 -90t12 -123.5v-438zM983 985h41v-694q0 -73 -12.5 -123.5t-43.5 -90t-87.5 -58.5t-141.5 -19h-329v702h41v-663h288q139 0 191.5 60.5t52.5 191.5v694z" />
    <glyph glyph-name="Euro" unicode="&#x20ac;" horiz-adv-x="1128" 
d="M676 352h-377q31 -155 129.5 -240t253.5 -85q237 0 324 204l36 -18q-101 -225 -360 -225q-171 0 -281.5 93t-142.5 271h-176v39h170q-6 49 -6 103q0 30 4 92h-168v39h174q29 181 139 276.5t283 95.5q268 0 362 -237l-36 -17q-85 215 -326 215q-159 0 -256 -87t-125 -246
h465l-14 -39h-457q-4 -62 -4 -92q0 -56 6 -103h397z" />
    <glyph glyph-name="uni20AE" unicode="&#x20ae;" horiz-adv-x="849" 
d="M446 0h-43v397l-284 -47v37l284 47v148l-284 -47v36l284 47v328h-364v39h772v-39h-365v-321l285 49v-37l-285 -49v-148l285 49v-36l-285 -50v-403z" />
    <glyph glyph-name="uni20B1" unicode="&#x20b1;" 
d="M999 670h-172q-6 -138 -88.5 -204.5t-242.5 -66.5h-215v-399h-43v670h-177v39h177v276h256q170 0 251 -69.5t84 -206.5h170v-39zM281 946v-237h507q-3 120 -73.5 178.5t-222.5 58.5h-211zM492 438q144 0 216 55t78 177h-505v-232h211z" />
    <glyph glyph-name="afii61289" unicode="&#x2113;" horiz-adv-x="647" 
d="M74 362l-21 31l154 121v555q0 134 47 217.5t145 83.5q67 0 110.5 -42t60 -104.5t16.5 -144.5q0 -95 -21.5 -173.5t-68 -148.5t-104 -129t-144.5 -130v-299q0 -87 42 -129.5t111 -42.5q53 0 91.5 11.5t85.5 41.5v-43q-79 -49 -177 -49q-88 0 -141 55.5t-53 151.5v270
q-66 -53 -133 -103zM248 1069v-522q106 89 166 159.5t95.5 163.5t35.5 209q0 47 -7 88.5t-22.5 80t-45.5 61t-71 22.5q-75 0 -113 -74t-38 -188z" />
    <glyph glyph-name="afii61352" unicode="&#x2116;" horiz-adv-x="1968" 
d="M1307 0v39h477v-39h-477zM227 958v-737q0 -111 -35.5 -160t-128.5 -73l-16 41q78 18 107.5 58t29.5 134v985h52l675 -977q32 -45 61.5 -89.5t42.5 -66.5l13 -22h4q-4 82 -4 197v737q0 111 35.5 161t128.5 73l16 -41q-78 -17 -107.5 -58t-29.5 -135v-985h-51l-676 977
q-32 45 -61 89.5t-43 66.5l-13 22h-4q4 -82 4 -197zM1542 266q-121 0 -188.5 83.5t-67.5 238.5q0 158 67 240.5t189 82.5q125 0 193.5 -82.5t68.5 -240.5q0 -155 -69 -238.5t-193 -83.5zM1542 872q-104 0 -159.5 -72t-55.5 -212q0 -138 55.5 -210.5t159.5 -72.5
q106 0 161.5 72t55.5 211q0 140 -56 212t-161 72z" />
    <glyph glyph-name="published" unicode="&#x2117;" horiz-adv-x="1454" 
d="M778 543h-205v-297h-41v739h246q120 0 183 -58.5t63 -162.5t-63 -162.5t-183 -58.5zM573 948v-368h197q103 0 158 46t55 138t-55 138t-158 46h-197zM113 602q0 175 82.5 317t222.5 221t309 79t309 -79t222.5 -221t82.5 -317t-82.5 -316.5t-222.5 -219.5t-309 -78t-309 78
t-222.5 219.5t-82.5 316.5zM152 602q0 -164 77.5 -297t209 -206.5t288.5 -73.5t289 73.5t209.5 206.5t77.5 297q0 123 -45.5 231.5t-123.5 184.5t-183.5 120t-223.5 44q-157 0 -288.5 -74t-209 -208t-77.5 -298z" />
    <glyph glyph-name="servicemark" unicode="&#x2120;" horiz-adv-x="1232" 
d="M113 821l39 10q13 -58 46 -82t93 -24q133 0 133 100q0 49 -27.5 73t-79.5 38l-57 14q-61 15 -95 46t-34 89q0 66 45.5 100t110.5 34q74 0 116 -32t52 -102l-37 -10q-12 61 -42 85t-89 24q-53 0 -85 -25t-32 -74q0 -42 22.5 -64t73.5 -34l58 -14q139 -33 139 -148
q0 -65 -47 -100t-125 -35q-152 0 -178 131zM1047 698h-39v439h-4l-177 -330h-24l-176 332h-4v-441h-39v508h49l180 -342h4l180 342h50v-508z" />
    <glyph glyph-name="trademark" unicode="&#x2122;" horiz-adv-x="1212" 
d="M266 698h-41v471h-184v37h408v-37h-183v-471zM1026 698h-39v439h-4l-176 -330h-25l-176 332h-4v-441h-39v508h49l181 -342h4l180 342h49v-508z" />
    <glyph glyph-name="ohm" unicode="&#x2126;" horiz-adv-x="1232" 
d="M616 1180q-211 0 -331.5 -142.5t-120.5 -412.5q0 -216 105 -370.5t272 -213.5v-41h-410v41h320q-40 14 -83.5 46t-87.5 85t-78.5 118t-56.5 153t-22 182q0 287 125.5 440.5t367.5 153.5t368 -153.5t126 -440.5q0 -94 -22 -182t-56.5 -153t-78.5 -118t-87.5 -85t-83.5 -46
h320v-41h-410v41q167 59 272 213.5t105 370.5q0 270 -121 412.5t-332 142.5z" />
    <glyph glyph-name="estimated" unicode="&#x212e;" horiz-adv-x="1325" 
d="M662 1227q117 0 213 -35t161.5 -94.5t110.5 -140t65.5 -169.5t20.5 -186v-53h-883v-342q122 -119 312 -119q263 0 376 209h136q-62 -146 -191 -231.5t-321 -85.5q-116 0 -211.5 34.5t-161 94t-111 139.5t-66 169t-20.5 185q0 97 20.5 186.5t66 169.5t111 139.5t161 94.5
t211.5 35zM662 1118q-193 0 -312 -119v-344h623v344q-119 119 -311 119z" />
    <glyph glyph-name="uni2153" unicode="&#x2153;" horiz-adv-x="1449" 
d="M547 483h-490v35h238v645l-225 -49v39l266 59v-694h211v-35zM408 0l708 1206h45l-708 -1206h-45zM1186 377v-4q92 -2 152.5 -52.5t60.5 -134.5q0 -91 -64 -143.5t-161 -52.5q-100 0 -161.5 47t-70.5 123l39 8q23 -141 193 -141q80 0 132 43t52 116q0 80 -64.5 124.5
t-193.5 45.5v35q233 10 233 168q0 68 -44 102.5t-113 34.5q-70 0 -114 -37t-56 -106l-39 10q11 75 65 122.5t144 47.5q89 0 144.5 -45t55.5 -129q0 -76 -52.5 -126t-137.5 -56z" />
    <glyph glyph-name="uni2154" unicode="&#x2154;" horiz-adv-x="1445" 
d="M518 520v-37h-469v35q63 43 104.5 73t102.5 82.5t98 97.5t64.5 103t27.5 113q0 92 -49.5 142.5t-132.5 50.5q-84 0 -129 -52.5t-45 -123.5l-39 6q0 85 56 146t157 61q98 0 160.5 -59t62.5 -171q0 -57 -27.5 -118.5t-69 -112.5t-94 -98.5t-99 -79.5t-86.5 -54v-4h407z
M403 0l709 1206h45l-708 -1206h-46zM1182 377v-4q92 -2 152.5 -52.5t60.5 -134.5q0 -91 -64.5 -143.5t-161.5 -52.5q-100 0 -161 47t-70 123l39 8q23 -141 192 -141q80 0 132.5 43t52.5 116q0 80 -64.5 124.5t-193.5 45.5v35q233 10 233 168q0 68 -44.5 102.5t-113.5 34.5
q-70 0 -114 -37t-56 -106l-38 10q11 75 64.5 122.5t143.5 47.5q89 0 145 -45t56 -129q0 -76 -52.5 -126t-137.5 -56z" />
    <glyph glyph-name="uni215B" unicode="&#x215b;" horiz-adv-x="1505" 
d="M547 483h-490v35h238v645l-225 -49v39l266 59v-694h211v-35zM408 0l708 1206h45l-708 -1206h-45zM1200 350q-88 0 -142 -42.5t-54 -121.5q0 -75 54 -117t142 -42t142.5 42t54.5 117q0 79 -54.5 121.5t-142.5 42.5zM1200 -10q-107 0 -172 52.5t-65 143.5q0 70 42 119.5
t115 61.5v2q-64 16 -101.5 60t-37.5 114q0 86 59.5 138t159.5 52t159.5 -52t59.5 -138q0 -70 -37.5 -114t-101.5 -60v-2q73 -12 115.5 -61.5t42.5 -119.5q0 -91 -65.5 -143.5t-172.5 -52.5zM1200 696q-82 0 -130 -41.5t-48 -111.5q0 -75 49 -116.5t129 -41.5t129 41.5
t49 116.5q0 70 -48 111.5t-130 41.5z" />
    <glyph glyph-name="uni215C" unicode="&#x215c;" horiz-adv-x="1406" 
d="M270 860v-4q92 -2 152.5 -52t60.5 -134q0 -91 -64 -144t-161 -53q-100 0 -161 47t-70 123l39 8q24 -141 192 -141q80 0 132 43.5t52 116.5q0 80 -64.5 124.5t-193.5 45.5v34q234 10 234 168q0 68 -44.5 103t-113.5 35q-70 0 -114 -37.5t-56 -106.5l-39 11q11 75 65 122.5
t144 47.5q89 0 145 -45t56 -130q0 -76 -53 -126t-138 -56zM309 0l709 1206h45l-709 -1206h-45zM1102 350q-88 0 -142.5 -42.5t-54.5 -121.5q0 -75 54.5 -117t142.5 -42t142 42t54 117q0 79 -54 121.5t-142 42.5zM1102 -10q-107 0 -172.5 52.5t-65.5 143.5q0 70 42.5 119.5
t115.5 61.5v2q-64 16 -101.5 60t-37.5 114q0 86 59.5 138t159.5 52t159.5 -52t59.5 -138q0 -70 -37.5 -114t-101.5 -60v-2q73 -12 115 -61.5t42 -119.5q0 -91 -65 -143.5t-172 -52.5zM1102 696q-82 0 -130 -41.5t-48 -111.5q0 -75 49 -116.5t129 -41.5t129 41.5t49 116.5
q0 70 -48 111.5t-130 41.5z" />
    <glyph glyph-name="uni215D" unicode="&#x215d;" horiz-adv-x="1415" 
d="M104 836l17 370h346v-37h-309l-15 -295q56 64 148 64q93 0 153 -60.5t60 -170.5q0 -111 -67 -172.5t-175 -61.5q-99 0 -157 49t-66 129l39 6q9 -72 58 -109.5t126 -37.5q89 0 146 51t57 146q0 91 -50 143.5t-130 52.5q-81 0 -148 -67h-33zM317 0l709 1206h45l-709 -1206
h-45zM1110 350q-88 0 -142.5 -42.5t-54.5 -121.5q0 -75 54.5 -117t142.5 -42t142.5 42t54.5 117q0 79 -54.5 121.5t-142.5 42.5zM1110 -10q-107 0 -172.5 52.5t-65.5 143.5q0 70 42.5 119.5t115.5 61.5v2q-64 16 -101.5 60t-37.5 114q0 86 59.5 138t159.5 52t159.5 -52
t59.5 -138q0 -70 -37.5 -114t-101.5 -60v-2q73 -12 115.5 -61.5t42.5 -119.5q0 -91 -65.5 -143.5t-172.5 -52.5zM1110 696q-82 0 -130 -41.5t-48 -111.5q0 -75 49 -116.5t129 -41.5t129 41.5t49 116.5q0 70 -48 111.5t-130 41.5z" />
    <glyph glyph-name="uni215E" unicode="&#x215e;" horiz-adv-x="1292" 
d="M473 1169h-393v-116h-39v153h475v-32l-280 -691h-41zM195 0l708 1206h45l-708 -1206h-45zM987 350q-88 0 -142 -42.5t-54 -121.5q0 -75 54 -117t142 -42t142.5 42t54.5 117q0 79 -54.5 121.5t-142.5 42.5zM987 -10q-107 0 -172 52.5t-65 143.5q0 70 42 119.5t115 61.5v2
q-64 16 -101.5 60t-37.5 114q0 86 59.5 138t159.5 52t159.5 -52t59.5 -138q0 -70 -37.5 -114t-101.5 -60v-2q73 -12 115.5 -61.5t42.5 -119.5q0 -91 -65.5 -143.5t-172.5 -52.5zM987 696q-82 0 -130 -41.5t-48 -111.5q0 -75 49 -116.5t129 -41.5t129 41.5t49 116.5
q0 70 -48 111.5t-130 41.5z" />
    <glyph glyph-name="arrowleft" unicode="&#x2190;" horiz-adv-x="1394" 
d="M131 621h1151v-41h-1151l545 -572l-29 -26l-590 618l590 619l29 -27z" />
    <glyph glyph-name="arrowup" unicode="&#x2191;" horiz-adv-x="1425" 
d="M733 1151v-1151h-41v1151l-571 -545l-27 29l619 590l618 -590l-26 -29z" />
    <glyph glyph-name="arrowright" unicode="&#x2192;" horiz-adv-x="1394" 
d="M113 621h1151l-545 571l29 27l589 -619l-589 -618l-29 26l545 572h-1151v41z" />
    <glyph glyph-name="arrowdown" unicode="&#x2193;" horiz-adv-x="1443" 
d="M692 55v1151h41v-1151l572 545l26 -29l-618 -589l-619 589l27 29z" />
    <glyph glyph-name="uni2196" unicode="&#x2196;" horiz-adv-x="1439" 
d="M1362 0l-1135 1139v-889h-41v956h957v-41h-889l1139 -1134z" />
    <glyph glyph-name="uni2197" unicode="&#x2197;" horiz-adv-x="1439" 
d="M1186 1165h-889v41h956v-956h-41v889l-1134 -1139l-31 31z" />
    <glyph glyph-name="uni2198" unicode="&#x2198;" horiz-adv-x="1439" 
d="M78 1206l1134 -1138v888h41v-956h-956v41h889l-1139 1135z" />
    <glyph glyph-name="uni2199" unicode="&#x2199;" horiz-adv-x="1439" 
d="M227 68l1135 1138l31 -30l-1139 -1135h889v-41h-957v956h41v-888z" />
    <glyph glyph-name="partialdiff" unicode="&#x2202;" horiz-adv-x="960" 
d="M274 1346l21 30q269 -110 419 -348t150 -555q0 -236 -100.5 -360.5t-284.5 -124.5q-183 0 -283 124.5t-100 360.5t100 360.5t283 124.5q98 0 173 -39t116 -104h4q-30 80 -68.5 148.5t-96.5 139.5t-142.5 133t-190.5 110zM823 473q0 218 -89.5 332.5t-254.5 114.5
q-164 0 -253 -114.5t-89 -332.5t89 -332t253 -114q166 0 255 114t89 332z" />
    <glyph glyph-name="increment" unicode="&#x2206;" horiz-adv-x="1036" 
d="M975 0h-914l428 1206h58zM911 41l-297 848l-92 274h-8q-39 -124 -92 -274l-297 -848h786z" />
    <glyph glyph-name="product" unicode="&#x220f;" horiz-adv-x="1167" 
d="M225 -414h-41v1620h799v-1620h-41v1579h-717v-1579z" />
    <glyph glyph-name="summation" unicode="&#x2211;" horiz-adv-x="874" 
d="M793 1165h-494l-164 4v-4q47 -49 125 -135l383 -428l-383 -426l-125 -135v-4q35 4 164 4h494v-41h-752l543 602l-543 604h752v-41z" />
    <glyph glyph-name="minus" unicode="&#x2212;" 
d="M113 528h835v-41h-835v41z" />
    <glyph glyph-name="radical" unicode="&#x221a;" horiz-adv-x="1183" 
d="M350 920l297 -877h6l469 1362l41 -12l-481 -1393h-61l-295 854l-246 -141l-19 35z" />
    <glyph glyph-name="infinity" unicode="&#x221e;" horiz-adv-x="1787" 
d="M162 522q0 -145 82.5 -226t210.5 -81q152 0 274 143l139 166l-139 166q-123 144 -274 144q-128 0 -210.5 -82.5t-82.5 -229.5zM893 494l-133 -160q-67 -80 -139.5 -119t-165.5 -39q-148 0 -240 94t-92 252q0 160 92 255t240 95q171 0 305 -157l133 -160l135 160
q130 157 305 157q148 0 240 -95t92 -255q0 -158 -92 -252t-240 -94q-93 0 -165.5 39t-139.5 119zM1626 522q0 147 -82.5 229.5t-210.5 82.5q-154 0 -274 -144l-139 -166l139 -166q119 -143 274 -143q128 0 210.5 81t82.5 226z" />
    <glyph glyph-name="integral" unicode="&#x222b;" horiz-adv-x="512" 
d="M236 -172v1298q0 117 54.5 179.5t151.5 62.5t162 -59l-18 -43q-60 63 -144 63q-79 0 -122.5 -51t-43.5 -154v-1298q0 -117 -54.5 -179.5t-151.5 -62.5q-96 0 -162 60l18 43q61 -64 144 -64q79 0 122.5 51t43.5 154z" />
    <glyph glyph-name="approxequal" unicode="&#x2248;" 
d="M756 567q-77 0 -229 53.5t-228 53.5q-49 0 -99 -25.5t-87 -73.5v52q70 90 186 90q76 0 228 -53.5t229 -53.5q103 0 192 109v-51q-82 -101 -192 -101zM756 309q-77 0 -229 53.5t-228 53.5q-49 0 -99 -25.5t-87 -73.5v52q70 90 186 90q76 0 228 -53.5t229 -53.5
q103 0 192 109v-51q-82 -101 -192 -101z" />
    <glyph glyph-name="notequal" unicode="&#x2260;" 
d="M948 610h-305l-182 -225h487v-41h-520l-180 -225l-31 26l160 199h-264v41h297l182 225h-479v41h512l182 226l31 -25l-162 -201h272v-41z" />
    <glyph glyph-name="lessequal" unicode="&#x2264;" horiz-adv-x="851" 
d="M655 975l-477 -383l477 -383l-24 -31l-518 414l518 414zM739 43h-626v39h626v-39z" />
    <glyph glyph-name="greaterequal" unicode="&#x2265;" horiz-adv-x="851" 
d="M674 592l-477 383l24 31l518 -414l-518 -414l-24 31zM739 43h-626v39h626v-39z" />
    <glyph glyph-name="blacksquare" unicode="&#x25a0;" horiz-adv-x="1595" 
d="M195 0v1206h1206v-1206h-1206z" />
    <glyph glyph-name="whitesquare" unicode="&#x25a1;" horiz-adv-x="1595" 
d="M195 0v1206h1206v-1206h-1206zM283 1118v-1030h1030v1030h-1030z" />
    <glyph glyph-name="blacksmallsquare" unicode="&#x25aa;" horiz-adv-x="1056" 
d="M195 285v665h667v-665h-667z" />
    <glyph glyph-name="whitesmallsquare" unicode="&#x25ab;" horiz-adv-x="1056" 
d="M195 285v665h667v-665h-667zM283 862v-489h491v489h-491z" />
    <glyph glyph-name="triagup" unicode="&#x25b2;" horiz-adv-x="1210" 
d="M102 0l502 1231l504 -1231h-1006z" />
    <glyph glyph-name="triagrt" unicode="&#x25ba;" horiz-adv-x="1445" 
d="M174 1098l1231 -502l-1231 -504v1006z" />
    <glyph glyph-name="triagdn" unicode="&#x25bc;" horiz-adv-x="1210" 
d="M604 -25l-502 1231h1006z" />
    <glyph glyph-name="triaglf" unicode="&#x25c4;" horiz-adv-x="1445" 
d="M20 596l1231 502v-1006z" />
    <glyph glyph-name="lozenge" unicode="&#x25ca;" horiz-adv-x="954" 
d="M852 623l-360 -670h-29l-361 670l361 669h29zM803 623l-326 610l-325 -610l325 -611z" />
    <glyph glyph-name="circle" unicode="&#x25cb;" horiz-adv-x="1112" 
d="M113 604q0 185 129 315t313 130t314 -130t130 -315q0 -184 -129.5 -313t-314.5 -129t-313.5 129t-128.5 313zM205 602q0 -148 103 -252t249 -104t250 104t104 252q0 149 -104 255t-250 106t-249 -106t-103 -255z" />
    <glyph glyph-name="blackcircle" unicode="&#x25cf;" horiz-adv-x="1480" 
d="M113 602q0 127 49.5 243.5t133.5 201t200 134.5t243 50q170 0 315 -84.5t229.5 -229.5t84.5 -315t-84.5 -314.5t-229.5 -228.5t-315 -84q-127 0 -243 49.5t-200 133.5t-133.5 200.5t-49.5 243.5z" />
    <glyph glyph-name="whitecircle" unicode="&#x25ef;" horiz-adv-x="1480" 
d="M113 602q0 127 49.5 243.5t133.5 201t200 134.5t243 50q170 0 315 -84.5t229.5 -229.5t84.5 -315t-84.5 -314.5t-229.5 -228.5t-315 -84q-127 0 -243 49.5t-200 133.5t-133.5 200.5t-49.5 243.5zM203 600q0 -147 71.5 -272t195 -198t269.5 -73q145 0 269 73t196 198
t72 272q0 148 -72 274t-196 199.5t-269 73.5q-146 0 -269.5 -73.5t-195 -199.5t-71.5 -274z" />
    <glyph glyph-name="anglebracketleft" unicode="&#x3008;" horiz-adv-x="643" 
d="M551 -416h-43l-375 891l375 893h43l-369 -893z" />
    <glyph glyph-name="anglebracketright" unicode="&#x3009;" horiz-adv-x="643" 
d="M135 -416h-43l369 891l-369 893h43l375 -893z" />
    <glyph glyph-name="lcedilla" unicode="&#xe100;" horiz-adv-x="393" 
d="M420 -260q0 -72 -46.5 -109t-121.5 -37q-120 0 -186 89l26 28q63 -82 160 -82q127 0 127 111q0 114 -191 127l31 137q-76 30 -76 150v1214h41v-1210q0 -125 99 -125q29 0 59 10v-39q-30 -10 -59 -10q-13 0 -33 4l-23 -102q80 -5 136.5 -46t56.5 -110z" />
    <glyph glyph-name="uni004500600323" unicode="&#xe101;" horiz-adv-x="940" 
d="M827 41v-41h-643v1206h643v-41h-600v-538h537v-41h-537v-545h600zM465 -276q0 36 37 36t37 -36q0 -37 -37 -37t-37 37zM510 1282h-31l135 260h58z" />
    <glyph glyph-name="uni006500600323" unicode="&#xe102;" horiz-adv-x="897" 
d="M485 27q121 0 190 51.5t97 161.5l37 -7q-52 -245 -324 -245q-186 0 -287.5 122.5t-101.5 366.5q0 231 101.5 356t283.5 125q159 0 240.5 -95.5t81.5 -252.5q0 -52 -6 -108h-660q-10 -234 84.5 -354.5t263.5 -120.5zM139 539h621q2 20 2 71q0 140 -71 225t-210 85
q-156 0 -243 -101t-99 -280zM494 1098h-31l135 260h57zM444 -276q0 36 37 36t37 -36q0 -37 -37 -37t-37 37z" />
    <glyph glyph-name="uni004500B40323" unicode="&#xe103;" horiz-adv-x="940" 
d="M827 41v-41h-643v1206h643v-41h-600v-538h537v-41h-537v-545h600zM520 1282h-31l-161 260h57zM465 -276q0 36 37 36t37 -36q0 -37 -37 -37t-37 37z" />
    <glyph glyph-name="uni006500B40323" unicode="&#xe104;" horiz-adv-x="897" 
d="M485 27q121 0 190 51.5t97 161.5l37 -7q-52 -245 -324 -245q-186 0 -287.5 122.5t-101.5 366.5q0 231 101.5 356t283.5 125q159 0 240.5 -95.5t81.5 -252.5q0 -52 -6 -108h-660q-10 -234 84.5 -354.5t263.5 -120.5zM139 539h621q2 20 2 71q0 140 -71 225t-210 85
q-156 0 -243 -101t-99 -280zM500 1098h-31l-162 260h58zM444 -276q0 36 37 36t37 -36q0 -37 -37 -37t-37 37z" />
    <glyph glyph-name="Gtilde" unicode="&#xe105;" horiz-adv-x="1191" 
d="M653 559h396v-559h-35l-8 262q-31 -127 -131.5 -200.5t-245.5 -73.5q-242 0 -382.5 160t-140.5 454q0 296 141.5 456.5t381.5 160.5q310 0 420 -289l-37 -19q-102 267 -383 267q-227 0 -353 -153.5t-126 -422.5t126 -421t353 -152q75 0 140.5 23t119.5 70.5t85.5 130
t31.5 191.5v74h-353v41zM780 1307q-40 0 -73 19t-74 54q-30 27 -45 38.5t-38.5 22.5t-45.5 11q-54 0 -75.5 -38t-2.5 -116h-31q-32 83 2.5 137t106.5 54q28 0 56 -12t45.5 -25t45.5 -37q30 -27 45 -38.5t38.5 -22.5t45.5 -11q54 0 75.5 38t2.5 116h31q32 -83 -2.5 -136.5
t-106.5 -53.5z" />
    <glyph glyph-name="gtilde" unicode="&#xe106;" horiz-adv-x="894" 
d="M442 958q187 0 277 -129q96 60 96 195l41 -6q-6 -88 -36.5 -136.5t-84.5 -80.5q37 -67 37 -162q0 -147 -90 -233.5t-240 -86.5q-84 0 -149 27q-90 -41 -90 -121q0 -112 168 -112h211q60 0 109.5 -12.5t92 -39.5t66.5 -76t24 -116q0 -83 -40 -144t-107 -93.5t-140 -47
t-155 -14.5t-150.5 14t-126.5 44t-91 85.5t-33 130.5q0 115 72.5 180t183.5 70q-58 4 -91.5 39.5t-33.5 91.5q0 47 27.5 82t70.5 55q-70 39 -108.5 110t-38.5 167q0 147 89.5 233t239.5 86zM72 -154q0 -84 50 -139t128 -77.5t182 -22.5q78 0 146 14t127.5 43t94 81.5
t34.5 123.5q0 101 -67.5 153t-191.5 52h-204q-131 0 -215 -55.5t-84 -172.5zM154 639q0 -129 78 -206t210 -77t210.5 77t78.5 206t-78.5 205t-210.5 76t-210 -76t-78 -205zM592 1122q-28 0 -56 12t-46.5 25.5t-45.5 36.5q-30 27 -45 38.5t-38.5 22.5t-45.5 11
q-54 0 -75 -37.5t-2 -116.5h-31q-33 83 1.5 137t106.5 54q28 0 56 -12t46.5 -25.5t45.5 -36.5q30 -27 45 -38.5t38.5 -22.5t45.5 -11q54 0 75.5 38t2.5 116h30q33 -83 -1.5 -137t-106.5 -54z" />
    <glyph glyph-name="Gcommaturnedabove" unicode="&#xe107;" horiz-adv-x="1191" 
d="M653 559h396v-559h-35l-8 262q-31 -127 -131.5 -200.5t-245.5 -73.5q-242 0 -382.5 160t-140.5 454q0 296 141.5 456.5t381.5 160.5q310 0 420 -289l-37 -19q-102 267 -383 267q-227 0 -353 -153.5t-126 -422.5t126 -421t353 -152q75 0 140.5 23t119.5 70.5t85.5 130
t31.5 191.5v74h-353v41zM567 1430q0 66 38.5 103.5t113.5 37.5v-31q-117 0 -117 -110q0 -22 6 -31q10 14 29 14q17 0 27 -10t10 -25q0 -18 -11.5 -28.5t-31.5 -10.5q-25 0 -44.5 24t-19.5 67z" />
    <glyph glyph-name="gcommaturnedabove" unicode="&#xe108;" horiz-adv-x="894" 
d="M442 958q187 0 277 -129q96 60 96 195l41 -6q-6 -88 -36.5 -136.5t-84.5 -80.5q37 -67 37 -162q0 -147 -90 -233.5t-240 -86.5q-84 0 -149 27q-90 -41 -90 -121q0 -112 168 -112h211q60 0 109.5 -12.5t92 -39.5t66.5 -76t24 -116q0 -83 -40 -144t-107 -93.5t-140 -47
t-155 -14.5t-150.5 14t-126.5 44t-91 85.5t-33 130.5q0 115 72.5 180t183.5 70q-58 4 -91.5 39.5t-33.5 91.5q0 47 27.5 82t70.5 55q-70 39 -108.5 110t-38.5 167q0 147 89.5 233t239.5 86zM72 -154q0 -84 50 -139t128 -77.5t182 -22.5q78 0 146 14t127.5 43t94 81.5
t34.5 123.5q0 101 -67.5 153t-191.5 52h-204q-131 0 -215 -55.5t-84 -172.5zM154 639q0 -129 78 -206t210 -77t210.5 77t78.5 206t-78.5 205t-210.5 76t-210 -76t-78 -205zM377 1231q0 66 38 103.5t113 37.5v-31q-116 0 -116 -110q0 -22 6 -31q10 14 28 14q17 0 27 -9.5
t10 -24.5q0 -18 -11.5 -28.5t-31.5 -10.5q-25 0 -44 23.5t-19 66.5z" />
    <glyph glyph-name="Hmacronbelow" unicode="&#xe109;" horiz-adv-x="1257" 
d="M227 0h-43v1206h43v-579h803v579h43v-1206h-43v586h-803v-586zM860 -319h-463v40h463v-40z" />
    <glyph glyph-name="hmacronbelow" unicode="&#xe10a;" horiz-adv-x="976" 
d="M199 1368v-682q26 115 116.5 193.5t219.5 78.5q134 0 211 -75.5t77 -231.5v-651h-41v637q0 138 -64.5 210.5t-182.5 72.5q-142 0 -239 -109.5t-97 -292.5v-518h-41v1368h41zM721 -319h-463v40h463v-40z" />
    <glyph glyph-name="Jcaron" unicode="&#xe10b;" horiz-adv-x="874" 
d="M684 1206h43v-850q0 -368 -334 -368q-139 0 -226.5 67.5t-125.5 180.5l37 18q39 -109 118.5 -168t196.5 -59q66 0 116.5 16.5t91 54t62 105t21.5 162.5v841zM719 1282h-25l-219 260h45l113 -131l72 -88h4q28 37 71 88l113 131h45z" />
    <glyph glyph-name="Kcedilla" unicode="&#xe10d;" horiz-adv-x="970" 
d="M950 0h-57l-557 586h-109v-586h-43v1206h43v-579h109l524 579h55l-540 -598zM659 -260q0 -72 -46.5 -109t-120.5 -37q-121 0 -187 89l27 28q63 -82 160 -82q126 0 126 111q0 114 -190 127l33 143h33l-27 -114q80 -5 136 -46t56 -110z" />
    <glyph glyph-name="kcedilla" unicode="&#xe10e;" horiz-adv-x="823" 
d="M348 500l455 -500h-55l-435 477h-114v-477h-41v1368h41v-852h112l391 430h54zM588 -260q0 -72 -46.5 -109t-121.5 -37q-121 0 -187 89l27 28q63 -82 160 -82q127 0 127 111q0 114 -191 127l33 143h33l-27 -114q80 -5 136.5 -46t56.5 -110z" />
    <glyph glyph-name="Lcedilla" unicode="&#xe10f;" horiz-adv-x="839" 
d="M664 -260q0 -72 -46.5 -109t-121.5 -37q-121 0 -187 89l27 28q63 -82 160 -82q127 0 127 111q0 114 -191 127l31 133h-279v1206h43v-1165h561v-41h-292l-25 -104q80 -5 136.5 -46t56.5 -110z" />
    <glyph glyph-name="ocedilla" unicode="&#xe110;" horiz-adv-x="960" 
d="M657 -260q0 -72 -46.5 -109t-121.5 -37q-120 0 -186 89l27 28q63 -82 159 -82q127 0 127 111q0 114 -190 127l27 121q-171 9 -264 133t-93 352q0 236 100 360.5t283 124.5q184 0 284.5 -124.5t100.5 -360.5q0 -234 -98.5 -358t-280.5 -127l-20 -92q80 -5 136 -46t56 -110
zM479 920q-164 0 -253 -114.5t-89 -332.5t89 -332t253 -114q166 0 255 114t89 332t-89.5 332.5t-254.5 114.5z" />
    <glyph glyph-name="Mmacron" unicode="&#xe111;" horiz-adv-x="1417" 
d="M725 301h-33l-368 666l-99 186h-4q6 -50 6 -195v-958h-43v1206h54l415 -747q20 -36 33.5 -63.5t17.5 -37.5l3 -10h4q8 31 53 111l416 747h53v-1206h-43v958q0 64 1.5 113t2.5 65l2 17h-4q-22 -49 -98 -186zM899 1341h-381v39h381v-39z" />
    <glyph glyph-name="mmacron" unicode="&#xe112;" horiz-adv-x="1533" 
d="M788 690q26 119 109 193.5t209 74.5q274 0 274 -307v-651h-41v637q0 283 -233 283q-139 0 -226 -108t-87 -294v-518h-41v637q0 283 -234 283q-139 0 -226 -108t-87 -294v-518h-41v946h33l8 -256q24 119 105.5 193.5t207.5 74.5q253 0 270 -268zM963 1157h-381v39h381v-39
z" />
    <glyph glyph-name="Mcedilla" unicode="&#xe113;" horiz-adv-x="1417" 
d="M725 301h-33l-368 666l-99 186h-4q6 -50 6 -195v-958h-43v1206h54l415 -747q20 -36 33.5 -63.5t17.5 -37.5l3 -10h4q8 31 53 111l416 747h53v-1206h-43v958q0 64 1.5 113t2.5 65l2 17h-4q-22 -49 -98 -186zM887 -260q0 -72 -46.5 -109t-121.5 -37q-121 0 -187 89l27 28
q63 -82 160 -82q127 0 127 111q0 114 -191 127l33 143h33l-27 -114q80 -5 136.5 -46t56.5 -110z" />
    <glyph glyph-name="mcedilla" unicode="&#xe114;" horiz-adv-x="1533" 
d="M950 -260q0 -72 -46.5 -109t-121.5 -37q-120 0 -186 89l27 28q63 -82 159 -82q127 0 127 111q0 114 -190 127l29 125l4 18v627q0 283 -234 283q-139 0 -226 -108t-87 -294v-518h-41v946h33l8 -256q24 119 105.5 193.5t207.5 74.5q253 0 270 -268q26 119 109 193.5
t209 74.5q274 0 274 -307v-651h-41v637q0 283 -233 283q-139 0 -226 -108t-87 -294v-518h-11l-24 -104q80 -5 136 -46t56 -110z" />
    <glyph glyph-name="Ndieresis" unicode="&#xe115;" horiz-adv-x="1255" 
d="M236 1206l675 -977q32 -45 61.5 -89.5t42.5 -66.5l13 -22h4q-4 82 -4 197v958h43v-1206h-51l-676 977q-32 45 -61 89.5t-43 66.5l-13 22h-4q4 -82 4 -197v-958h-43v1206h52zM436 1362q0 37 37 37t37 -37t-37 -37t-37 37zM743 1362q0 37 37 37t37 -37t-37 -37t-37 37z" />
    <glyph glyph-name="ndieresis" unicode="&#xe116;" horiz-adv-x="983" 
d="M197 946l8 -260q26 115 116.5 193.5t219.5 78.5q134 0 211 -75.5t77 -231.5v-651h-41v637q0 138 -64.5 210.5t-182.5 72.5q-142 0 -239 -109.5t-97 -292.5v-518h-41v946h33zM305 1219q0 36 37 36t37 -36q0 -37 -37 -37t-37 37zM612 1219q0 36 37 36t37 -36q0 -37 -37 -37
t-37 37z" />
    <glyph glyph-name="Nmacron" unicode="&#xe117;" horiz-adv-x="1255" 
d="M236 1206l675 -977q32 -45 61.5 -89.5t42.5 -66.5l13 -22h4q-4 82 -4 197v958h43v-1206h-51l-676 977q-32 45 -61 89.5t-43 66.5l-13 22h-4q4 -82 4 -197v-958h-43v1206h52zM817 1341h-381v39h381v-39z" />
    <glyph glyph-name="nmacron" unicode="&#xe118;" horiz-adv-x="983" 
d="M197 946l8 -260q26 115 116.5 193.5t219.5 78.5q134 0 211 -75.5t77 -231.5v-651h-41v637q0 138 -64.5 210.5t-182.5 72.5q-142 0 -239 -109.5t-97 -292.5v-518h-41v946h33zM686 1157h-381v39h381v-39z" />
    <glyph glyph-name="Ncedilla" unicode="&#xe119;" horiz-adv-x="1255" 
d="M236 1206l675 -977q32 -45 61.5 -89.5t42.5 -66.5l13 -22h4q-4 82 -4 197v958h43v-1206h-51l-676 977q-32 45 -61 89.5t-43 66.5l-13 22h-4q4 -82 4 -197v-958h-43v1206h52zM805 -260q0 -72 -46.5 -109t-121.5 -37q-120 0 -186 89l26 28q63 -82 160 -82q127 0 127 111
q0 114 -191 127l33 143h33l-27 -114q80 -5 136.5 -46t56.5 -110z" />
    <glyph glyph-name="ncedilla" unicode="&#xe11a;" horiz-adv-x="983" 
d="M197 946l8 -260q26 115 116.5 193.5t219.5 78.5q134 0 211 -75.5t77 -231.5v-651h-41v637q0 138 -64.5 210.5t-182.5 72.5q-142 0 -239 -109.5t-97 -292.5v-518h-41v946h33zM676 -260q0 -72 -46.5 -109t-121.5 -37q-120 0 -186 89l26 28q63 -82 160 -82q127 0 127 111
q0 114 -191 127l33 143h33l-27 -114q80 -5 136.5 -46t56.5 -110z" />
    <glyph glyph-name="Ocommaturnedabove" unicode="&#xe11b;" horiz-adv-x="1236" 
d="M618 -12q-239 0 -375.5 160.5t-136.5 453.5t136.5 455t375.5 162t375.5 -162t136.5 -455t-136.5 -453.5t-375.5 -160.5zM618 1178q-224 0 -346 -153.5t-122 -422.5t121.5 -421t346.5 -152t347 152.5t122 420.5q0 269 -122 422.5t-347 153.5zM543 1430q0 66 38 103.5
t113 37.5v-31q-116 0 -116 -110q0 -22 6 -31q10 14 28 14q17 0 27 -10t10 -25q0 -18 -11.5 -28.5t-31.5 -10.5q-25 0 -44 24t-19 67z" />
    <glyph glyph-name="ocommaturnedabove" unicode="&#xe11c;" horiz-adv-x="960" 
d="M479 -12q-183 0 -283 124.5t-100 360.5t100 360.5t283 124.5q184 0 284.5 -124.5t100.5 -360.5t-100.5 -360.5t-284.5 -124.5zM479 920q-164 0 -253 -114.5t-89 -332.5t89 -332t253 -114q166 0 255 114t89 332t-89.5 332.5t-254.5 114.5zM403 1233q0 66 38.5 103.5
t113.5 37.5v-31q-117 0 -117 -110q0 -22 6 -31q11 15 29 15q17 0 27 -10t10 -25q0 -18 -11.5 -28.5t-31.5 -10.5q-26 0 -45 23.5t-19 66.5z" />
    <glyph glyph-name="uni004F02D900AF" unicode="&#xe11d;" horiz-adv-x="1236" 
d="M618 -12q-239 0 -375.5 160.5t-136.5 453.5t136.5 455t375.5 162t375.5 -162t136.5 -455t-136.5 -453.5t-375.5 -160.5zM618 1178q-224 0 -346 -153.5t-122 -422.5t121.5 -421t346.5 -152t347 152.5t122 420.5q0 269 -122 422.5t-347 153.5zM582 1329q0 37 36 37
q37 0 37 -37t-37 -37q-36 0 -36 37zM809 1448h-381v39h381v-39z" />
    <glyph glyph-name="Ocedilla" unicode="&#xe11f;" horiz-adv-x="1236" 
d="M797 -260q0 -72 -46.5 -109t-121.5 -37q-121 0 -187 89l27 28q63 -82 160 -82q127 0 127 111q0 114 -191 127l27 121q-227 9 -356.5 169t-129.5 445q0 293 136.5 455t375.5 162t375.5 -162t136.5 -455q0 -291 -134.5 -451t-370.5 -163l-21 -92q80 -5 136.5 -46t56.5 -110
zM618 1178q-224 0 -346 -153.5t-122 -422.5t121.5 -421t346.5 -152t347 152.5t122 420.5q0 269 -122 422.5t-347 153.5z" />
    <glyph glyph-name="Ounderlineaccent" unicode="&#xe121;" horiz-adv-x="1236" 
d="M618 -12q-239 0 -375.5 160.5t-136.5 453.5t136.5 455t375.5 162t375.5 -162t136.5 -455t-136.5 -453.5t-375.5 -160.5zM618 1178q-224 0 -346 -153.5t-122 -422.5t121.5 -421t346.5 -152t347 152.5t122 420.5q0 269 -122 422.5t-347 153.5zM641 -385l-39 -8v276h39v-268
z" />
    <glyph glyph-name="ounderlineaccent" unicode="&#xe122;" horiz-adv-x="960" 
d="M479 -12q-183 0 -283 124.5t-100 360.5t100 360.5t283 124.5q184 0 284.5 -124.5t100.5 -360.5t-100.5 -360.5t-284.5 -124.5zM479 920q-164 0 -253 -114.5t-89 -332.5t89 -332t253 -114q166 0 255 114t89 332t-89.5 332.5t-254.5 114.5zM498 -385l-39 -8v276h39v-268z
" />
    <glyph glyph-name="Pmacron" unicode="&#xe123;" horiz-adv-x="937" 
d="M227 1165v-633h252q181 0 268 76.5t87 245.5q0 158 -83.5 234.5t-271.5 76.5h-252zM227 0h-43v1206h299q203 0 298.5 -88.5t95.5 -263.5q0 -185 -98.5 -273.5t-295.5 -88.5h-256v-492zM672 1341h-381v39h381v-39z" />
    <glyph glyph-name="pmacron" unicode="&#xe124;" horiz-adv-x="1021" 
d="M205 543v-156q0 -90 27 -161t73 -113.5t103 -64t120 -21.5q162 0 259.5 115t97.5 345q0 213 -92.5 323t-247.5 110q-67 0 -126.5 -22.5t-107.5 -66.5t-76.5 -118t-29.5 -170zM205 221v-637h-41v1362h33l8 -241q26 116 118.5 184.5t221.5 68.5q174 0 277.5 -120.5
t103.5 -350.5q0 -245 -106 -372t-292 -127q-127 0 -212 66.5t-111 166.5zM735 1157h-381v39h381v-39z" />
    <glyph glyph-name="Rdoublegrave" unicode="&#xe125;" horiz-adv-x="1062" 
d="M991 0h-51q-45 48 -66 137l-49 207q-26 108 -95 159.5t-208 51.5h-295v-555h-43v1206h340q385 0 385 -327q0 -136 -79 -214.5t-197 -86.5v-5q94 -8 150.5 -57t80.5 -149l54 -224q20 -84 73 -143zM227 1165v-569h295q168 0 256 73t88 210q0 145 -84.5 215.5t-259.5 70.5
h-295zM647 1282h-31l-161 260h57zM442 1282h-30l-162 260h57z" />
    <glyph glyph-name="rdoublegrave" unicode="&#xe126;" horiz-adv-x="638" 
d="M510 1098h-31l-162 260h58zM305 1098h-31l-161 260h57zM598 934l-12 -39q-48 25 -103 25q-87 0 -151.5 -60t-95.5 -156.5t-31 -214.5v-489h-41v946h33l8 -284q18 136 89.5 216t188.5 80q69 0 115 -24z" />
    <glyph glyph-name="Rcedilla" unicode="&#xe127;" horiz-adv-x="1062" 
d="M991 0h-51q-45 48 -66 137l-49 207q-26 108 -95 159.5t-208 51.5h-295v-555h-43v1206h340q385 0 385 -327q0 -136 -79 -214.5t-197 -86.5v-5q94 -8 150.5 -57t80.5 -149l54 -224q20 -84 73 -143zM227 1165v-569h295q168 0 256 73t88 210q0 145 -84.5 215.5t-259.5 70.5
h-295zM696 -260q0 -72 -46.5 -109t-121.5 -37q-120 0 -186 89l27 28q63 -82 159 -82q127 0 127 111q0 114 -190 127l33 143h32l-26 -114q80 -5 136 -46t56 -110z" />
    <glyph glyph-name="rcedilla" unicode="&#xe128;" horiz-adv-x="638" 
d="M367 -260q0 -72 -46.5 -109t-121.5 -37q-121 0 -187 89l27 28q63 -82 160 -82q127 0 127 111q0 114 -191 127l31 133h-2v946h33l8 -284q18 136 89.5 216t188.5 80q69 0 115 -24l-12 -39q-48 25 -103 25q-87 0 -151.5 -60t-95.5 -156.5t-31 -214.5v-489h-6l-25 -104
q80 -5 136.5 -46t56.5 -110z" />
    <glyph glyph-name="Tcedilla" unicode="&#xe129;" horiz-adv-x="993" 
d="M674 -260q0 -72 -46.5 -109t-121.5 -37q-121 0 -187 89l27 28q63 -82 160 -82q127 0 127 111q0 114 -191 127l29 129l4 14v1155h-434v41h911v-41h-434v-1165h-12l-25 -104q80 -5 136.5 -46t56.5 -110z" />
    <glyph glyph-name="tcedilla" unicode="&#xe12a;" horiz-adv-x="593" 
d="M469 -260q0 -72 -46.5 -109t-121.5 -37q-120 0 -186 89l26 28q63 -82 160 -82q127 0 127 111q0 114 -190 127l30 137q-100 46 -100 209v696h-137v37h137v201l43 8v-209h281v-37h-283v-692q0 -190 149 -190q56 0 94 14.5t76 52.5l25 -28q-66 -78 -195 -78q-35 0 -59 6
l-23 -98q80 -5 136.5 -46t56.5 -110z" />
    </font>
</defs>
</svg>
